  0
SECTION
  2
HEADER
  9
$ACADVER
  1
AC1018
  9
$ACADMAINTVER
 70
   104
  9
$DWGCODEPAGE
  3
ANSI_1252
  9
$LASTSAVEDBY
  1
ibasyouni
  9
$INSBASE
 10
0.0
 20
0.0
 30
0.0
  9
$EXTMIN
 10
4.606775638013459
 20
8.941676769774971
 30
-0.0000000000000058
  9
$EXTMAX
 10
219.9380398255958
 20
270.3583574184339
 30
0.0000000000000104
  9
$LIMMIN
 10
0.0
 20
0.0
  9
$LIMMAX
 10
260.0
 20
280.0
  9
$ORTHOMODE
 70
     1
  9
$REGENMODE
 70
     1
  9
$FILLMODE
 70
     1
  9
$QTEXTMODE
 70
     0
  9
$MIRRTEXT
 70
     1
  9
$LTSCALE
 40
1.0
  9
$ATTMODE
 70
     1
  9
$TEXTSIZE
 40
20.0
  9
$TRACEWID
 40
1.0
  9
$TEXTSTYLE
  7
STANDARD
  9
$CLAYER
  8
0
  9
$CELTYPE
  6
BYLAYER
  9
$CECOLOR
 62
   256
  9
$CELTSCALE
 40
10.0
  9
$DISPSILH
 70
     0
  9
$DIMSCALE
 40
1.0
  9
$DIMASZ
 40
2.5
  9
$DIMEXO
 40
1.0
  9
$DIMDLI
 40
10.0
  9
$DIMRND
 40
0.0
  9
$DIMDLE
 40
0.0
  9
$DIMEXE
 40
1.0
  9
$DIMTP
 40
0.1
  9
$DIMTM
 40
0.1
  9
$DIMTXT
 40
3.5
  9
$DIMCEN
 40
0.0
  9
$DIMTSZ
 40
0.0
  9
$DIMTOL
 70
     0
  9
$DIMLIM
 70
     0
  9
$DIMTIH
 70
     0
  9
$DIMTOH
 70
     0
  9
$DIMSE1
 70
     0
  9
$DIMSE2
 70
     0
  9
$DIMTAD
 70
     1
  9
$DIMZIN
 70
     8
  9
$DIMBLK
  1

  9
$DIMASO
 70
     1
  9
$DIMSHO
 70
     1
  9
$DIMPOST
  1

  9
$DIMAPOST
  1
"
  9
$DIMALT
 70
     0
  9
$DIMALTD
 70
     2
  9
$DIMALTF
 40
0.0393701
  9
$DIMLFAC
 40
1.0
  9
$DIMTOFL
 70
     1
  9
$DIMTVP
 40
0.0
  9
$DIMTIX
 70
     0
  9
$DIMSOXD
 70
     0
  9
$DIMSAH
 70
     0
  9
$DIMBLK1
  1

  9
$DIMBLK2
  1

  9
$DIMSTYLE
  2
AM_DIN
  9
$DIMCLRD
 70
   256
  9
$DIMCLRE
 70
   256
  9
$DIMCLRT
 70
     2
  9
$DIMTFAC
 40
0.71
  9
$DIMGAP
 40
1.5
  9
$DIMJUST
 70
     0
  9
$DIMSD1
 70
     0
  9
$DIMSD2
 70
     0
  9
$DIMTOLJ
 70
     0
  9
$DIMTZIN
 70
     8
  9
$DIMALTZ
 70
     0
  9
$DIMALTTZ
 70
     0
  9
$DIMUPT
 70
     0
  9
$DIMDEC
 70
     2
  9
$DIMTDEC
 70
     3
  9
$DIMALTU
 70
     2
  9
$DIMALTTD
 70
     4
  9
$DIMTXSTY
  7
STANDARD
  9
$DIMAUNIT
 70
     0
  9
$DIMADEC
 70
     0
  9
$DIMALTRND
 40
0.0
  9
$DIMAZIN
 70
     2
  9
$DIMDSEP
 70
    46
  9
$DIMATFIT
 70
     3
  9
$DIMFRAC
 70
     0
  9
$DIMLDRBLK
  1

  9
$DIMLUNIT
 70
     2
  9
$DIMLWD
 70
    -1
  9
$DIMLWE
 70
    -1
  9
$DIMTMOVE
 70
     0
  9
$LUNITS
 70
     2
  9
$LUPREC
 70
     2
  9
$SKETCHINC
 40
1.0
  9
$FILLETRAD
 40
2.5
  9
$AUNITS
 70
     0
  9
$AUPREC
 70
     0
  9
$MENU
  1
.
  9
$ELEVATION
 40
0.0
  9
$PELEVATION
 40
0.0
  9
$THICKNESS
 40
0.0
  9
$LIMCHECK
 70
     0
  9
$CHAMFERA
 40
2.5
  9
$CHAMFERB
 40
2.5
  9
$CHAMFERC
 40
0.0
  9
$CHAMFERD
 40
0.0
  9
$SKPOLY
 70
     0
  9
$TDCREATE
 40
2450382.390390463
  9
$TDUCREATE
 40
2450382.348723796
  9
$TDUPDATE
 40
2455992.687530822
  9
$TDUUPDATE
 40
2455992.645864155
  9
$TDINDWG
 40
0.1146347454
  9
$TDUSRTIMER
 40
0.1146347454
  9
$USRTIMER
 70
     1
  9
$ANGBASE
 50
0.0
  9
$ANGDIR
 70
     0
  9
$PDMODE
 70
     0
  9
$PDSIZE
 40
0.0
  9
$PLINEWID
 40
0.0
  9
$SPLFRAME
 70
     0
  9
$SPLINETYPE
 70
     6
  9
$SPLINESEGS
 70
     8
  9
$HANDSEED
  5
DA1
  9
$SURFTAB1
 70
     6
  9
$SURFTAB2
 70
     6
  9
$SURFTYPE
 70
     6
  9
$SURFU
 70
     6
  9
$SURFV
 70
     6
  9
$UCSBASE
  2

  9
$UCSNAME
  2

  9
$UCSORG
 10
0.0
 20
0.0
 30
0.0
  9
$UCSXDIR
 10
1.0
 20
0.0
 30
0.0
  9
$UCSYDIR
 10
0.0
 20
1.0
 30
0.0
  9
$UCSORTHOREF
  2

  9
$UCSORTHOVIEW
 70
     0
  9
$UCSORGTOP
 10
0.0
 20
0.0
 30
0.0
  9
$UCSORGBOTTOM
 10
0.0
 20
0.0
 30
0.0
  9
$UCSORGLEFT
 10
0.0
 20
0.0
 30
0.0
  9
$UCSORGRIGHT
 10
0.0
 20
0.0
 30
0.0
  9
$UCSORGFRONT
 10
0.0
 20
0.0
 30
0.0
  9
$UCSORGBACK
 10
0.0
 20
0.0
 30
0.0
  9
$PUCSBASE
  2

  9
$PUCSNAME
  2

  9
$PUCSORG
 10
0.0
 20
0.0
 30
0.0
  9
$PUCSXDIR
 10
1.0
 20
0.0
 30
0.0
  9
$PUCSYDIR
 10
0.0
 20
1.0
 30
0.0
  9
$PUCSORTHOREF
  2

  9
$PUCSORTHOVIEW
 70
     0
  9
$PUCSORGTOP
 10
0.0
 20
0.0
 30
0.0
  9
$PUCSORGBOTTOM
 10
0.0
 20
0.0
 30
0.0
  9
$PUCSORGLEFT
 10
0.0
 20
0.0
 30
0.0
  9
$PUCSORGRIGHT
 10
0.0
 20
0.0
 30
0.0
  9
$PUCSORGFRONT
 10
0.0
 20
0.0
 30
0.0
  9
$PUCSORGBACK
 10
0.0
 20
0.0
 30
0.0
  9
$USERI1
 70
     0
  9
$USERI2
 70
     0
  9
$USERI3
 70
     0
  9
$USERI4
 70
     0
  9
$USERI5
 70
     0
  9
$USERR1
 40
0.0
  9
$USERR2
 40
0.0
  9
$USERR3
 40
0.0
  9
$USERR4
 40
0.0
  9
$USERR5
 40
0.0
  9
$WORLDVIEW
 70
     1
  9
$SHADEDGE
 70
     3
  9
$SHADEDIF
 70
    70
  9
$TILEMODE
 70
     1
  9
$MAXACTVP
 70
    16
  9
$PINSBASE
 10
0.0
 20
0.0
 30
0.0
  9
$PLIMCHECK
 70
     0
  9
$PEXTMIN
 10
1.000000000000000E+20
 20
1.000000000000000E+20
 30
1.000000000000000E+20
  9
$PEXTMAX
 10
-1.000000000000000E+20
 20
-1.000000000000000E+20
 30
-1.000000000000000E+20
  9
$PLIMMIN
 10
0.0
 20
0.0
  9
$PLIMMAX
 10
420.0
 20
297.0
  9
$UNITMODE
 70
     0
  9
$VISRETAIN
 70
     0
  9
$PLINEGEN
 70
     0
  9
$PSLTSCALE
 70
     0
  9
$TREEDEPTH
 70
  3020
  9
$CMLSTYLE
  2
STANDARD
  9
$CMLJUST
 70
     0
  9
$CMLSCALE
 40
1.0
  9
$PROXYGRAPHICS
 70
     1
  9
$MEASUREMENT
 70
     1
  9
$CELWEIGHT
370
    -1
  9
$ENDCAPS
280
     0
  9
$JOINSTYLE
280
     0
  9
$LWDISPLAY
290
     0
  9
$INSUNITS
 70
     4
  9
$HYPERLINKBASE
  1

  9
$STYLESHEET
  1
Zeich.ctb
  9
$XEDIT
290
     1
  9
$CEPSNTYPE
380
     0
  9
$PSTYLEMODE
290
     1
  9
$FINGERPRINTGUID
  2
{325BFBD5-B27C-480F-A6FD-52B59258B312}
  9
$VERSIONGUID
  2
{31B08F4A-33A2-4470-9BF8-637E26B3A479}
  9
$EXTNAMES
290
     1
  9
$PSVPSCALE
 40
0.0
  9
$OLESTARTUP
290
     0
  9
$SORTENTS
280
   127
  9
$INDEXCTL
280
     0
  9
$HIDETEXT
280
     0
  9
$XCLIPFRAME
290
     0
  9
$HALOGAP
280
     0
  9
$OBSCOLOR
 70
   257
  9
$OBSLTYPE
280
     0
  9
$INTERSECTIONDISPLAY
280
     0
  9
$INTERSECTIONCOLOR
 70
   257
  9
$DIMASSOC
280
     1
  9
$PROJECTNAME
  1

  0
ENDSEC
  0
SECTION
  2
CLASSES
  0
CLASS
  1
ACMESTATEMGR
  2
AcMeStateMgr
  3
AcMeServices
 90
     1024
 91
        1
280
     0
281
     0
  0
CLASS
  1
ACMESCOPE
  2
AcMeScope
  3
AcMeServices
 90
     1024
 91
        1
280
     0
281
     0
  0
CLASS
  1
ACMECOMMANDHISTORY
  2
AcMeCommandHistory
  3
AcMeServices
 90
     1024
 91
        1
280
     0
281
     0
  0
CLASS
  1
ACRFINSADJUSTERMGR
  2
AcRfInsAdjusterMgr
  3
AcMeServices
 90
     1024
 91
        1
280
     0
281
     0
  0
CLASS
  1
ACMEDRAWINGMAN
  2
AcMeDrawingMan
  3
AcMeServices
 90
     1024
 91
        1
280
     0
281
     0
  0
CLASS
  1
AMATTR
  2
AcMeAttribute
  3
AcMeServices
 90
     1024
 91
        0
280
     0
281
     0
  0
CLASS
  1
ACMEBOMCOLUMN
  2
AcMeBOMColumn
  3
AcMeServices
 90
     1024
 91
        0
280
     0
281
     0
  0
CLASS
  1
ACMEBOMCONF
  2
AcMeBOMConf
  3
AcMeServices
 90
     1024
 91
        0
280
     0
281
     0
  0
CLASS
  1
ACMEBOMTABLE
  2
AcMeBOMTable
  3
AcMeServices
 90
     1024
 91
        0
280
     0
281
     0
  0
CLASS
  1
ACMEBOMENTRY
  2
AcMeBOMEntry
  3
AcMeServices
 90
     1024
 91
        0
280
     0
281
     0
  0
CLASS
  1
ACMEVIEW
  2
AcMeView
  3
AcMeServices
 90
     1024
 91
        0
280
     0
281
     0
  0
CLASS
  1
DICTIONARYVAR
  2
AcDbDictionaryVar
  3
ObjectDBX Classes
 90
        0
 91
       24
280
     0
281
     0
  0
CLASS
  1
LAYER_INDEX
  2
AcDbLayerIndex
  3
ObjectDBX Classes
 90
        0
 91
        0
280
     0
281
     0
  0
CLASS
  1
IDBUFFER
  2
AcDbIdBuffer
  3
ObjectDBX Classes
 90
        0
 91
        0
280
     0
281
     0
  0
CLASS
  1
ACDBDICTIONARYWDFLT
  2
AcDbDictionaryWithDefault
  3
ObjectDBX Classes
 90
        0
 91
        1
280
     0
281
     0
  0
CLASS
  1
ACME_DOCUMENT
  2
AcMeDbDoc
  3
AcMeServices
 90
     1024
 91
        2
280
     0
281
     0
  0
CLASS
  1
AMGSETTINGSOBJ
  2
AmgSettingsObj
  3
"AcadM|Product Description: AutoCAD Mechanical|Company: Autodesk, Inc."
 90
     1024
 91
        4
280
     0
281
     0
  0
CLASS
  1
ACIMSYSVARMAN
  2
AcImSysVarManager
  3
AcMeServices
 90
     1024
 91
        5
280
     0
281
     0
  0
CLASS
  1
ACIMINTSYSVAR
  2
AcImIntSysVar
  3
AcMeServices
 90
     1024
 91
       27
280
     0
281
     0
  0
CLASS
  1
ACDBENTITYCACHE
  2
AcMeEntityCache
  3
AcMeServices
 90
     1024
 91
        1
280
     0
281
     0
  0
CLASS
  1
GSMANAGER
  2
AcMeGSManager
  3
AcMeServices
 90
     1024
 91
        1
280
     0
281
     0
  0
CLASS
  1
AMDTINTERNALREACTOR
  2
AmdtInternalReactor
  3
AcMeServices
 90
     1024
 91
        2
280
     0
281
     0
  0
CLASS
  1
ACGREFMASTER
  2
AcGrefMaster
  3
AcAttribServices
 90
     1024
 91
        1
280
     0
281
     0
  0
CLASS
  1
AM_DRAWING_MGR
  2
AcDmDwgMgr
  3
AcMechDwgViewMgmt
 90
     1024
 91
        1
280
     0
281
     0
  0
CLASS
  1
AM_DWG_DOCUMENT
  2
AcDmDwgDocument
  3
AcMechDwgViewMgmt
 90
     1024
 91
        1
280
     0
281
     0
  0
CLASS
  1
AM_DWG_SHEET
  2
AcDmSheet
  3
AcMechDwgViewMgmt
 90
     1024
 91
        1
280
     0
281
     0
  0
CLASS
  1
AM_VIEWDIMPARMAP
  2
AcDmViewDimParMap
  3
AcMechDwgViewMgmt
 90
     1024
 91
        1
280
     0
281
     0
  0
CLASS
  1
ACIMREALSYSVAR
  2
AcImRealSysVar
  3
AcMeServices
 90
     1024
 91
        1
280
     0
281
     0
  0
CLASS
  1
AM_DWGMGR_NAME
  2
AcDmDwgMgrName
  3
AcMechDwgViewMgmt
 90
     1024
 91
        1
280
     0
281
     0
  0
CLASS
  1
ACME_DATABASE
  2
AcMeDbDatabase
  3
AcMeServices
 90
     1024
 91
        3
280
     0
281
     0
  0
CLASS
  1
ACGREFACADMASTER
  2
AcGrefacadMaster
  3
AcGrefServices
 90
     1024
 91
        1
280
     0
281
     0
  0
CLASS
  1
AMDTMENUSTATEMGR
  2
AmdtMenuStateMgr
  3
McadcomServices
 90
     1024
 91
        1
280
     0
281
     0
  0
CLASS
  1
AMDTMCOMMENUSTATE
  2
AmdtMcomMenuState
  3
McadcomServices
 90
     1024
 91
        1
280
     0
281
     0
  0
CLASS
  1
AMIMASTER
  2
AmiMaster
  3
AmiServices
 90
     1024
 91
        1
280
     0
281
     0
  0
CLASS
  1
MAPIAMMOUDLE
  2
MApiAmModule
  3
MApiAmServices
 90
     1024
 91
        1
280
     0
281
     0
  0
CLASS
  1
AMDTADMENUSTATE
  2
AmdtAdMenuState
  3
DesignerServices
 90
     1024
 91
        1
280
     0
281
     0
  0
CLASS
  1
ADAPPL
  2
AcAdAppl
  3
DesignerServices
 90
     1024
 91
        1
280
     0
281
     0
  0
CLASS
  1
DEPMGR
  2
AcAdDepMgr
  3
DesignerServices
 90
     1024
 91
        1
280
     0
281
     0
  0
CLASS
  1
PARAMMGR
  2
AcAdParamMgr
  3
DesignerServices
 90
     1024
 91
        1
280
     0
281
     0
  0
CLASS
  1
PARAMSCOPE
  2
AcAdParamScope
  3
DesignerServices
 90
     1024
 91
        1
280
     0
281
     0
  0
CLASS
  1
NAMEDAPPL
  2
AcAdNamedAppl
  3
DesignerServices
 90
     1024
 91
        1
280
     0
281
     0
  0
CLASS
  1
AMDTDMMENUSTATE
  2
AmdtDmMenuState
  3
AcMechDwgViewMgmt
 90
     1024
 91
        1
280
     0
281
     0
  0
CLASS
  1
AMDTAMMENUSTATE
  2
AmdtAmMenuState
  3
DesignerAssemblies
 90
     1024
 91
        1
280
     0
281
     0
  0
CLASS
  1
ACIMSTRSYSVAR
  2
AcImStrSysVar
  3
AcMeServices
 90
     1024
 91
        5
280
     0
281
     0
  0
CLASS
  1
ACAMPROJECT
  2
AcAmProject
  3
DesignerAssemblies
 90
     1024
 91
        1
280
     0
281
     0
  0
CLASS
  1
ACAMGRCOMPDEF
  2
AcAmGrCompDef
  3
DesignerAssemblies
 90
     1024
 91
        1
280
     0
281
     0
  0
CLASS
  1
ACCMCONTEXT
  2
AcCmContext
  3
DesignerAssemblies
 90
     1024
 91
        1
280
     0
281
     0
  0
CLASS
  1
ACAMCOMPDEF
  2
AcAmCompDef
  3
DesignerAssemblies
 90
     1024
 91
        1
280
     0
281
     0
  0
CLASS
  1
ACAMCOMPDEFMGR
  2
AcAmCompDefMgr
  3
DesignerAssemblies
 90
     1024
 91
        1
280
     0
281
     0
  0
CLASS
  1
AMCONTEXTMGR
  2
AcAmContextMgr
  3
DesignerAssemblies
 90
     1024
 91
        1
280
     0
281
     0
  0
CLASS
  1
ACAMCONTEXTMODELER
  2
AcAmContextModeler
  3
DesignerAssemblies
 90
     1024
 91
        1
280
     0
281
     0
  0
CLASS
  1
ACMDATADICTIONARY
  2
AcmDataDictionary
  3
"AcmSymBB|Product Description: AutoCAD Mechanical|Company: Autodesk, Inc."
 90
     1024
 91
        1
280
     0
281
     0
  0
CLASS
  1
CATALOGSTATE
  2
AcAmCatalogState
  3
DesignerAssemblies
 90
     1024
 91
        1
280
     0
281
     0
  0
CLASS
  1
ACAMGRCOMPDEFSET
  2
AcAmGrCompDefSet
  3
DesignerAssemblies
 90
     1024
 91
        1
280
     0
281
     0
  0
CLASS
  1
AMDTBROWSERDBTAB
  2
AmdtBrowserDbTab
  3
McadcomServices
 90
     1024
 91
        1
280
     0
281
     0
  0
CLASS
  1
CBROWSERAPPOBJECT
  2
CBrowserAppObject
  3
McadcomServices
 90
     1024
 91
        3
280
     0
281
     0
  0
CLASS
  1
DM_PLACEHOLDER
  2
AcDmSelsetPlaceholder
  3
AcMechDwgViewMgmt
 90
     1024
 91
        1
280
     0
281
     0
  0
CLASS
  1
ACMSTANDARDANSI
  2
AcmStandardANSI
  3
"Amdt_StdImp|Product Description: AutoCAD Mechanical|Company: Autodesk, Inc."
 90
     1024
 91
        1
280
     0
281
     0
  0
CLASS
  1
AMGOBJPROPCFG
  2
AmgObjPropCfg
  3
"AmgLay|Product Description: AutoCAD Mechanical|Company: Autodesk, Inc."
 90
     1025
 91
        1
280
     0
281
     0
  0
CLASS
  1
ACMSURFSTANDARDANSI
  2
AcmSurfTextStdANSI
  3
"Amdt_StdImp|Product Description: AutoCAD Mechanical|Company: Autodesk, Inc."
 90
     1024
 91
        1
280
     0
281
     0
  0
CLASS
  1
ACMFCFSTANDARDANSI
  2
AcmFCFStdANSI
  3
"Amdt_StdImp|Product Description: AutoCAD Mechanical|Company: Autodesk, Inc."
 90
     1024
 91
        1
280
     0
281
     0
  0
CLASS
  1
ACMWELDSTANDARDANSI
  2
AcmWeldingStdANSI
  3
"Amdt_StdImp|Product Description: AutoCAD Mechanical|Company: Autodesk, Inc."
 90
     1024
 91
        1
280
     0
281
     0
  0
CLASS
  1
ACMIDSTANDARDANSI
  2
AcmIdStdANSI
  3
"Amdt_StdImp|Product Description: AutoCAD Mechanical|Company: Autodesk, Inc."
 90
     1024
 91
        1
280
     0
281
     0
  0
CLASS
  1
ACMDATUMSTANDARDANSI
  2
AcmDatumStdANSI
  3
"Amdt_StdImp|Product Description: AutoCAD Mechanical|Company: Autodesk, Inc."
 90
     1024
 91
        1
280
     0
281
     0
  0
CLASS
  1
ACMBOMSTANDARDANSI
  2
AcmBOMStdANSI
  3
"Amdt_StdImp|Product Description: AutoCAD Mechanical|Company: Autodesk, Inc."
 90
     1024
 91
        1
280
     0
281
     0
  0
CLASS
  1
ACMDETAILSTANDARDANSI
  2
AmdtDetailSymStdANSI
  3
"Amdt_StdImp|Product Description: AutoCAD Mechanical|Company: Autodesk, Inc."
 90
     1024
 91
        1
280
     0
281
     0
  0
CLASS
  1
ACMSECTIONSTANDARDANSI
  2
AmdtSectionSymStdANSI
  3
"Amdt_StdImp|Product Description: AutoCAD Mechanical|Company: Autodesk, Inc."
 90
     1024
 91
        1
280
     0
281
     0
  0
CLASS
  1
ACMCENTERLINESTANDARDANSI
  2
AmdtCenterLineStdANSI
  3
"Amdt_StdImp|Product Description: AutoCAD Mechanical|Company: Autodesk, Inc."
 90
     1024
 91
        1
280
     0
281
     0
  0
CLASS
  1
ACMTHREADLINESTANDARDANSI
  2
AmdtThreadLineStdANSI
  3
"Amdt_StdImp|Product Description: AutoCAD Mechanical|Company: Autodesk, Inc."
 90
     1024
 91
        1
280
     0
281
     0
  0
CLASS
  1
ACMNOTESTANDARDANSI
  2
AmdtNoteStdANSI
  3
"Amdt_StdImp|Product Description: AutoCAD Mechanical|Company: Autodesk, Inc."
 90
     1024
 91
        1
280
     0
281
     0
  0
CLASS
  1
AMDTNOTETEMPLATEDB
  2
AmdtNoteTemplateDB
  3
AcmSymBB|Product Description: AutoCAD Mechanical|Company: Autodesk, Inc.
 90
     1024
 91
       10
280
     0
281
     0
  0
CLASS
  1
ACAMGLAYSTD
  2
AcAmgLayStd
  3
"AmgLay|Product Description: AutoCAD Mechanical|Company: Autodesk, Inc."
 90
     1024
 91
        2
280
     0
281
     0
  0
CLASS
  1
ACAMGDIMSTD
  2
AcAmgDimStd
  3
"AmgDim|Product Description: AutoCAD Mechanical|Company: Autodesk, Inc."
 90
     1024
 91
        2
280
     0
281
     0
  0
CLASS
  1
ACAMGHOLECHARTSTDANSI
  2
AcAmgHoleChartStdANSI
  3
AmgDim|Product Description: AutoCAD Mechanical|Company: Autodesk, Inc.
 90
     1024
 91
        1
280
     0
281
     0
  0
CLASS
  1
ACAMGTITLESTD
  2
AcAmgTitleStd
  3
"AmgTitle|Product Description: AutoCAD Mechanical|Company: Autodesk, Inc."
 90
     4095
 91
        2
280
     0
281
     0
  0
CLASS
  1
ACAMGFILTERDAT
  2
AcAmgFilterDat
  3
"AcadM|Product Description: AutoCAD Mechanical|Company: Autodesk, Inc."
 90
     1024
 91
        6
280
     0
281
     0
  0
CLASS
  1
TABLESTYLE
  2
AcDbTableStyle
  3
ObjectDBX Classes
 90
     4095
 91
        1
280
     0
281
     0
  0
CLASS
  1
ACMDATAENTRYBLOCK
  2
AcmDataEntryBlock
  3
AcmSymBB|Product Description: AutoCAD Mechanical|Company: Autodesk, Inc.
 90
     1024
 91
        1
280
     0
281
     0
  0
CLASS
  1
AC_AM_2D_XREF_MGR
  2
AcAmXrefMgr2d
  3
DesignerAssemblies
 90
     1024
 91
        1
280
     0
281
     0
  0
CLASS
  1
SORTENTSTABLE
  2
AcDbSortentsTable
  3
ObjectDBX Classes
 90
        0
 91
        2
280
     0
281
     0
  0
CLASS
  1
VAACXREFPANELOBJECT
  2
VaAcXREFPanelObject
  3
VAAC_ADDIN
 90
        0
 91
        0
280
     0
281
     0
  0
CLASS
  1
VAACIMAGEINVENTORY
  2
VaAcImageInventory
  3
VAAC_ADDIN
 90
        0
 91
        0
280
     0
281
     0
  0
CLASS
  1
MATERIAL
  2
AcDbMaterial
  3
ObjectDBX Classes
 90
     1153
 91
        3
280
     0
281
     0
  0
CLASS
  1
VISUALSTYLE
  2
AcDbVisualStyle
  3
ObjectDBX Classes
 90
     4095
 91
       16
280
     0
281
     0
  0
CLASS
  1
SCALE
  2
AcDbScale
  3
ObjectDBX Classes
 90
     1153
 91
       33
280
     0
281
     0
  0
CLASS
  1
MLEADERSTYLE
  2
AcDbMLeaderStyle
  3
ACDB_MLEADERSTYLE_CLASS
 90
     4095
 91
        1
280
     0
281
     0
  0
CLASS
  1
ACMTAPERSTANDARDANSI
  2
AcmTaperStdANSI
  3
"Amdt_StdImp|Product Description: AutoCAD Mechanical|Company: Autodesk, Inc."
 90
     1024
 91
        1
280
     0
281
     0
  0
CLASS
  1
ACMANOOTATIONVIEWSTANDARDANSI
  2
AmdtAnViewStdANSI
  3
"Amdt_StdImp|Product Description: AutoCAD Mechanical|Company: Autodesk, Inc."
 90
     1024
 91
        1
280
     0
281
     0
  0
CLASS
  1
ACMDIMBREAKPERSREACTOR
  2
AcmDimBreakPersReactor
  3
AmgDim|Product Description: AutoCAD Mechanical|Company: Autodesk, Inc.
 90
     4095
 91
        1
280
     0
281
     0
  0
CLASS
  1
AMDTNOTE
  2
AmdtNote
  3
"AcmSymBB|Product Description: AutoCAD Mechanical|Company: Autodesk, Inc."
 90
     4095
 91
        2
280
     0
281
     1
  0
CLASS
  1
ACMSTANDARDDIN
  2
AcmStandardDIN
  3
"Amdt_StdImp|Product Description: AutoCAD Mechanical|Company: Autodesk, Inc."
 90
     1024
 91
        1
280
     0
281
     0
  0
CLASS
  1
AMDTEDGESTANDARDDIN13715
  2
AmdtEdgeStdDIN13715
  3
"Amdt_StdImp|Product Description: AutoCAD Mechanical|Company: Autodesk, Inc."
 90
     1024
 91
        1
280
     0
281
     0
  0
CLASS
  1
ACMSURFSTANDARDDIN2002
  2
AcmSurfTextStdDIN2002
  3
"Amdt_StdImp|Product Description: AutoCAD Mechanical|Company: Autodesk, Inc."
 90
     1024
 91
        1
280
     0
281
     0
  0
CLASS
  1
ACMFCFSTANDARDDIN
  2
AcmFCFStdDIN
  3
"Amdt_StdImp|Product Description: AutoCAD Mechanical|Company: Autodesk, Inc."
 90
     1024
 91
        1
280
     0
281
     0
  0
CLASS
  1
ACMWELDSTANDARDDIN
  2
AcmWeldingStdDIN
  3
"Amdt_StdImp|Product Description: AutoCAD Mechanical|Company: Autodesk, Inc."
 90
     1024
 91
        1
280
     0
281
     0
  0
CLASS
  1
ACMIDSTANDARDDIN
  2
AcmIdStdDIN
  3
"Amdt_StdImp|Product Description: AutoCAD Mechanical|Company: Autodesk, Inc."
 90
     1024
 91
        1
280
     0
281
     0
  0
CLASS
  1
ACMDATUMSTANDARDDIN
  2
AcmDatumStdDIN
  3
"Amdt_StdImp|Product Description: AutoCAD Mechanical|Company: Autodesk, Inc."
 90
     1024
 91
        1
280
     0
281
     0
  0
CLASS
  1
ACMBOMSTANDARDDIN
  2
AcmBOMStdDIN
  3
"Amdt_StdImp|Product Description: AutoCAD Mechanical|Company: Autodesk, Inc."
 90
     1024
 91
        1
280
     0
281
     0
  0
CLASS
  1
ACMDETAILSTANDARDDIN
  2
AmdtDetailSymStdDIN
  3
"Amdt_StdImp|Product Description: AutoCAD Mechanical|Company: Autodesk, Inc."
 90
     1024
 91
        1
280
     0
281
     0
  0
CLASS
  1
ACMSECTIONSTANDARDDIN
  2
AmdtSectionSymStdDIN
  3
"Amdt_StdImp|Product Description: AutoCAD Mechanical|Company: Autodesk, Inc."
 90
     1024
 91
        1
280
     0
281
     0
  0
CLASS
  1
ACMCENTERLINESTANDARDDIN
  2
AmdtCenterLineStdDIN
  3
"Amdt_StdImp|Product Description: AutoCAD Mechanical|Company: Autodesk, Inc."
 90
     1024
 91
        1
280
     0
281
     0
  0
CLASS
  1
ACMTHREADLINESTANDARDDIN
  2
AmdtThreadLineStdDIN
  3
"Amdt_StdImp|Product Description: AutoCAD Mechanical|Company: Autodesk, Inc."
 90
     1024
 91
        1
280
     0
281
     0
  0
CLASS
  1
ACMNOTESTANDARDDIN
  2
AmdtNoteStdDIN
  3
"Amdt_StdImp|Product Description: AutoCAD Mechanical|Company: Autodesk, Inc."
 90
     1024
 91
        1
280
     0
281
     0
  0
CLASS
  1
ACMTAPERSTANDARDDIN
  2
AcmTaperStdDIN
  3
"Amdt_StdImp|Product Description: AutoCAD Mechanical|Company: Autodesk, Inc."
 90
     1024
 91
        1
280
     0
281
     0
  0
CLASS
  1
ACMANOOTATIONVIEWSTANDARDDIN
  2
AmdtAnViewStdDIN
  3
"Amdt_StdImp|Product Description: AutoCAD Mechanical|Company: Autodesk, Inc."
 90
     1024
 91
        1
280
     0
281
     0
  0
CLASS
  1
ACAMGHOLECHARTSTDDIN
  2
AcAmgHoleChartStdDIN
  3
AmgDim|Product Description: AutoCAD Mechanical|Company: Autodesk, Inc.
 90
     1024
 91
        1
280
     0
281
     0
  0
CLASS
  1
CAMSSTRUCTBTNSTATE
  2
StructBtnState
  3
DesignerAssemblies
 90
     1024
 91
        1
280
     0
281
     0
  0
CLASS
  1
CELLSTYLEMAP
  2
AcDbCellStyleMap
  3
ObjectDBX Classes
 90
     1152
 91
        6
280
     0
281
     0
  0
ENDSEC
  0
SECTION
  2
TABLES
  0
TABLE
  2
VPORT
  5
13
330
0
100
AcDbSymbolTable
 70
     1
  0
VPORT
  5
795
330
13
100
AcDbSymbolTableRecord
100
AcDbViewportTableRecord
  2
*Active
 70
     0
 10
0.0
 20
0.0
 11
1.0
 21
1.0
 12
117.8876250876103
 22
105.5255251480144
 13
0.0
 23
0.0
 14
2.5
 24
2.5
 15
10.0
 25
10.0
 16
0.0
 26
0.0
 36
1.0
 17
0.0
 27
0.0
 37
0.0
 40
196.4764762419074
 41
1.511511511511511
 42
50.0
 43
0.0
 44
0.0
 50
0.0
 51
0.0
 71
     0
 72
   100
 73
     1
 74
     0
 75
     0
 76
     0
 77
     0
 78
     0
281
     0
 65
     1
110
0.0
120
0.0
130
0.0
111
1.0
121
0.0
131
0.0
112
0.0
122
1.0
132
0.0
 79
     0
146
0.0
  0
ENDTAB
  0
TABLE
  2
LTYPE
  5
E
330
0
100
AcDbSymbolTable
 70
    52
  0
LTYPE
  5
F
330
E
100
AcDbSymbolTableRecord
100
AcDbLinetypeTableRecord
  2
BYBLOCK
 70
     0
  3

 72
    65
 73
     0
 40
0.0
  0
LTYPE
  5
10
330
E
100
AcDbSymbolTableRecord
100
AcDbLinetypeTableRecord
  2
BYLAYER
 70
     0
  3

 72
    65
 73
     0
 40
0.0
  0
LTYPE
  5
6
330
E
100
AcDbSymbolTableRecord
100
AcDbLinetypeTableRecord
  2
CONTINUOUS
 70
     0
  3
Solid line
 72
    65
 73
     0
 40
0.0
  0
LTYPE
  5
29
330
E
100
AcDbSymbolTableRecord
100
AcDbLinetypeTableRecord
  2
MITTE
 70
     0
  3
____ _ ____ _ ____ _ ____ _ ____ _ ____ _ ____ 
 72
    65
 73
     4
 40
2.0
 49
1.25
 74
     0
 49
-0.25
 74
     0
 49
0.25
 74
     0
 49
-0.25
 74
     0
  0
LTYPE
  5
81
330
E
100
AcDbSymbolTableRecord
100
AcDbLinetypeTableRecord
  2
HIDDEN
 70
     0
  3
Verdeckt
 72
    65
 73
     2
 40
0.375
 49
0.25
 74
     0
 49
-0.125
 74
     0
  0
LTYPE
  5
82
330
E
100
AcDbSymbolTableRecord
100
AcDbLinetypeTableRecord
  2
PHANTOM2
 70
     0
  3
Phantom (.5x) ___ _ _ ___ _ _ ___ _ _ ___ _ _
 72
    65
 73
     6
 40
1.25
 49
0.625
 74
     0
 49
-0.125
 74
     0
 49
0.125
 74
     0
 49
-0.125
 74
     0
 49
0.125
 74
     0
 49
-0.125
 74
     0
  0
LTYPE
  5
83
330
E
100
AcDbSymbolTableRecord
100
AcDbLinetypeTableRecord
  2
CENTER
 70
     0
  3
Mitte ____ _ ____ _ ____ _ ____ _ ____ _ ____
 72
    65
 73
     4
 40
2.0
 49
1.25
 74
     0
 49
-0.25
 74
     0
 49
0.25
 74
     0
 49
-0.25
 74
     0
  0
LTYPE
  5
CD
330
E
100
AcDbSymbolTableRecord
100
AcDbLinetypeTableRecord
  2
Amconstr
 70
     0
  3
_______________________
 72
    65
 73
     2
 40
9999.0
 49
9999.0
 74
     0
 49
0.0
 74
     0
  0
LTYPE
  5
D3
330
E
100
AcDbSymbolTableRecord
100
AcDbLinetypeTableRecord
  2
CENTER2
 70
     0
  3
Center (.5x) ___ _ ___ _ ___ _ ___ _ ___ _ ___
 72
    65
 73
     4
 40
1.125
 49
0.75
 74
     0
 49
-0.125
 74
     0
 49
0.125
 74
     0
 49
-0.125
 74
     0
  0
LTYPE
  5
D4
330
E
100
AcDbSymbolTableRecord
100
AcDbLinetypeTableRecord
  2
HIDDEN2
 70
     0
  3
Hidden (.5x) _ _ _ _ _ _ _ _ _ _ _ _ _ _ _ _ _
 72
    65
 73
     2
 40
0.1875
 49
0.125
 74
     0
 49
-0.0625
 74
     0
  0
LTYPE
  5
D5
330
E
100
AcDbSymbolTableRecord
100
AcDbLinetypeTableRecord
  2
Amzigzag2
 70
     0
  3
/\/-/\/-/\/-/\/-/\/-/\/
 72
    65
 73
     2
 40
0.4401
 49
0.0001
 74
     4
 75
   135
340
D1
 46
0.0016
 50
0.0
 44
0.0
 45
0.0
 49
-0.4400000000000001
 74
     0
  0
LTYPE
  5
E3
330
E
100
AcDbSymbolTableRecord
100
AcDbLinetypeTableRecord
  2
ACANSTGB
 70
     0
  3
__ . . __ . .
 72
    65
 73
     6
 40
0.35433070866
 49
0.15748031496
 74
     0
 49
-0.03937007874
 74
     0
 49
0.03937007874
 74
     0
 49
-0.03937007874
 74
     0
 49
0.03937007874
 74
     0
 49
-0.03937007874
 74
     0
  0
LTYPE
  5
E4
330
E
100
AcDbSymbolTableRecord
100
AcDbLinetypeTableRecord
  2
ACANSTGL
 70
     0
  3
_ _ _ _ _
 72
    65
 73
     2
 40
0.11811023622
 49
0.07874015748
 74
     0
 49
-0.03937007874
 74
     0
  0
LTYPE
  5
8B4
330
E
100
AcDbSymbolTableRecord
100
AcDbLinetypeTableRecord
  2
ACDINWELD
 70
     0
  3
_ _ _ _ _
 72
    65
 73
     2
 40
2.0
 49
2.0
 74
     0
 49
-1.0
 74
     0
  0
LTYPE
  5
8B5
330
E
100
AcDbSymbolTableRecord
100
AcDbLinetypeTableRecord
  2
ACDINTGB
 70
     0
  3
__ . . __ . .
 72
    65
 73
     6
 40
9.0
 49
4.0
 74
     0
 49
-1.0
 74
     0
 49
1.0
 74
     0
 49
-1.0
 74
     0
 49
1.0
 74
     0
 49
-1.0
 74
     0
  0
LTYPE
  5
8B6
330
E
100
AcDbSymbolTableRecord
100
AcDbLinetypeTableRecord
  2
ACDINTGL
 70
     0
  3
_ _ _ _ _
 72
    65
 73
     2
 40
3.0
 49
2.0
 74
     0
 49
-1.0
 74
     0
  0
LTYPE
  5
8B7
330
E
100
AcDbSymbolTableRecord
100
AcDbLinetypeTableRecord
  2
Amzigzag
 70
     0
  3
/\/-/\/-/\/-/\/-/\/-/\/
 72
    65
 73
     2
 40
11.0001
 49
0.0001
 74
     4
 75
   136
340
8C1
 46
0.04
 50
0.0
 44
0.0
 45
0.0
 49
-11.0
 74
     0
  0
LTYPE
  5
8B8
330
E
100
AcDbSymbolTableRecord
100
AcDbLinetypeTableRecord
  2
AM_DIN_F_W050
 70
     0
  3
__ __ __ __ __ __ __ __ __ __ __ __ __ __ __
 72
    65
 73
     2
 40
6.25
 49
4.75
 74
     0
 49
-1.5
 74
     0
  0
LTYPE
  5
8B9
330
E
100
AcDbSymbolTableRecord
100
AcDbLinetypeTableRecord
  2
AM_DIN_G_W050
 70
     0
  3
____ . ____ . ____ . ____ . ____ . ____ . ____
 72
    65
 73
     4
 40
13.75
 49
9.75
 74
     0
 49
-1.5
 74
     0
 49
1.0
 74
     0
 49
-1.5
 74
     0
  0
LTYPE
  5
8BA
330
E
100
AcDbSymbolTableRecord
100
AcDbLinetypeTableRecord
  2
AM_DIN_K_W050
 70
     0
  3
_____ . . _____ . . _____ . . ____ .. ____
 72
    65
 73
     6
 40
16.25
 49
9.75
 74
     0
 49
-1.5
 74
     0
 49
1.0
 74
     0
 49
-1.5
 74
     0
 49
1.0
 74
     0
 49
-1.5
 74
     0
  0
LTYPE
  5
8BB
330
E
100
AcDbSymbolTableRecord
100
AcDbLinetypeTableRecord
  2
AM_DIN_G_W050x2
 70
     0
  3
__ . __ . __ . __ . __ . __
 72
    65
 73
     4
 40
6.875
 49
4.75
 74
     0
 49
-0.875
 74
     0
 49
0.375
 74
     0
 49
-0.875
 74
     0
  0
LTYPE
  5
8BC
330
E
100
AcDbSymbolTableRecord
100
AcDbLinetypeTableRecord
  2
AM_DIN_F_W050x2
 70
     0
  3
 _ _ _ _ _ _ _ _ _ _ _ _
 72
    65
 73
     2
 40
3.125
 49
2.25
 74
     0
 49
-0.875
 74
     0
  0
ENDTAB
  0
TABLE
  2
LAYER
  5
B
102
{ACAD_XDICTIONARY
360
7F2
102
}
330
0
100
AcDbSymbolTable
 70
    10
  0
LAYER
  5
5
102
{ACAD_XDICTIONARY
360
B2A
102
}
330
B
100
AcDbSymbolTableRecord
100
AcDbLayerTableRecord
  2
0
 70
     0
 62
     7
  6
CONTINUOUS
370
    -3
390
5D
  0
LAYER
  5
20
102
{ACAD_XDICTIONARY
360
B2C
102
}
330
B
100
AcDbSymbolTableRecord
100
AcDbLayerTableRecord
  2
BEM
 70
     1
 62
     3
  6
CONTINUOUS
370
    -3
390
5D
  0
LAYER
  5
26
102
{ACAD_XDICTIONARY
360
B2E
102
}
330
B
100
AcDbSymbolTableRecord
100
AcDbLayerTableRecord
  2
TEXT
 70
     0
 62
     2
  6
CONTINUOUS
370
    -3
390
5D
  0
LAYER
  5
28
102
{ACAD_XDICTIONARY
360
B30
102
}
330
B
100
AcDbSymbolTableRecord
100
AcDbLayerTableRecord
  2
MITTE
 70
     0
 62
     4
  6
MITTE
370
    -3
390
5D
  0
LAYER
  5
24
102
{ACAD_XDICTIONARY
360
B32
102
}
330
B
100
AcDbSymbolTableRecord
100
AcDbLayerTableRecord
  2
LINIE
 70
     0
 62
     4
  6
CONTINUOUS
370
    -3
390
5D
  0
LAYER
  5
1F2
330
B
100
AcDbSymbolTableRecord
100
AcDbLayerTableRecord
  2
Defpoints
 70
     0
 62
     7
  6
CONTINUOUS
290
     0
370
    -3
390
5D
  0
LAYER
  5
7EC
102
{ACAD_XDICTIONARY
360
7ED
102
}
330
B
100
AcDbSymbolTableRecord
100
AcDbLayerTableRecord
  2
A3XREF|TEXT
 70
    48
 62
     2
  6
Continuous
370
    -3
390
5D
  0
LAYER
  5
7EE
102
{ACAD_XDICTIONARY
360
7EF
102
}
330
B
100
AcDbSymbolTableRecord
100
AcDbLayerTableRecord
  2
A3XREF|LINIE
 70
    48
 62
     4
  6
Continuous
370
    -3
390
5D
  0
LAYER
  5
7F0
102
{ACAD_XDICTIONARY
360
7F1
102
}
330
B
100
AcDbSymbolTableRecord
100
AcDbLayerTableRecord
  2
A3XREF|RAHM
 70
    48
 62
   255
  6
Continuous
370
    -3
390
5D
  0
ENDTAB
  0
TABLE
  2
STYLE
  5
C
330
0
100
AcDbSymbolTable
 70
    18
  0
STYLE
  5
D
330
C
100
AcDbSymbolTableRecord
100
AcDbTextStyleTableRecord
  2
STANDARD
 70
     0
 40
0.0
 41
1.0
 50
0.0
 71
     0
 42
20.0
  3
romans.shx
  4

  0
STYLE
  5
1C
330
C
100
AcDbSymbolTableRecord
100
AcDbTextStyleTableRecord
  2
STYLE1
 70
     0
 40
0.0
 41
1.0
 50
0.0
 71
     0
 42
20.0
  3
ariblk.TTF
  4

1001
ACAD
1000
Arial Black
1071
 33554466
  0
STYLE
  5
D1
330
C
100
AcDbSymbolTableRecord
100
AcDbTextStyleTableRecord
  2

 70
     1
 40
0.0
 41
1.0
 50
0.0
 71
     0
 42
20.0
  3
ltypeshp.shx
  4

  0
STYLE
  5
D6
330
C
100
AcDbSymbolTableRecord
100
AcDbTextStyleTableRecord
  2
ACANSTS
 70
     0
 40
1.0
 41
1.0
 50
0.0
 71
     0
 42
20.0
  3
romans.shx
  4

  0
STYLE
  5
E2
330
C
100
AcDbSymbolTableRecord
100
AcDbTextStyleTableRecord
  2
ACANSGDT
 70
     0
 40
0.0
 41
1.0
 50
0.0
 71
     0
 42
20.0
  3
amgdtans.shx
  4

  0
STYLE
  5
7F4
330
C
100
AcDbSymbolTableRecord
100
AcDbTextStyleTableRecord
  2

 70
    49
 40
0.0
 41
1.0
 50
0.0
 71
     0
 42
2.0
  3
genltshp.shx
  4

  0
STYLE
  5
8BF
330
C
100
AcDbSymbolTableRecord
100
AcDbTextStyleTableRecord
  2
ACDINTS
 70
     0
 40
1.0
 41
1.0
 50
0.0
 71
     0
 42
20.0
  3
isocp.shx
  4

  0
STYLE
  5
8C0
330
C
100
AcDbSymbolTableRecord
100
AcDbTextStyleTableRecord
  2
ACDINGDT
 70
     0
 40
0.0
 41
1.0
 50
0.0
 71
     0
 42
20.0
  3
amgdt.shx
  4

  0
STYLE
  5
8C1
330
C
100
AcDbSymbolTableRecord
100
AcDbTextStyleTableRecord
  2

 70
     1
 40
0.0
 41
1.0
 50
0.0
 71
     0
 42
20.0
  3
genltshp.shx
  4

  0
ENDTAB
  0
TABLE
  2
VIEW
  5
11
330
0
100
AcDbSymbolTable
 70
     0
  0
ENDTAB
  0
TABLE
  2
UCS
  5
12
330
0
100
AcDbSymbolTable
 70
     0
  0
ENDTAB
  0
TABLE
  2
APPID
  5
15
330
0
100
AcDbSymbolTable
 70
    18
  0
APPID
  5
16
330
15
100
AcDbSymbolTableRecord
100
AcDbRegAppTableRecord
  2
ACAD
 70
     0
  0
APPID
  5
30
330
15
100
AcDbSymbolTableRecord
100
AcDbRegAppTableRecord
  2
MCAD_NO_VIS
 70
     0
  0
APPID
  5
6D
330
15
100
AcDbSymbolTableRecord
100
AcDbRegAppTableRecord
  2
ACAD_TEMP_GRAPHIC
 70
     0
  0
APPID
  5
98
330
15
100
AcDbSymbolTableRecord
100
AcDbRegAppTableRecord
  2
AD_DRAW
 70
     0
  0
APPID
  5
9B
330
15
100
AcDbSymbolTableRecord
100
AcDbRegAppTableRecord
  2
ACATTRIBSERVICES
 70
     0
  0
APPID
  5
B9
330
15
100
AcDbSymbolTableRecord
100
AcDbRegAppTableRecord
  2
DESIGNERASSEMBLIES
 70
     0
  0
APPID
  5
C1
330
15
100
AcDbSymbolTableRecord
100
AcDbRegAppTableRecord
  2
ACADM_DIM_EDIT
 70
     0
  0
APPID
  5
C2
330
15
100
AcDbSymbolTableRecord
100
AcDbRegAppTableRecord
  2
AMDT_DM_ADJ
 70
     0
  0
APPID
  5
589
330
15
100
AcDbSymbolTableRecord
100
AcDbRegAppTableRecord
  2
ACAD_PSEXT
 70
     0
  0
APPID
  5
7E4
330
15
100
AcDbSymbolTableRecord
100
AcDbRegAppTableRecord
  2
ACAD_MLEADERVER
 70
     0
  0
APPID
  5
7F5
330
15
100
AcDbSymbolTableRecord
100
AcDbRegAppTableRecord
  2
DCO15
 70
     0
  0
APPID
  5
8C9
330
15
100
AcDbSymbolTableRecord
100
AcDbRegAppTableRecord
  2
GENIUS_GENDTOL_13
 70
     0
  0
APPID
  5
8CA
330
15
100
AcDbSymbolTableRecord
100
AcDbRegAppTableRecord
  2
ACAD_DSTYLE_DIMINSPECT
 70
     0
  0
APPID
  5
8CB
330
15
100
AcDbSymbolTableRecord
100
AcDbRegAppTableRecord
  2
AcAecLayerStandard
 70
     0
  0
APPID
  5
979
330
15
100
AcDbSymbolTableRecord
100
AcDbRegAppTableRecord
  2
ACAD_DSTYLE_DIMRADIAL_EXTENSION
 70
     0
  0
APPID
  5
B47
330
15
100
AcDbSymbolTableRecord
100
AcDbRegAppTableRecord
  2
AcadAnnoPO
 70
     0
  0
APPID
  5
D85
330
15
100
AcDbSymbolTableRecord
100
AcDbRegAppTableRecord
  2
ACAD_EXEMPT_FROM_CAD_STANDARDS
 70
     0
  0
APPID
  5
D98
330
15
100
AcDbSymbolTableRecord
100
AcDbRegAppTableRecord
  2
ACAD_DSTYLE_DIMJOGGED_JOGANGLE_SYMBOL
 70
     0
  0
ENDTAB
  0
TABLE
  2
DIMSTYLE
  5
17
330
0
100
AcDbSymbolTable
 70
    38
100
AcDbDimStyleTable
 71
     2
340
8C2
340
1E
  0
DIMSTYLE
105
1E
102
{ACAD_REACTORS
330
9D8
330
9D9
330
9DA
330
9DB
330
9DC
330
9DD
330
9DE
330
9DF
330
9E0
330
9E1
330
9E2
330
9E3
330
B0D
102
}
330
17
100
AcDbSymbolTableRecord
100
AcDbDimStyleTableRecord
  2
ISO-25
 70
     0
 41
3.5
 42
0.0
 43
7.0
 44
1.25
 73
     0
 74
     0
 77
     1
 78
     8
140
3.5
141
0.0
143
0.0394
144
0.5
145
1.0
147
1.5
172
     1
176
   256
177
   256
178
   256
284
     8
288
     1
340
D
  0
DIMSTYLE
105
EB
330
17
100
AcDbSymbolTableRecord
100
AcDbDimStyleTableRecord
  2
AM_ANSI
 70
     0
  4
mm
 41
0.1
 42
0.05
 43
0.5
 44
0.1
 47
0.1
 48
0.1
 78
     7
 79
     2
140
0.12
141
0.0
146
0.71
147
0.06
176
   256
177
   256
178
     2
274
     4
284
     7
340
D
371
    -1
372
    -1
  0
DIMSTYLE
105
EC
330
17
100
AcDbSymbolTableRecord
100
AcDbDimStyleTableRecord
  2
AM_ANSI$3
 70
     0
  4
mm
 41
0.1
 42
0.05
 43
0.5
 44
0.1
 47
0.1
 48
0.1
 78
     7
 79
     2
140
0.12
141
0.0
146
0.71
147
0.06
176
   256
177
   256
178
     2
274
     4
284
     7
288
     1
289
     0
340
D
371
    -1
372
    -1
  0
DIMSTYLE
105
ED
330
17
100
AcDbSymbolTableRecord
100
AcDbDimStyleTableRecord
  2
AM_ANSI$4
 70
     0
  4
mm
 41
0.1
 42
0.05
 43
0.5
 44
0.1
 47
0.1
 48
0.1
 78
     7
 79
     2
140
0.12
141
0.0
146
0.71
147
0.06
176
   256
177
   256
178
     2
274
     4
284
     7
288
     1
289
     0
340
D
371
    -1
372
    -1
  0
DIMSTYLE
105
EE
330
17
100
AcDbSymbolTableRecord
100
AcDbDimStyleTableRecord
  2
AM_ANSI$7
 70
     0
  4
mm
 41
0.1
 42
0.05
 43
0.5
 44
0.1
 47
0.1
 48
0.1
 78
     7
 79
     2
140
0.24
141
0.0
146
0.71
147
0.06
176
   256
177
   256
178
     2
274
     4
284
     7
340
D
371
    -1
372
    -1
  0
DIMSTYLE
105
EF
330
17
100
AcDbSymbolTableRecord
100
AcDbDimStyleTableRecord
  2
AM_ANSI$SF
 70
     0
  4
mm
 41
0.1
 42
0.05
 43
0.5
 44
0.1
 47
0.1
 48
0.1
 75
     1
 76
     1
 78
     7
 79
     2
140
0.12
141
0.0
146
0.71
147
0.06
176
   256
177
   256
178
     2
274
     4
284
     7
340
D
371
    -1
372
    -1
  0
DIMSTYLE
105
F4
330
17
100
AcDbSymbolTableRecord
100
AcDbDimStyleTableRecord
  2
AM_ANSI$SH
 70
     0
  4
mm
 41
0.1
 42
0.05
 43
0.5
 44
0.1
 47
0.1
 48
0.1
 75
     1
 76
     1
 78
     7
 79
     2
140
0.12
141
0.0
146
0.71
147
0.06
173
     1
176
   256
177
   256
178
     2
274
     4
284
     7
340
D
343
F0
371
    -1
372
    -1
  0
DIMSTYLE
105
2F0
330
17
100
AcDbSymbolTableRecord
100
AcDbDimStyleTableRecord
  2
STANDARD
 70
     0
 41
3.5
 42
0.0
 43
7.0
 44
1.25
 73
     0
 74
     0
 77
     1
 78
     8
140
3.5
141
0.0
147
1.5
172
     1
176
   256
177
   256
178
   256
288
     1
340
D
  0
DIMSTYLE
105
8C2
330
17
100
AcDbSymbolTableRecord
100
AcDbDimStyleTableRecord
  2
AM_DIN
 70
     0
  4
"
 41
2.5
 42
1.0
 43
10.0
 44
1.0
 47
0.1
 48
0.1
 73
     0
 74
     0
 77
     1
 78
     8
 79
     2
140
3.5
141
0.0
143
0.0393701
146
0.71
147
1.5
172
     1
176
   256
177
   256
178
     2
271
     2
272
     3
274
     4
283
     0
284
     8
340
D
371
    -1
372
    -1
1001
ACAD_DSTYLE_DIMJOGGED_JOGANGLE_SYMBOL
1070
   384
1040
1.570796326794896
  0
DIMSTYLE
105
8C3
330
17
100
AcDbSymbolTableRecord
100
AcDbDimStyleTableRecord
  2
AM_DIN$3
 70
     0
  4
"
 41
2.5
 42
1.0
 43
10.0
 44
1.0
 47
0.1
 48
0.1
 73
     0
 77
     1
 78
     8
 79
     2
140
3.5
141
0.0
143
0.0393701
146
0.71
147
1.5
176
   256
177
   256
178
     2
271
     2
272
     3
274
     4
283
     0
284
     8
288
     1
289
     0
340
D
371
    -1
372
    -1
1001
ACAD_DSTYLE_DIMJOGGED_JOGANGLE_SYMBOL
1070
   384
1040
1.570796326794896
  0
DIMSTYLE
105
8C4
330
17
100
AcDbSymbolTableRecord
100
AcDbDimStyleTableRecord
  2
AM_DIN$4
 70
     0
  4
"
 41
2.5
 42
1.0
 43
10.0
 44
1.0
 47
0.1
 48
0.1
 73
     0
 77
     1
 78
     8
 79
     2
140
3.5
141
0.0
143
0.0393701
146
0.71
147
1.5
176
   256
177
   256
178
     2
271
     2
272
     3
274
     4
283
     0
284
     8
288
     1
289
     0
340
D
371
    -1
372
    -1
1001
ACAD_DSTYLE_DIMJOGGED_JOGANGLE_SYMBOL
1070
   384
1040
1.570796326794896
  0
DIMSTYLE
105
8C5
330
17
100
AcDbSymbolTableRecord
100
AcDbDimStyleTableRecord
  2
AM_DIN$6
 70
     0
  4
"
 41
2.5
 42
1.0
 43
10.0
 44
1.0
 47
0.1
 48
0.1
 73
     0
 74
     0
 78
     8
 79
     2
140
3.5
141
0.0
143
0.0393701
146
0.71
147
1.5
172
     1
176
   256
177
   256
178
     2
271
     2
272
     3
274
     4
283
     0
284
     8
340
D
371
    -1
372
    -1
1001
ACAD_DSTYLE_DIMJOGGED_JOGANGLE_SYMBOL
1070
   384
1040
1.570796326794896
  0
DIMSTYLE
105
8C6
330
17
100
AcDbSymbolTableRecord
100
AcDbDimStyleTableRecord
  2
AM_DIN$7
 70
     0
  4
"
 41
2.5
 42
1.0
 43
10.0
 44
1.0
 47
0.1
 48
0.1
 73
     0
 74
     0
 77
     1
 78
     8
 79
     2
140
5.0
141
0.0
143
0.0393701
146
0.71
147
1.5
172
     1
176
   256
177
   256
178
     2
271
     2
272
     3
274
     4
283
     0
284
     8
340
D
371
    -1
372
    -1
1001
ACAD_DSTYLE_DIMJOGGED_JOGANGLE_SYMBOL
1070
   384
1040
1.570796326794896
  0
DIMSTYLE
105
8C7
330
17
100
AcDbSymbolTableRecord
100
AcDbDimStyleTableRecord
  2
AM_DIN$SF
 70
     0
  4
"
 41
2.5
 42
1.0
 43
10.0
 44
1.0
 47
0.1
 48
0.1
 73
     0
 74
     0
 75
     1
 76
     1
 77
     1
 78
     8
 79
     2
140
3.5
141
0.0
143
0.0393701
146
0.71
147
1.5
172
     1
176
   256
177
   256
178
     2
271
     2
272
     3
274
     4
283
     0
284
     8
340
D
371
    -1
372
    -1
1001
ACAD_DSTYLE_DIMJOGGED_JOGANGLE_SYMBOL
1070
   384
1040
1.570796326794896
  0
DIMSTYLE
105
8C8
330
17
100
AcDbSymbolTableRecord
100
AcDbDimStyleTableRecord
  2
AM_DIN$SH
 70
     0
  4
"
 41
2.5
 42
1.0
 43
10.0
 44
1.0
 47
0.1
 48
0.1
 73
     0
 74
     0
 75
     1
 76
     1
 77
     1
 78
     8
 79
     2
140
3.5
141
0.0
143
0.0393701
144
2.0
146
0.71
147
1.5
172
     1
173
     1
176
   256
177
   256
178
     2
271
     2
272
     3
274
     4
283
     0
284
     8
340
D
343
F0
371
    -1
372
    -1
1001
ACAD_DSTYLE_DIMJOGGED_JOGANGLE_SYMBOL
1070
   384
1040
1.570796326794896
  0
ENDTAB
  0
TABLE
  2
BLOCK_RECORD
  5
1
330
0
100
AcDbSymbolTable
 70
    50
  0
BLOCK_RECORD
  5
2
102
{ACAD_XDICTIONARY
360
3
102
}
330
1
100
AcDbSymbolTableRecord
100
AcDbBlockTableRecord
  2
*MODEL_SPACE
340
62
  0
BLOCK_RECORD
  5
8
330
1
100
AcDbSymbolTableRecord
100
AcDbBlockTableRecord
  2
*PAPER_SPACE
340
63
  0
BLOCK_RECORD
  5
F0
330
1
100
AcDbSymbolTableRecord
100
AcDbBlockTableRecord
  2
GENAXEH
340
0
  0
BLOCK_RECORD
  5
161
330
1
100
AcDbSymbolTableRecord
100
AcDbBlockTableRecord
  2
A3XREF
340
0
102
{BLKREFS
331
176
102
}
  0
BLOCK_RECORD
  5
9ED
330
1
100
AcDbSymbolTableRecord
100
AcDbBlockTableRecord
  2
*D34
340
0
  0
BLOCK_RECORD
  5
9F9
330
1
100
AcDbSymbolTableRecord
100
AcDbBlockTableRecord
  2
*D35
340
0
  0
BLOCK_RECORD
  5
A05
330
1
100
AcDbSymbolTableRecord
100
AcDbBlockTableRecord
  2
*D36
340
0
  0
BLOCK_RECORD
  5
A11
330
1
100
AcDbSymbolTableRecord
100
AcDbBlockTableRecord
  2
*D37
340
0
  0
BLOCK_RECORD
  5
A1D
330
1
100
AcDbSymbolTableRecord
100
AcDbBlockTableRecord
  2
*D38
340
0
  0
BLOCK_RECORD
  5
A29
330
1
100
AcDbSymbolTableRecord
100
AcDbBlockTableRecord
  2
*D39
340
0
  0
BLOCK_RECORD
  5
A35
330
1
100
AcDbSymbolTableRecord
100
AcDbBlockTableRecord
  2
*D40
340
0
  0
BLOCK_RECORD
  5
A41
330
1
100
AcDbSymbolTableRecord
100
AcDbBlockTableRecord
  2
*D41
340
0
  0
BLOCK_RECORD
  5
A4F
330
1
100
AcDbSymbolTableRecord
100
AcDbBlockTableRecord
  2
*D42
340
0
  0
BLOCK_RECORD
  5
A5B
330
1
100
AcDbSymbolTableRecord
100
AcDbBlockTableRecord
  2
*D43
340
0
  0
BLOCK_RECORD
  5
A68
330
1
100
AcDbSymbolTableRecord
100
AcDbBlockTableRecord
  2
*D44
340
0
  0
BLOCK_RECORD
  5
A76
330
1
100
AcDbSymbolTableRecord
100
AcDbBlockTableRecord
  2
*D45
340
0
  0
BLOCK_RECORD
  5
B0E
330
1
100
AcDbSymbolTableRecord
100
AcDbBlockTableRecord
  2
*D47
340
0
  0
ENDTAB
  0
ENDSEC
  0
SECTION
  2
BLOCKS
  0
BLOCK
  5
4
330
2
100
AcDbEntity
  8
0
100
AcDbBlockBegin
  2
*MODEL_SPACE
 70
     0
 10
0.0
 20
0.0
 30
0.0
  3
*MODEL_SPACE
  1

  0
ENDBLK
  5
7
330
2
100
AcDbEntity
  8
0
100
AcDbBlockEnd
  0
BLOCK
  5
9
330
8
100
AcDbEntity
 67
     1
  8
0
100
AcDbBlockBegin
  2
*PAPER_SPACE
 70
     0
 10
0.0
 20
0.0
 30
0.0
  3
*PAPER_SPACE
  1

  0
ENDBLK
  5
A
330
8
100
AcDbEntity
 67
     1
  8
0
100
AcDbBlockEnd
  0
BLOCK
  5
F2
330
F0
100
AcDbEntity
  8
0
 48
10.0
100
AcDbBlockBegin
  2
GENAXEH
 70
     0
 10
0.0
 20
0.0
 30
0.0
  3
GENAXEH
  1

  0
LINE
  5
F1
330
F0
100
AcDbEntity
  8
0
100
AcDbLine
 10
-1.0
 20
0.0
 30
0.0
 11
1.0
 21
0.0
 31
0.0
  0
ENDBLK
  5
F3
330
F0
100
AcDbEntity
  8
0
 48
10.0
100
AcDbBlockEnd
  0
BLOCK
  5
162
330
161
100
AcDbEntity
  8
0
 48
10.0
100
AcDbBlockBegin
  2
A3XREF
 70
    36
 10
0.0
 20
0.0
 30
0.0
  3
A3XREF
  1
K:\NORM\A3XREF.dwg
  0
ENDBLK
  5
163
330
161
100
AcDbEntity
  8
0
 48
10.0
100
AcDbBlockEnd
  0
BLOCK
  5
9EE
330
9ED
100
AcDbEntity
  8
0
 48
10.0
100
AcDbBlockBegin
  2
*D34
 70
     1
 10
0.0
 20
0.0
 30
0.0
  3
*D34
  1

  0
LINE
  5
BEE
330
9ED
100
AcDbEntity
  8
BEM
 48
10.0
370
    -2
100
AcDbLine
 10
23.76507571356325
 20
128.2395668301009
 30
0.0
 11
23.76507571356325
 21
148.0301080476146
 31
0.0
  0
LINE
  5
BEF
330
9ED
100
AcDbEntity
  8
BEM
 48
10.0
370
    -2
100
AcDbLine
 10
77.76507571356325
 20
128.2395668301008
 30
0.0
 11
77.76507571356325
 21
148.0301080476146
 31
0.0
  0
LINE
  5
BF0
330
9ED
100
AcDbEntity
  8
BEM
 48
10.0
370
    -2
100
AcDbLine
 10
27.26507571356325
 20
146.7801080476146
 30
0.0
 11
74.26507571356324
 21
146.7801080476146
 31
0.0
  0
SOLID
  5
BF1
330
9ED
100
AcDbEntity
  8
BEM
 48
10.0
100
AcDbTrace
 10
27.26507571356325
 20
147.3634413809479
 30
0.0
 11
27.26507571356325
 21
146.1967747142812
 31
0.0
 12
23.76507571356325
 22
146.7801080476146
 32
0.0
 13
23.76507571356325
 23
146.7801080476146
 33
0.0
  0
SOLID
  5
BF2
330
9ED
100
AcDbEntity
  8
BEM
 48
10.0
100
AcDbTrace
 10
74.26507571356324
 20
147.3634413809479
 30
0.0
 11
74.26507571356324
 21
146.1967747142812
 31
0.0
 12
77.76507571356325
 22
146.7801080476146
 32
0.0
 13
77.76507571356325
 23
146.7801080476146
 33
0.0
  0
MTEXT
  5
BF3
330
9ED
100
AcDbEntity
  8
BEM
 48
10.0
100
AcDbMText
 10
50.76507571356325
 20
150.0301080476146
 30
0.0
 40
3.5
 41
0.0
 71
     5
 72
     1
  1
\A1;54
 73
     1
 44
1.0
  0
POINT
  5
BF4
330
9ED
100
AcDbEntity
  8
Defpoints
 62
     0
 48
10.0
100
AcDbPoint
 10
23.76507571356325
 20
128.2395668301009
 30
0.0
  0
POINT
  5
BF5
330
9ED
100
AcDbEntity
  8
Defpoints
 62
     0
 48
10.0
100
AcDbPoint
 10
77.76507571356325
 20
128.2395668301008
 30
0.0
  0
POINT
  5
BF6
330
9ED
100
AcDbEntity
  8
Defpoints
 62
     0
 48
10.0
100
AcDbPoint
 10
77.76507571356325
 20
146.7801080476146
 30
0.0
  0
ENDBLK
  5
9EF
330
9ED
100
AcDbEntity
  8
0
 48
10.0
100
AcDbBlockEnd
  0
BLOCK
  5
9FA
330
9F9
100
AcDbEntity
  8
0
 48
10.0
100
AcDbBlockBegin
  2
*D35
 70
     1
 10
0.0
 20
0.0
 30
0.0
  3
*D35
  1

  0
LINE
  5
BF7
330
9F9
100
AcDbEntity
  8
BEM
 48
10.0
370
    -2
100
AcDbLine
 10
77.76507571356325
 20
128.2395668301008
 30
0.0
 11
102.9259696386343
 21
128.2395668301008
 31
0.0
  0
LINE
  5
BF8
330
9F9
100
AcDbEntity
  8
BEM
 48
10.0
370
    -2
100
AcDbLine
 10
77.76507571356325
 20
88.23956683010086
 30
0.0
 11
102.9259696386343
 21
88.23956683010086
 31
0.0
  0
LINE
  5
BF9
330
9F9
100
AcDbEntity
  8
BEM
 48
10.0
370
    -2
100
AcDbLine
 10
101.6759696386343
 20
124.7395668301008
 30
0.0
 11
101.6759696386343
 21
91.73956683010086
 31
0.0
  0
SOLID
  5
BFA
330
9F9
100
AcDbEntity
  8
BEM
 48
10.0
100
AcDbTrace
 10
101.092636305301
 20
124.7395668301008
 30
0.0
 11
102.2593029719677
 21
124.7395668301008
 31
0.0
 12
101.6759696386343
 22
128.2395668301008
 32
0.0
 13
101.6759696386343
 23
128.2395668301008
 33
0.0
  0
SOLID
  5
BFB
330
9F9
100
AcDbEntity
  8
BEM
 48
10.0
100
AcDbTrace
 10
101.092636305301
 20
91.73956683010086
 30
0.0
 11
102.2593029719677
 21
91.73956683010086
 31
0.0
 12
101.6759696386343
 22
88.23956683010086
 32
0.0
 13
101.6759696386343
 23
88.23956683010086
 33
0.0
  0
MTEXT
  5
BFC
330
9F9
100
AcDbEntity
  8
BEM
 48
10.0
100
AcDbMText
 10
98.42596963863435
 20
107.8602330216365
 30
0.0
 40
3.5
 41
0.0
 71
     5
 72
     1
  1
\A1;40
 11
0.0000000000000001
 21
1.0
 31
0.0
 73
     1
 44
1.0
  0
POINT
  5
BFD
330
9F9
100
AcDbEntity
  8
Defpoints
 62
     0
 48
10.0
100
AcDbPoint
 10
77.76507571356325
 20
128.2395668301008
 30
0.0
  0
POINT
  5
BFE
330
9F9
100
AcDbEntity
  8
Defpoints
 62
     0
 48
10.0
100
AcDbPoint
 10
77.76507571356325
 20
88.23956683010086
 30
0.0
  0
POINT
  5
BFF
330
9F9
100
AcDbEntity
  8
Defpoints
 62
     0
 48
10.0
100
AcDbPoint
 10
101.6759696386343
 20
88.23956683010086
 30
0.0
  0
ENDBLK
  5
9FB
330
9F9
100
AcDbEntity
  8
0
 48
10.0
100
AcDbBlockEnd
  0
BLOCK
  5
A06
330
A05
100
AcDbEntity
  8
0
 48
10.0
100
AcDbBlockBegin
  2
*D36
 70
     1
 10
0.0
 20
0.0
 30
0.0
  3
*D36
  1

  0
LINE
  5
C00
330
A05
100
AcDbEntity
  8
BEM
 48
10.0
370
    -2
100
AcDbLine
 10
21.30556225770221
 20
108.2395668301008
 30
0.0
 11
8.414429228140553
 21
108.2395668301008
 31
0.0
  0
LINE
  5
C01
330
A05
100
AcDbEntity
  8
BEM
 48
10.0
370
    -2
100
AcDbLine
 10
23.76507571356325
 20
88.23956683010086
 30
0.0
 11
8.414429228140548
 21
88.23956683010086
 31
0.0
  0
LINE
  5
C02
330
A05
100
AcDbEntity
  8
BEM
 48
10.0
370
    -2
100
AcDbLine
 10
9.664429228140551
 20
104.7395668301008
 30
0.0
 11
9.664429228140548
 21
91.73956683010088
 31
0.0
  0
SOLID
  5
C03
330
A05
100
AcDbEntity
  8
BEM
 48
10.0
100
AcDbTrace
 10
9.081095894807218
 20
104.7395668301008
 30
0.0
 11
10.24776256147388
 21
104.7395668301008
 31
0.0
 12
9.664429228140553
 22
108.2395668301008
 32
0.0
 13
9.664429228140553
 23
108.2395668301008
 33
0.0
  0
SOLID
  5
C04
330
A05
100
AcDbEntity
  8
BEM
 48
10.0
100
AcDbTrace
 10
9.081095894807214
 20
91.73956683010088
 30
0.0
 11
10.24776256147388
 21
91.73956683010088
 31
0.0
 12
9.664429228140548
 22
88.23956683010086
 32
0.0
 13
9.664429228140548
 23
88.23956683010086
 33
0.0
  0
MTEXT
  5
C05
330
A05
100
AcDbEntity
  8
BEM
 48
10.0
100
AcDbMText
 10
6.414429228140535
 20
98.10322740944208
 30
0.0
 40
3.5
 41
0.0
 71
     5
 72
     1
  1
\A1;20{}{\H0.71x;\C3;%%p0.05}
 11
0.0000000000000001
 21
1.0
 31
0.0
 73
     1
 44
1.0
  0
POINT
  5
C06
330
A05
100
AcDbEntity
  8
Defpoints
 62
     0
 48
10.0
100
AcDbPoint
 10
21.30556225770221
 20
108.2395668301008
 30
0.0
  0
POINT
  5
C07
330
A05
100
AcDbEntity
  8
Defpoints
 62
     0
 48
10.0
100
AcDbPoint
 10
23.76507571356325
 20
88.23956683010086
 30
0.0
  0
POINT
  5
C08
330
A05
100
AcDbEntity
  8
Defpoints
 62
     0
 48
10.0
100
AcDbPoint
 10
9.664429228140548
 20
88.23956683010086
 30
0.0
  0
ENDBLK
  5
A07
330
A05
100
AcDbEntity
  8
0
 48
10.0
100
AcDbBlockEnd
  0
BLOCK
  5
A12
330
A11
100
AcDbEntity
  8
0
 48
10.0
100
AcDbBlockBegin
  2
*D37
 70
     1
 10
0.0
 20
0.0
 30
0.0
  3
*D37
  1

  0
LINE
  5
C09
330
A11
100
AcDbEntity
  8
BEM
 48
10.0
370
    -2
100
AcDbLine
 10
127.4841168982825
 20
128.2395668301008
 30
0.0
 11
127.4841168982825
 21
147.8366999908074
 31
0.0
  0
LINE
  5
C0A
330
A11
100
AcDbEntity
  8
BEM
 48
10.0
370
    -2
100
AcDbLine
 10
187.4841168982825
 20
128.2395668301008
 30
0.0
 11
187.4841168982825
 21
147.8366999908074
 31
0.0
  0
LINE
  5
C0B
330
A11
100
AcDbEntity
  8
BEM
 48
10.0
370
    -2
100
AcDbLine
 10
130.9841168982825
 20
146.5866999908074
 30
0.0
 11
183.9841168982825
 21
146.5866999908074
 31
0.0
  0
SOLID
  5
C0C
330
A11
100
AcDbEntity
  8
BEM
 48
10.0
100
AcDbTrace
 10
130.9841168982825
 20
147.1700333241408
 30
0.0
 11
130.9841168982825
 21
146.0033666574741
 31
0.0
 12
127.4841168982825
 22
146.5866999908074
 32
0.0
 13
127.4841168982825
 23
146.5866999908074
 33
0.0
  0
SOLID
  5
C0D
330
A11
100
AcDbEntity
  8
BEM
 48
10.0
100
AcDbTrace
 10
183.9841168982825
 20
147.1700333241408
 30
0.0
 11
183.9841168982825
 21
146.0033666574741
 31
0.0
 12
187.4841168982825
 22
146.5866999908074
 32
0.0
 13
187.4841168982825
 23
146.5866999908074
 33
0.0
  0
MTEXT
  5
C0E
330
A11
100
AcDbEntity
  8
BEM
 48
10.0
100
AcDbMText
 10
157.4841168982825
 20
149.8366999908074
 30
0.0
 40
3.5
 41
0.0
 71
     5
 72
     1
  1
\A1;60
 73
     1
 44
1.0
  0
POINT
  5
C0F
330
A11
100
AcDbEntity
  8
Defpoints
 62
     0
 48
10.0
100
AcDbPoint
 10
127.4841168982825
 20
128.2395668301008
 30
0.0
  0
POINT
  5
C10
330
A11
100
AcDbEntity
  8
Defpoints
 62
     0
 48
10.0
100
AcDbPoint
 10
187.4841168982825
 20
128.2395668301008
 30
0.0
  0
POINT
  5
C11
330
A11
100
AcDbEntity
  8
Defpoints
 62
     0
 48
10.0
100
AcDbPoint
 10
187.4841168982825
 20
146.5866999908074
 30
0.0
  0
ENDBLK
  5
A13
330
A11
100
AcDbEntity
  8
0
 48
10.0
100
AcDbBlockEnd
  0
BLOCK
  5
A1E
330
A1D
100
AcDbEntity
  8
0
 48
10.0
100
AcDbBlockBegin
  2
*D38
 70
     1
 10
0.0
 20
0.0
 30
0.0
  3
*D38
  1

  0
LINE
  5
C12
330
A1D
100
AcDbEntity
  8
BEM
 48
10.0
370
    -2
100
AcDbLine
 10
187.4841168982825
 20
250.608648606228
 30
0.0
 11
187.4841168982825
 21
266.598934063396
 31
0.0
  0
LINE
  5
C13
330
A1D
100
AcDbEntity
  8
BEM
 48
10.0
370
    -2
100
AcDbLine
 10
171.4841168982825
 20
247.108648606228
 30
0.0
 11
171.4841168982825
 21
266.598934063396
 31
0.0
  0
LINE
  5
C14
330
A1D
100
AcDbEntity
  8
BEM
 48
10.0
370
    -2
100
AcDbLine
 10
183.9841168982825
 20
265.348934063396
 30
0.0
 11
174.9841168982825
 21
265.348934063396
 31
0.0
  0
SOLID
  5
C15
330
A1D
100
AcDbEntity
  8
BEM
 48
10.0
100
AcDbTrace
 10
183.9841168982825
 20
265.9322673967293
 30
0.0
 11
183.9841168982825
 21
264.7656007300627
 31
0.0
 12
187.4841168982825
 22
265.348934063396
 32
0.0
 13
187.4841168982825
 23
265.348934063396
 33
0.0
  0
SOLID
  5
C16
330
A1D
100
AcDbEntity
  8
BEM
 48
10.0
100
AcDbTrace
 10
174.9841168982825
 20
265.9322673967293
 30
0.0
 11
174.9841168982825
 21
264.7656007300627
 31
0.0
 12
171.4841168982825
 22
265.348934063396
 32
0.0
 13
171.4841168982825
 23
265.348934063396
 33
0.0
  0
MTEXT
  5
C17
330
A1D
100
AcDbEntity
  8
BEM
 48
10.0
100
AcDbMText
 10
179.068377477698
 20
268.598934063396
 30
0.0
 40
3.5
 41
0.0
 71
     5
 72
     1
  1
\A1;16{}{\H0.71x;\C3;%%p0.1}
 73
     1
 44
1.0
  0
POINT
  5
C18
330
A1D
100
AcDbEntity
  8
Defpoints
 62
     0
 48
10.0
100
AcDbPoint
 10
187.4841168982825
 20
250.608648606228
 30
0.0
  0
POINT
  5
C19
330
A1D
100
AcDbEntity
  8
Defpoints
 62
     0
 48
10.0
100
AcDbPoint
 10
171.4841168982825
 20
247.108648606228
 30
0.0
  0
POINT
  5
C1A
330
A1D
100
AcDbEntity
  8
Defpoints
 62
     0
 48
10.0
100
AcDbPoint
 10
171.4841168982825
 20
265.348934063396
 30
0.0
  0
ENDBLK
  5
A1F
330
A1D
100
AcDbEntity
  8
0
 48
10.0
100
AcDbBlockEnd
  0
BLOCK
  5
A2A
330
A29
100
AcDbEntity
  8
0
 48
10.0
100
AcDbBlockBegin
  2
*D39
 70
     1
 10
0.0
 20
0.0
 30
0.0
  3
*D39
  1

  0
LINE
  5
C1B
330
A29
100
AcDbEntity
  8
BEM
 48
10.0
370
    -2
100
AcDbLine
 10
171.4841168982825
 20
247.108648606228
 30
0.0
 11
171.4841168982825
 21
266.598934063396
 31
0.0
  0
LINE
  5
C1C
330
A29
100
AcDbEntity
  8
BEM
 48
10.0
370
    -2
100
AcDbLine
 10
143.4841168982825
 20
247.108648606228
 30
0.0
 11
143.4841168982825
 21
266.598934063396
 31
0.0
  0
LINE
  5
C1D
330
A29
100
AcDbEntity
  8
BEM
 48
10.0
370
    -2
100
AcDbLine
 10
167.9841168982825
 20
265.348934063396
 30
0.0
 11
146.9841168982825
 21
265.348934063396
 31
0.0
  0
SOLID
  5
C1E
330
A29
100
AcDbEntity
  8
BEM
 48
10.0
100
AcDbTrace
 10
167.9841168982825
 20
265.9322673967293
 30
0.0
 11
167.9841168982825
 21
264.7656007300627
 31
0.0
 12
171.4841168982825
 22
265.348934063396
 32
0.0
 13
171.4841168982825
 23
265.348934063396
 33
0.0
  0
SOLID
  5
C1F
330
A29
100
AcDbEntity
  8
BEM
 48
10.0
100
AcDbTrace
 10
146.9841168982825
 20
265.9322673967293
 30
0.0
 11
146.9841168982825
 21
264.7656007300627
 31
0.0
 12
143.4841168982825
 22
265.348934063396
 32
0.0
 13
143.4841168982825
 23
265.348934063396
 33
0.0
  0
MTEXT
  5
C20
330
A29
100
AcDbEntity
  8
BEM
 48
10.0
100
AcDbMText
 10
157.4841168982825
 20
268.598934063396
 30
0.0
 40
3.5
 41
0.0
 71
     5
 72
     1
  1
\A1;28{}{\H0.71x;\C3;%%p0.05}
 73
     1
 44
1.0
  0
POINT
  5
C21
330
A29
100
AcDbEntity
  8
Defpoints
 62
     0
 48
10.0
100
AcDbPoint
 10
171.4841168982825
 20
247.108648606228
 30
0.0
  0
POINT
  5
C22
330
A29
100
AcDbEntity
  8
Defpoints
 62
     0
 48
10.0
100
AcDbPoint
 10
143.4841168982825
 20
247.108648606228
 30
0.0
  0
POINT
  5
C23
330
A29
100
AcDbEntity
  8
Defpoints
 62
     0
 48
10.0
100
AcDbPoint
 10
143.4841168982825
 20
265.348934063396
 30
0.0
  0
ENDBLK
  5
A2B
330
A29
100
AcDbEntity
  8
0
 48
10.0
100
AcDbBlockEnd
  0
BLOCK
  5
A36
330
A35
100
AcDbEntity
  8
0
 48
10.0
100
AcDbBlockBegin
  2
*D40
 70
     1
 10
0.0
 20
0.0
 30
0.0
  3
*D40
  1

  0
LINE
  5
C24
330
A35
100
AcDbEntity
  8
BEM
 48
10.0
370
    -2
100
AcDbLine
 10
174.9841168982825
 20
243.608648606228
 30
0.0
 11
219.9085042526783
 21
243.608648606228
 31
0.0
  0
LINE
  5
C25
330
A35
100
AcDbEntity
  8
BEM
 48
10.0
370
    -2
100
AcDbLine
 10
174.9841168982825
 20
203.608648606228
 30
0.0
 11
219.9085042526783
 21
203.608648606228
 31
0.0
  0
LINE
  5
C26
330
A35
100
AcDbEntity
  8
BEM
 48
10.0
370
    -2
100
AcDbLine
 10
218.6585042526783
 20
240.108648606228
 30
0.0
 11
218.6585042526783
 21
207.108648606228
 31
0.0
  0
SOLID
  5
C27
330
A35
100
AcDbEntity
  8
BEM
 48
10.0
100
AcDbTrace
 10
218.075170919345
 20
240.108648606228
 30
0.0
 11
219.2418375860117
 21
240.108648606228
 31
0.0
 12
218.6585042526783
 22
243.608648606228
 32
0.0
 13
218.6585042526783
 23
243.608648606228
 33
0.0
  0
SOLID
  5
C28
330
A35
100
AcDbEntity
  8
BEM
 48
10.0
100
AcDbTrace
 10
218.075170919345
 20
207.108648606228
 30
0.0
 11
219.2418375860117
 21
207.108648606228
 31
0.0
 12
218.6585042526783
 22
203.608648606228
 32
0.0
 13
218.6585042526783
 23
203.608648606228
 33
0.0
  0
MTEXT
  5
C29
330
A35
100
AcDbEntity
  8
BEM
 48
10.0
100
AcDbMText
 10
215.4085042526783
 20
223.608648606228
 30
0.0
 40
3.5
 41
0.0
 71
     5
 72
     1
  1
\A1;40{}{\H0.71x;\C3;%%p0.05}
 11
0.0000000000000001
 21
1.0
 31
0.0
 73
     1
 44
1.0
  0
POINT
  5
C2A
330
A35
100
AcDbEntity
  8
Defpoints
 62
     0
 48
10.0
100
AcDbPoint
 10
174.9841168982825
 20
243.608648606228
 30
0.0
  0
POINT
  5
C2B
330
A35
100
AcDbEntity
  8
Defpoints
 62
     0
 48
10.0
100
AcDbPoint
 10
174.9841168982825
 20
203.608648606228
 30
0.0
  0
POINT
  5
C2C
330
A35
100
AcDbEntity
  8
Defpoints
 62
     0
 48
10.0
100
AcDbPoint
 10
218.6585042526783
 20
203.608648606228
 30
0.0
  0
ENDBLK
  5
A37
330
A35
100
AcDbEntity
  8
0
 48
10.0
100
AcDbBlockEnd
  0
BLOCK
  5
A42
330
A41
100
AcDbEntity
  8
0
 48
10.0
100
AcDbBlockBegin
  2
*D41
 70
     1
 10
0.0
 20
0.0
 30
0.0
  3
*D41
  1

  0
LINE
  5
C2D
330
A41
100
AcDbEntity
  8
BEM
 48
10.0
370
    -2
100
AcDbLine
 10
143.4841168982825
 20
246.108648606228
 30
0.0
 11
104.1577319089016
 21
246.108648606228
 31
0.0
  0
LINE
  5
C2E
330
A41
100
AcDbEntity
  8
BEM
 48
10.0
370
    -2
100
AcDbLine
 10
143.4841168982825
 20
241.108648606228
 30
0.0
 11
104.1577319089016
 21
241.108648606228
 31
0.0
  0
LINE
  5
C2F
330
A41
100
AcDbEntity
  8
BEM
 48
10.0
370
    -2
100
AcDbLine
 10
105.4077319089016
 20
249.608648606228
 30
0.0
 11
105.4077319089016
 21
253.108648606228
 31
0.0
  0
LINE
  5
C30
330
A41
100
AcDbEntity
  8
BEM
 48
10.0
370
    -2
100
AcDbLine
 10
105.4077319089016
 20
237.6086486062281
 30
0.0
 11
105.4077319089016
 21
224.9419819395614
 31
0.0
  0
LINE
  5
C31
330
A41
100
AcDbEntity
  8
BEM
 48
10.0
370
    -2
100
AcDbLine
 10
105.4077319089016
 20
246.108648606228
 30
0.0
 11
105.4077319089016
 21
241.108648606228
 31
0.0
  0
SOLID
  5
C32
330
A41
100
AcDbEntity
  8
BEM
 48
10.0
100
AcDbTrace
 10
104.8243985755683
 20
249.608648606228
 30
0.0
 11
105.9910652422349
 21
249.608648606228
 31
0.0
 12
105.4077319089016
 22
246.108648606228
 32
0.0
 13
105.4077319089016
 23
246.108648606228
 33
0.0
  0
SOLID
  5
C33
330
A41
100
AcDbEntity
  8
BEM
 48
10.0
100
AcDbTrace
 10
104.8243985755683
 20
237.6086486062281
 30
0.0
 11
105.9910652422349
 21
237.6086486062281
 31
0.0
 12
105.4077319089016
 22
241.108648606228
 32
0.0
 13
105.4077319089016
 23
241.108648606228
 33
0.0
  0
MTEXT
  5
C34
330
A41
100
AcDbEntity
  8
BEM
 48
10.0
100
AcDbMText
 10
102.1577319089015
 20
229.5253152728947
 30
0.0
 40
3.5
 41
0.0
 71
     5
 72
     1
  1
\A1;M5
 11
0.0000000000000001
 21
1.0
 31
0.0
 73
     1
 44
1.0
  0
POINT
  5
C35
330
A41
100
AcDbEntity
  8
Defpoints
 62
     0
 48
10.0
100
AcDbPoint
 10
143.4841168982825
 20
246.108648606228
 30
0.0
  0
POINT
  5
C36
330
A41
100
AcDbEntity
  8
Defpoints
 62
     0
 48
10.0
100
AcDbPoint
 10
143.4841168982825
 20
241.108648606228
 30
0.0
  0
POINT
  5
C37
330
A41
100
AcDbEntity
  8
Defpoints
 62
     0
 48
10.0
100
AcDbPoint
 10
105.4077319089016
 20
241.108648606228
 30
0.0
  0
ENDBLK
  5
A43
330
A41
100
AcDbEntity
  8
0
 48
10.0
100
AcDbBlockEnd
  0
BLOCK
  5
A50
330
A4F
100
AcDbEntity
  8
0
 48
10.0
100
AcDbBlockBegin
  2
*D42
 70
     1
 10
0.0
 20
0.0
 30
0.0
  3
*D42
  1

  0
LINE
  5
C38
330
A4F
100
AcDbEntity
  8
BEM
 48
10.0
370
    -2
100
AcDbLine
 10
153.9841168982825
 20
243.608648606228
 30
0.0
 11
151.1533397248274
 21
243.608648606228
 31
0.0
  0
LINE
  5
C39
330
A4F
100
AcDbEntity
  8
BEM
 48
10.0
370
    -2
100
AcDbLine
 10
153.9841168982825
 20
203.608648606228
 30
0.0
 11
151.1533397248274
 21
203.608648606228
 31
0.0
  0
LINE
  5
C3A
330
A4F
100
AcDbEntity
  8
BEM
 48
10.0
370
    -2
100
AcDbLine
 10
152.4033397248274
 20
240.108648606228
 30
0.0
 11
152.4033397248274
 21
207.108648606228
 31
0.0
  0
SOLID
  5
C3B
330
A4F
100
AcDbEntity
  8
BEM
 48
10.0
100
AcDbTrace
 10
151.8200063914941
 20
240.108648606228
 30
0.0
 11
152.9866730581608
 21
240.108648606228
 31
0.0
 12
152.4033397248274
 22
243.608648606228
 32
0.0
 13
152.4033397248274
 23
243.608648606228
 33
0.0
  0
SOLID
  5
C3C
330
A4F
100
AcDbEntity
  8
BEM
 48
10.0
100
AcDbTrace
 10
151.8200063914941
 20
207.108648606228
 30
0.0
 11
152.9866730581608
 21
207.108648606228
 31
0.0
 12
152.4033397248274
 22
203.608648606228
 32
0.0
 13
152.4033397248274
 23
203.608648606228
 33
0.0
  0
MTEXT
  5
C3D
330
A4F
100
AcDbEntity
  8
BEM
 48
10.0
100
AcDbMText
 10
149.1533397248274
 20
223.608648606228
 30
0.0
 40
3.5
 41
0.0
 71
     5
 72
     1
  1
\A1;40{}{\H0.71x;\C3;%%p0.01}
 11
0.0000000000000001
 21
1.0
 31
0.0
 73
     1
 44
1.0
  0
POINT
  5
C3E
330
A4F
100
AcDbEntity
  8
Defpoints
 62
     0
 48
10.0
100
AcDbPoint
 10
153.9841168982825
 20
243.608648606228
 30
0.0
  0
POINT
  5
C3F
330
A4F
100
AcDbEntity
  8
Defpoints
 62
     0
 48
10.0
100
AcDbPoint
 10
153.9841168982825
 20
203.608648606228
 30
0.0
  0
POINT
  5
C40
330
A4F
100
AcDbEntity
  8
Defpoints
 62
     0
 48
10.0
100
AcDbPoint
 10
152.4033397248274
 20
203.608648606228
 30
0.0
  0
ENDBLK
  5
A51
330
A4F
100
AcDbEntity
  8
0
 48
10.0
100
AcDbBlockEnd
  0
BLOCK
  5
A5C
330
A5B
100
AcDbEntity
  8
0
 48
10.0
100
AcDbBlockBegin
  2
*D43
 70
     1
 10
0.0
 20
0.0
 30
0.0
  3
*D43
  1

  0
LINE
  5
C41
330
A5B
100
AcDbEntity
  8
BEM
 48
10.0
370
    -2
100
AcDbLine
 10
157.4841168982825
 20
200.108648606228
 30
0.0
 11
157.4841168982825
 21
168.7212940137676
 31
0.0
  0
LINE
  5
C42
330
A5B
100
AcDbEntity
  8
BEM
 48
10.0
370
    -2
100
AcDbLine
 10
171.4841168982825
 20
200.108648606228
 30
0.0
 11
171.4841168982825
 21
168.7212940137676
 31
0.0
  0
LINE
  5
C43
330
A5B
100
AcDbEntity
  8
BEM
 48
10.0
370
    -2
100
AcDbLine
 10
160.9841168982825
 20
169.9712940137676
 30
0.0
 11
167.9841168982825
 21
169.9712940137676
 31
0.0
  0
LINE
  5
C44
330
A5B
100
AcDbEntity
  8
BEM
 48
10.0
370
    -2
100
AcDbLine
 10
171.4841168982825
 20
169.9712940137676
 30
0.0
 11
194.6557835649492
 21
169.9712940137676
 31
0.0
  0
SOLID
  5
C45
330
A5B
100
AcDbEntity
  8
BEM
 48
10.0
100
AcDbTrace
 10
160.9841168982825
 20
170.554627347101
 30
0.0
 11
160.9841168982825
 21
169.3879606804343
 31
0.0
 12
157.4841168982825
 22
169.9712940137676
 32
0.0
 13
157.4841168982825
 23
169.9712940137676
 33
0.0
  0
SOLID
  5
C46
330
A5B
100
AcDbEntity
  8
BEM
 48
10.0
100
AcDbTrace
 10
167.9841168982825
 20
170.554627347101
 30
0.0
 11
167.9841168982825
 21
169.3879606804343
 31
0.0
 12
171.4841168982825
 22
169.9712940137676
 32
0.0
 13
171.4841168982825
 23
169.9712940137676
 33
0.0
  0
MTEXT
  5
C47
330
A5B
100
AcDbEntity
  8
BEM
 48
10.0
100
AcDbMText
 10
184.8199502316159
 20
173.2212940137676
 30
0.0
 40
3.5
 41
0.0
 71
     5
 72
     1
  1
\A1;14{}{\H0.71x;\C3;%%p0.05}
 73
     1
 44
1.0
  0
POINT
  5
C48
330
A5B
100
AcDbEntity
  8
Defpoints
 62
     0
 48
10.0
100
AcDbPoint
 10
157.4841168982825
 20
200.108648606228
 30
0.0
  0
POINT
  5
C49
330
A5B
100
AcDbEntity
  8
Defpoints
 62
     0
 48
10.0
100
AcDbPoint
 10
171.4841168982825
 20
200.108648606228
 30
0.0
  0
POINT
  5
C4A
330
A5B
100
AcDbEntity
  8
Defpoints
 62
     0
 48
10.0
100
AcDbPoint
 10
171.4841168982825
 20
169.9712940137676
 30
0.0
  0
ENDBLK
  5
A5D
330
A5B
100
AcDbEntity
  8
0
 48
10.0
100
AcDbBlockEnd
  0
BLOCK
  5
A69
330
A68
100
AcDbEntity
  8
0
 48
10.0
100
AcDbBlockBegin
  2
*D44
 70
     1
 10
0.0
 20
0.0
 30
0.0
  3
*D44
  1

  0
LINE
  5
C4B
330
A68
100
AcDbEntity
  8
BEM
 48
10.0
370
    -2
100
AcDbLine
 10
154.9841168982825
 20
203.608648606228
 30
0.0
 11
154.9841168982825
 21
182.5921143476336
 31
0.0
  0
LINE
  5
C4C
330
A68
100
AcDbEntity
  8
BEM
 48
10.0
370
    -2
100
AcDbLine
 10
159.9841168982825
 20
203.608648606228
 30
0.0
 11
159.9841168982825
 21
182.5921143476336
 31
0.0
  0
LINE
  5
C4D
330
A68
100
AcDbEntity
  8
BEM
 48
10.0
370
    -2
100
AcDbLine
 10
163.4841168982825
 20
183.8421143476336
 30
0.0
 11
166.9841168982825
 21
183.8421143476336
 31
0.0
  0
LINE
  5
C4E
330
A68
100
AcDbEntity
  8
BEM
 48
10.0
370
    -2
100
AcDbLine
 10
151.4841168982825
 20
183.8421143476336
 30
0.0
 11
130.4341168982825
 21
183.8421143476336
 31
0.0
  0
LINE
  5
C4F
330
A68
100
AcDbEntity
  8
BEM
 48
10.0
370
    -2
100
AcDbLine
 10
159.9841168982825
 20
183.8421143476336
 30
0.0
 11
154.9841168982825
 21
183.8421143476336
 31
0.0
  0
SOLID
  5
C50
330
A68
100
AcDbEntity
  8
BEM
 48
10.0
100
AcDbTrace
 10
163.4841168982825
 20
184.4254476809669
 30
0.0
 11
163.4841168982825
 21
183.2587810143002
 31
0.0
 12
159.9841168982825
 22
183.8421143476336
 32
0.0
 13
159.9841168982825
 23
183.8421143476336
 33
0.0
  0
SOLID
  5
C51
330
A68
100
AcDbEntity
  8
BEM
 48
10.0
100
AcDbTrace
 10
151.4841168982825
 20
184.4254476809669
 30
0.0
 11
151.4841168982825
 21
183.2587810143002
 31
0.0
 12
154.9841168982825
 22
183.8421143476336
 32
0.0
 13
154.9841168982825
 23
183.8421143476336
 33
0.0
  0
MTEXT
  5
C52
330
A68
100
AcDbEntity
  8
BEM
 48
10.0
100
AcDbMText
 10
138.4841168982825
 20
187.0921143476335
 30
0.0
 40
3.5
 41
0.0
 71
     5
 72
     1
  1
\A1;%%c5{}{\H0.71x;\C3; H7}
 73
     1
 44
1.0
  0
POINT
  5
C53
330
A68
100
AcDbEntity
  8
Defpoints
 62
     0
 48
10.0
100
AcDbPoint
 10
154.9841168982825
 20
203.608648606228
 30
0.0
  0
POINT
  5
C54
330
A68
100
AcDbEntity
  8
Defpoints
 62
     0
 48
10.0
100
AcDbPoint
 10
159.9841168982825
 20
203.608648606228
 30
0.0
  0
POINT
  5
C55
330
A68
100
AcDbEntity
  8
Defpoints
 62
     0
 48
10.0
100
AcDbPoint
 10
159.9841168982825
 20
183.8421143476336
 30
0.0
  0
ENDBLK
  5
A6A
330
A68
100
AcDbEntity
  8
0
 48
10.0
100
AcDbBlockEnd
  0
BLOCK
  5
A77
330
A76
100
AcDbEntity
  8
0
 48
10.0
100
AcDbBlockBegin
  2
*D45
 70
     1
 10
0.0
 20
0.0
 30
0.0
  3
*D45
  1

  0
LINE
  5
C56
330
A76
100
AcDbEntity
  8
BEM
 48
10.0
370
    -2
100
AcDbLine
 10
77.76507571356325
 20
110.2395668301008
 30
0.0
 11
89.62390631770018
 21
110.2395668301008
 31
0.0
  0
LINE
  5
C57
330
A76
100
AcDbEntity
  8
BEM
 48
10.0
370
    -2
100
AcDbLine
 10
77.76507571356325
 20
106.2395668301008
 30
0.0
 11
89.62390631770018
 21
106.2395668301008
 31
0.0
  0
LINE
  5
C58
330
A76
100
AcDbEntity
  8
BEM
 48
10.0
370
    -2
100
AcDbLine
 10
88.37390631770018
 20
102.7395668301009
 30
0.0
 11
88.37390631770018
 21
99.23956683010088
 31
0.0
  0
LINE
  5
C59
330
A76
100
AcDbEntity
  8
BEM
 48
10.0
370
    -2
100
AcDbLine
 10
88.37390631770018
 20
113.7395668301008
 30
0.0
 11
88.37390631770018
 21
122.7395668301008
 31
0.0
  0
LINE
  5
C5A
330
A76
100
AcDbEntity
  8
BEM
 48
10.0
370
    -2
100
AcDbLine
 10
88.37390631770018
 20
106.2395668301008
 30
0.0
 11
88.37390631770018
 21
110.2395668301008
 31
0.0
  0
SOLID
  5
C5B
330
A76
100
AcDbEntity
  8
BEM
 48
10.0
100
AcDbTrace
 10
87.79057298436686
 20
102.7395668301009
 30
0.0
 11
88.95723965103352
 21
102.7395668301009
 31
0.0
 12
88.37390631770018
 22
106.2395668301008
 32
0.0
 13
88.37390631770018
 23
106.2395668301008
 33
0.0
  0
SOLID
  5
C5C
330
A76
100
AcDbEntity
  8
BEM
 48
10.0
100
AcDbTrace
 10
87.79057298436686
 20
113.7395668301008
 30
0.0
 11
88.95723965103352
 21
113.7395668301008
 31
0.0
 12
88.37390631770018
 22
110.2395668301008
 32
0.0
 13
88.37390631770018
 23
110.2395668301008
 33
0.0
  0
MTEXT
  5
C5D
330
A76
100
AcDbEntity
  8
BEM
 48
10.0
100
AcDbMText
 10
85.12390631770017
 20
119.9895668301009
 30
0.0
 40
3.5
 41
0.0
 71
     5
 72
     1
  1
\A1;4
 11
0.0000000000000001
 21
1.0
 31
0.0
 73
     1
 44
1.0
  0
POINT
  5
C5E
330
A76
100
AcDbEntity
  8
Defpoints
 62
     0
 48
10.0
100
AcDbPoint
 10
77.76507571356325
 20
110.2395668301008
 30
0.0
  0
POINT
  5
C5F
330
A76
100
AcDbEntity
  8
Defpoints
 62
     0
 48
10.0
100
AcDbPoint
 10
77.76507571356325
 20
106.2395668301008
 30
0.0
  0
POINT
  5
C60
330
A76
100
AcDbEntity
  8
Defpoints
 62
     0
 48
10.0
100
AcDbPoint
 10
88.37390631770018
 20
106.2395668301008
 30
0.0
  0
ENDBLK
  5
A78
330
A76
100
AcDbEntity
  8
0
 48
10.0
100
AcDbBlockEnd
  0
BLOCK
  5
B0F
330
B0E
100
AcDbEntity
  8
0
 48
10.0
100
AcDbBlockBegin
  2
*D47
 70
     1
 10
0.0
 20
0.0
 30
0.0
  3
*D47
  1

  0
LINE
  5
C61
330
B0E
100
AcDbEntity
  8
BEM
 48
10.0
370
    -2
100
AcDbLine
 10
33.18755728160298
 20
65.269135802499
 30
0.0
 11
43.76080986821055
 21
91.11676741039069
 31
0.0
  0
LINE
  5
C62
330
B0E
100
AcDbEntity
  8
BEM
 48
10.0
370
    -2
100
AcDbLine
 10
57.76934155891587
 20
125.362366249811
 30
0.0
 11
59.09447293506367
 21
128.6018147886751
 31
0.0
  0
MTEXT
  5
C63
102
{ACAD_XDICTIONARY
360
D9D
102
}
330
B0E
100
AcDbEntity
  8
BEM
 48
10.0
100
AcDbMText
 10
33.85831503024902
 20
75.49294111919699
 30
0.0
 40
3.5
 41
0.0
 71
     5
 72
     1
  1
\A1;\U+220530{}{\H0.71x;\C3; H8}
 11
0.3786089646136564
 21
0.9255567253897382
 31
0.0
 73
     1
 44
1.0
  0
LINE
  5
C64
330
B0E
100
AcDbEntity
  8
BEM
 48
10.0
370
    -2
100
AcDbLine
 10
56.44421018276807
 20
122.122917710947
 30
0.0
 11
45.08594124435836
 21
94.35621594925477
 31
0.0
  0
SOLID
  5
C65
330
B0E
100
AcDbEntity
  8
BEM
 48
10.0
100
AcDbTrace
 10
57.22943346910518
 20
125.583221479169
 30
0.0
 11
58.30924964872655
 21
125.1415110204531
 31
0.0
 12
56.44421018276807
 22
122.122917710947
 32
0.0
 13
56.44421018276807
 23
122.122917710947
 33
0.0
  0
SOLID
  5
C66
330
B0E
100
AcDbEntity
  8
BEM
 48
10.0
100
AcDbTrace
 10
43.22090177839988
 20
91.33762263974865
 30
0.0
 11
44.30071795802123
 21
90.8959121810327
 31
0.0
 12
45.08594124435836
 22
94.35621594925477
 32
0.0
 13
45.08594124435836
 23
94.35621594925477
 33
0.0
  0
POINT
  5
C67
330
B0E
100
AcDbEntity
  8
Defpoints
 62
     0
 48
10.0
100
AcDbPoint
 10
45.08594124435836
 20
94.35621594925477
 30
0.0
  0
POINT
  5
C68
330
B0E
100
AcDbEntity
  8
Defpoints
 62
     0
 48
10.0
100
AcDbPoint
 10
56.44421018276807
 20
122.122917710947
 30
0.0
  0
ENDBLK
  5
B10
330
B0E
100
AcDbEntity
  8
0
 48
10.0
100
AcDbBlockEnd
  0
ENDSEC
  0
SECTION
  2
ENTITIES
  0
TEXT
  5
4FB
330
2
100
AcDbEntity
  8
TEXT
100
AcDbText
 10
381.8725546314985
 20
65.95747165905024
 30
0.0
 40
3.5
  1

100
AcDbText
  0
TEXT
  5
4FC
330
2
100
AcDbEntity
  8
TEXT
100
AcDbText
 10
348.5921867209947
 20
56.08465571486515
 30
0.0
 40
3.5
  1

100
AcDbText
  0
LINE
  5
97A
330
2
100
AcDbEntity
  8
MITTE
 48
10.0
100
AcDbLine
 10
83.53616452072794
 20
131.0512442424068
 30
0.0
 11
83.53616452072794
 21
85.66805877796932
 31
0.0
  0
LINE
  5
97B
330
2
100
AcDbEntity
  8
MITTE
 48
10.0
100
AcDbLine
 10
103.5361645207279
 20
128.9692903069767
 30
0.0
 11
103.5361645207279
 21
87.12133211651854
 31
0.0
  0
LINE
  5
97C
330
2
100
AcDbEntity
  8
0
 48
10.0
100
AcDbLine
 10
106.5361645207279
 20
110.2395668301009
 30
0.0
 11
106.5361645207279
 21
106.2395668301008
 31
0.0
  0
LINE
  5
97D
330
2
100
AcDbEntity
  8
LINIE
 48
10.0
100
AcDbLine
 10
105.8861645207279
 20
110.2395668301009
 30
0.0
 11
105.8861645207279
 21
106.2395668301008
 31
0.0
  0
LINE
  5
97E
330
2
100
AcDbEntity
  8
0
 48
10.0
100
AcDbLine
 10
100.5361645207279
 20
110.2395668301009
 30
0.0
 11
100.5361645207279
 21
106.2395668301008
 31
0.0
  0
LINE
  5
97F
330
2
100
AcDbEntity
  8
LINIE
 48
10.0
100
AcDbLine
 10
101.1861645207279
 20
110.2395668301009
 30
0.0
 11
101.1861645207279
 21
106.2395668301008
 31
0.0
  0
LINE
  5
980
330
2
100
AcDbEntity
  8
MITTE
 48
10.0
100
AcDbLine
 10
63.53616452072794
 20
128.7164329450381
 30
0.0
 11
63.53616452072794
 21
87.37419016770852
 31
0.0
  0
LINE
  5
981
330
2
100
AcDbEntity
  8
0
 48
10.0
100
AcDbLine
 10
66.53616452072793
 20
110.2395668301008
 30
0.0
 11
66.53616452072793
 21
106.2395668301008
 31
0.0
  0
LINE
  5
982
330
2
100
AcDbEntity
  8
LINIE
 48
10.0
100
AcDbLine
 10
65.8861645207279
 20
110.2395668301008
 30
0.0
 11
65.88616452072796
 21
106.2395668301008
 31
0.0
  0
LINE
  5
983
330
2
100
AcDbEntity
  8
0
 48
10.0
100
AcDbLine
 10
60.53616452072794
 20
110.2395668301008
 30
0.0
 11
60.53616452072794
 21
106.2395668301008
 31
0.0
  0
LINE
  5
984
330
2
100
AcDbEntity
  8
LINIE
 48
10.0
100
AcDbLine
 10
61.18616452072791
 20
110.2395668301008
 30
0.0
 11
61.18616452072797
 21
106.2395668301008
 31
0.0
  0
LINE
  5
985
330
2
100
AcDbEntity
  8
0
 48
10.0
100
AcDbLine
 10
110.5361645207279
 20
128.2395668301008
 30
0.0
 11
110.5361645207279
 21
110.2395668301008
 31
0.0
  0
LINE
  5
986
330
2
100
AcDbEntity
  8
0
 48
10.0
100
AcDbLine
 10
110.5361645207279
 20
106.2395668301008
 30
0.0
 11
110.5361645207279
 21
88.23956683010086
 31
0.0
  0
LINE
  5
987
330
2
100
AcDbEntity
  8
0
 48
10.0
100
AcDbLine
 10
56.53616452072793
 20
128.2395668301009
 30
0.0
 11
56.53616452072793
 21
110.2395668301008
 31
0.0
  0
LINE
  5
988
330
2
100
AcDbEntity
  8
0
 48
10.0
100
AcDbLine
 10
56.53616452072793
 20
106.2395668301008
 30
0.0
 11
56.53616452072793
 21
88.23956683010086
 31
0.0
  0
LINE
  5
989
330
2
100
AcDbEntity
  8
MITTE
 48
10.0
100
AcDbLine
 10
54.07665106486689
 20
108.2395668301008
 30
0.0
 11
112.2302420306894
 21
108.2395668301009
 31
0.0
  0
LINE
  5
98A
330
2
100
AcDbEntity
  8
0
 48
10.0
100
AcDbLine
 10
56.53616452072793
 20
110.2395668301008
 30
0.0
 11
68.6700957734094
 21
110.2395668301008
 31
0.0
  0
LINE
  5
98B
330
2
100
AcDbEntity
  8
0
 48
10.0
100
AcDbLine
 10
98.40223326804645
 20
110.2395668301008
 30
0.0
 11
110.5361645207279
 21
110.2395668301009
 31
0.0
  0
LINE
  5
98C
330
2
100
AcDbEntity
  8
0
 48
10.0
100
AcDbLine
 10
56.53616452072793
 20
106.2395668301008
 30
0.0
 11
68.67009577340946
 21
106.2395668301008
 31
0.0
  0
LINE
  5
98D
330
2
100
AcDbEntity
  8
0
 48
10.0
100
AcDbLine
 10
98.40223326804645
 20
106.2395668301008
 30
0.0
 11
110.5361645207279
 21
106.2395668301008
 31
0.0
  0
LINE
  5
98E
330
2
100
AcDbEntity
  8
0
 48
10.0
100
AcDbLine
 10
56.53616452072793
 20
128.2395668301008
 30
0.0
 11
110.5361645207279
 21
128.2395668301008
 31
0.0
  0
LINE
  5
98F
330
2
100
AcDbEntity
  8
0
 48
10.0
100
AcDbLine
 10
56.53616452072793
 20
88.23956683010086
 30
0.0
 11
110.5361645207279
 21
88.23956683010086
 31
0.0
  0
LINE
  5
990
330
2
100
AcDbEntity
  8
0
 48
10.0
100
AcDbLine
 10
127.4841168982825
 20
128.2395668301008
 30
0.0
 11
187.4841168982825
 21
128.2395668301008
 31
0.0
  0
LINE
  5
991
330
2
100
AcDbEntity
  8
0
 48
10.0
100
AcDbLine
 10
127.4841168982825
 20
110.2395668301009
 30
0.0
 11
187.4841168982825
 21
110.2395668301008
 31
0.0
  0
LINE
  5
992
330
2
100
AcDbEntity
  8
MITTE
 48
10.0
100
AcDbLine
 10
126.056725559865
 20
108.2395668301008
 30
0.0
 11
192.9708233621763
 21
108.2395668301009
 31
0.0
  0
LINE
  5
993
330
2
100
AcDbEntity
  8
0
 48
10.0
100
AcDbLine
 10
127.4841168982825
 20
106.2395668301008
 30
0.0
 11
187.4841168982825
 21
106.2395668301008
 31
0.0
  0
LINE
  5
994
330
2
100
AcDbEntity
  8
0
 48
10.0
100
AcDbLine
 10
127.4841168982825
 20
88.23956683010086
 30
0.0
 11
187.4841168982825
 21
88.23956683010086
 31
0.0
  0
LINE
  5
995
330
2
100
AcDbEntity
  8
0
 48
10.0
100
AcDbLine
 10
127.4841168982825
 20
128.2395668301008
 30
0.0
 11
127.4841168982825
 21
110.2395668301009
 31
0.0
  0
LINE
  5
996
330
2
100
AcDbEntity
  8
0
 48
10.0
100
AcDbLine
 10
127.4841168982825
 20
106.2395668301008
 30
0.0
 11
127.4841168982825
 21
88.23956683010086
 31
0.0
  0
LINE
  5
997
330
2
100
AcDbEntity
  8
0
 48
10.0
100
AcDbLine
 10
187.4841168982825
 20
128.2395668301008
 30
0.0
 11
187.4841168982825
 21
110.2395668301009
 31
0.0
  0
LINE
  5
998
330
2
100
AcDbEntity
  8
0
 48
10.0
100
AcDbLine
 10
187.4841168982825
 20
106.2395668301008
 30
0.0
 11
187.4841168982825
 21
88.23956683010086
 31
0.0
  0
LINE
  5
999
330
2
100
AcDbEntity
  8
0
 48
10.0
100
AcDbLine
 10
137.4841168982825
 20
110.2395668301009
 30
0.0
 11
137.4841168982825
 21
106.2395668301009
 31
0.0
  0
LINE
  5
99A
330
2
100
AcDbEntity
  8
LINIE
 48
10.0
100
AcDbLine
 10
136.8341168982825
 20
110.2395668301009
 30
0.0
 11
136.8341168982825
 21
106.2395668301009
 31
0.0
  0
LINE
  5
99B
330
2
100
AcDbEntity
  8
0
 48
10.0
100
AcDbLine
 10
131.4841168982825
 20
110.2395668301009
 30
0.0
 11
131.4841168982825
 21
106.2395668301008
 31
0.0
  0
LINE
  5
99C
330
2
100
AcDbEntity
  8
LINIE
 48
10.0
100
AcDbLine
 10
132.1341168982826
 20
110.2395668301009
 30
0.0
 11
132.1341168982826
 21
106.2395668301008
 31
0.0
  0
LINE
  5
99D
330
2
100
AcDbEntity
  8
0
 48
10.0
100
AcDbLine
 10
183.4841168982825
 20
110.2395668301009
 30
0.0
 11
183.4841168982825
 21
106.2395668301008
 31
0.0
  0
LINE
  5
99E
330
2
100
AcDbEntity
  8
LINIE
 48
10.0
100
AcDbLine
 10
182.8341168982825
 20
110.2395668301009
 30
0.0
 11
182.8341168982825
 21
106.2395668301008
 31
0.0
  0
LINE
  5
99F
330
2
100
AcDbEntity
  8
0
 48
10.0
100
AcDbLine
 10
177.4841168982825
 20
110.2395668301009
 30
0.0
 11
177.4841168982825
 21
106.2395668301008
 31
0.0
  0
LINE
  5
9A0
330
2
100
AcDbEntity
  8
LINIE
 48
10.0
100
AcDbLine
 10
178.1341168982826
 20
110.2395668301009
 30
0.0
 11
178.1341168982826
 21
106.2395668301008
 31
0.0
  0
LINE
  5
9A1
330
2
100
AcDbEntity
  8
0
 48
10.0
100
AcDbLine
 10
127.4841168982825
 20
20.71839554532335
 30
0.0
 11
127.4841168982825
 21
74.71839554532334
 31
0.0
  0
LINE
  5
9A2
330
2
100
AcDbEntity
  8
0
 48
10.0
100
AcDbLine
 10
187.4841168982825
 20
74.71839554532334
 30
0.0
 11
187.4841168982825
 21
20.71839554532335
 31
0.0
  0
LINE
  5
9A3
330
2
100
AcDbEntity
  8
0
 48
10.0
100
AcDbLine
 10
127.4841168982825
 20
20.71839554532335
 30
0.0
 11
187.4841168982825
 21
20.71839554532335
 31
0.0
  0
LINE
  5
9A4
330
2
100
AcDbEntity
  8
MITTE
 48
10.0
100
AcDbLine
 10
189.2540611378852
 20
47.71839554532334
 30
0.0
 11
125.9076831200123
 21
47.71839554532334
 31
0.0
  0
LINE
  5
9A5
330
2
100
AcDbEntity
  8
MITTE
 48
10.0
100
AcDbLine
 10
187.4841168982825
 20
27.71839554532335
 30
0.0
 11
173.4841168982825
 21
27.71839554532335
 31
0.0
  0
LINE
  5
9A6
330
2
100
AcDbEntity
  8
MITTE
 48
10.0
100
AcDbLine
 10
141.4841168982825
 20
27.71839554532335
 30
0.0
 11
127.4841168982825
 21
27.71839554532335
 31
0.0
  0
LINE
  5
9A7
330
2
100
AcDbEntity
  8
MITTE
 48
10.0
100
AcDbLine
 10
187.4841168982825
 20
67.71839554532334
 30
0.0
 11
173.4841168982825
 21
67.71839554532334
 31
0.0
  0
LINE
  5
9A8
330
2
100
AcDbEntity
  8
MITTE
 48
10.0
100
AcDbLine
 10
141.4841168982825
 20
67.71839554532334
 30
0.0
 11
127.4841168982825
 21
67.71839554532334
 31
0.0
  0
LINE
  5
9A9
330
2
100
AcDbEntity
  8
0
 48
10.0
100
AcDbLine
 10
127.4841168982825
 20
74.71839554532334
 30
0.0
 11
187.4841168982825
 21
74.71839554532334
 31
0.0
  0
LINE
  5
9AA
330
2
100
AcDbEntity
  8
0
 48
10.0
100
AcDbLine
 10
127.4841168982825
 20
143.4086480643001
 30
0.0
 11
127.4841168982825
 21
197.4086480643001
 31
0.0
  0
LINE
  5
9AB
330
2
100
AcDbEntity
  8
0
 48
10.0
100
AcDbLine
 10
187.4841168982825
 20
197.4086480643001
 30
0.0
 11
187.4841168982825
 21
143.4086480643001
 31
0.0
  0
LINE
  5
9AC
330
2
100
AcDbEntity
  8
MITTE
 48
10.0
100
AcDbLine
 10
171.4841168982825
 20
193.9086480643001
 30
0.0
 11
171.4841168982825
 21
186.9086480643001
 31
0.0
  0
LINE
  5
9AD
330
2
100
AcDbEntity
  8
MITTE
 48
10.0
100
AcDbLine
 10
171.4841168982825
 20
153.9086480643001
 30
0.0
 11
171.4841168982825
 21
146.9086480643001
 31
0.0
  0
LINE
  5
9AE
330
2
100
AcDbEntity
  8
MITTE
 48
10.0
100
AcDbLine
 10
157.4841168982825
 20
193.9086480643001
 30
0.0
 11
157.4841168982825
 21
186.9086480643001
 31
0.0
  0
LINE
  5
9AF
330
2
100
AcDbEntity
  8
MITTE
 48
10.0
100
AcDbLine
 10
157.4841168982825
 20
153.9086480643001
 30
0.0
 11
157.4841168982825
 21
146.9086480643001
 31
0.0
  0
LINE
  5
9B0
330
2
100
AcDbEntity
  8
MITTE
 48
10.0
100
AcDbLine
 10
143.4841168982825
 20
193.9086480643001
 30
0.0
 11
143.4841168982825
 21
186.9086480643001
 31
0.0
  0
LINE
  5
9B1
330
2
100
AcDbEntity
  8
MITTE
 48
10.0
100
AcDbLine
 10
143.4841168982825
 20
153.9086480643001
 30
0.0
 11
143.4841168982825
 21
146.9086480643001
 31
0.0
  0
LINE
  5
9B2
330
2
100
AcDbEntity
  8
0
 48
10.0
100
AcDbLine
 10
127.4841168982825
 20
143.4086480643001
 30
0.0
 11
187.4841168982825
 21
143.4086480643001
 31
0.0
  0
LINE
  5
9B3
330
2
100
AcDbEntity
  8
MITTE
 48
10.0
100
AcDbLine
 10
189.2540611378852
 20
170.4086480643001
 30
0.0
 11
124.7666297783414
 21
170.4086480643001
 31
0.0
  0
LINE
  5
9B5
330
2
100
AcDbEntity
  8
MITTE
 48
10.0
100
AcDbLine
 10
174.9841168982825
 20
190.4086480643001
 30
0.0
 11
167.9841168982825
 21
190.4086480643001
 31
0.0
  0
LINE
  5
9B6
330
2
100
AcDbEntity
  8
MITTE
 48
10.0
100
AcDbLine
 10
160.9841168982825
 20
190.4086480643001
 30
0.0
 11
153.9841168982825
 21
190.4086480643001
 31
0.0
  0
LINE
  5
9B7
330
2
100
AcDbEntity
  8
MITTE
 48
10.0
100
AcDbLine
 10
146.9841168982825
 20
190.4086480643001
 30
0.0
 11
139.9841168982825
 21
190.4086480643001
 31
0.0
  0
LINE
  5
9B8
330
2
100
AcDbEntity
  8
MITTE
 48
10.0
100
AcDbLine
 10
174.9841168982825
 20
150.4086480643001
 30
0.0
 11
167.9841168982825
 21
150.4086480643001
 31
0.0
  0
LINE
  5
9B9
330
2
100
AcDbEntity
  8
MITTE
 48
10.0
100
AcDbLine
 10
160.9841168982825
 20
150.4086480643001
 30
0.0
 11
153.9841168982825
 21
150.4086480643001
 31
0.0
  0
LINE
  5
9BA
330
2
100
AcDbEntity
  8
MITTE
 48
10.0
100
AcDbLine
 10
146.9841168982825
 20
150.4086480643001
 30
0.0
 11
139.9841168982825
 21
150.4086480643001
 31
0.0
  0
LINE
  5
9BB
330
2
100
AcDbEntity
  8
0
 48
10.0
100
AcDbLine
 10
127.4841168982825
 20
197.4086480643001
 30
0.0
 11
187.4841168982825
 21
197.4086480643001
 31
0.0
  0
LINE
  5
9BC
330
2
100
AcDbEntity
  8
MITTE
 48
10.0
100
AcDbLine
 10
134.4841168982825
 20
130.1769234149051
 30
0.0
 11
134.4841168982825
 21
85.87047881511555
 31
0.0
  0
LINE
  5
9BD
330
2
100
AcDbEntity
  8
MITTE
 48
10.0
100
AcDbLine
 10
134.4841168982825
 20
74.71839554532334
 30
0.0
 11
134.4841168982825
 21
60.71839554532335
 31
0.0
  0
LINE
  5
9BE
330
2
100
AcDbEntity
  8
MITTE
 48
10.0
100
AcDbLine
 10
134.4841168982825
 20
34.71839554532335
 30
0.0
 11
134.4841168982825
 21
20.71839554532335
 31
0.0
  0
LINE
  5
9BF
330
2
100
AcDbEntity
  8
MITTE
 48
10.0
100
AcDbLine
 10
180.4841168982825
 20
130.1769234149051
 30
0.0
 11
180.4841168982825
 21
85.37818519300433
 31
0.0
  0
LINE
  5
9C0
330
2
100
AcDbEntity
  8
MITTE
 48
10.0
100
AcDbLine
 10
180.4841168982825
 20
74.71839554532334
 30
0.0
 11
180.4841168982825
 21
60.71839554532335
 31
0.0
  0
LINE
  5
9C1
330
2
100
AcDbEntity
  8
MITTE
 48
10.0
100
AcDbLine
 10
180.4841168982825
 20
34.71839554532335
 30
0.0
 11
180.4841168982825
 21
20.71839554532335
 31
0.0
  0
CIRCLE
  5
9C2
330
2
100
AcDbEntity
  8
0
 48
10.0
100
AcDbCircle
 10
134.4841168982825
 20
67.71839554532334
 30
0.0
 40
5.5
  0
CIRCLE
  5
9C3
330
2
100
AcDbEntity
  8
0
 48
10.0
100
AcDbCircle
 10
180.4841168982825
 20
67.71839554532334
 30
0.0
 40
5.5
  0
CIRCLE
  5
9C4
330
2
100
AcDbEntity
  8
0
 48
10.0
100
AcDbCircle
 10
134.4841168982825
 20
27.71839554532335
 30
0.0
 40
5.5
  0
CIRCLE
  5
9C5
330
2
100
AcDbEntity
  8
0
 48
10.0
100
AcDbCircle
 10
180.4841168982825
 20
27.71839554532335
 30
0.0
 40
5.5
  0
CIRCLE
  5
9C6
330
2
100
AcDbEntity
  8
0
 48
10.0
100
AcDbCircle
 10
180.4841168982825
 20
67.71839554532334
 30
0.0
 40
5.0
  0
CIRCLE
  5
9C7
330
2
100
AcDbEntity
  8
0
 48
10.0
100
AcDbCircle
 10
134.4841168982825
 20
67.71839554532334
 30
0.0
 40
5.0
  0
CIRCLE
  5
9C8
330
2
100
AcDbEntity
  8
0
 48
10.0
100
AcDbCircle
 10
134.4841168982825
 20
27.71839554532335
 30
0.0
 40
5.0
  0
CIRCLE
  5
9C9
330
2
100
AcDbEntity
  8
0
 48
10.0
100
AcDbCircle
 10
180.4841168982825
 20
27.71839554532335
 30
0.0
 40
5.0
  0
LWPOLYLINE
  5
9CA
330
2
100
AcDbEntity
  8
0
 48
10.0
100
AcDbPolyline
 90
        6
 70
     1
 43
0.0
 10
179.3294163599033
 20
69.71839554532334
 10
178.174715821524
 20
67.71839554532334
 10
179.3294163599033
 20
65.71839554532335
 10
181.6388174366618
 20
65.71839554532335
 10
182.793517975041
 20
67.71839554532334
 10
181.6388174366618
 20
69.71839554532334
  0
LWPOLYLINE
  5
9CB
330
2
100
AcDbEntity
  8
0
 48
10.0
100
AcDbPolyline
 90
        6
 70
     1
 43
0.0
 10
133.3294163599033
 20
69.71839554532334
 10
132.174715821524
 20
67.71839554532334
 10
133.3294163599033
 20
65.71839554532335
 10
135.6388174366617
 20
65.71839554532335
 10
136.793517975041
 20
67.71839554532334
 10
135.6388174366617
 20
69.71839554532334
  0
LWPOLYLINE
  5
9CC
330
2
100
AcDbEntity
  8
0
 48
10.0
100
AcDbPolyline
 90
        6
 70
     1
 43
0.0
 10
133.3294163599033
 20
29.71839554532335
 10
132.174715821524
 20
27.71839554532335
 10
133.3294163599033
 20
25.71839554532335
 10
135.6388174366617
 20
25.71839554532335
 10
136.793517975041
 20
27.71839554532335
 10
135.6388174366617
 20
29.71839554532335
  0
LWPOLYLINE
  5
9CD
330
2
100
AcDbEntity
  8
0
 48
10.0
100
AcDbPolyline
 90
        6
 70
     1
 43
0.0
 10
179.3294163599033
 20
29.71839554532335
 10
178.174715821524
 20
27.71839554532335
 10
179.3294163599033
 20
25.71839554532335
 10
181.6388174366618
 20
25.71839554532335
 10
182.793517975041
 20
27.71839554532335
 10
181.6388174366618
 20
29.71839554532335
  0
ARC
  5
9CE
330
2
100
AcDbEntity
  8
LINIE
 48
10.0
100
AcDbCircle
 10
171.4841168982825
 20
190.4086480643001
 30
0.0
 40
2.5
100
AcDbArc
 50
167.6048387530964
 51
112.686746618011
  0
ARC
  5
9CF
330
2
100
AcDbEntity
  8
LINIE
 48
10.0
100
AcDbCircle
 10
143.4841168982825
 20
190.4086480643001
 30
0.0
 40
2.5
100
AcDbArc
 50
159.0843980973362
 51
115.4700923144396
  0
ARC
  5
9D0
330
2
100
AcDbEntity
  8
LINIE
 48
10.0
100
AcDbCircle
 10
143.4841168982825
 20
150.4086480643001
 30
0.0
 40
2.5
100
AcDbArc
 50
164.1591718432312
 51
114.1318279129959
  0
ARC
  5
9D1
330
2
100
AcDbEntity
  8
LINIE
 48
10.0
100
AcDbCircle
 10
171.4841168982825
 20
150.4086480643001
 30
0.0
 40
2.5
100
AcDbArc
 50
162.996330013348
 51
108.5379085223772
  0
CIRCLE
  5
9D2
330
2
100
AcDbEntity
  8
0
 48
10.0
100
AcDbCircle
 10
171.4841168982825
 20
190.4086480643001
 30
0.0
 40
2.0
  0
CIRCLE
  5
9D3
330
2
100
AcDbEntity
  8
0
 48
10.0
100
AcDbCircle
 10
143.4841168982825
 20
190.4086480643001
 30
0.0
 40
2.0
  0
CIRCLE
  5
9D4
330
2
100
AcDbEntity
  8
0
 48
10.0
100
AcDbCircle
 10
143.4841168982825
 20
150.4086480643001
 30
0.0
 40
2.0
  0
CIRCLE
  5
9D5
330
2
100
AcDbEntity
  8
0
 48
10.0
100
AcDbCircle
 10
171.4841168982825
 20
150.4086480643001
 30
0.0
 40
2.0
  0
CIRCLE
  5
9D6
330
2
100
AcDbEntity
  8
0
 48
10.0
100
AcDbCircle
 10
157.4841168982825
 20
190.4086480643001
 30
0.0
 40
2.5
  0
CIRCLE
  5
9D7
330
2
100
AcDbEntity
  8
0
 48
10.0
100
AcDbCircle
 10
157.4841168982825
 20
150.4086480643001
 30
0.0
 40
2.5
  0
DIMENSION
  5
9D8
330
2
100
AcDbEntity
  8
BEM
 48
10.0
100
AcDbDimension
  2
*D34
 10
77.76507571356325
 20
146.7801080476146
 30
0.0
 11
50.76507571356325
 21
150.0301080476146
 31
0.0
 70
    32
 71
     5
 42
54.0
  3
ISO-25
100
AcDbAlignedDimension
 13
23.76507571356325
 23
128.2395668301009
 33
0.0
 14
77.76507571356325
 24
128.2395668301008
 34
0.0
100
AcDbRotatedDimension
1001
ACAD
1000
DSTYLE
1002
{
1070
   144
1040
1.0
1002
}
  0
DIMENSION
  5
9D9
330
2
100
AcDbEntity
  8
BEM
 48
10.0
100
AcDbDimension
  2
*D35
 10
101.6759696386343
 20
88.23956683010086
 30
0.0
 11
101.6759696386343
 21
107.8602330216365
 31
0.0
 70
   160
 71
     5
 42
39.99999999999999
  3
ISO-25
100
AcDbAlignedDimension
 13
77.76507571356325
 23
128.2395668301008
 33
0.0
 14
77.76507571356325
 24
88.23956683010086
 34
0.0
 50
90.0
100
AcDbRotatedDimension
1001
ACAD
1000
DSTYLE
1002
{
1070
   144
1040
1.0
1002
}
  0
DIMENSION
  5
9DA
330
2
100
AcDbEntity
  8
BEM
 48
10.0
100
AcDbDimension
  2
*D36
 10
9.664429228140548
 20
88.23956683010086
 30
0.0
 11
9.664429228140534
 21
98.10322740944208
 31
0.0
 70
   160
  1
<>{}{\H0.71x;\C3;%%p0.05}
 71
     5
 42
19.99999999999997
  3
ISO-25
100
AcDbAlignedDimension
 13
21.30556225770221
 23
108.2395668301008
 33
0.0
 14
23.76507571356325
 24
88.23956683010086
 34
0.0
 50
90.0
100
AcDbRotatedDimension
1001
ACAD_DSTYLE_DIMINSPECT
1070
   396
1000
100%
1070
   395
1000

1070
   394
1070
    33
1070
   393
1070
     0
1001
ACAD
1000
DSTYLE
1002
{
1070
   286
1070
     0
1070
   284
1070
     8
1070
   274
1070
     2
1070
   272
1070
     4
1070
    47
1040
0.05
1070
    48
1040
0.05
1070
   144
1040
1.0
1002
}
1001
GENIUS_GENDTOL_13
1000
TolSmPm
1000

1000
{\H0.71x;$2%%p$P}
1040
20.0
  0
DIMENSION
  5
9DB
330
2
100
AcDbEntity
  8
BEM
 48
10.0
100
AcDbDimension
  2
*D37
 10
187.4841168982825
 20
146.5866999908074
 30
0.0
 11
157.4841168982825
 21
149.8366999908074
 31
0.0
 70
    32
 71
     5
 42
60.0
  3
ISO-25
100
AcDbAlignedDimension
 13
127.4841168982825
 23
128.2395668301008
 33
0.0
 14
187.4841168982825
 24
128.2395668301008
 34
0.0
100
AcDbRotatedDimension
1001
ACAD
1000
DSTYLE
1002
{
1070
   144
1040
1.0
1002
}
  0
DIMENSION
  5
9DC
330
2
100
AcDbEntity
  8
BEM
 48
10.0
100
AcDbDimension
  2
*D38
 10
171.4841168982825
 20
265.348934063396
 30
0.0
 11
179.068377477698
 21
265.348934063396
 31
0.0
 70
   160
  1
<>{}{\H0.71x;\C3;%%p0.1}
 71
     5
 42
16.0
  3
ISO-25
100
AcDbAlignedDimension
 13
187.4841168982825
 23
250.608648606228
 33
0.0
 14
171.4841168982825
 24
247.108648606228
 34
0.0
100
AcDbRotatedDimension
1001
ACAD_DSTYLE_DIMINSPECT
1070
   396
1000
100%
1070
   395
1000

1070
   394
1070
    33
1070
   393
1070
     0
1001
ACAD
1000
DSTYLE
1002
{
1070
   286
1070
     0
1070
   284
1070
     8
1070
   274
1070
     2
1070
   272
1070
     4
1070
    47
1040
0.1
1070
    48
1040
0.1
1070
   144
1040
1.0
1002
}
1001
GENIUS_GENDTOL_13
1000
TolSmPm
1000

1000
{\H0.71x;$2%%p$P}
1040
16.0
  0
DIMENSION
  5
9DD
330
2
100
AcDbEntity
  8
BEM
 48
10.0
100
AcDbDimension
  2
*D39
 10
143.4841168982825
 20
265.348934063396
 30
0.0
 11
157.4841168982825
 21
268.598934063396
 31
0.0
 70
    32
  1
<>{}{\H0.71x;\C3;%%p0.05}
 71
     5
 42
28.0
  3
ISO-25
100
AcDbAlignedDimension
 13
171.4841168982825
 23
247.108648606228
 33
0.0
 14
143.4841168982825
 24
247.108648606228
 34
0.0
100
AcDbRotatedDimension
1001
ACAD_DSTYLE_DIMINSPECT
1070
   396
1000
100%
1070
   395
1000

1070
   394
1070
    33
1070
   393
1070
     0
1001
ACAD
1000
DSTYLE
1002
{
1070
   286
1070
     0
1070
   284
1070
     8
1070
   274
1070
     2
1070
   272
1070
     4
1070
    47
1040
0.05
1070
    48
1040
0.05
1070
   144
1040
1.0
1002
}
1001
GENIUS_GENDTOL_13
1000
TolSmPm
1000

1000
{\H0.71x;$2%%p$P}
1040
28.0
  0
DIMENSION
  5
9DE
330
2
100
AcDbEntity
  8
BEM
 48
10.0
100
AcDbDimension
  2
*D40
 10
218.6585042526783
 20
203.608648606228
 30
0.0
 11
215.4085042526783
 21
223.608648606228
 31
0.0
 70
    32
  1
<>{}{\H0.71x;\C3;%%p0.05}
 71
     5
 42
40.0
  3
ISO-25
100
AcDbAlignedDimension
 13
174.9841168982825
 23
243.608648606228
 33
0.0
 14
174.9841168982825
 24
203.608648606228
 34
0.0
 50
90.0
100
AcDbRotatedDimension
1001
ACAD_DSTYLE_DIMINSPECT
1070
   396
1000
100%
1070
   395
1000

1070
   394
1070
    33
1070
   393
1070
     0
1001
ACAD
1000
DSTYLE
1002
{
1070
   286
1070
     0
1070
   284
1070
     8
1070
   274
1070
     2
1070
   272
1070
     4
1070
    47
1040
0.05
1070
    48
1040
0.05
1070
   144
1040
1.0
1002
}
1001
GENIUS_GENDTOL_13
1000
TolSmPm
1000

1000
{\H0.71x;$2%%p$P}
1040
40.0
  0
DIMENSION
  5
9DF
330
2
100
AcDbEntity
  8
BEM
 48
10.0
100
AcDbDimension
  2
*D41
 10
105.4077319089016
 20
241.108648606228
 30
0.0
 11
102.1577319089015
 21
229.5253152728947
 31
0.0
 70
    32
  1
M<>
 71
     5
 42
5.0
  3
ISO-25
100
AcDbAlignedDimension
 13
143.4841168982825
 23
246.108648606228
 33
0.0
 14
143.4841168982825
 24
241.108648606228
 34
0.0
 50
90.0
100
AcDbRotatedDimension
1001
ACAD
1000
DSTYLE
1002
{
1070
   144
1040
1.0
1002
}
  0
DIMENSION
  5
9E0
330
2
100
AcDbEntity
  8
BEM
 48
10.0
100
AcDbDimension
  2
*D42
 10
152.4033397248274
 20
203.608648606228
 30
0.0
 11
149.1533397248274
 21
223.608648606228
 31
0.0
 70
    32
  1
<>{}{\H0.71x;\C3;%%p0.01}
 71
     5
 42
40.0
  3
ISO-25
100
AcDbAlignedDimension
 13
153.9841168982825
 23
243.608648606228
 33
0.0
 14
153.9841168982825
 24
203.608648606228
 34
0.0
 50
90.0
100
AcDbRotatedDimension
1001
ACAD_DSTYLE_DIMINSPECT
1070
   396
1000
100%
1070
   395
1000

1070
   394
1070
    33
1070
   393
1070
     0
1001
ACAD
1000
DSTYLE
1002
{
1070
   286
1070
     0
1070
   284
1070
     8
1070
   274
1070
     2
1070
   272
1070
     4
1070
    47
1040
0.01
1070
    48
1040
0.01
1070
   144
1040
1.0
1002
}
1001
GENIUS_GENDTOL_13
1000
TolSmPm
1000

1000
{\H0.71x;$2%%p$P}
1040
40.0
  0
DIMENSION
  5
9E1
330
2
100
AcDbEntity
  8
BEM
 48
10.0
100
AcDbDimension
  2
*D43
 10
171.4841168982825
 20
169.9712940137676
 30
0.0
 11
184.8199502316159
 21
169.9712940137676
 31
0.0
 70
   160
  1
<>{}{\H0.71x;\C3;%%p0.05}
 71
     5
 42
14.0
  3
ISO-25
100
AcDbAlignedDimension
 13
157.4841168982825
 23
200.108648606228
 33
0.0
 14
171.4841168982825
 24
200.108648606228
 34
0.0
100
AcDbRotatedDimension
1001
ACAD_DSTYLE_DIMINSPECT
1070
   396
1000
100%
1070
   395
1000

1070
   394
1070
    33
1070
   393
1070
     0
1001
ACAD
1000
DSTYLE
1002
{
1070
   286
1070
     0
1070
   284
1070
     8
1070
   274
1070
     2
1070
   272
1070
     4
1070
    47
1040
0.05
1070
    48
1040
0.05
1070
   144
1040
1.0
1002
}
1001
GENIUS_GENDTOL_13
1000
TolSmPm
1000

1000
{\H0.71x;$2%%p$P}
1040
14.0
  0
DIMENSION
  5
9E2
330
2
100
AcDbEntity
  8
BEM
 48
10.0
100
AcDbDimension
  2
*D44
 10
159.9841168982825
 20
183.8421143476336
 30
0.0
 11
138.4841168982825
 21
183.8421143476336
 31
0.0
 70
   160
  1
%%c<>{}{\H0.71x;\C3; H7}
 71
     5
 42
5.0
  3
ISO-25
100
AcDbAlignedDimension
 13
154.9841168982825
 23
203.608648606228
 33
0.0
 14
159.9841168982825
 24
203.608648606228
 34
0.0
100
AcDbRotatedDimension
1001
ACAD_DSTYLE_DIMINSPECT
1070
   396
1000
100%
1070
   395
1000

1070
   394
1070
    33
1070
   393
1070
     0
1001
GENIUS_GENDTOL_13
1000
FitSmTxt
1000
H7
1000
{\H0.71x;$2 $T}
1040
5.0
1001
ACAD
1000
DSTYLE
1002
{
1070
   286
1070
     0
1070
   284
1070
     8
1070
   274
1070
     2
1070
   272
1070
     4
1070
    48
1040
0.0
1070
    47
1040
0.0
1070
   144
1040
1.0
1002
}
  0
DIMENSION
  5
9E3
330
2
100
AcDbEntity
  8
BEM
 48
10.0
100
AcDbDimension
  2
*D45
 10
88.37390631770018
 20
106.2395668301008
 30
0.0
 11
88.37390631770018
 21
119.9895668301009
 31
0.0
 70
   160
 71
     5
 42
4.0
  3
ISO-25
100
AcDbAlignedDimension
 13
77.76507571356325
 23
110.2395668301008
 33
0.0
 14
77.76507571356325
 24
106.2395668301008
 34
0.0
 50
90.0
100
AcDbRotatedDimension
1001
ACAD
1000
DSTYLE
1002
{
1070
   144
1040
1.0
1002
}
  0
TEXT
  5
9E4
330
2
100
AcDbEntity
  8
0
100
AcDbText
 10
148.6537985028963
 20
116.1362125333874
 30
0.0
 40
5.0
  1
%%C30
  7
STYLE1
100
AcDbText
  0
MTEXT
  5
9E8
330
2
100
AcDbEntity
  8
BEM
 48
10.0
100
AcDbMText
 10
46.44161123507536
 20
50.32464619895993
 30
0.0
 40
5.0
 41
76.62068133002435
 71
     1
 72
     5
  1
{\fArial|b0|i0|c0|p34;4x Klemmschraube\P     clamping screw}
 73
     1
 44
1.0
1001
ACAD
1000
ACAD_MTEXT_DEFINED_HEIGHT_BEGIN
1070
    46
1040
22.62613756003259
1000
ACAD_MTEXT_DEFINED_HEIGHT_END
  0
ARC
  5
B0C
330
2
100
AcDbEntity
  8
0
 48
10.0
100
AcDbCircle
 10
83.53616452072794
 20
108.2395668301008
 30
0.0
 40
15.0
100
AcDbArc
 50
7.662255660766065
 51
172.3377443392341
  0
DIMENSION
  5
B0D
330
2
100
AcDbEntity
  8
BEM
 48
10.0
100
AcDbDimension
  2
*D47
 10
56.44421018276807
 20
122.122917710947
 30
0.0
 11
36.86637438776567
 21
74.26246198420262
 31
0.0
 70
   163
  1
<>{}{\H0.71x;\C3; H8}
 71
     5
 42
30.00000000000007
  3
ISO-25
100
AcDbDiametricDimension
 15
45.08594124435836
 25
94.35621594925477
 35
0.0
 40
0.0
1001
ACAD_DSTYLE_DIMRADIAL_EXTENSION
1070
   387
1070
     1
1070
   388
1040
0.0
1070
   390
1040
0.0
1001
ACAD_DSTYLE_DIMINSPECT
1070
   396
1000
100%
1070
   395
1000

1070
   394
1070
    33
1070
   393
1070
     0
1001
GENIUS_GENDTOL_13
1000
FitSmTxt
1000
H8
1000
{\H0.71x;$2 $T}
1040
30.0
1001
ACAD
1000
DSTYLE
1002
{
1070
   286
1070
     0
1070
   284
1070
     8
1070
   274
1070
     2
1070
   272
1070
     4
1070
    48
1040
0.0
1070
    47
1040
0.0
1070
   144
1040
1.0
1002
}
  0
ARC
  5
B6A
330
2
100
AcDbEntity
  8
0
 48
10.0
100
AcDbCircle
 10
83.53616452072794
 20
108.2395668301008
 30
0.0
 40
15.0
100
AcDbArc
 50
187.662255660766
 51
352.3377443392337
  0
ENDSEC
  0
SECTION
  2
OBJECTS
  0
DICTIONARY
  5
1B
330
0
100
AcDbDictionary
281
     1
  3
ACAD_2007HEADERVARS_RT
350
D90
  3
ACAD_COLOR
350
5F
  3
ACAD_GROUP
350
19
  3
ACAD_LAYOUT
350
60
  3
ACAD_MATERIAL
350
5E
  3
ACAD_MLEADERSTYLE
350
7E2
  3
ACAD_MLINESTYLE
350
1A
  3
ACAD_PLOTSETTINGS
350
61
  3
ACAD_PLOTSTYLENAME
350
5C
  3
ACAD_SCALELIST
350
7C0
  3
ACAD_TABLESTYLE
350
141
  3
ACAD_VISUALSTYLE
350
7AF
  3
ACDB_RECOMPOSE_DATA
350
D8F
  3
ACDBVARIABLEDICTIONARY
350
4D
  3
AcmDictionary
350
BC
  3
AMG
350
68
  3
AMGSNAPSETTINGS
350
F9
  3
ASE_INDEX_DICTIONARY
350
B39
  0
DICTIONARY
  5
7F2
330
B
100
AcDbDictionary
280
     1
281
     1
  3
ACAD_LAYERSTATES
360
7F3
  0
DICTIONARY
  5
B2A
330
5
100
AcDbDictionary
280
     1
281
     1
  3
ADSK_XREC_LAYER_RECONCILED
360
B2B
  0
DICTIONARY
  5
B2C
330
20
100
AcDbDictionary
280
     1
281
     1
  3
ADSK_XREC_LAYER_RECONCILED
360
B2D
  0
DICTIONARY
  5
B2E
330
26
100
AcDbDictionary
280
     1
281
     1
  3
ADSK_XREC_LAYER_RECONCILED
360
B2F
  0
DICTIONARY
  5
B30
330
28
100
AcDbDictionary
280
     1
281
     1
  3
ADSK_XREC_LAYER_RECONCILED
360
B31
  0
DICTIONARY
  5
B32
330
24
100
AcDbDictionary
280
     1
281
     1
  3
ADSK_XREC_LAYER_RECONCILED
360
B33
  0
DICTIONARY
  5
7ED
330
7EC
100
AcDbDictionary
280
     1
281
     1
  3
ADSK_XREC_LAYER_RECONCILED
360
B34
  0
DICTIONARY
  5
7EF
330
7EE
100
AcDbDictionary
280
     1
281
     1
  3
ADSK_XREC_LAYER_RECONCILED
360
B35
  0
DICTIONARY
  5
7F1
330
7F0
100
AcDbDictionary
280
     1
281
     1
  3
ADSK_XREC_LAYER_RECONCILED
360
B36
  0
DICTIONARY
  5
3
330
2
100
AcDbDictionary
280
     1
281
     1
  3
ACAD_SORTENTS
360
17B
  0
DICTIONARY
  5
D9D
330
C63
100
AcDbDictionary
280
     1
281
     1
  3
ACAD_MTEXT_2008_RT
360
D9E
  0
DICTIONARY
  5
D90
102
{ACAD_REACTORS
330
1B
102
}
330
1B
100
AcDbDictionary
281
     1
  3
DIMJOGANG
350
D91
  0
DICTIONARY
  5
5F
102
{ACAD_REACTORS
330
1B
102
}
330
1B
100
AcDbDictionary
281
     1
  0
DICTIONARY
  5
19
102
{ACAD_REACTORS
330
1B
102
}
330
1B
100
AcDbDictionary
281
     1
  0
DICTIONARY
  5
60
102
{ACAD_REACTORS
330
1B
102
}
330
1B
100
AcDbDictionary
281
     1
  3
Layout1
350
63
  3
Model
350
62
  0
DICTIONARY
  5
5E
102
{ACAD_REACTORS
330
1B
102
}
330
1B
100
AcDbDictionary
281
     1
  3
ByBlock
350
79F
  3
ByLayer
350
797
  3
Global
350
7A7
  0
DICTIONARY
  5
7E2
102
{ACAD_REACTORS
330
1B
102
}
330
1B
100
AcDbDictionary
281
     1
  3
Standard
350
7E3
  0
DICTIONARY
  5
1A
102
{ACAD_REACTORS
330
1B
102
}
330
1B
100
AcDbDictionary
281
     1
  3
STANDARD
350
1D
  0
DICTIONARY
  5
61
102
{ACAD_REACTORS
330
1B
102
}
330
1B
100
AcDbDictionary
281
     1
  0
ACDBDICTIONARYWDFLT
  5
5C
102
{ACAD_REACTORS
330
1B
102
}
330
1B
100
AcDbDictionary
281
     1
  3
Normal
350
5D
100
AcDbDictionaryWithDefault
340
5D
  0
DICTIONARY
  5
7C0
102
{ACAD_REACTORS
330
1B
102
}
330
1B
100
AcDbDictionary
281
     1
  3
A0
350
7C1
  3
A1
350
7C2
  3
A2
350
7C3
  3
A3
350
7C4
  3
A4
350
7C5
  3
A5
350
7C6
  3
A6
350
7C7
  3
A7
350
7C8
  3
A8
350
7C9
  3
A9
350
7CA
  3
B0
350
7CB
  3
B1
350
7CC
  3
B2
350
7CD
  3
B3
350
7CE
  3
B4
350
7CF
  3
B5
350
7D0
  3
B6
350
7D1
  3
B7
350
7D2
  3
B8
350
7D3
  3
B9
350
7D4
  3
C0
350
7D5
  3
C1
350
7D6
  3
C2
350
7D7
  3
C3
350
7D8
  3
C4
350
7D9
  3
C5
350
7DA
  3
C6
350
7DB
  3
C7
350
7DC
  3
C8
350
7DD
  3
C9
350
7DE
  3
D0
350
7DF
  3
D1
350
7E0
  3
D2
350
7E1
  0
DICTIONARY
  5
141
102
{ACAD_REACTORS
330
1B
102
}
330
1B
100
AcDbDictionary
281
     1
  3
Standard
350
142
  0
DICTIONARY
  5
7AF
102
{ACAD_REACTORS
330
1B
102
}
330
1B
100
AcDbDictionary
281
     1
  3
2dWireframe
350
7B5
  3
3D Hidden
350
7B7
  3
3dWireframe
350
7B6
  3
Basic
350
7B4
  3
Brighten
350
7BB
  3
ColorChange
350
7BF
  3
Conceptual
350
7B8
  3
Dim
350
7BA
  3
Facepattern
350
7BE
  3
Flat
350
7B0
  3
FlatWithEdges
350
7B1
  3
Gouraud
350
7B2
  3
GouraudWithEdges
350
7B3
  3
Linepattern
350
7BD
  3
Realistic
350
7B9
  3
Thicken
350
7BC
  0
XRECORD
  5
D8F
102
{ACAD_REACTORS
330
1B
102
}
330
1B
100
AcDbXrecord
280
     1
 90
        1
330
142
  0
DICTIONARY
  5
4D
102
{ACAD_REACTORS
330
1B
102
}
330
1B
100
AcDbDictionary
281
     1
  3
CANNOSCALE
350
D8C
  3
CMLEADERSTYLE
350
D8B
  3
CTABLESTYLE
350
15F
  3
INDEXCTL
350
4E
  0
DICTIONARY
  5
BC
102
{ACAD_REACTORS
330
1B
102
}
330
1B
100
AcDbDictionary
281
     1
  3
AcmStdDictionary
350
C7
  3
AMDTSECTSYM_ARROWCOLOR
350
156
  0
DICTIONARY
  5
68
102
{ACAD_REACTORS
330
1B
102
}
330
1B
100
AcDbDictionary
281
     1
  0
DICTIONARY
  5
F9
102
{ACAD_REACTORS
330
1B
102
}
330
1B
100
AcDbDictionary
281
     1
  0
DICTIONARY
  5
B39
102
{ACAD_REACTORS
330
1B
102
}
330
1B
100
AcDbDictionary
281
     1
  3
ASEBlockHierarchyIndexRecord
350
B3A
1001
DCO15
1040
1744370698.663
  0
DICTIONARY
  5
7F3
102
{ACAD_REACTORS
330
7F2
102
}
330
7F2
100
AcDbDictionary
281
     1
  0
XRECORD
  5
B2B
102
{ACAD_REACTORS
330
B2A
102
}
330
B2A
100
AcDbXrecord
280
     1
290
     1
  0
XRECORD
  5
B2D
102
{ACAD_REACTORS
330
B2C
102
}
330
B2C
100
AcDbXrecord
280
     1
290
     1
  0
XRECORD
  5
B2F
102
{ACAD_REACTORS
330
B2E
102
}
330
B2E
100
AcDbXrecord
280
     1
290
     1
  0
XRECORD
  5
B31
102
{ACAD_REACTORS
330
B30
102
}
330
B30
100
AcDbXrecord
280
     1
290
     1
  0
XRECORD
  5
B33
102
{ACAD_REACTORS
330
B32
102
}
330
B32
100
AcDbXrecord
280
     1
290
     1
  0
XRECORD
  5
B34
102
{ACAD_REACTORS
330
7ED
102
}
330
7ED
100
AcDbXrecord
280
     1
290
     1
  0
XRECORD
  5
B35
102
{ACAD_REACTORS
330
7EF
102
}
330
7EF
100
AcDbXrecord
280
     1
290
     1
  0
XRECORD
  5
B36
102
{ACAD_REACTORS
330
7F1
102
}
330
7F1
100
AcDbXrecord
280
     1
290
     1
  0
SORTENTSTABLE
  5
17B
102
{ACAD_REACTORS
330
3
102
}
330
3
100
AcDbSortentsTable
330
2
331
B0C
  5
B0C
331
980
  5
97F
331
982
  5
981
331
984
  5
983
331
986
  5
985
331
9A0
  5
99F
331
988
  5
987
331
9A2
  5
9A1
331
98A
  5
989
331
97A
  5
978
331
9A4
  5
9A3
331
98C
  5
98B
331
97C
  5
97B
331
9A6
  5
9A5
331
98E
  5
98D
331
97E
  5
97D
331
9C0
  5
9BF
331
9A8
  5
9A7
331
990
  5
98F
331
9C2
  5
9C1
331
9AA
  5
9A9
331
992
  5
991
331
9C4
  5
9C3
331
9AC
  5
9AB
331
994
  5
993
331
9C6
  5
9C5
331
9AE
  5
9AD
331
996
  5
995
331
9E0
  5
9DF
331
9C8
  5
9C7
331
9B0
  5
9AF
331
998
  5
997
331
9E2
  5
9E1
331
B6A
  5
B0D
331
9CA
  5
9C9
331
9B2
  5
9B1
331
99A
  5
999
331
9E4
  5
9E3
331
9CC
  5
9CB
331
99C
  5
99B
331
9CE
  5
9CD
331
9B6
  5
9B5
331
99E
  5
99D
331
9E8
  5
9E7
331
9D0
  5
9CF
331
9B8
  5
9B7
331
9D2
  5
9D1
331
9BA
  5
9B9
331
9D4
  5
9D3
331
9BC
  5
9BB
331
9D6
  5
9D5
331
9BE
  5
9BD
331
9D8
  5
9D7
331
9DA
  5
9D9
331
9DC
  5
9DB
331
9DE
  5
9DD
331
4FC
  5
4B5
331
B0D
  5
B6A
331
981
  5
980
331
983
  5
982
331
985
  5
984
331
987
  5
986
331
9A1
  5
9A0
331
989
  5
988
331
9A3
  5
9A2
331
98B
  5
98A
331
97B
  5
97A
331
9A5
  5
9A4
331
98D
  5
98C
331
97D
  5
97C
331
9A7
  5
9A6
331
98F
  5
98E
331
97F
  5
97E
331
9C1
  5
9C0
331
9A9
  5
9A8
331
991
  5
990
331
9C3
  5
9C2
331
9AB
  5
9AA
331
993
  5
992
331
9C5
  5
9C4
331
9AD
  5
9AC
331
995
  5
994
331
9C7
  5
9C6
331
9AF
  5
9AE
331
997
  5
996
331
9E1
  5
9E0
331
9C9
  5
9C8
331
9B1
  5
9B0
331
999
  5
998
331
9E3
  5
9E2
331
9CB
  5
9CA
331
9B3
  5
9B2
331
99B
  5
99A
331
9CD
  5
9CC
331
9B5
  5
9B4
331
99D
  5
99C
331
9CF
  5
9CE
331
9B7
  5
9B6
331
99F
  5
99E
331
9D1
  5
9D0
331
9B9
  5
9B8
331
9D3
  5
9D2
331
9BB
  5
9BA
331
9D5
  5
9D4
331
9BD
  5
9BC
331
9D7
  5
9D6
331
9BF
  5
9BE
331
9D9
  5
9D8
331
9DB
  5
9DA
331
9DD
  5
9DC
331
9DF
  5
9DE
331
4FB
  5
4B4
  0
XRECORD
  5
D9E
102
{ACAD_REACTORS
330
D9D
102
}
330
D9D
100
AcDbXrecord
280
     1
 40
37586.0
  1
\A1;\U+220530{}{\H0.71x;\C3; H8}
  0
XRECORD
  5
D91
102
{ACAD_REACTORS
330
D90
102
}
330
D90
100
AcDbXrecord
280
     1
 40
1.570796326794896
  0
LAYOUT
  5
63
102
{ACAD_REACTORS
330
60
102
}
330
60
100
AcDbPlotSettings
  1

  2
HP LaserJet 5000 Series PCL6
  4

  6

 40
0.0
 41
0.0
 42
0.0
 43
0.0
 44
0.0
 45
0.0
 46
0.0
 47
0.0
 48
0.0
 49
0.0
140
0.0
141
0.0
142
1.0
143
1.0
 70
   688
 72
     0
 73
     0
 74
     5
  7
Zeich.ctb
 75
    16
147
1.0
 76
     0
 77
     2
 78
   300
148
0.0
149
0.0
100
AcDbLayout
  1
Layout1
 70
     0
 71
     1
 10
0.0
 20
0.0
 11
420.0
 21
297.0
 12
0.0
 22
0.0
 32
0.0
 14
1.000000000000000E+20
 24
1.000000000000000E+20
 34
1.000000000000000E+20
 15
-1.000000000000000E+20
 25
-1.000000000000000E+20
 35
-1.000000000000000E+20
146
0.0
 13
0.0
 23
0.0
 33
0.0
 16
1.0
 26
0.0
 36
0.0
 17
0.0
 27
1.0
 37
0.0
 76
     0
330
8
  0
LAYOUT
  5
62
102
{ACAD_REACTORS
330
60
102
}
330
60
100
AcDbPlotSettings
  1

  2
Adobe PDF
  4
A4
  6

 40
3.174999952316284
 41
3.174999952316284
 42
3.175003051757812
 43
3.17498779296875
 44
209.8992462158203
 45
297.0424194335937
 46
0.0
 47
1.28438000919678
 48
5.0
 49
15.0
140
414.0
141
301.0
142
1.0
143
1.454346792227306
 70
 11956
 72
     1
 73
     1
 74
     1
  7
Zeich.ctb
 75
     0
147
0.68759391181282
 76
     0
 77
     2
 78
   300
148
0.0205155436001405
149
-9.98519975457475
100
AcDbLayout
  1
Model
 70
     1
 71
     0
 10
0.0
 20
0.0
 11
12.0
 21
9.0
 12
0.0
 22
0.0
 32
0.0
 14
0.0
 24
0.0
 34
0.0
 15
0.0
 25
0.0
 35
0.0
146
0.0
 13
0.0
 23
0.0
 33
0.0
 16
1.0
 26
0.0
 36
0.0
 17
0.0
 27
1.0
 37
0.0
 76
     0
330
2
331
795
1001
ACAD_PSEXT
1000
Adobe PDF
1000
Adobe PDF Converter
1000
Eigene Dateien
1000
Erstellt Adobe PDF
1070
     0
  0
MATERIAL
  5
79F
102
{ACAD_XDICTIONARY
360
7A0
102
}
102
{ACAD_REACTORS
330
5E
102
}
330
5E
100
AcDbMaterial
  1
ByBlock
 72
     0
 43
0.0208333333333333
 43
0.0
 43
0.0
 43
0.0
 43
0.0
 43
0.0208333333333333
 43
0.0
 43
0.0
 43
0.0
 43
0.0
 43
1.0
 43
0.0
 43
0.0
 43
0.0
 43
0.0
 43
1.0
 77
     0
 47
0.0208333333333333
 47
0.0
 47
0.0
 47
0.0
 47
0.0
 47
0.0208333333333333
 47
0.0
 47
0.0
 47
0.0
 47
0.0
 47
1.0
 47
0.0
 47
0.0
 47
0.0
 47
0.0
 47
1.0
171
     0
 49
0.0208333333333333
 49
0.0
 49
0.0
 49
0.0
 49
0.0
 49
0.0208333333333333
 49
0.0
 49
0.0
 49
0.0
 49
0.0
 49
1.0
 49
0.0
 49
0.0
 49
0.0
 49
0.0
 49
1.0
175
     0
142
0.0208333333333333
142
0.0
142
0.0
142
0.0
142
0.0
142
0.0208333333333333
142
0.0
142
0.0
142
0.0
142
0.0
142
1.0
142
0.0
142
0.0
142
0.0
142
0.0
142
1.0
179
     0
144
0.0208333333333333
144
0.0
144
0.0
144
0.0
144
0.0
144
0.0208333333333333
144
0.0
144
0.0
144
0.0
144
0.0
144
1.0
144
0.0
144
0.0
144
0.0
144
0.0
144
1.0
147
0.0208333333333333
147
0.0
147
0.0
147
0.0
147
0.0
147
0.0208333333333333
147
0.0
147
0.0
147
0.0
147
0.0
147
1.0
147
0.0
147
0.0
147
0.0
147
0.0
147
1.0
  0
MATERIAL
  5
797
102
{ACAD_XDICTIONARY
360
798
102
}
102
{ACAD_REACTORS
330
5E
102
}
330
5E
100
AcDbMaterial
  1
ByLayer
 72
     0
 43
0.0208333333333333
 43
0.0
 43
0.0
 43
0.0
 43
0.0
 43
0.0208333333333333
 43
0.0
 43
0.0
 43
0.0
 43
0.0
 43
1.0
 43
0.0
 43
0.0
 43
0.0
 43
0.0
 43
1.0
 77
     0
 47
0.0208333333333333
 47
0.0
 47
0.0
 47
0.0
 47
0.0
 47
0.0208333333333333
 47
0.0
 47
0.0
 47
0.0
 47
0.0
 47
1.0
 47
0.0
 47
0.0
 47
0.0
 47
0.0
 47
1.0
171
     0
 49
0.0208333333333333
 49
0.0
 49
0.0
 49
0.0
 49
0.0
 49
0.0208333333333333
 49
0.0
 49
0.0
 49
0.0
 49
0.0
 49
1.0
 49
0.0
 49
0.0
 49
0.0
 49
0.0
 49
1.0
175
     0
142
0.0208333333333333
142
0.0
142
0.0
142
0.0
142
0.0
142
0.0208333333333333
142
0.0
142
0.0
142
0.0
142
0.0
142
1.0
142
0.0
142
0.0
142
0.0
142
0.0
142
1.0
179
     0
144
0.0208333333333333
144
0.0
144
0.0
144
0.0
144
0.0
144
0.0208333333333333
144
0.0
144
0.0
144
0.0
144
0.0
144
1.0
144
0.0
144
0.0
144
0.0
144
0.0
144
1.0
147
0.0208333333333333
147
0.0
147
0.0
147
0.0
147
0.0
147
0.0208333333333333
147
0.0
147
0.0
147
0.0
147
0.0
147
1.0
147
0.0
147
0.0
147
0.0
147
0.0
147
1.0
  0
MATERIAL
  5
7A7
102
{ACAD_XDICTIONARY
360
7A8
102
}
102
{ACAD_REACTORS
330
5E
102
}
330
5E
100
AcDbMaterial
  1
Global
 72
     0
 43
0.0208333333333333
 43
0.0
 43
0.0
 43
0.0
 43
0.0
 43
0.0208333333333333
 43
0.0
 43
0.0
 43
0.0
 43
0.0
 43
1.0
 43
0.0
 43
0.0
 43
0.0
 43
0.0
 43
1.0
 77
     0
 47
0.0208333333333333
 47
0.0
 47
0.0
 47
0.0
 47
0.0
 47
0.0208333333333333
 47
0.0
 47
0.0
 47
0.0
 47
0.0
 47
1.0
 47
0.0
 47
0.0
 47
0.0
 47
0.0
 47
1.0
171
     0
 49
0.0208333333333333
 49
0.0
 49
0.0
 49
0.0
 49
0.0
 49
0.0208333333333333
 49
0.0
 49
0.0
 49
0.0
 49
0.0
 49
1.0
 49
0.0
 49
0.0
 49
0.0
 49
0.0
 49
1.0
175
     0
142
0.0208333333333333
142
0.0
142
0.0
142
0.0
142
0.0
142
0.0208333333333333
142
0.0
142
0.0
142
0.0
142
0.0
142
1.0
142
0.0
142
0.0
142
0.0
142
0.0
142
1.0
179
     0
144
0.0208333333333333
144
0.0
144
0.0
144
0.0
144
0.0
144
0.0208333333333333
144
0.0
144
0.0
144
0.0
144
0.0
144
1.0
144
0.0
144
0.0
144
0.0
144
0.0
144
1.0
147
0.0208333333333333
147
0.0
147
0.0
147
0.0
147
0.0
147
0.0208333333333333
147
0.0
147
0.0
147
0.0
147
0.0
147
1.0
147
0.0
147
0.0
147
0.0
147
0.0
147
1.0
  0
MLEADERSTYLE
  5
7E3
102
{ACAD_REACTORS
330
7E2
102
}
330
7E2
100
AcDbMLeaderStyle
170
     2
171
     1
172
     0
 90
        2
 40
0.0
 41
0.0
173
     1
 91
-1056964608
340
F
 92
       -2
290
     1
 42
0.09
291
     1
 43
0.36
  3
Standard
 44
0.18
300

342
D
174
     1
178
     6
175
     1
176
     0
 93
-1056964608
 45
0.18
292
     0
297
     0
 46
0.18
 94
-1056964608
 47
1.0
 49
1.0
140
1.0
293
     1
141
0.0
294
     1
177
     0
142
1.0
295
     0
296
     0
143
0.125
1001
ACAD_MLEADERVER
1070
     2
  0
MLINESTYLE
  5
1D
102
{ACAD_REACTORS
330
1A
102
}
330
1A
100
AcDbMlineStyle
  2
STANDARD
 70
     0
  3

 62
     0
 51
90.0
 52
90.0
 71
     2
 49
0.5
 62
   256
  6
BYLAYER
 49
-0.5
 62
   256
  6
BYLAYER
  0
ACDBPLACEHOLDER
  5
5D
102
{ACAD_REACTORS
330
5C
102
}
330
5C
  0
SCALE
  5
7C1
102
{ACAD_REACTORS
330
7C0
102
}
330
7C0
100
AcDbScale
 70
     0
300
1:1
140
1.0
141
1.0
290
     1
  0
SCALE
  5
7C2
102
{ACAD_REACTORS
330
7C0
102
}
330
7C0
100
AcDbScale
 70
     0
300
1:2
140
1.0
141
2.0
290
     0
  0
SCALE
  5
7C3
102
{ACAD_REACTORS
330
7C0
102
}
330
7C0
100
AcDbScale
 70
     0
300
1:4
140
1.0
141
4.0
290
     0
  0
SCALE
  5
7C4
102
{ACAD_REACTORS
330
7C0
102
}
330
7C0
100
AcDbScale
 70
     0
300
1:5
140
1.0
141
5.0
290
     0
  0
SCALE
  5
7C5
102
{ACAD_REACTORS
330
7C0
102
}
330
7C0
100
AcDbScale
 70
     0
300
1:8
140
1.0
141
8.0
290
     0
  0
SCALE
  5
7C6
102
{ACAD_REACTORS
330
7C0
102
}
330
7C0
100
AcDbScale
 70
     0
300
1:10
140
1.0
141
10.0
290
     0
  0
SCALE
  5
7C7
102
{ACAD_REACTORS
330
7C0
102
}
330
7C0
100
AcDbScale
 70
     0
300
1:16
140
1.0
141
16.0
290
     0
  0
SCALE
  5
7C8
102
{ACAD_REACTORS
330
7C0
102
}
330
7C0
100
AcDbScale
 70
     0
300
1:20
140
1.0
141
20.0
290
     0
  0
SCALE
  5
7C9
102
{ACAD_REACTORS
330
7C0
102
}
330
7C0
100
AcDbScale
 70
     0
300
1:30
140
1.0
141
30.0
290
     0
  0
SCALE
  5
7CA
102
{ACAD_REACTORS
330
7C0
102
}
330
7C0
100
AcDbScale
 70
     0
300
1:40
140
1.0
141
40.0
290
     0
  0
SCALE
  5
7CB
102
{ACAD_REACTORS
330
7C0
102
}
330
7C0
100
AcDbScale
 70
     0
300
1:50
140
1.0
141
50.0
290
     0
  0
SCALE
  5
7CC
102
{ACAD_REACTORS
330
7C0
102
}
330
7C0
100
AcDbScale
 70
     0
300
1:100
140
1.0
141
100.0
290
     0
  0
SCALE
  5
7CD
102
{ACAD_REACTORS
330
7C0
102
}
330
7C0
100
AcDbScale
 70
     0
300
2:1
140
2.0
141
1.0
290
     0
  0
SCALE
  5
7CE
102
{ACAD_REACTORS
330
7C0
102
}
330
7C0
100
AcDbScale
 70
     0
300
4:1
140
4.0
141
1.0
290
     0
  0
SCALE
  5
7CF
102
{ACAD_REACTORS
330
7C0
102
}
330
7C0
100
AcDbScale
 70
     0
300
8:1
140
8.0
141
1.0
290
     0
  0
SCALE
  5
7D0
102
{ACAD_REACTORS
330
7C0
102
}
330
7C0
100
AcDbScale
 70
     0
300
10:1
140
10.0
141
1.0
290
     0
  0
SCALE
  5
7D1
102
{ACAD_REACTORS
330
7C0
102
}
330
7C0
100
AcDbScale
 70
     0
300
100:1
140
100.0
141
1.0
290
     0
  0
SCALE
  5
7D2
102
{ACAD_REACTORS
330
7C0
102
}
330
7C0
100
AcDbScale
 70
     0
300
1/128" = 1'-0"
140
0.0078125
141
12.0
290
     0
  0
SCALE
  5
7D3
102
{ACAD_REACTORS
330
7C0
102
}
330
7C0
100
AcDbScale
 70
     0
300
1/64" = 1'-0"
140
0.015625
141
12.0
290
     0
  0
SCALE
  5
7D4
102
{ACAD_REACTORS
330
7C0
102
}
330
7C0
100
AcDbScale
 70
     0
300
1/32" = 1'-0"
140
0.03125
141
12.0
290
     0
  0
SCALE
  5
7D5
102
{ACAD_REACTORS
330
7C0
102
}
330
7C0
100
AcDbScale
 70
     0
300
1/16" = 1'-0"
140
0.0625
141
12.0
290
     0
  0
SCALE
  5
7D6
102
{ACAD_REACTORS
330
7C0
102
}
330
7C0
100
AcDbScale
 70
     0
300
3/32" = 1'-0"
140
0.09375
141
12.0
290
     0
  0
SCALE
  5
7D7
102
{ACAD_REACTORS
330
7C0
102
}
330
7C0
100
AcDbScale
 70
     0
300
1/8" = 1'-0"
140
0.125
141
12.0
290
     0
  0
SCALE
  5
7D8
102
{ACAD_REACTORS
330
7C0
102
}
330
7C0
100
AcDbScale
 70
     0
300
3/16" = 1'-0"
140
0.1875
141
12.0
290
     0
  0
SCALE
  5
7D9
102
{ACAD_REACTORS
330
7C0
102
}
330
7C0
100
AcDbScale
 70
     0
300
1/4" = 1'-0"
140
0.25
141
12.0
290
     0
  0
SCALE
  5
7DA
102
{ACAD_REACTORS
330
7C0
102
}
330
7C0
100
AcDbScale
 70
     0
300
3/8" = 1'-0"
140
0.375
141
12.0
290
     0
  0
SCALE
  5
7DB
102
{ACAD_REACTORS
330
7C0
102
}
330
7C0
100
AcDbScale
 70
     0
300
1/2" = 1'-0"
140
0.5
141
12.0
290
     0
  0
SCALE
  5
7DC
102
{ACAD_REACTORS
330
7C0
102
}
330
7C0
100
AcDbScale
 70
     0
300
3/4" = 1'-0"
140
0.75
141
12.0
290
     0
  0
SCALE
  5
7DD
102
{ACAD_REACTORS
330
7C0
102
}
330
7C0
100
AcDbScale
 70
     0
300
1" = 1'-0"
140
1.0
141
12.0
290
     0
  0
SCALE
  5
7DE
102
{ACAD_REACTORS
330
7C0
102
}
330
7C0
100
AcDbScale
 70
     0
300
1-1/2" = 1'-0"
140
1.5
141
12.0
290
     0
  0
SCALE
  5
7DF
102
{ACAD_REACTORS
330
7C0
102
}
330
7C0
100
AcDbScale
 70
     0
300
3" = 1'-0"
140
3.0
141
12.0
290
     0
  0
SCALE
  5
7E0
102
{ACAD_REACTORS
330
7C0
102
}
330
7C0
100
AcDbScale
 70
     0
300
6" = 1'-0"
140
6.0
141
12.0
290
     0
  0
SCALE
  5
7E1
102
{ACAD_REACTORS
330
7C0
102
}
330
7C0
100
AcDbScale
 70
     0
300
1'-0" = 1'-0"
140
12.0
141
12.0
290
     0
  0
TABLESTYLE
  5
142
102
{ACAD_XDICTIONARY
360
D8D
102
}
102
{ACAD_REACTORS
330
141
102
}
330
141
100
AcDbTableStyle
  3
Standard
 70
     0
 71
     0
 40
0.06
 41
0.06
280
     0
281
     0
  7
STANDARD
140
0.18
170
     2
 62
     0
 63
     7
283
     0
274
    -2
284
     1
 64
     0
275
    -2
285
     1
 65
     0
276
    -2
286
     1
 66
     0
277
    -2
287
     1
 67
     0
278
    -2
288
     1
 68
     0
279
    -2
289
     1
 69
     0
  7
STANDARD
140
0.25
170
     5
 62
     0
 63
     7
283
     0
274
    -2
284
     1
 64
     0
275
    -2
285
     1
 65
     0
276
    -2
286
     1
 66
     0
277
    -2
287
     1
 67
     0
278
    -2
288
     1
 68
     0
279
    -2
289
     1
 69
     0
  7
STANDARD
140
0.18
170
     5
 62
     0
 63
     7
283
     0
274
    -2
284
     1
 64
     0
275
    -2
285
     1
 65
     0
276
    -2
286
     1
 66
     0
277
    -2
287
     1
 67
     0
278
    -2
288
     1
 68
     0
279
    -2
289
     1
 69
     0
  0
VISUALSTYLE
  5
7B5
102
{ACAD_REACTORS
330
7AF
102
}
330
7AF
100
AcDbVisualStyle
  2
2dWireframe
 70
     4
 71
     0
 72
     2
 73
     0
 90
        0
 40
-0.6
 41
-30.0
 62
     5
 63
     7
421
 16777215
 74
     1
 91
        4
 64
     7
 65
   257
 75
     1
175
     1
 42
1.0
 92
        0
 66
   257
 43
1.0
 76
     1
 77
     6
 78
     2
 67
     7
 79
     5
170
     0
171
     0
290
     0
174
     0
 93
        1
 44
0.0
173
     0
291
     0
 45
0.0
1001
ACAD
1000
AcDbSavedByObjectVersion
1070
     0
  0
VISUALSTYLE
  5
7B7
102
{ACAD_REACTORS
330
7AF
102
}
330
7AF
100
AcDbVisualStyle
  2
3D Hidden
 70
     6
 71
     1
 72
     2
 73
     2
 90
        0
 40
-0.6
 41
-30.0
 62
     5
 63
     7
421
 16777215
 74
     2
 91
        2
 64
     7
 65
   257
 75
     2
175
     1
 42
40.0
 92
        0
 66
   257
 43
1.0
 76
     1
 77
     6
 78
     2
 67
     7
 79
     3
170
     0
171
     0
290
     0
174
     0
 93
        1
 44
0.0
173
     0
291
     0
 45
0.0
1001
ACAD
1000
AcDbSavedByObjectVersion
1070
     0
  0
VISUALSTYLE
  5
7B6
102
{ACAD_REACTORS
330
7AF
102
}
330
7AF
100
AcDbVisualStyle
  2
3dWireframe
 70
     5
 71
     0
 72
     2
 73
     0
 90
        0
 40
-0.6
 41
-30.0
 62
     5
 63
     7
421
 16777215
 74
     1
 91
        4
 64
     7
 65
   257
 75
     1
175
     1
 42
1.0
 92
        0
 66
   257
 43
1.0
 76
     1
 77
     6
 78
     2
 67
     7
 79
     5
170
     0
171
     0
290
     0
174
     0
 93
        1
 44
0.0
173
     0
291
     0
 45
0.0
1001
ACAD
1000
AcDbSavedByObjectVersion
1070
     0
  0
VISUALSTYLE
  5
7B4
102
{ACAD_REACTORS
330
7AF
102
}
330
7AF
100
AcDbVisualStyle
  2
Basic
 70
     7
 71
     1
 72
     0
 73
     1
 90
        0
 40
-0.6
 41
-30.0
 62
     5
 63
     7
421
 16777215
 74
     0
 91
        4
 64
     7
 65
   257
 75
     1
175
     1
 42
1.0
 92
        8
 66
     7
 43
1.0
 76
     1
 77
     6
 78
     2
 67
     7
 79
     5
170
     0
171
     0
290
     0
174
     0
 93
        1
 44
0.0
173
     0
291
     1
 45
0.0
1001
ACAD
1000
AcDbSavedByObjectVersion
1070
     0
  0
VISUALSTYLE
  5
7BB
102
{ACAD_REACTORS
330
7AF
102
}
330
7AF
100
AcDbVisualStyle
  2
Brighten
 70
    12
 71
     2
 72
     2
 73
     0
 90
        0
 40
-0.6
 41
-30.0
 62
     5
 63
     7
421
 16777215
 74
     1
 91
        4
 64
     7
 65
   257
 75
     1
175
     1
 42
1.0
 92
        8
 66
     7
 43
1.0
 76
     1
 77
     6
 78
     2
 67
     7
 79
     5
170
     0
171
     0
290
     0
174
     0
 93
        1
 44
50.0
173
     0
291
     1
 45
0.0
1001
ACAD
1000
AcDbSavedByObjectVersion
1070
     0
  0
VISUALSTYLE
  5
7BF
102
{ACAD_REACTORS
330
7AF
102
}
330
7AF
100
AcDbVisualStyle
  2
ColorChange
 70
    16
 71
     2
 72
     2
 73
     3
 90
        0
 40
-0.6
 41
-30.0
 62
     5
 63
     8
421
  8421504
 74
     1
 91
        4
 64
     7
 65
   257
 75
     1
175
     1
 42
1.0
 92
        8
 66
     8
424
  8421504
 43
1.0
 76
     1
 77
     6
 78
     2
 67
     7
 79
     5
170
     0
171
     0
290
     0
174
     0
 93
        1
 44
0.0
173
     0
291
     1
 45
0.0
1001
ACAD
1000
AcDbSavedByObjectVersion
1070
     0
  0
VISUALSTYLE
  5
7B8
102
{ACAD_REACTORS
330
7AF
102
}
330
7AF
100
AcDbVisualStyle
  2
Conceptual
 70
     9
 71
     3
 72
     2
 73
     0
 90
        0
 40
-0.6
 41
-30.0
 62
     5
 63
     7
421
 16777215
 74
     2
 91
        2
 64
     7
 65
   257
 75
     1
175
     1
 42
40.0
 92
        8
 66
     7
 43
1.0
 76
     1
 77
     6
 78
     2
 67
     7
 79
     3
170
     0
171
     0
290
     0
174
     0
 93
        1
 44
0.0
173
     0
291
     0
 45
0.0
1001
ACAD
1000
AcDbSavedByObjectVersion
1070
     0
  0
VISUALSTYLE
  5
7BA
102
{ACAD_REACTORS
330
7AF
102
}
330
7AF
100
AcDbVisualStyle
  2
Dim
 70
    11
 71
     2
 72
     2
 73
     0
 90
        0
 40
-0.6
 41
-30.0
 62
     5
 63
     7
421
 16777215
 74
     1
 91
        4
 64
     7
 65
   257
 75
     1
175
     1
 42
1.0
 92
        8
 66
     7
 43
1.0
 76
     1
 77
     6
 78
     2
 67
     7
 79
     5
170
     0
171
     0
290
     0
174
     0
 93
        1
 44
-50.0
173
     0
291
     1
 45
0.0
1001
ACAD
1000
AcDbSavedByObjectVersion
1070
     0
  0
VISUALSTYLE
  5
7BE
102
{ACAD_REACTORS
330
7AF
102
}
330
7AF
100
AcDbVisualStyle
  2
Facepattern
 70
    15
 71
     2
 72
     2
 73
     0
 90
        0
 40
-0.6
 41
-30.0
 62
     5
 63
     7
421
 16777215
 74
     1
 91
        4
 64
     7
 65
   257
 75
     1
175
     1
 42
1.0
 92
        8
 66
     7
 43
1.0
 76
     1
 77
     6
 78
     2
 67
     7
 79
     5
170
     0
171
     0
290
     0
174
     0
 93
        1
 44
0.0
173
     0
291
     1
 45
0.0
1001
ACAD
1000
AcDbSavedByObjectVersion
1070
     0
  0
VISUALSTYLE
  5
7B0
102
{ACAD_REACTORS
330
7AF
102
}
330
7AF
100
AcDbVisualStyle
  2
Flat
 70
     0
 71
     2
 72
     1
 73
     1
 90
        2
 40
-0.6
 41
30.0
 62
     5
 63
     7
421
 16777215
 74
     0
 91
        4
 64
     7
 65
   257
 75
     1
175
     1
 42
1.0
 92
        8
 66
     7
 43
1.0
 76
     1
 77
     6
 78
     2
 67
     7
 79
     5
170
     0
171
     0
290
     0
174
     0
 93
       13
 44
0.0
173
     0
291
     1
 45
0.0
1001
ACAD
1000
AcDbSavedByObjectVersion
1070
     0
  0
VISUALSTYLE
  5
7B1
102
{ACAD_REACTORS
330
7AF
102
}
330
7AF
100
AcDbVisualStyle
  2
FlatWithEdges
 70
     1
 71
     2
 72
     1
 73
     1
 90
        2
 40
-0.6
 41
30.0
 62
     5
 63
     7
421
 16777215
 74
     1
 91
        4
 64
     7
 65
   257
 75
     1
175
     1
 42
1.0
 92
        0
 66
   257
 43
1.0
 76
     1
 77
     6
 78
     2
 67
     7
 79
     5
170
     0
171
     0
290
     0
174
     0
 93
       13
 44
0.0
173
     0
291
     1
 45
0.0
1001
ACAD
1000
AcDbSavedByObjectVersion
1070
     0
  0
VISUALSTYLE
  5
7B2
102
{ACAD_REACTORS
330
7AF
102
}
330
7AF
100
AcDbVisualStyle
  2
Gouraud
 70
     2
 71
     2
 72
     2
 73
     1
 90
        2
 40
-0.6
 41
30.0
 62
     5
 63
     7
421
 16777215
 74
     0
 91
        4
 64
     7
 65
   257
 75
     1
175
     1
 42
1.0
 92
        0
 66
     7
 43
1.0
 76
     1
 77
     6
 78
     2
 67
     7
 79
     5
170
     0
171
     0
290
     0
174
     0
 93
       13
 44
0.0
173
     0
291
     1
 45
0.0
1001
ACAD
1000
AcDbSavedByObjectVersion
1070
     0
  0
VISUALSTYLE
  5
7B3
102
{ACAD_REACTORS
330
7AF
102
}
330
7AF
100
AcDbVisualStyle
  2
GouraudWithEdges
 70
     3
 71
     2
 72
     2
 73
     1
 90
        2
 40
-0.6
 41
30.0
 62
     5
 63
     7
421
 16777215
 74
     1
 91
        4
 64
     7
 65
   257
 75
     1
175
     1
 42
1.0
 92
        0
 66
   257
 43
1.0
 76
     1
 77
     6
 78
     2
 67
     7
 79
     5
170
     0
171
     0
290
     0
174
     0
 93
       13
 44
0.0
173
     0
291
     1
 45
0.0
1001
ACAD
1000
AcDbSavedByObjectVersion
1070
     0
  0
VISUALSTYLE
  5
7BD
102
{ACAD_REACTORS
330
7AF
102
}
330
7AF
100
AcDbVisualStyle
  2
Linepattern
 70
    14
 71
     2
 72
     2
 73
     0
 90
        0
 40
-0.6
 41
-30.0
 62
     5
 63
     7
421
 16777215
 74
     1
 91
        4
 64
     7
 65
   257
 75
     7
175
     7
 42
1.0
 92
        8
 66
     7
 43
1.0
 76
     1
 77
     6
 78
     2
 67
     7
 79
     5
170
     0
171
     0
290
     0
174
     0
 93
        1
 44
0.0
173
     0
291
     1
 45
0.0
1001
ACAD
1000
AcDbSavedByObjectVersion
1070
     0
  0
VISUALSTYLE
  5
7B9
102
{ACAD_REACTORS
330
7AF
102
}
330
7AF
100
AcDbVisualStyle
  2
Realistic
 70
     8
 71
     2
 72
     2
 73
     0
 90
        0
 40
-0.6
 41
-30.0
 62
     5
 63
     7
421
 16777215
 74
     1
 91
        0
 64
     7
 65
   257
 75
     1
175
     1
 42
1.0
 92
        8
 66
     8
424
  7895160
 43
1.0
 76
     1
 77
     6
 78
     2
 67
     7
 79
     5
170
     0
171
     0
290
     0
174
     0
 93
       13
 44
0.0
173
     0
291
     0
 45
0.0
1001
ACAD
1000
AcDbSavedByObjectVersion
1070
     0
  0
VISUALSTYLE
  5
7BC
102
{ACAD_REACTORS
330
7AF
102
}
330
7AF
100
AcDbVisualStyle
  2
Thicken
 70
    13
 71
     2
 72
     2
 73
     0
 90
        0
 40
-0.6
 41
-30.0
 62
     5
 63
     7
421
 16777215
 74
     1
 91
        4
 64
     7
 65
   257
 75
     1
175
     1
 42
1.0
 92
       12
 66
     7
 43
1.0
 76
     1
 77
     6
 78
     2
 67
     7
 79
     5
170
     0
171
     0
290
     0
174
     0
 93
        1
 44
0.0
173
     0
291
     1
 45
0.0
1001
ACAD
1000
AcDbSavedByObjectVersion
1070
     0
  0
DICTIONARYVAR
  5
D8C
102
{ACAD_REACTORS
330
4D
102
}
330
4D
100
DictionaryVariables
280
     0
  1
1:1
  0
DICTIONARYVAR
  5
D8B
102
{ACAD_REACTORS
330
4D
102
}
330
4D
100
DictionaryVariables
280
     0
  1
STANDARD
  0
DICTIONARYVAR
  5
15F
102
{ACAD_REACTORS
330
4D
102
}
330
4D
100
DictionaryVariables
280
     0
  1
STANDARD
  0
DICTIONARYVAR
  5
4E
102
{ACAD_REACTORS
330
4D
102
}
330
4D
100
DictionaryVariables
280
     0
  1
1
  0
DICTIONARY
  5
C7
102
{ACAD_REACTORS
330
BC
102
}
330
BC
100
AcDbDictionary
281
     1
  0
XRECORD
  5
156
102
{ACAD_REACTORS
330
BC
102
}
330
BC
100
AcDbXrecord
280
     1
 90
-1023410169
  0
XRECORD
  5
B3A
102
{ACAD_REACTORS
330
B39
102
}
330
B39
100
AcDbXrecord
280
     1
330
16F
  0
DICTIONARY
  5
7A0
330
79F
100
AcDbDictionary
280
     1
281
     1
  3
ACAD_XREC_ROUNDTRIP
360
D94
  3
BUMPTILE
360
7A2
  3
DIFFUSETILE
360
7A1
  3
OPACITYTILE
360
7A5
  3
REFLECTIONTILE
360
7A4
  3
REFRACTIONTILE
360
7A6
  3
SPECULARTILE
360
7A3
  0
DICTIONARY
  5
798
330
797
100
AcDbDictionary
280
     1
281
     1
  3
ACAD_XREC_ROUNDTRIP
360
D93
  3
BUMPTILE
360
79A
  3
DIFFUSETILE
360
799
  3
OPACITYTILE
360
79D
  3
REFLECTIONTILE
360
79C
  3
REFRACTIONTILE
360
79E
  3
SPECULARTILE
360
79B
  0
DICTIONARY
  5
7A8
330
7A7
100
AcDbDictionary
280
     1
281
     1
  3
ACAD_XREC_ROUNDTRIP
360
D95
  3
BUMPTILE
360
7AA
  3
DIFFUSETILE
360
7A9
  3
OPACITYTILE
360
7AD
  3
REFLECTIONTILE
360
7AC
  3
REFRACTIONTILE
360
7AE
  3
SPECULARTILE
360
7AB
  0
DICTIONARY
  5
D8D
330
142
100
AcDbDictionary
280
     1
281
     1
  3
ACAD_ROUNDTRIP_2008_TABLESTYLE_CELLSTYLEMAP
360
D8E
  3
ACAD_XREC_ROUNDTRIP
360
D92
  0
XRECORD
  5
D94
102
{ACAD_REACTORS
330
7A0
102
}
330
7A0
100
AcDbXrecord
280
     1
102
MATERIAL
148
0.0
149
0.0
149
0.0
 93
        0
 94
      127
282
     0
 72
     0
 77
     0
171
     0
175
     0
179
     0
273
     0
  0
XRECORD
  5
7A2
102
{ACAD_REACTORS
330
7A0
102
}
330
7A0
100
AcDbXrecord
280
     1
270
     1
271
     1
  0
XRECORD
  5
7A1
102
{ACAD_REACTORS
330
7A0
102
}
330
7A0
100
AcDbXrecord
280
     1
270
     1
271
     1
  0
XRECORD
  5
7A5
102
{ACAD_REACTORS
330
7A0
102
}
330
7A0
100
AcDbXrecord
280
     1
270
     1
271
     1
  0
XRECORD
  5
7A4
102
{ACAD_REACTORS
330
7A0
102
}
330
7A0
100
AcDbXrecord
280
     1
270
     1
271
     1
  0
XRECORD
  5
7A6
102
{ACAD_REACTORS
330
7A0
102
}
330
7A0
100
AcDbXrecord
280
     1
270
     1
271
     1
  0
XRECORD
  5
7A3
102
{ACAD_REACTORS
330
7A0
102
}
330
7A0
100
AcDbXrecord
280
     1
270
     1
271
     1
  0
XRECORD
  5
D93
102
{ACAD_REACTORS
330
798
102
}
330
798
100
AcDbXrecord
280
     1
102
MATERIAL
148
0.0
149
0.0
149
0.0
 93
        0
 94
      127
282
     0
 72
     0
 77
     0
171
     0
175
     0
179
     0
273
     0
  0
XRECORD
  5
79A
102
{ACAD_REACTORS
330
798
102
}
330
798
100
AcDbXrecord
280
     1
270
     1
271
     1
  0
XRECORD
  5
799
102
{ACAD_REACTORS
330
798
102
}
330
798
100
AcDbXrecord
280
     1
270
     1
271
     1
  0
XRECORD
  5
79D
102
{ACAD_REACTORS
330
798
102
}
330
798
100
AcDbXrecord
280
     1
270
     1
271
     1
  0
XRECORD
  5
79C
102
{ACAD_REACTORS
330
798
102
}
330
798
100
AcDbXrecord
280
     1
270
     1
271
     1
  0
XRECORD
  5
79E
102
{ACAD_REACTORS
330
798
102
}
330
798
100
AcDbXrecord
280
     1
270
     1
271
     1
  0
XRECORD
  5
79B
102
{ACAD_REACTORS
330
798
102
}
330
798
100
AcDbXrecord
280
     1
270
     1
271
     1
  0
XRECORD
  5
D95
102
{ACAD_REACTORS
330
7A8
102
}
330
7A8
100
AcDbXrecord
280
     1
102
MATERIAL
148
0.0
149
0.0
149
0.0
 93
        0
 94
      127
282
     0
 72
     0
 77
     0
171
     0
175
     0
179
     0
273
     0
  0
XRECORD
  5
7AA
102
{ACAD_REACTORS
330
7A8
102
}
330
7A8
100
AcDbXrecord
280
     1
270
     1
271
     1
  0
XRECORD
  5
7A9
102
{ACAD_REACTORS
330
7A8
102
}
330
7A8
100
AcDbXrecord
280
     1
270
     1
271
     1
  0
XRECORD
  5
7AD
102
{ACAD_REACTORS
330
7A8
102
}
330
7A8
100
AcDbXrecord
280
     1
270
     1
271
     1
  0
XRECORD
  5
7AC
102
{ACAD_REACTORS
330
7A8
102
}
330
7A8
100
AcDbXrecord
280
     1
270
     1
271
     1
  0
XRECORD
  5
7AE
102
{ACAD_REACTORS
330
7A8
102
}
330
7A8
100
AcDbXrecord
280
     1
270
     1
271
     1
  0
XRECORD
  5
7AB
102
{ACAD_REACTORS
330
7A8
102
}
330
7A8
100
AcDbXrecord
280
     1
270
     1
271
     1
  0
CELLSTYLEMAP
  5
D8E
102
{ACAD_REACTORS
330
D8D
102
}
330
D8D
100
AcDbCellStyleMap
 90
        3
300
CELLSTYLE
  1
TABLEFORMAT_BEGIN
 90
        5
170
     1
 91
        0
 92
    32768
 62
   257
 93
        1
300
CONTENTFORMAT
  1
CONTENTFORMAT_BEGIN
 90
        0
 91
        0
 92
        4
 93
        0
300

 40
0.0
140
1.0
 94
        5
 62
     0
340
D
144
0.25
309
CONTENTFORMAT_END
171
     0
 94
        6
 95
        1
302
GRIDFORMAT
  1
GRIDFORMAT_BEGIN
 90
        0
 91
        1
 62
     0
 92
       -2
340
0
 93
        0
 40
0.045
309
GRIDFORMAT_END
 95
        2
302
GRIDFORMAT
  1
GRIDFORMAT_BEGIN
 90
        0
 91
        1
 62
     0
 92
       -2
340
0
 93
        0
 40
0.045
309
GRIDFORMAT_END
 95
        4
302
GRIDFORMAT
  1
GRIDFORMAT_BEGIN
 90
        0
 91
        1
 62
     0
 92
       -2
340
0
 93
        0
 40
0.045
309
GRIDFORMAT_END
 95
        8
302
GRIDFORMAT
  1
GRIDFORMAT_BEGIN
 90
        0
 91
        1
 62
     0
 92
       -2
340
0
 93
        0
 40
0.045
309
GRIDFORMAT_END
 95
       16
302
GRIDFORMAT
  1
GRIDFORMAT_BEGIN
 90
        0
 91
        1
 62
     0
 92
       -2
340
0
 93
        0
 40
0.045
309
GRIDFORMAT_END
 95
       32
302
GRIDFORMAT
  1
GRIDFORMAT_BEGIN
 90
        0
 91
        1
 62
     0
 92
       -2
340
0
 93
        0
 40
0.045
309
GRIDFORMAT_END
309
TABLEFORMAT_END
  1
CELLSTYLE_BEGIN
 90
        1
 91
        1
300
_TITLE
309
CELLSTYLE_END
300
CELLSTYLE
  1
TABLEFORMAT_BEGIN
 90
        5
170
     1
 91
        0
 92
        0
 62
   257
 93
        1
300
CONTENTFORMAT
  1
CONTENTFORMAT_BEGIN
 90
        0
 91
        0
 92
        4
 93
        0
300

 40
0.0
140
1.0
 94
        5
 62
     0
340
D
144
0.18
309
CONTENTFORMAT_END
171
     0
 94
        6
 95
        1
302
GRIDFORMAT
  1
GRIDFORMAT_BEGIN
 90
        0
 91
        1
 62
     0
 92
       -2
340
0
 93
        0
 40
0.045
309
GRIDFORMAT_END
 95
        2
302
GRIDFORMAT
  1
GRIDFORMAT_BEGIN
 90
        0
 91
        1
 62
     0
 92
       -2
340
0
 93
        0
 40
0.045
309
GRIDFORMAT_END
 95
        4
302
GRIDFORMAT
  1
GRIDFORMAT_BEGIN
 90
        0
 91
        1
 62
     0
 92
       -2
340
0
 93
        0
 40
0.045
309
GRIDFORMAT_END
 95
        8
302
GRIDFORMAT
  1
GRIDFORMAT_BEGIN
 90
        0
 91
        1
 62
     0
 92
       -2
340
0
 93
        0
 40
0.045
309
GRIDFORMAT_END
 95
       16
302
GRIDFORMAT
  1
GRIDFORMAT_BEGIN
 90
        0
 91
        1
 62
     0
 92
       -2
340
0
 93
        0
 40
0.045
309
GRIDFORMAT_END
 95
       32
302
GRIDFORMAT
  1
GRIDFORMAT_BEGIN
 90
        0
 91
        1
 62
     0
 92
       -2
340
0
 93
        0
 40
0.045
309
GRIDFORMAT_END
309
TABLEFORMAT_END
  1
CELLSTYLE_BEGIN
 90
        2
 91
        1
300
_HEADER
309
CELLSTYLE_END
300
CELLSTYLE
  1
TABLEFORMAT_BEGIN
 90
        5
170
     1
 91
        0
 92
        0
 62
   257
 93
        1
300
CONTENTFORMAT
  1
CONTENTFORMAT_BEGIN
 90
        0
 91
        0
 92
        4
 93
        0
300

 40
0.0
140
1.0
 94
        2
 62
     0
340
D
144
0.18
309
CONTENTFORMAT_END
171
     0
 94
        6
 95
        1
302
GRIDFORMAT
  1
GRIDFORMAT_BEGIN
 90
        0
 91
        1
 62
     0
 92
       -2
340
0
 93
        0
 40
0.045
309
GRIDFORMAT_END
 95
        2
302
GRIDFORMAT
  1
GRIDFORMAT_BEGIN
 90
        0
 91
        1
 62
     0
 92
       -2
340
0
 93
        0
 40
0.045
309
GRIDFORMAT_END
 95
        4
302
GRIDFORMAT
  1
GRIDFORMAT_BEGIN
 90
        0
 91
        1
 62
     0
 92
       -2
340
0
 93
        0
 40
0.045
309
GRIDFORMAT_END
 95
        8
302
GRIDFORMAT
  1
GRIDFORMAT_BEGIN
 90
        0
 91
        1
 62
     0
 92
       -2
340
0
 93
        0
 40
0.045
309
GRIDFORMAT_END
 95
       16
302
GRIDFORMAT
  1
GRIDFORMAT_BEGIN
 90
        0
 91
        1
 62
     0
 92
       -2
340
0
 93
        0
 40
0.045
309
GRIDFORMAT_END
 95
       32
302
GRIDFORMAT
  1
GRIDFORMAT_BEGIN
 90
        0
 91
        1
 62
     0
 92
       -2
340
0
 93
        0
 40
0.045
309
GRIDFORMAT_END
309
TABLEFORMAT_END
  1
CELLSTYLE_BEGIN
 90
        3
 91
        2
300
_DATA
309
CELLSTYLE_END
  0
XRECORD
  5
D92
102
{ACAD_REACTORS
330
D8D
102
}
330
D8D
100
AcDbXrecord
280
     1
102
ACAD_ROUNDTRIP_PRE2007_TABLESTYLE
 90
        4
 91
        0
  1

 92
        4
 93
        0
  2

 94
        4
 95
        0
  3

  0
ENDSEC
  0
EOF
