  0
SECTION
  2
HEADER
  9
$ACADVER
  1
AC1018
  9
$ACADMAINTVER
 70
   104
  9
$DWGCODEPAGE
  3
ANSI_1252
  9
$LASTSAVEDBY
  1
IBasyouni
  9
$INSBASE
 10
0.0
 20
0.0
 30
0.0
  9
$EXTMIN
 10
-317.2760007638438
 20
14.97024614709687
 30
-0.0000000000000053
  9
$EXTMAX
 10
234.2338567648943
 20
527.6998911352127
 30
0.0000000000000099
  9
$LIMMIN
 10
0.0
 20
0.0
  9
$LIMMAX
 10
250.0
 20
330.0
  9
$ORTHOMODE
 70
     1
  9
$REGENMODE
 70
     1
  9
$FILLMODE
 70
     1
  9
$QTEXTMODE
 70
     0
  9
$MIRRTEXT
 70
     1
  9
$LTSCALE
 40
1.0
  9
$ATTMODE
 70
     1
  9
$TEXTSIZE
 40
20.0
  9
$TRACEWID
 40
1.0
  9
$TEXTSTYLE
  7
STANDARD
  9
$CLAYER
  8
0
  9
$CELTYPE
  6
BYLAYER
  9
$CECOLOR
 62
   256
  9
$CELTSCALE
 40
10.0
  9
$DISPSILH
 70
     0
  9
$DIMSCALE
 40
1.0
  9
$DIMASZ
 40
2.5
  9
$DIMEXO
 40
1.0
  9
$DIMDLI
 40
10.0
  9
$DIMRND
 40
0.0
  9
$DIMDLE
 40
0.0
  9
$DIMEXE
 40
1.0
  9
$DIMTP
 40
0.1
  9
$DIMTM
 40
0.1
  9
$DIMTXT
 40
3.5
  9
$DIMCEN
 40
0.0
  9
$DIMTSZ
 40
0.0
  9
$DIMTOL
 70
     0
  9
$DIMLIM
 70
     0
  9
$DIMTIH
 70
     0
  9
$DIMTOH
 70
     0
  9
$DIMSE1
 70
     0
  9
$DIMSE2
 70
     0
  9
$DIMTAD
 70
     1
  9
$DIMZIN
 70
     8
  9
$DIMBLK
  1

  9
$DIMASO
 70
     1
  9
$DIMSHO
 70
     1
  9
$DIMPOST
  1

  9
$DIMAPOST
  1
"
  9
$DIMALT
 70
     0
  9
$DIMALTD
 70
     2
  9
$DIMALTF
 40
0.0393701
  9
$DIMLFAC
 40
1.0
  9
$DIMTOFL
 70
     1
  9
$DIMTVP
 40
0.0
  9
$DIMTIX
 70
     0
  9
$DIMSOXD
 70
     0
  9
$DIMSAH
 70
     0
  9
$DIMBLK1
  1

  9
$DIMBLK2
  1

  9
$DIMSTYLE
  2
AM_DIN
  9
$DIMCLRD
 70
   256
  9
$DIMCLRE
 70
   256
  9
$DIMCLRT
 70
     2
  9
$DIMTFAC
 40
0.71
  9
$DIMGAP
 40
1.5
  9
$DIMJUST
 70
     0
  9
$DIMSD1
 70
     0
  9
$DIMSD2
 70
     0
  9
$DIMTOLJ
 70
     0
  9
$DIMTZIN
 70
     8
  9
$DIMALTZ
 70
     0
  9
$DIMALTTZ
 70
     0
  9
$DIMUPT
 70
     0
  9
$DIMDEC
 70
     2
  9
$DIMTDEC
 70
     3
  9
$DIMALTU
 70
     2
  9
$DIMALTTD
 70
     4
  9
$DIMTXSTY
  7
STANDARD
  9
$DIMAUNIT
 70
     0
  9
$DIMADEC
 70
     0
  9
$DIMALTRND
 40
0.0
  9
$DIMAZIN
 70
     2
  9
$DIMDSEP
 70
    46
  9
$DIMATFIT
 70
     3
  9
$DIMFRAC
 70
     0
  9
$DIMLDRBLK
  1

  9
$DIMLUNIT
 70
     2
  9
$DIMLWD
 70
    -1
  9
$DIMLWE
 70
    -1
  9
$DIMTMOVE
 70
     0
  9
$LUNITS
 70
     2
  9
$LUPREC
 70
     2
  9
$SKETCHINC
 40
1.0
  9
$FILLETRAD
 40
2.5
  9
$AUNITS
 70
     0
  9
$AUPREC
 70
     0
  9
$MENU
  1
.
  9
$ELEVATION
 40
0.0
  9
$PELEVATION
 40
0.0
  9
$THICKNESS
 40
0.0
  9
$LIMCHECK
 70
     0
  9
$CHAMFERA
 40
2.5
  9
$CHAMFERB
 40
2.5
  9
$CHAMFERC
 40
0.0
  9
$CHAMFERD
 40
0.0
  9
$SKPOLY
 70
     0
  9
$TDCREATE
 40
2450382.390390463
  9
$TDUCREATE
 40
2450382.348723796
  9
$TDUPDATE
 40
2455985.722746782
  9
$TDUUPDATE
 40
2455985.681080116
  9
$TDINDWG
 40
0.3307284606
  9
$TDUSRTIMER
 40
0.3307284606
  9
$USRTIMER
 70
     1
  9
$ANGBASE
 50
0.0
  9
$ANGDIR
 70
     0
  9
$PDMODE
 70
     0
  9
$PDSIZE
 40
0.0
  9
$PLINEWID
 40
0.0
  9
$SPLFRAME
 70
     0
  9
$SPLINETYPE
 70
     6
  9
$SPLINESEGS
 70
     8
  9
$HANDSEED
  5
115C
  9
$SURFTAB1
 70
     6
  9
$SURFTAB2
 70
     6
  9
$SURFTYPE
 70
     6
  9
$SURFU
 70
     6
  9
$SURFV
 70
     6
  9
$UCSBASE
  2

  9
$UCSNAME
  2

  9
$UCSORG
 10
0.0
 20
0.0
 30
0.0
  9
$UCSXDIR
 10
1.0
 20
0.0
 30
0.0
  9
$UCSYDIR
 10
0.0
 20
1.0
 30
0.0
  9
$UCSORTHOREF
  2

  9
$UCSORTHOVIEW
 70
     0
  9
$UCSORGTOP
 10
0.0
 20
0.0
 30
0.0
  9
$UCSORGBOTTOM
 10
0.0
 20
0.0
 30
0.0
  9
$UCSORGLEFT
 10
0.0
 20
0.0
 30
0.0
  9
$UCSORGRIGHT
 10
0.0
 20
0.0
 30
0.0
  9
$UCSORGFRONT
 10
0.0
 20
0.0
 30
0.0
  9
$UCSORGBACK
 10
0.0
 20
0.0
 30
0.0
  9
$PUCSBASE
  2

  9
$PUCSNAME
  2

  9
$PUCSORG
 10
0.0
 20
0.0
 30
0.0
  9
$PUCSXDIR
 10
1.0
 20
0.0
 30
0.0
  9
$PUCSYDIR
 10
0.0
 20
1.0
 30
0.0
  9
$PUCSORTHOREF
  2

  9
$PUCSORTHOVIEW
 70
     0
  9
$PUCSORGTOP
 10
0.0
 20
0.0
 30
0.0
  9
$PUCSORGBOTTOM
 10
0.0
 20
0.0
 30
0.0
  9
$PUCSORGLEFT
 10
0.0
 20
0.0
 30
0.0
  9
$PUCSORGRIGHT
 10
0.0
 20
0.0
 30
0.0
  9
$PUCSORGFRONT
 10
0.0
 20
0.0
 30
0.0
  9
$PUCSORGBACK
 10
0.0
 20
0.0
 30
0.0
  9
$USERI1
 70
     0
  9
$USERI2
 70
     0
  9
$USERI3
 70
     0
  9
$USERI4
 70
     0
  9
$USERI5
 70
     0
  9
$USERR1
 40
0.0
  9
$USERR2
 40
0.0
  9
$USERR3
 40
0.0
  9
$USERR4
 40
0.0
  9
$USERR5
 40
0.0
  9
$WORLDVIEW
 70
     1
  9
$SHADEDGE
 70
     3
  9
$SHADEDIF
 70
    70
  9
$TILEMODE
 70
     1
  9
$MAXACTVP
 70
    16
  9
$PINSBASE
 10
0.0
 20
0.0
 30
0.0
  9
$PLIMCHECK
 70
     0
  9
$PEXTMIN
 10
1.000000000000000E+20
 20
1.000000000000000E+20
 30
1.000000000000000E+20
  9
$PEXTMAX
 10
-1.000000000000000E+20
 20
-1.000000000000000E+20
 30
-1.000000000000000E+20
  9
$PLIMMIN
 10
0.0
 20
0.0
  9
$PLIMMAX
 10
420.0
 20
297.0
  9
$UNITMODE
 70
     0
  9
$VISRETAIN
 70
     0
  9
$PLINEGEN
 70
     0
  9
$PSLTSCALE
 70
     0
  9
$TREEDEPTH
 70
  3020
  9
$CMLSTYLE
  2
STANDARD
  9
$CMLJUST
 70
     0
  9
$CMLSCALE
 40
1.0
  9
$PROXYGRAPHICS
 70
     1
  9
$MEASUREMENT
 70
     1
  9
$CELWEIGHT
370
    -1
  9
$ENDCAPS
280
     0
  9
$JOINSTYLE
280
     0
  9
$LWDISPLAY
290
     0
  9
$INSUNITS
 70
     4
  9
$HYPERLINKBASE
  1

  9
$STYLESHEET
  1
Zeich.ctb
  9
$XEDIT
290
     1
  9
$CEPSNTYPE
380
     0
  9
$PSTYLEMODE
290
     1
  9
$FINGERPRINTGUID
  2
{325BFBD5-B27C-480F-A6FD-52B59258B312}
  9
$VERSIONGUID
  2
{5FBBB812-C36D-4B27-AC1E-3D06C3DB5096}
  9
$EXTNAMES
290
     1
  9
$PSVPSCALE
 40
0.0
  9
$OLESTARTUP
290
     0
  9
$SORTENTS
280
   127
  9
$INDEXCTL
280
     0
  9
$HIDETEXT
280
     0
  9
$XCLIPFRAME
290
     0
  9
$HALOGAP
280
     0
  9
$OBSCOLOR
 70
   257
  9
$OBSLTYPE
280
     0
  9
$INTERSECTIONDISPLAY
280
     0
  9
$INTERSECTIONCOLOR
 70
   257
  9
$DIMASSOC
280
     1
  9
$PROJECTNAME
  1

  0
ENDSEC
  0
SECTION
  2
CLASSES
  0
CLASS
  1
ACMESTATEMGR
  2
AcMeStateMgr
  3
AcMeServices
 90
     1024
 91
        1
280
     0
281
     0
  0
CLASS
  1
ACMESCOPE
  2
AcMeScope
  3
AcMeServices
 90
     1024
 91
        1
280
     0
281
     0
  0
CLASS
  1
ACMECOMMANDHISTORY
  2
AcMeCommandHistory
  3
AcMeServices
 90
     1024
 91
        1
280
     0
281
     0
  0
CLASS
  1
ACRFINSADJUSTERMGR
  2
AcRfInsAdjusterMgr
  3
AcMeServices
 90
     1024
 91
        1
280
     0
281
     0
  0
CLASS
  1
ACMEDRAWINGMAN
  2
AcMeDrawingMan
  3
AcMeServices
 90
     1024
 91
        1
280
     0
281
     0
  0
CLASS
  1
AMATTR
  2
AcMeAttribute
  3
AcMeServices
 90
     1024
 91
        0
280
     0
281
     0
  0
CLASS
  1
ACMEBOMCOLUMN
  2
AcMeBOMColumn
  3
AcMeServices
 90
     1024
 91
        0
280
     0
281
     0
  0
CLASS
  1
ACMEBOMCONF
  2
AcMeBOMConf
  3
AcMeServices
 90
     1024
 91
        0
280
     0
281
     0
  0
CLASS
  1
ACMEBOMTABLE
  2
AcMeBOMTable
  3
AcMeServices
 90
     1024
 91
        0
280
     0
281
     0
  0
CLASS
  1
ACMEBOMENTRY
  2
AcMeBOMEntry
  3
AcMeServices
 90
     1024
 91
        0
280
     0
281
     0
  0
CLASS
  1
ACMEVIEW
  2
AcMeView
  3
AcMeServices
 90
     1024
 91
        0
280
     0
281
     0
  0
CLASS
  1
DICTIONARYVAR
  2
AcDbDictionaryVar
  3
ObjectDBX Classes
 90
        0
 91
        6
280
     0
281
     0
  0
CLASS
  1
LAYER_INDEX
  2
AcDbLayerIndex
  3
ObjectDBX Classes
 90
        0
 91
        0
280
     0
281
     0
  0
CLASS
  1
IDBUFFER
  2
AcDbIdBuffer
  3
ObjectDBX Classes
 90
        0
 91
        0
280
     0
281
     0
  0
CLASS
  1
ACDBDICTIONARYWDFLT
  2
AcDbDictionaryWithDefault
  3
ObjectDBX Classes
 90
        0
 91
        1
280
     0
281
     0
  0
CLASS
  1
ACME_DOCUMENT
  2
AcMeDbDoc
  3
AcMeServices
 90
     1024
 91
        2
280
     0
281
     0
  0
CLASS
  1
AMGSETTINGSOBJ
  2
AmgSettingsObj
  3
"AcadM|Product Description: AutoCAD Mechanical|Company: Autodesk, Inc."
 90
     1024
 91
        4
280
     0
281
     0
  0
CLASS
  1
ACIMSYSVARMAN
  2
AcImSysVarManager
  3
AcMeServices
 90
     1024
 91
        5
280
     0
281
     0
  0
CLASS
  1
ACIMINTSYSVAR
  2
AcImIntSysVar
  3
AcMeServices
 90
     1024
 91
       27
280
     0
281
     0
  0
CLASS
  1
ACDBENTITYCACHE
  2
AcMeEntityCache
  3
AcMeServices
 90
     1024
 91
        1
280
     0
281
     0
  0
CLASS
  1
GSMANAGER
  2
AcMeGSManager
  3
AcMeServices
 90
     1024
 91
        1
280
     0
281
     0
  0
CLASS
  1
AMDTINTERNALREACTOR
  2
AmdtInternalReactor
  3
AcMeServices
 90
     1024
 91
        5
280
     0
281
     0
  0
CLASS
  1
ACGREFMASTER
  2
AcGrefMaster
  3
AcAttribServices
 90
     1024
 91
        1
280
     0
281
     0
  0
CLASS
  1
AM_DRAWING_MGR
  2
AcDmDwgMgr
  3
AcMechDwgViewMgmt
 90
     1024
 91
        1
280
     0
281
     0
  0
CLASS
  1
AM_DWG_DOCUMENT
  2
AcDmDwgDocument
  3
AcMechDwgViewMgmt
 90
     1024
 91
        1
280
     0
281
     0
  0
CLASS
  1
AM_DWG_SHEET
  2
AcDmSheet
  3
AcMechDwgViewMgmt
 90
     1024
 91
        1
280
     0
281
     0
  0
CLASS
  1
AM_VIEWDIMPARMAP
  2
AcDmViewDimParMap
  3
AcMechDwgViewMgmt
 90
     1024
 91
        1
280
     0
281
     0
  0
CLASS
  1
ACIMREALSYSVAR
  2
AcImRealSysVar
  3
AcMeServices
 90
     1024
 91
        1
280
     0
281
     0
  0
CLASS
  1
AM_DWGMGR_NAME
  2
AcDmDwgMgrName
  3
AcMechDwgViewMgmt
 90
     1024
 91
        1
280
     0
281
     0
  0
CLASS
  1
ACME_DATABASE
  2
AcMeDbDatabase
  3
AcMeServices
 90
     1024
 91
        2
280
     0
281
     0
  0
CLASS
  1
ACGREFACADMASTER
  2
AcGrefacadMaster
  3
AcGrefServices
 90
     1024
 91
        1
280
     0
281
     0
  0
CLASS
  1
AMDTMENUSTATEMGR
  2
AmdtMenuStateMgr
  3
McadcomServices
 90
     1024
 91
        1
280
     0
281
     0
  0
CLASS
  1
AMDTMCOMMENUSTATE
  2
AmdtMcomMenuState
  3
McadcomServices
 90
     1024
 91
        1
280
     0
281
     0
  0
CLASS
  1
AMIMASTER
  2
AmiMaster
  3
AmiServices
 90
     1024
 91
        1
280
     0
281
     0
  0
CLASS
  1
MAPIAMMOUDLE
  2
MApiAmModule
  3
MApiAmServices
 90
     1024
 91
        1
280
     0
281
     0
  0
CLASS
  1
AMDTADMENUSTATE
  2
AmdtAdMenuState
  3
DesignerServices
 90
     1024
 91
        1
280
     0
281
     0
  0
CLASS
  1
ADAPPL
  2
AcAdAppl
  3
DesignerServices
 90
     1024
 91
        1
280
     0
281
     0
  0
CLASS
  1
DEPMGR
  2
AcAdDepMgr
  3
DesignerServices
 90
     1024
 91
        1
280
     0
281
     0
  0
CLASS
  1
PARAMMGR
  2
AcAdParamMgr
  3
DesignerServices
 90
     1024
 91
        1
280
     0
281
     0
  0
CLASS
  1
PARAMSCOPE
  2
AcAdParamScope
  3
DesignerServices
 90
     1024
 91
        1
280
     0
281
     0
  0
CLASS
  1
NAMEDAPPL
  2
AcAdNamedAppl
  3
DesignerServices
 90
     1024
 91
        1
280
     0
281
     0
  0
CLASS
  1
AMDTDMMENUSTATE
  2
AmdtDmMenuState
  3
AcMechDwgViewMgmt
 90
     1024
 91
        1
280
     0
281
     0
  0
CLASS
  1
AMDTAMMENUSTATE
  2
AmdtAmMenuState
  3
DesignerAssemblies
 90
     1024
 91
        1
280
     0
281
     0
  0
CLASS
  1
ACIMSTRSYSVAR
  2
AcImStrSysVar
  3
AcMeServices
 90
     1024
 91
        5
280
     0
281
     0
  0
CLASS
  1
ACAMPROJECT
  2
AcAmProject
  3
DesignerAssemblies
 90
     1024
 91
        1
280
     0
281
     0
  0
CLASS
  1
ACAMGRCOMPDEF
  2
AcAmGrCompDef
  3
DesignerAssemblies
 90
     1024
 91
        1
280
     0
281
     0
  0
CLASS
  1
ACCMCONTEXT
  2
AcCmContext
  3
DesignerAssemblies
 90
     1024
 91
        1
280
     0
281
     0
  0
CLASS
  1
ACAMCOMPDEF
  2
AcAmCompDef
  3
DesignerAssemblies
 90
     1024
 91
        1
280
     0
281
     0
  0
CLASS
  1
ACAMCOMPDEFMGR
  2
AcAmCompDefMgr
  3
DesignerAssemblies
 90
     1024
 91
        1
280
     0
281
     0
  0
CLASS
  1
AMCONTEXTMGR
  2
AcAmContextMgr
  3
DesignerAssemblies
 90
     1024
 91
        1
280
     0
281
     0
  0
CLASS
  1
ACAMCONTEXTMODELER
  2
AcAmContextModeler
  3
DesignerAssemblies
 90
     1024
 91
        1
280
     0
281
     0
  0
CLASS
  1
ACMDATADICTIONARY
  2
AcmDataDictionary
  3
"AcmSymBB|Product Description: AutoCAD Mechanical|Company: Autodesk, Inc."
 90
     1024
 91
        1
280
     0
281
     0
  0
CLASS
  1
CATALOGSTATE
  2
AcAmCatalogState
  3
DesignerAssemblies
 90
     1024
 91
        1
280
     0
281
     0
  0
CLASS
  1
ACAMGRCOMPDEFSET
  2
AcAmGrCompDefSet
  3
DesignerAssemblies
 90
     1024
 91
        1
280
     0
281
     0
  0
CLASS
  1
AMDTBROWSERDBTAB
  2
AmdtBrowserDbTab
  3
McadcomServices
 90
     1024
 91
        1
280
     0
281
     0
  0
CLASS
  1
CBROWSERAPPOBJECT
  2
CBrowserAppObject
  3
McadcomServices
 90
     1024
 91
        3
280
     0
281
     0
  0
CLASS
  1
DM_PLACEHOLDER
  2
AcDmSelsetPlaceholder
  3
AcMechDwgViewMgmt
 90
     1024
 91
        1
280
     0
281
     0
  0
CLASS
  1
ACMSTANDARDANSI
  2
AcmStandardANSI
  3
"Amdt_StdImp|Product Description: AutoCAD Mechanical|Company: Autodesk, Inc."
 90
     1024
 91
        1
280
     0
281
     0
  0
CLASS
  1
AMGOBJPROPCFG
  2
AmgObjPropCfg
  3
"AmgLay|Product Description: AutoCAD Mechanical|Company: Autodesk, Inc."
 90
     1025
 91
        1
280
     0
281
     0
  0
CLASS
  1
ACMSURFSTANDARDANSI
  2
AcmSurfTextStdANSI
  3
"Amdt_StdImp|Product Description: AutoCAD Mechanical|Company: Autodesk, Inc."
 90
     1024
 91
        1
280
     0
281
     0
  0
CLASS
  1
ACMFCFSTANDARDANSI
  2
AcmFCFStdANSI
  3
"Amdt_StdImp|Product Description: AutoCAD Mechanical|Company: Autodesk, Inc."
 90
     1024
 91
        1
280
     0
281
     0
  0
CLASS
  1
ACMWELDSTANDARDANSI
  2
AcmWeldingStdANSI
  3
"Amdt_StdImp|Product Description: AutoCAD Mechanical|Company: Autodesk, Inc."
 90
     1024
 91
        1
280
     0
281
     0
  0
CLASS
  1
ACMIDSTANDARDANSI
  2
AcmIdStdANSI
  3
"Amdt_StdImp|Product Description: AutoCAD Mechanical|Company: Autodesk, Inc."
 90
     1024
 91
        1
280
     0
281
     0
  0
CLASS
  1
ACMDATUMSTANDARDANSI
  2
AcmDatumStdANSI
  3
"Amdt_StdImp|Product Description: AutoCAD Mechanical|Company: Autodesk, Inc."
 90
     1024
 91
        1
280
     0
281
     0
  0
CLASS
  1
ACMBOMSTANDARDANSI
  2
AcmBOMStdANSI
  3
"Amdt_StdImp|Product Description: AutoCAD Mechanical|Company: Autodesk, Inc."
 90
     1024
 91
        1
280
     0
281
     0
  0
CLASS
  1
ACMDETAILSTANDARDANSI
  2
AmdtDetailSymStdANSI
  3
"Amdt_StdImp|Product Description: AutoCAD Mechanical|Company: Autodesk, Inc."
 90
     1024
 91
        1
280
     0
281
     0
  0
CLASS
  1
ACMSECTIONSTANDARDANSI
  2
AmdtSectionSymStdANSI
  3
"Amdt_StdImp|Product Description: AutoCAD Mechanical|Company: Autodesk, Inc."
 90
     1024
 91
        1
280
     0
281
     0
  0
CLASS
  1
ACMCENTERLINESTANDARDANSI
  2
AmdtCenterLineStdANSI
  3
"Amdt_StdImp|Product Description: AutoCAD Mechanical|Company: Autodesk, Inc."
 90
     1024
 91
        1
280
     0
281
     0
  0
CLASS
  1
ACMTHREADLINESTANDARDANSI
  2
AmdtThreadLineStdANSI
  3
"Amdt_StdImp|Product Description: AutoCAD Mechanical|Company: Autodesk, Inc."
 90
     1024
 91
        1
280
     0
281
     0
  0
CLASS
  1
ACMNOTESTANDARDANSI
  2
AmdtNoteStdANSI
  3
"Amdt_StdImp|Product Description: AutoCAD Mechanical|Company: Autodesk, Inc."
 90
     1024
 91
        1
280
     0
281
     0
  0
CLASS
  1
AMDTNOTETEMPLATEDB
  2
AmdtNoteTemplateDB
  3
AcmSymBB|Product Description: AutoCAD Mechanical|Company: Autodesk, Inc.
 90
     1024
 91
       10
280
     0
281
     0
  0
CLASS
  1
ACAMGLAYSTD
  2
AcAmgLayStd
  3
"AmgLay|Product Description: AutoCAD Mechanical|Company: Autodesk, Inc."
 90
     1024
 91
        2
280
     0
281
     0
  0
CLASS
  1
ACAMGDIMSTD
  2
AcAmgDimStd
  3
"AmgDim|Product Description: AutoCAD Mechanical|Company: Autodesk, Inc."
 90
     1024
 91
        2
280
     0
281
     0
  0
CLASS
  1
ACAMGHOLECHARTSTDANSI
  2
AcAmgHoleChartStdANSI
  3
AmgDim|Product Description: AutoCAD Mechanical|Company: Autodesk, Inc.
 90
     1024
 91
        1
280
     0
281
     0
  0
CLASS
  1
ACAMGTITLESTD
  2
AcAmgTitleStd
  3
"AmgTitle|Product Description: AutoCAD Mechanical|Company: Autodesk, Inc."
 90
     4095
 91
        2
280
     0
281
     0
  0
CLASS
  1
ACAMGFILTERDAT
  2
AcAmgFilterDat
  3
"AcadM|Product Description: AutoCAD Mechanical|Company: Autodesk, Inc."
 90
     1024
 91
        6
280
     0
281
     0
  0
CLASS
  1
TABLESTYLE
  2
AcDbTableStyle
  3
ObjectDBX Classes
 90
     4095
 91
        1
280
     0
281
     0
  0
CLASS
  1
ACMDATAENTRYBLOCK
  2
AcmDataEntryBlock
  3
AcmSymBB|Product Description: AutoCAD Mechanical|Company: Autodesk, Inc.
 90
     1024
 91
        1
280
     0
281
     0
  0
CLASS
  1
AC_AM_2D_XREF_MGR
  2
AcAmXrefMgr2d
  3
DesignerAssemblies
 90
     1024
 91
        0
280
     0
281
     0
  0
CLASS
  1
SORTENTSTABLE
  2
AcDbSortentsTable
  3
ObjectDBX Classes
 90
        0
 91
        2
280
     0
281
     0
  0
CLASS
  1
VAACXREFPANELOBJECT
  2
VaAcXREFPanelObject
  3
VAAC_ADDIN
 90
        0
 91
        0
280
     0
281
     0
  0
CLASS
  1
VAACIMAGEINVENTORY
  2
VaAcImageInventory
  3
VAAC_ADDIN
 90
        0
 91
        0
280
     0
281
     0
  0
CLASS
  1
MATERIAL
  2
AcDbMaterial
  3
ObjectDBX Classes
 90
     1153
 91
        3
280
     0
281
     0
  0
CLASS
  1
VISUALSTYLE
  2
AcDbVisualStyle
  3
ObjectDBX Classes
 90
     4095
 91
       16
280
     0
281
     0
  0
CLASS
  1
ACMTAPERSTANDARDANSI
  2
AcmTaperStdANSI
  3
"Amdt_StdImp|Product Description: AutoCAD Mechanical|Company: Autodesk, Inc."
 90
     1024
 91
        1
280
     0
281
     0
  0
CLASS
  1
CAMSSTRUCTBTNSTATE
  2
StructBtnState
  3
DesignerAssemblies
 90
     1024
 91
        1
280
     0
281
     0
  0
CLASS
  1
SCALE
  2
AcDbScale
  3
ObjectDBX Classes
 90
     1153
 91
       33
280
     0
281
     0
  0
CLASS
  1
MLEADERSTYLE
  2
AcDbMLeaderStyle
  3
ACDB_MLEADERSTYLE_CLASS
 90
     4095
 91
        1
280
     0
281
     0
  0
CLASS
  1
ACMANOOTATIONVIEWSTANDARDANSI
  2
AmdtAnViewStdANSI
  3
"Amdt_StdImp|Product Description: AutoCAD Mechanical|Company: Autodesk, Inc."
 90
     1024
 91
        1
280
     0
281
     0
  0
CLASS
  1
CELLSTYLEMAP
  2
AcDbCellStyleMap
  3
ObjectDBX Classes
 90
     1152
 91
        7
280
     0
281
     0
  0
CLASS
  1
ACMSTANDARDDIN
  2
AcmStandardDIN
  3
"Amdt_StdImp|Product Description: AutoCAD Mechanical|Company: Autodesk, Inc."
 90
     1024
 91
        1
280
     0
281
     0
  0
CLASS
  1
AMDTEDGESTANDARDDIN13715
  2
AmdtEdgeStdDIN13715
  3
"Amdt_StdImp|Product Description: AutoCAD Mechanical|Company: Autodesk, Inc."
 90
     1024
 91
        1
280
     0
281
     0
  0
CLASS
  1
ACMSURFSTANDARDDIN2002
  2
AcmSurfTextStdDIN2002
  3
"Amdt_StdImp|Product Description: AutoCAD Mechanical|Company: Autodesk, Inc."
 90
     1024
 91
        1
280
     0
281
     0
  0
CLASS
  1
ACMFCFSTANDARDDIN
  2
AcmFCFStdDIN
  3
"Amdt_StdImp|Product Description: AutoCAD Mechanical|Company: Autodesk, Inc."
 90
     1024
 91
        1
280
     0
281
     0
  0
CLASS
  1
ACMWELDSTANDARDDIN
  2
AcmWeldingStdDIN
  3
"Amdt_StdImp|Product Description: AutoCAD Mechanical|Company: Autodesk, Inc."
 90
     1024
 91
        1
280
     0
281
     0
  0
CLASS
  1
ACMIDSTANDARDDIN
  2
AcmIdStdDIN
  3
"Amdt_StdImp|Product Description: AutoCAD Mechanical|Company: Autodesk, Inc."
 90
     1024
 91
        1
280
     0
281
     0
  0
CLASS
  1
ACMDATUMSTANDARDDIN
  2
AcmDatumStdDIN
  3
"Amdt_StdImp|Product Description: AutoCAD Mechanical|Company: Autodesk, Inc."
 90
     1024
 91
        1
280
     0
281
     0
  0
CLASS
  1
ACMBOMSTANDARDDIN
  2
AcmBOMStdDIN
  3
"Amdt_StdImp|Product Description: AutoCAD Mechanical|Company: Autodesk, Inc."
 90
     1024
 91
        1
280
     0
281
     0
  0
CLASS
  1
ACMDETAILSTANDARDDIN
  2
AmdtDetailSymStdDIN
  3
"Amdt_StdImp|Product Description: AutoCAD Mechanical|Company: Autodesk, Inc."
 90
     1024
 91
        1
280
     0
281
     0
  0
CLASS
  1
ACMSECTIONSTANDARDDIN
  2
AmdtSectionSymStdDIN
  3
"Amdt_StdImp|Product Description: AutoCAD Mechanical|Company: Autodesk, Inc."
 90
     1024
 91
        1
280
     0
281
     0
  0
CLASS
  1
ACMCENTERLINESTANDARDDIN
  2
AmdtCenterLineStdDIN
  3
"Amdt_StdImp|Product Description: AutoCAD Mechanical|Company: Autodesk, Inc."
 90
     1024
 91
        1
280
     0
281
     0
  0
CLASS
  1
ACMTHREADLINESTANDARDDIN
  2
AmdtThreadLineStdDIN
  3
"Amdt_StdImp|Product Description: AutoCAD Mechanical|Company: Autodesk, Inc."
 90
     1024
 91
        1
280
     0
281
     0
  0
CLASS
  1
ACMNOTESTANDARDDIN
  2
AmdtNoteStdDIN
  3
"Amdt_StdImp|Product Description: AutoCAD Mechanical|Company: Autodesk, Inc."
 90
     1024
 91
        1
280
     0
281
     0
  0
CLASS
  1
ACMTAPERSTANDARDDIN
  2
AcmTaperStdDIN
  3
"Amdt_StdImp|Product Description: AutoCAD Mechanical|Company: Autodesk, Inc."
 90
     1024
 91
        1
280
     0
281
     0
  0
CLASS
  1
ACMANOOTATIONVIEWSTANDARDDIN
  2
AmdtAnViewStdDIN
  3
"Amdt_StdImp|Product Description: AutoCAD Mechanical|Company: Autodesk, Inc."
 90
     1024
 91
        1
280
     0
281
     0
  0
CLASS
  1
ACAMGHOLECHARTSTDDIN
  2
AcAmgHoleChartStdDIN
  3
AmgDim|Product Description: AutoCAD Mechanical|Company: Autodesk, Inc.
 90
     1024
 91
        1
280
     0
281
     0
  0
CLASS
  1
ACMDIMBREAKPERSREACTOR
  2
AcmDimBreakPersReactor
  3
AmgDim|Product Description: AutoCAD Mechanical|Company: Autodesk, Inc.
 90
     4095
 91
        2
280
     0
281
     0
  0
CLASS
  1
AMDTNOTE
  2
AmdtNote
  3
"AcmSymBB|Product Description: AutoCAD Mechanical|Company: Autodesk, Inc."
 90
     4095
 91
        3
280
     0
281
     1
  0
CLASS
  1
ACDBCIRCARCRES
  2
AcDbCircArcRes
  3
AcGrefServices
 90
     1024
 91
        3
280
     0
281
     0
  0
ENDSEC
  0
SECTION
  2
TABLES
  0
TABLE
  2
VPORT
  5
13
330
0
100
AcDbSymbolTable
 70
     1
  0
VPORT
  5
7BB
330
13
100
AcDbSymbolTableRecord
100
AcDbViewportTableRecord
  2
*Active
 70
     0
 10
0.0
 20
0.0
 11
1.0
 21
1.0
 12
125.0
 22
165.0
 13
0.0
 23
0.0
 14
2.5
 24
2.5
 15
10.0
 25
10.0
 16
0.0
 26
0.0
 36
1.0
 17
0.0
 27
0.0
 37
0.0
 40
330.0
 41
1.511511511511511
 42
50.0
 43
0.0
 44
0.0
 50
0.0
 51
0.0
 71
     0
 72
   100
 73
     1
 74
     0
 75
     0
 76
     0
 77
     0
 78
     0
281
     0
 65
     1
110
0.0
120
0.0
130
0.0
111
1.0
121
0.0
131
0.0
112
0.0
122
1.0
132
0.0
 79
     0
146
0.0
  0
ENDTAB
  0
TABLE
  2
LTYPE
  5
E
330
0
100
AcDbSymbolTable
 70
    21
  0
LTYPE
  5
F
330
E
100
AcDbSymbolTableRecord
100
AcDbLinetypeTableRecord
  2
BYBLOCK
 70
     0
  3

 72
    65
 73
     0
 40
0.0
  0
LTYPE
  5
10
330
E
100
AcDbSymbolTableRecord
100
AcDbLinetypeTableRecord
  2
BYLAYER
 70
     0
  3

 72
    65
 73
     0
 40
0.0
  0
LTYPE
  5
6
330
E
100
AcDbSymbolTableRecord
100
AcDbLinetypeTableRecord
  2
CONTINUOUS
 70
     0
  3
Solid line
 72
    65
 73
     0
 40
0.0
  0
LTYPE
  5
29
330
E
100
AcDbSymbolTableRecord
100
AcDbLinetypeTableRecord
  2
MITTE
 70
     0
  3
____ _ ____ _ ____ _ ____ _ ____ _ ____ _ ____ 
 72
    65
 73
     4
 40
2.0
 49
1.25
 74
     0
 49
-0.25
 74
     0
 49
0.25
 74
     0
 49
-0.25
 74
     0
  0
LTYPE
  5
81
330
E
100
AcDbSymbolTableRecord
100
AcDbLinetypeTableRecord
  2
HIDDEN
 70
     0
  3
Verdeckt
 72
    65
 73
     2
 40
0.375
 49
0.25
 74
     0
 49
-0.125
 74
     0
  0
LTYPE
  5
82
330
E
100
AcDbSymbolTableRecord
100
AcDbLinetypeTableRecord
  2
PHANTOM2
 70
     0
  3
Phantom (.5x) ___ _ _ ___ _ _ ___ _ _ ___ _ _
 72
    65
 73
     6
 40
1.25
 49
0.625
 74
     0
 49
-0.125
 74
     0
 49
0.125
 74
     0
 49
-0.125
 74
     0
 49
0.125
 74
     0
 49
-0.125
 74
     0
  0
LTYPE
  5
83
330
E
100
AcDbSymbolTableRecord
100
AcDbLinetypeTableRecord
  2
CENTER
 70
     0
  3
Mitte ____ _ ____ _ ____ _ ____ _ ____ _ ____
 72
    65
 73
     4
 40
2.0
 49
1.25
 74
     0
 49
-0.25
 74
     0
 49
0.25
 74
     0
 49
-0.25
 74
     0
  0
LTYPE
  5
CD
330
E
100
AcDbSymbolTableRecord
100
AcDbLinetypeTableRecord
  2
Amconstr
 70
     0
  3
_______________________
 72
    65
 73
     2
 40
9999.0
 49
9999.0
 74
     0
 49
0.0
 74
     0
  0
LTYPE
  5
D3
330
E
100
AcDbSymbolTableRecord
100
AcDbLinetypeTableRecord
  2
CENTER2
 70
     0
  3
Center (.5x) ___ _ ___ _ ___ _ ___ _ ___ _ ___
 72
    65
 73
     4
 40
1.125
 49
0.75
 74
     0
 49
-0.125
 74
     0
 49
0.125
 74
     0
 49
-0.125
 74
     0
  0
LTYPE
  5
D4
330
E
100
AcDbSymbolTableRecord
100
AcDbLinetypeTableRecord
  2
HIDDEN2
 70
     0
  3
Hidden (.5x) _ _ _ _ _ _ _ _ _ _ _ _ _ _ _ _ _
 72
    65
 73
     2
 40
0.1875
 49
0.125
 74
     0
 49
-0.0625
 74
     0
  0
LTYPE
  5
D5
330
E
100
AcDbSymbolTableRecord
100
AcDbLinetypeTableRecord
  2
Amzigzag2
 70
     0
  3
/\/-/\/-/\/-/\/-/\/-/\/
 72
    65
 73
     2
 40
0.4401
 49
0.0001
 74
     4
 75
   135
340
D1
 46
0.0016
 50
0.0
 44
0.0
 45
0.0
 49
-0.4400000000000001
 74
     0
  0
LTYPE
  5
E3
330
E
100
AcDbSymbolTableRecord
100
AcDbLinetypeTableRecord
  2
ACANSTGB
 70
     0
  3
__ . . __ . .
 72
    65
 73
     6
 40
0.35433070866
 49
0.15748031496
 74
     0
 49
-0.03937007874
 74
     0
 49
0.03937007874
 74
     0
 49
-0.03937007874
 74
     0
 49
0.03937007874
 74
     0
 49
-0.03937007874
 74
     0
  0
LTYPE
  5
E4
330
E
100
AcDbSymbolTableRecord
100
AcDbLinetypeTableRecord
  2
ACANSTGL
 70
     0
  3
_ _ _ _ _
 72
    65
 73
     2
 40
0.11811023622
 49
0.07874015748
 74
     0
 49
-0.03937007874
 74
     0
  0
LTYPE
  5
89F
330
E
100
AcDbSymbolTableRecord
100
AcDbLinetypeTableRecord
  2
ACDINWELD
 70
     0
  3
_ _ _ _ _
 72
    65
 73
     2
 40
2.0
 49
2.0
 74
     0
 49
-1.0
 74
     0
  0
LTYPE
  5
8A0
330
E
100
AcDbSymbolTableRecord
100
AcDbLinetypeTableRecord
  2
ACDINTGB
 70
     0
  3
__ . . __ . .
 72
    65
 73
     6
 40
9.0
 49
4.0
 74
     0
 49
-1.0
 74
     0
 49
1.0
 74
     0
 49
-1.0
 74
     0
 49
1.0
 74
     0
 49
-1.0
 74
     0
  0
LTYPE
  5
8A1
330
E
100
AcDbSymbolTableRecord
100
AcDbLinetypeTableRecord
  2
ACDINTGL
 70
     0
  3
_ _ _ _ _
 72
    65
 73
     2
 40
3.0
 49
2.0
 74
     0
 49
-1.0
 74
     0
  0
LTYPE
  5
8B8
330
E
100
AcDbSymbolTableRecord
100
AcDbLinetypeTableRecord
  2
Amzigzag
 70
     0
  3
/\/-/\/-/\/-/\/-/\/-/\/
 72
    65
 73
     2
 40
11.0001
 49
0.0001
 74
     4
 75
   136
340
86B
 46
0.04
 50
0.0
 44
0.0
 45
0.0
 49
-11.0
 74
     0
  0
LTYPE
  5
8B9
330
E
100
AcDbSymbolTableRecord
100
AcDbLinetypeTableRecord
  2
AM_DIN_F_W050
 70
     0
  3
__ __ __ __ __ __ __ __ __ __ __ __ __ __ __
 72
    65
 73
     2
 40
6.25
 49
4.75
 74
     0
 49
-1.5
 74
     0
  0
LTYPE
  5
8BA
330
E
100
AcDbSymbolTableRecord
100
AcDbLinetypeTableRecord
  2
AM_DIN_G_W050
 70
     0
  3
____ . ____ . ____ . ____ . ____ . ____ . ____
 72
    65
 73
     4
 40
13.75
 49
9.75
 74
     0
 49
-1.5
 74
     0
 49
1.0
 74
     0
 49
-1.5
 74
     0
  0
LTYPE
  5
8BB
330
E
100
AcDbSymbolTableRecord
100
AcDbLinetypeTableRecord
  2
AM_DIN_K_W050
 70
     0
  3
_____ . . _____ . . _____ . . ____ .. ____
 72
    65
 73
     6
 40
16.25
 49
9.75
 74
     0
 49
-1.5
 74
     0
 49
1.0
 74
     0
 49
-1.5
 74
     0
 49
1.0
 74
     0
 49
-1.5
 74
     0
  0
LTYPE
  5
8BC
330
E
100
AcDbSymbolTableRecord
100
AcDbLinetypeTableRecord
  2
AM_DIN_G_W050x2
 70
     0
  3
__ . __ . __ . __ . __ . __
 72
    65
 73
     4
 40
6.875
 49
4.75
 74
     0
 49
-0.875
 74
     0
 49
0.375
 74
     0
 49
-0.875
 74
     0
  0
LTYPE
  5
8BD
330
E
100
AcDbSymbolTableRecord
100
AcDbLinetypeTableRecord
  2
AM_DIN_F_W050x2
 70
     0
  3
 _ _ _ _ _ _ _ _ _ _ _ _
 72
    65
 73
     2
 40
3.125
 49
2.25
 74
     0
 49
-0.875
 74
     0
  0
ENDTAB
  0
TABLE
  2
LAYER
  5
B
102
{ACAD_XDICTIONARY
360
869
102
}
330
0
100
AcDbSymbolTable
 70
     6
  0
LAYER
  5
5
102
{ACAD_XDICTIONARY
360
841
102
}
330
B
100
AcDbSymbolTableRecord
100
AcDbLayerTableRecord
  2
0
 70
     0
 62
     7
  6
CONTINUOUS
370
    -3
390
5D
  0
LAYER
  5
20
102
{ACAD_XDICTIONARY
360
843
102
}
330
B
100
AcDbSymbolTableRecord
100
AcDbLayerTableRecord
  2
BEM
 70
     1
 62
     3
  6
CONTINUOUS
370
    -3
390
5D
  0
LAYER
  5
26
102
{ACAD_XDICTIONARY
360
845
102
}
330
B
100
AcDbSymbolTableRecord
100
AcDbLayerTableRecord
  2
TEXT
 70
     0
 62
     2
  6
CONTINUOUS
370
    -3
390
5D
  0
LAYER
  5
28
102
{ACAD_XDICTIONARY
360
847
102
}
330
B
100
AcDbSymbolTableRecord
100
AcDbLayerTableRecord
  2
MITTE
 70
     0
 62
     4
  6
MITTE
370
    -3
390
5D
  0
LAYER
  5
24
102
{ACAD_XDICTIONARY
360
849
102
}
330
B
100
AcDbSymbolTableRecord
100
AcDbLayerTableRecord
  2
LINIE
 70
     0
 62
     4
  6
CONTINUOUS
370
    -3
390
5D
  0
LAYER
  5
1E1
330
B
100
AcDbSymbolTableRecord
100
AcDbLayerTableRecord
  2
Defpoints
 70
     0
 62
     7
  6
CONTINUOUS
290
     0
370
    -3
390
5D
  0
ENDTAB
  0
TABLE
  2
STYLE
  5
C
330
0
100
AcDbSymbolTable
 70
     9
  0
STYLE
  5
D
330
C
100
AcDbSymbolTableRecord
100
AcDbTextStyleTableRecord
  2
STANDARD
 70
     0
 40
0.0
 41
1.0
 50
0.0
 71
     0
 42
20.0
  3
romans.shx
  4

  0
STYLE
  5
1C
330
C
100
AcDbSymbolTableRecord
100
AcDbTextStyleTableRecord
  2
STYLE1
 70
     0
 40
0.0
 41
1.0
 50
0.0
 71
     0
 42
20.0
  3
ariblk.TTF
  4

1001
ACAD
1000
Arial Black
1071
 33554466
  0
STYLE
  5
D1
330
C
100
AcDbSymbolTableRecord
100
AcDbTextStyleTableRecord
  2

 70
     1
 40
0.0
 41
1.0
 50
0.0
 71
     0
 42
20.0
  3
ltypeshp.shx
  4

  0
STYLE
  5
D6
330
C
100
AcDbSymbolTableRecord
100
AcDbTextStyleTableRecord
  2
ACANSTS
 70
     0
 40
1.0
 41
1.0
 50
0.0
 71
     0
 42
20.0
  3
romans.shx
  4

  0
STYLE
  5
E2
330
C
100
AcDbSymbolTableRecord
100
AcDbTextStyleTableRecord
  2
ACANSGDT
 70
     0
 40
0.0
 41
1.0
 50
0.0
 71
     0
 42
20.0
  3
amgdtans.shx
  4

  0
STYLE
  5
86B
330
C
100
AcDbSymbolTableRecord
100
AcDbTextStyleTableRecord
  2

 70
     1
 40
0.0
 41
1.0
 50
0.0
 71
     0
 42
2.0
  3
genltshp.shx
  4

  0
STYLE
  5
88F
330
C
100
AcDbSymbolTableRecord
100
AcDbTextStyleTableRecord
  2
ACDINTS
 70
     0
 40
1.0
 41
1.0
 50
0.0
 71
     0
 42
20.0
  3
isocp.shx
  4

  0
STYLE
  5
89E
330
C
100
AcDbSymbolTableRecord
100
AcDbTextStyleTableRecord
  2
ACDINGDT
 70
     0
 40
0.0
 41
1.0
 50
0.0
 71
     0
 42
20.0
  3
amgdt.shx
  4

  0
ENDTAB
  0
TABLE
  2
VIEW
  5
11
330
0
100
AcDbSymbolTable
 70
     0
  0
ENDTAB
  0
TABLE
  2
UCS
  5
12
330
0
100
AcDbSymbolTable
 70
     0
  0
ENDTAB
  0
TABLE
  2
APPID
  5
15
330
0
100
AcDbSymbolTable
 70
    17
  0
APPID
  5
16
330
15
100
AcDbSymbolTableRecord
100
AcDbRegAppTableRecord
  2
ACAD
 70
     0
  0
APPID
  5
30
330
15
100
AcDbSymbolTableRecord
100
AcDbRegAppTableRecord
  2
MCAD_NO_VIS
 70
     0
  0
APPID
  5
6D
330
15
100
AcDbSymbolTableRecord
100
AcDbRegAppTableRecord
  2
ACAD_TEMP_GRAPHIC
 70
     0
  0
APPID
  5
98
330
15
100
AcDbSymbolTableRecord
100
AcDbRegAppTableRecord
  2
AD_DRAW
 70
     0
  0
APPID
  5
9B
330
15
100
AcDbSymbolTableRecord
100
AcDbRegAppTableRecord
  2
ACATTRIBSERVICES
 70
     0
  0
APPID
  5
B9
330
15
100
AcDbSymbolTableRecord
100
AcDbRegAppTableRecord
  2
DESIGNERASSEMBLIES
 70
     0
  0
APPID
  5
C1
330
15
100
AcDbSymbolTableRecord
100
AcDbRegAppTableRecord
  2
ACADM_DIM_EDIT
 70
     0
  0
APPID
  5
C2
330
15
100
AcDbSymbolTableRecord
100
AcDbRegAppTableRecord
  2
AMDT_DM_ADJ
 70
     0
  0
APPID
  5
49B
330
15
100
AcDbSymbolTableRecord
100
AcDbRegAppTableRecord
  2
ACAD_PSEXT
 70
     0
  0
APPID
  5
820
330
15
100
AcDbSymbolTableRecord
100
AcDbRegAppTableRecord
  2
ACAD_MLEADERVER
 70
     0
  0
APPID
  5
82B
330
15
100
AcDbSymbolTableRecord
100
AcDbRegAppTableRecord
  2
DCO15
 70
     0
  0
APPID
  5
8BF
330
15
100
AcDbSymbolTableRecord
100
AcDbRegAppTableRecord
  2
AcadAnnoPO
 70
     0
  0
APPID
  5
8C3
330
15
100
AcDbSymbolTableRecord
100
AcDbRegAppTableRecord
  2
ACAD_DSTYLE_DIMINSPECT
 70
     0
  0
APPID
  5
8CD
330
15
100
AcDbSymbolTableRecord
100
AcDbRegAppTableRecord
  2
GENIUS_GENDTOL_13
 70
     0
  0
APPID
  5
A34
330
15
100
AcDbSymbolTableRecord
100
AcDbRegAppTableRecord
  2
AcAecLayerStandard
 70
     0
  0
APPID
  5
BDD
330
15
100
AcDbSymbolTableRecord
100
AcDbRegAppTableRecord
  2
ACAD_EXEMPT_FROM_CAD_STANDARDS
 70
     0
  0
APPID
  5
1151
330
15
100
AcDbSymbolTableRecord
100
AcDbRegAppTableRecord
  2
ACAD_DSTYLE_DIMJOGGED_JOGANGLE_SYMBOL
 70
     0
  0
ENDTAB
  0
TABLE
  2
DIMSTYLE
  5
17
330
0
100
AcDbSymbolTable
 70
    17
100
AcDbDimStyleTable
 71
     2
340
8AA
340
1E
  0
DIMSTYLE
105
1E
102
{ACAD_REACTORS
330
20C
330
21A
330
227
330
234
330
24F
330
297
330
2C2
330
6BE
330
25C
330
269
330
289
330
2A6
330
2B3
330
F9C
330
F9D
330
F9E
330
F9F
330
FA0
330
FA1
330
FA2
330
FA3
330
FA4
330
FA5
330
FA9
330
FAA
330
FAB
330
FC2
102
}
330
17
100
AcDbSymbolTableRecord
100
AcDbDimStyleTableRecord
  2
ISO-25
 70
     0
 41
3.5
 42
0.0
 43
7.0
 44
1.25
 73
     0
 74
     0
 77
     1
 78
     8
140
3.5
141
0.0
143
0.0394
144
0.5
145
1.0
147
1.5
172
     1
176
   256
177
   256
178
   256
284
     8
288
     1
340
D
  0
DIMSTYLE
105
EB
330
17
100
AcDbSymbolTableRecord
100
AcDbDimStyleTableRecord
  2
AM_ANSI
 70
     0
  4
mm
 41
0.1
 42
0.05
 43
0.5
 44
0.1
 47
0.1
 48
0.1
 78
     7
 79
     2
140
0.12
141
0.0
146
0.71
147
0.06
176
   256
177
   256
178
     2
274
     4
284
     7
340
D
371
    -1
372
    -1
  0
DIMSTYLE
105
EC
330
17
100
AcDbSymbolTableRecord
100
AcDbDimStyleTableRecord
  2
AM_ANSI$3
 70
     0
  4
mm
 41
0.1
 42
0.05
 43
0.5
 44
0.1
 47
0.1
 48
0.1
 78
     7
 79
     2
140
0.12
141
0.0
146
0.71
147
0.06
176
   256
177
   256
178
     2
274
     4
284
     7
288
     1
289
     0
340
D
371
    -1
372
    -1
  0
DIMSTYLE
105
ED
330
17
100
AcDbSymbolTableRecord
100
AcDbDimStyleTableRecord
  2
AM_ANSI$4
 70
     0
  4
mm
 41
0.1
 42
0.05
 43
0.5
 44
0.1
 47
0.1
 48
0.1
 78
     7
 79
     2
140
0.12
141
0.0
146
0.71
147
0.06
176
   256
177
   256
178
     2
274
     4
284
     7
288
     1
289
     0
340
D
371
    -1
372
    -1
  0
DIMSTYLE
105
EE
330
17
100
AcDbSymbolTableRecord
100
AcDbDimStyleTableRecord
  2
AM_ANSI$7
 70
     0
  4
mm
 41
0.1
 42
0.05
 43
0.5
 44
0.1
 47
0.1
 48
0.1
 78
     7
 79
     2
140
0.24
141
0.0
146
0.71
147
0.06
176
   256
177
   256
178
     2
274
     4
284
     7
340
D
371
    -1
372
    -1
  0
DIMSTYLE
105
EF
330
17
100
AcDbSymbolTableRecord
100
AcDbDimStyleTableRecord
  2
AM_ANSI$SF
 70
     0
  4
mm
 41
0.1
 42
0.05
 43
0.5
 44
0.1
 47
0.1
 48
0.1
 75
     1
 76
     1
 78
     7
 79
     2
140
0.12
141
0.0
146
0.71
147
0.06
176
   256
177
   256
178
     2
274
     4
284
     7
340
D
371
    -1
372
    -1
  0
DIMSTYLE
105
F4
330
17
100
AcDbSymbolTableRecord
100
AcDbDimStyleTableRecord
  2
AM_ANSI$SH
 70
     0
  4
mm
 41
0.1
 42
0.05
 43
0.5
 44
0.1
 47
0.1
 48
0.1
 75
     1
 76
     1
 78
     7
 79
     2
140
0.12
141
0.0
146
0.71
147
0.06
173
     1
176
   256
177
   256
178
     2
274
     4
284
     7
340
D
343
F0
371
    -1
372
    -1
  0
DIMSTYLE
105
38B
330
17
100
AcDbSymbolTableRecord
100
AcDbDimStyleTableRecord
  2
STANDARD
 70
     0
 41
3.5
 42
0.0
 43
7.0
 44
1.25
 73
     0
 74
     0
 77
     1
 78
     8
140
3.5
141
0.0
147
1.5
172
     1
176
   256
177
   256
178
   256
288
     1
340
D
  0
DIMSTYLE
105
8AA
330
17
100
AcDbSymbolTableRecord
100
AcDbDimStyleTableRecord
  2
AM_DIN
 70
     0
  4
"
 41
2.5
 42
1.0
 43
10.0
 44
1.0
 47
0.1
 48
0.1
 73
     0
 74
     0
 77
     1
 78
     8
 79
     2
140
3.5
141
0.0
143
0.0393701
146
0.71
147
1.5
172
     1
176
   256
177
   256
178
     2
271
     2
272
     3
274
     4
283
     0
284
     8
340
D
371
    -1
372
    -1
1001
ACAD_DSTYLE_DIMJOGGED_JOGANGLE_SYMBOL
1070
   384
1040
1.570796326794896
  0
DIMSTYLE
105
8AB
330
17
100
AcDbSymbolTableRecord
100
AcDbDimStyleTableRecord
  2
AM_DIN$3
 70
     0
  4
"
 41
2.5
 42
1.0
 43
10.0
 44
1.0
 47
0.1
 48
0.1
 73
     0
 77
     1
 78
     8
 79
     2
140
3.5
141
0.0
143
0.0393701
146
0.71
147
1.5
176
   256
177
   256
178
     2
271
     2
272
     3
274
     4
283
     0
284
     8
288
     1
289
     0
340
D
371
    -1
372
    -1
1001
ACAD_DSTYLE_DIMJOGGED_JOGANGLE_SYMBOL
1070
   384
1040
1.570796326794896
  0
DIMSTYLE
105
8AC
330
17
100
AcDbSymbolTableRecord
100
AcDbDimStyleTableRecord
  2
AM_DIN$4
 70
     0
  4
"
 41
2.5
 42
1.0
 43
10.0
 44
1.0
 47
0.1
 48
0.1
 73
     0
 77
     1
 78
     8
 79
     2
140
3.5
141
0.0
143
0.0393701
146
0.71
147
1.5
176
   256
177
   256
178
     2
271
     2
272
     3
274
     4
283
     0
284
     8
288
     1
289
     0
340
D
371
    -1
372
    -1
1001
ACAD_DSTYLE_DIMJOGGED_JOGANGLE_SYMBOL
1070
   384
1040
1.570796326794896
  0
DIMSTYLE
105
8AD
330
17
100
AcDbSymbolTableRecord
100
AcDbDimStyleTableRecord
  2
AM_DIN$6
 70
     0
  4
"
 41
2.5
 42
1.0
 43
10.0
 44
1.0
 47
0.1
 48
0.1
 73
     0
 74
     0
 78
     8
 79
     2
140
3.5
141
0.0
143
0.0393701
146
0.71
147
1.5
172
     1
176
   256
177
   256
178
     2
271
     2
272
     3
274
     4
283
     0
284
     8
340
D
371
    -1
372
    -1
1001
ACAD_DSTYLE_DIMJOGGED_JOGANGLE_SYMBOL
1070
   384
1040
1.570796326794896
  0
DIMSTYLE
105
8AE
330
17
100
AcDbSymbolTableRecord
100
AcDbDimStyleTableRecord
  2
AM_DIN$7
 70
     0
  4
"
 41
2.5
 42
1.0
 43
10.0
 44
1.0
 47
0.1
 48
0.1
 73
     0
 74
     0
 77
     1
 78
     8
 79
     2
140
5.0
141
0.0
143
0.0393701
146
0.71
147
1.5
172
     1
176
   256
177
   256
178
     2
271
     2
272
     3
274
     4
283
     0
284
     8
340
D
371
    -1
372
    -1
1001
ACAD_DSTYLE_DIMJOGGED_JOGANGLE_SYMBOL
1070
   384
1040
1.570796326794896
  0
DIMSTYLE
105
8AF
330
17
100
AcDbSymbolTableRecord
100
AcDbDimStyleTableRecord
  2
AM_DIN$SF
 70
     0
  4
"
 41
2.5
 42
1.0
 43
10.0
 44
1.0
 47
0.1
 48
0.1
 73
     0
 74
     0
 75
     1
 76
     1
 77
     1
 78
     8
 79
     2
140
3.5
141
0.0
143
0.0393701
146
0.71
147
1.5
172
     1
176
   256
177
   256
178
     2
271
     2
272
     3
274
     4
283
     0
284
     8
340
D
371
    -1
372
    -1
1001
ACAD_DSTYLE_DIMJOGGED_JOGANGLE_SYMBOL
1070
   384
1040
1.570796326794896
  0
DIMSTYLE
105
8B0
330
17
100
AcDbSymbolTableRecord
100
AcDbDimStyleTableRecord
  2
AM_DIN$SH
 70
     0
  4
"
 41
2.5
 42
1.0
 43
10.0
 44
1.0
 47
0.1
 48
0.1
 73
     0
 74
     0
 75
     1
 76
     1
 77
     1
 78
     8
 79
     2
140
3.5
141
0.0
143
0.0393701
144
2.0
146
0.71
147
1.5
172
     1
173
     1
176
   256
177
   256
178
     2
271
     2
272
     3
274
     4
283
     0
284
     8
340
D
343
F0
371
    -1
372
    -1
1001
ACAD_DSTYLE_DIMJOGGED_JOGANGLE_SYMBOL
1070
   384
1040
1.570796326794896
  0
ENDTAB
  0
TABLE
  2
BLOCK_RECORD
  5
1
330
0
100
AcDbSymbolTable
 70
    51
  0
BLOCK_RECORD
  5
2
102
{ACAD_XDICTIONARY
360
3
102
}
330
1
100
AcDbSymbolTableRecord
100
AcDbBlockTableRecord
  2
*MODEL_SPACE
340
62
  0
BLOCK_RECORD
  5
8
330
1
100
AcDbSymbolTableRecord
100
AcDbBlockTableRecord
  2
*PAPER_SPACE
340
63
  0
BLOCK_RECORD
  5
F0
330
1
100
AcDbSymbolTableRecord
100
AcDbBlockTableRecord
  2
GENAXEH
340
0
  0
BLOCK_RECORD
  5
20D
330
1
100
AcDbSymbolTableRecord
100
AcDbBlockTableRecord
  2
*D3
340
0
  0
BLOCK_RECORD
  5
21B
330
1
100
AcDbSymbolTableRecord
100
AcDbBlockTableRecord
  2
*D4
340
0
  0
BLOCK_RECORD
  5
228
330
1
100
AcDbSymbolTableRecord
100
AcDbBlockTableRecord
  2
*D5
340
0
  0
BLOCK_RECORD
  5
235
330
1
100
AcDbSymbolTableRecord
100
AcDbBlockTableRecord
  2
*D6
340
0
  0
BLOCK_RECORD
  5
250
330
1
100
AcDbSymbolTableRecord
100
AcDbBlockTableRecord
  2
*D7
340
0
  0
BLOCK_RECORD
  5
25D
330
1
100
AcDbSymbolTableRecord
100
AcDbBlockTableRecord
  2
*D8
340
0
  0
BLOCK_RECORD
  5
26A
330
1
100
AcDbSymbolTableRecord
100
AcDbBlockTableRecord
  2
*D9
340
0
  0
BLOCK_RECORD
  5
28A
330
1
100
AcDbSymbolTableRecord
100
AcDbBlockTableRecord
  2
*D10
340
0
  0
BLOCK_RECORD
  5
298
330
1
100
AcDbSymbolTableRecord
100
AcDbBlockTableRecord
  2
*D11
340
0
  0
BLOCK_RECORD
  5
2A7
330
1
100
AcDbSymbolTableRecord
100
AcDbBlockTableRecord
  2
*D12
340
0
  0
BLOCK_RECORD
  5
2B4
330
1
100
AcDbSymbolTableRecord
100
AcDbBlockTableRecord
  2
*D13
340
0
  0
BLOCK_RECORD
  5
2C3
330
1
100
AcDbSymbolTableRecord
100
AcDbBlockTableRecord
  2
*D14
340
0
  0
BLOCK_RECORD
  5
6BF
330
1
100
AcDbSymbolTableRecord
100
AcDbBlockTableRecord
  2
*D15
340
0
  0
BLOCK_RECORD
  5
FDF
330
1
100
AcDbSymbolTableRecord
100
AcDbBlockTableRecord
  2
*D32
340
0
  0
BLOCK_RECORD
  5
FEB
330
1
100
AcDbSymbolTableRecord
100
AcDbBlockTableRecord
  2
*D33
340
0
  0
BLOCK_RECORD
  5
FF7
330
1
100
AcDbSymbolTableRecord
100
AcDbBlockTableRecord
  2
*D34
340
0
  0
BLOCK_RECORD
  5
1005
330
1
100
AcDbSymbolTableRecord
100
AcDbBlockTableRecord
  2
*D35
340
0
  0
BLOCK_RECORD
  5
1011
330
1
100
AcDbSymbolTableRecord
100
AcDbBlockTableRecord
  2
*D36
340
0
  0
BLOCK_RECORD
  5
101D
330
1
100
AcDbSymbolTableRecord
100
AcDbBlockTableRecord
  2
*D37
340
0
  0
BLOCK_RECORD
  5
1029
330
1
100
AcDbSymbolTableRecord
100
AcDbBlockTableRecord
  2
*D38
340
0
  0
BLOCK_RECORD
  5
1036
330
1
100
AcDbSymbolTableRecord
100
AcDbBlockTableRecord
  2
*D39
340
0
  0
BLOCK_RECORD
  5
1044
330
1
100
AcDbSymbolTableRecord
100
AcDbBlockTableRecord
  2
*D40
340
0
  0
BLOCK_RECORD
  5
1050
330
1
100
AcDbSymbolTableRecord
100
AcDbBlockTableRecord
  2
*D41
340
0
  0
BLOCK_RECORD
  5
105C
330
1
100
AcDbSymbolTableRecord
100
AcDbBlockTableRecord
  2
*D42
340
0
  0
BLOCK_RECORD
  5
1068
330
1
100
AcDbSymbolTableRecord
100
AcDbBlockTableRecord
  2
*D43
340
0
  0
BLOCK_RECORD
  5
1074
330
1
100
AcDbSymbolTableRecord
100
AcDbBlockTableRecord
  2
*D44
340
0
  0
BLOCK_RECORD
  5
1080
330
1
100
AcDbSymbolTableRecord
100
AcDbBlockTableRecord
  2
*D45
340
0
  0
BLOCK_RECORD
  5
1135
330
1
100
AcDbSymbolTableRecord
100
AcDbBlockTableRecord
  2
*S49
340
0
  0
BLOCK_RECORD
  5
113E
330
1
100
AcDbSymbolTableRecord
100
AcDbBlockTableRecord
  2
*S50
340
0
  0
ENDTAB
  0
ENDSEC
  0
SECTION
  2
BLOCKS
  0
BLOCK
  5
4
330
2
100
AcDbEntity
  8
0
100
AcDbBlockBegin
  2
*MODEL_SPACE
 70
     0
 10
0.0
 20
0.0
 30
0.0
  3
*MODEL_SPACE
  1

  0
ENDBLK
  5
7
330
2
100
AcDbEntity
  8
0
100
AcDbBlockEnd
  0
BLOCK
  5
9
330
8
100
AcDbEntity
 67
     1
  8
0
100
AcDbBlockBegin
  2
*PAPER_SPACE
 70
     0
 10
0.0
 20
0.0
 30
0.0
  3
*PAPER_SPACE
  1

  0
ENDBLK
  5
A
330
8
100
AcDbEntity
 67
     1
  8
0
100
AcDbBlockEnd
  0
BLOCK
  5
F2
330
F0
100
AcDbEntity
  8
0
 48
10.0
100
AcDbBlockBegin
  2
GENAXEH
 70
     0
 10
0.0
 20
0.0
 30
0.0
  3
GENAXEH
  1

  0
LINE
  5
F1
330
F0
100
AcDbEntity
  8
0
100
AcDbLine
 10
-1.0
 20
0.0
 30
0.0
 11
1.0
 21
0.0
 31
0.0
  0
ENDBLK
  5
F3
330
F0
100
AcDbEntity
  8
0
 48
10.0
100
AcDbBlockEnd
  0
BLOCK
  5
217
330
20D
100
AcDbEntity
  8
0
 48
10.0
100
AcDbBlockBegin
  2
*D3
 70
     1
 10
0.0
 20
0.0
 30
0.0
  3
*D3
  1

  0
LINE
  5
CEF
330
20D
100
AcDbEntity
  8
BEM
 48
10.0
370
    -2
100
AcDbLine
 10
95.48071496297382
 20
165.4561183357848
 30
0.0
 11
95.48071496297382
 21
179.1429384801931
 31
0.0
  0
LINE
  5
CF0
330
20D
100
AcDbEntity
  8
BEM
 48
10.0
370
    -2
100
AcDbLine
 10
29.48071496297379
 20
165.4561183357848
 30
0.0
 11
29.48071496297379
 21
179.1429384801931
 31
0.0
  0
LINE
  5
CF1
330
20D
100
AcDbEntity
  8
BEM
 48
10.0
370
    -2
100
AcDbLine
 10
91.98071496297382
 20
177.8929384801931
 30
0.0
 11
32.98071496297379
 21
177.8929384801931
 31
0.0
  0
SOLID
  5
CF2
330
20D
100
AcDbEntity
  8
BEM
 48
10.0
100
AcDbTrace
 10
91.98071496297382
 20
178.4762718135265
 30
0.0
 11
91.98071496297382
 21
177.3096051468598
 31
0.0
 12
95.48071496297382
 22
177.8929384801931
 32
0.0
 13
95.48071496297382
 23
177.8929384801931
 33
0.0
  0
SOLID
  5
CF3
330
20D
100
AcDbEntity
  8
BEM
 48
10.0
100
AcDbTrace
 10
32.98071496297379
 20
178.4762718135265
 30
0.0
 11
32.98071496297379
 21
177.3096051468598
 31
0.0
 12
29.48071496297379
 22
177.8929384801931
 32
0.0
 13
29.48071496297379
 23
177.8929384801931
 33
0.0
  0
MTEXT
  5
CF4
330
20D
100
AcDbEntity
  8
BEM
 48
10.0
100
AcDbMText
 10
62.48071496297381
 20
181.1429384801931
 30
0.0
 40
3.5
 41
0.0
 71
     5
 72
     1
  1
\A1;66
 73
     1
 44
1.0
  0
POINT
  5
CF5
330
20D
100
AcDbEntity
  8
Defpoints
 62
     0
 48
10.0
100
AcDbPoint
 10
95.48071496297382
 20
165.4561183357848
 30
0.0
  0
POINT
  5
CF6
330
20D
100
AcDbEntity
  8
Defpoints
 62
     0
 48
10.0
100
AcDbPoint
 10
29.48071496297379
 20
165.4561183357848
 30
0.0
  0
POINT
  5
CF7
330
20D
100
AcDbEntity
  8
Defpoints
 62
     0
 48
10.0
100
AcDbPoint
 10
29.48071496297379
 20
177.8929384801931
 30
0.0
  0
ENDBLK
  5
218
330
20D
100
AcDbEntity
  8
0
 48
10.0
100
AcDbBlockEnd
  0
BLOCK
  5
225
330
21B
100
AcDbEntity
  8
0
 48
10.0
100
AcDbBlockBegin
  2
*D4
 70
     1
 10
0.0
 20
0.0
 30
0.0
  3
*D4
  1

  0
LINE
  5
CF8
330
21B
100
AcDbEntity
  8
BEM
 48
10.0
370
    -2
100
AcDbLine
 10
95.48071496297382
 20
165.4561183357848
 30
0.0
 11
121.2273671313937
 21
165.4561183357848
 31
0.0
  0
LINE
  5
CF9
330
21B
100
AcDbEntity
  8
BEM
 48
10.0
370
    -2
100
AcDbLine
 10
95.48071496297382
 20
109.4561183357848
 30
0.0
 11
121.2273671313937
 21
109.4561183357848
 31
0.0
  0
LINE
  5
CFA
330
21B
100
AcDbEntity
  8
BEM
 48
10.0
370
    -2
100
AcDbLine
 10
119.9773671313937
 20
161.9561183357848
 30
0.0
 11
119.9773671313937
 21
112.9561183357848
 31
0.0
  0
SOLID
  5
CFB
330
21B
100
AcDbEntity
  8
BEM
 48
10.0
100
AcDbTrace
 10
119.3940337980603
 20
161.9561183357848
 30
0.0
 11
120.560700464727
 21
161.9561183357848
 31
0.0
 12
119.9773671313937
 22
165.4561183357848
 32
0.0
 13
119.9773671313937
 23
165.4561183357848
 33
0.0
  0
SOLID
  5
CFC
330
21B
100
AcDbEntity
  8
BEM
 48
10.0
100
AcDbTrace
 10
119.3940337980603
 20
112.9561183357848
 30
0.0
 11
120.560700464727
 21
112.9561183357848
 31
0.0
 12
119.9773671313937
 22
109.4561183357848
 32
0.0
 13
119.9773671313937
 23
109.4561183357848
 33
0.0
  0
MTEXT
  5
CFD
330
21B
100
AcDbEntity
  8
BEM
 48
10.0
100
AcDbMText
 10
116.7273671313937
 20
137.4561183357848
 30
0.0
 40
3.5
 41
0.0
 71
     5
 72
     1
  1
\A1;56
 11
0.0000000000000001
 21
1.0
 31
0.0
 73
     1
 44
1.0
  0
POINT
  5
CFE
330
21B
100
AcDbEntity
  8
Defpoints
 62
     0
 48
10.0
100
AcDbPoint
 10
95.48071496297382
 20
165.4561183357848
 30
0.0
  0
POINT
  5
CFF
330
21B
100
AcDbEntity
  8
Defpoints
 62
     0
 48
10.0
100
AcDbPoint
 10
95.48071496297382
 20
109.4561183357848
 30
0.0
  0
POINT
  5
D00
330
21B
100
AcDbEntity
  8
Defpoints
 62
     0
 48
10.0
100
AcDbPoint
 10
119.9773671313937
 20
109.4561183357848
 30
0.0
  0
ENDBLK
  5
226
330
21B
100
AcDbEntity
  8
0
 48
10.0
100
AcDbBlockEnd
  0
BLOCK
  5
232
330
228
100
AcDbEntity
  8
0
 48
10.0
100
AcDbBlockBegin
  2
*D5
 70
     1
 10
0.0
 20
0.0
 30
0.0
  3
*D5
  1

  0
LINE
  5
D01
330
228
100
AcDbEntity
  8
BEM
 48
10.0
370
    -2
100
AcDbLine
 10
27.46002209478218
 20
137.4561183357848
 30
0.0
 11
15.86808715343242
 21
137.4561183357848
 31
0.0
  0
LINE
  5
D02
330
228
100
AcDbEntity
  8
BEM
 48
10.0
370
    -2
100
AcDbLine
 10
29.4807149629738
 20
109.4561183357848
 30
0.0
 11
15.86808715343241
 21
109.4561183357848
 31
0.0
  0
LINE
  5
D03
330
228
100
AcDbEntity
  8
BEM
 48
10.0
370
    -2
100
AcDbLine
 10
17.11808715343241
 20
133.9561183357848
 30
0.0
 11
17.11808715343241
 21
112.9561183357848
 31
0.0
  0
SOLID
  5
D04
330
228
100
AcDbEntity
  8
BEM
 48
10.0
100
AcDbTrace
 10
16.53475382009908
 20
133.9561183357848
 30
0.0
 11
17.70142048676575
 21
133.9561183357848
 31
0.0
 12
17.11808715343242
 22
137.4561183357848
 32
0.0
 13
17.11808715343242
 23
137.4561183357848
 33
0.0
  0
SOLID
  5
D05
330
228
100
AcDbEntity
  8
BEM
 48
10.0
100
AcDbTrace
 10
16.53475382009908
 20
112.9561183357848
 30
0.0
 11
17.70142048676574
 21
112.9561183357848
 31
0.0
 12
17.11808715343241
 22
109.4561183357848
 32
0.0
 13
17.11808715343241
 23
109.4561183357848
 33
0.0
  0
MTEXT
  5
D06
330
228
100
AcDbEntity
  8
BEM
 48
10.0
100
AcDbMText
 10
13.86808715343239
 20
123.4561183357848
 30
0.0
 40
3.5
 41
0.0
 71
     5
 72
     1
  1
\A1;28{}{\H0.71x;\C3;%%p0.05}
 11
0.0000000000000001
 21
1.0
 31
0.0
 73
     1
 44
1.0
  0
POINT
  5
D07
330
228
100
AcDbEntity
  8
Defpoints
 62
     0
 48
10.0
100
AcDbPoint
 10
27.46002209478218
 20
137.4561183357848
 30
0.0
  0
POINT
  5
D08
330
228
100
AcDbEntity
  8
Defpoints
 62
     0
 48
10.0
100
AcDbPoint
 10
29.4807149629738
 20
109.4561183357848
 30
0.0
  0
POINT
  5
D09
330
228
100
AcDbEntity
  8
Defpoints
 62
     0
 48
10.0
100
AcDbPoint
 10
17.11808715343241
 20
109.4561183357848
 30
0.0
  0
ENDBLK
  5
233
330
228
100
AcDbEntity
  8
0
 48
10.0
100
AcDbBlockEnd
  0
BLOCK
  5
241
330
235
100
AcDbEntity
  8
0
 48
10.0
100
AcDbBlockBegin
  2
*D6
 70
     1
 10
0.0
 20
0.0
 30
0.0
  3
*D6
  1

  0
LINE
  5
D0A
330
235
100
AcDbEntity
  8
BEM
 48
10.0
370
    -2
100
AcDbLine
 10
95.48071496297382
 20
139.4561183357848
 30
0.0
 11
107.572339865793
 21
139.4561183357848
 31
0.0
  0
LINE
  5
D0B
330
235
100
AcDbEntity
  8
BEM
 48
10.0
370
    -2
100
AcDbLine
 10
95.48071496297382
 20
135.4561183357848
 30
0.0
 11
107.572339865793
 21
135.4561183357848
 31
0.0
  0
LINE
  5
D0C
330
235
100
AcDbEntity
  8
BEM
 48
10.0
370
    -2
100
AcDbLine
 10
106.322339865793
 20
142.9561183357848
 30
0.0
 11
106.322339865793
 21
146.4561183357848
 31
0.0
  0
LINE
  5
D0D
330
235
100
AcDbEntity
  8
BEM
 48
10.0
370
    -2
100
AcDbLine
 10
106.322339865793
 20
131.9561183357848
 30
0.0
 11
106.322339865793
 21
122.9561183357848
 31
0.0
  0
LINE
  5
D0E
330
235
100
AcDbEntity
  8
BEM
 48
10.0
370
    -2
100
AcDbLine
 10
106.322339865793
 20
139.4561183357848
 30
0.0
 11
106.322339865793
 21
135.4561183357848
 31
0.0
  0
SOLID
  5
D0F
330
235
100
AcDbEntity
  8
BEM
 48
10.0
100
AcDbTrace
 10
105.7390065324596
 20
142.9561183357848
 30
0.0
 11
106.9056731991263
 21
142.9561183357848
 31
0.0
 12
106.322339865793
 22
139.4561183357848
 32
0.0
 13
106.322339865793
 23
139.4561183357848
 33
0.0
  0
SOLID
  5
D10
330
235
100
AcDbEntity
  8
BEM
 48
10.0
100
AcDbTrace
 10
105.7390065324596
 20
131.9561183357848
 30
0.0
 11
106.9056731991263
 21
131.9561183357848
 31
0.0
 12
106.322339865793
 22
135.4561183357848
 32
0.0
 13
106.322339865793
 23
135.4561183357848
 33
0.0
  0
MTEXT
  5
D11
330
235
100
AcDbEntity
  8
BEM
 48
10.0
100
AcDbMText
 10
103.072339865793
 20
125.7061183357849
 30
0.0
 40
3.5
 41
0.0
 71
     5
 72
     1
  1
\A1;4
 11
0.0000000000000001
 21
1.0
 31
0.0
 73
     1
 44
1.0
  0
POINT
  5
D12
330
235
100
AcDbEntity
  8
Defpoints
 62
     0
 48
10.0
100
AcDbPoint
 10
95.48071496297382
 20
139.4561183357848
 30
0.0
  0
POINT
  5
D13
330
235
100
AcDbEntity
  8
Defpoints
 62
     0
 48
10.0
100
AcDbPoint
 10
95.48071496297382
 20
135.4561183357848
 30
0.0
  0
POINT
  5
D14
330
235
100
AcDbEntity
  8
Defpoints
 62
     0
 48
10.0
100
AcDbPoint
 10
106.322339865793
 20
135.4561183357848
 30
0.0
  0
ENDBLK
  5
242
330
235
100
AcDbEntity
  8
0
 48
10.0
100
AcDbBlockEnd
  0
BLOCK
  5
25A
330
250
100
AcDbEntity
  8
0
 48
10.0
100
AcDbBlockBegin
  2
*D7
 70
     1
 10
0.0
 20
0.0
 30
0.0
  3
*D7
  1

  0
LINE
  5
D15
330
250
100
AcDbEntity
  8
BEM
 48
10.0
370
    -2
100
AcDbLine
 10
215.7330337461278
 20
164.0844421454074
 30
0.0
 11
215.7330337461278
 21
178.1790856817021
 31
0.0
  0
LINE
  5
D16
330
250
100
AcDbEntity
  8
BEM
 48
10.0
370
    -2
100
AcDbLine
 10
155.7330337461278
 20
164.0844421454074
 30
0.0
 11
155.7330337461278
 21
178.1790856817021
 31
0.0
  0
LINE
  5
D17
330
250
100
AcDbEntity
  8
BEM
 48
10.0
370
    -2
100
AcDbLine
 10
212.2330337461278
 20
176.929085681702
 30
0.0
 11
159.2330337461278
 21
176.929085681702
 31
0.0
  0
SOLID
  5
D18
330
250
100
AcDbEntity
  8
BEM
 48
10.0
100
AcDbTrace
 10
212.2330337461278
 20
177.5124190150354
 30
0.0
 11
212.2330337461278
 21
176.3457523483687
 31
0.0
 12
215.7330337461278
 22
176.929085681702
 32
0.0
 13
215.7330337461278
 23
176.929085681702
 33
0.0
  0
SOLID
  5
D19
330
250
100
AcDbEntity
  8
BEM
 48
10.0
100
AcDbTrace
 10
159.2330337461278
 20
177.5124190150354
 30
0.0
 11
159.2330337461278
 21
176.3457523483687
 31
0.0
 12
155.7330337461278
 22
176.929085681702
 32
0.0
 13
155.7330337461278
 23
176.929085681702
 33
0.0
  0
MTEXT
  5
D1A
330
250
100
AcDbEntity
  8
BEM
 48
10.0
100
AcDbMText
 10
185.7330337461278
 20
180.1790856817021
 30
0.0
 40
3.5
 41
0.0
 71
     5
 72
     1
  1
\A1;60
 73
     1
 44
1.0
  0
POINT
  5
D1B
330
250
100
AcDbEntity
  8
Defpoints
 62
     0
 48
10.0
100
AcDbPoint
 10
215.7330337461278
 20
164.0844421454074
 30
0.0
  0
POINT
  5
D1C
330
250
100
AcDbEntity
  8
Defpoints
 62
     0
 48
10.0
100
AcDbPoint
 10
155.7330337461278
 20
164.0844421454074
 30
0.0
  0
POINT
  5
D1D
330
250
100
AcDbEntity
  8
Defpoints
 62
     0
 48
10.0
100
AcDbPoint
 10
155.7330337461278
 20
176.929085681702
 30
0.0
  0
ENDBLK
  5
25B
330
250
100
AcDbEntity
  8
0
 48
10.0
100
AcDbBlockEnd
  0
BLOCK
  5
267
330
25D
100
AcDbEntity
  8
0
 48
10.0
100
AcDbBlockBegin
  2
*D8
 70
     1
 10
0.0
 20
0.0
 30
0.0
  3
*D8
  1

  0
LINE
  5
D1E
330
25D
100
AcDbEntity
  8
BEM
 48
10.0
370
    -2
100
AcDbLine
 10
199.7330337461278
 20
295.8254940879147
 30
0.0
 11
199.7330337461278
 21
310.5307597244562
 31
0.0
  0
LINE
  5
D1F
330
25D
100
AcDbEntity
  8
BEM
 48
10.0
370
    -2
100
AcDbLine
 10
215.7330337461278
 20
298.8254940879146
 30
0.0
 11
215.7330337461278
 21
310.5307597244562
 31
0.0
  0
LINE
  5
D20
330
25D
100
AcDbEntity
  8
BEM
 48
10.0
370
    -2
100
AcDbLine
 10
203.2330337461278
 20
309.2807597244562
 30
0.0
 11
212.2330337461278
 21
309.2807597244562
 31
0.0
  0
SOLID
  5
D21
330
25D
100
AcDbEntity
  8
BEM
 48
10.0
100
AcDbTrace
 10
203.2330337461278
 20
309.8640930577895
 30
0.0
 11
203.2330337461278
 21
308.6974263911228
 31
0.0
 12
199.7330337461278
 22
309.2807597244562
 32
0.0
 13
199.7330337461278
 23
309.2807597244562
 33
0.0
  0
SOLID
  5
D22
330
25D
100
AcDbEntity
  8
BEM
 48
10.0
100
AcDbTrace
 10
212.2330337461278
 20
309.8640930577895
 30
0.0
 11
212.2330337461278
 21
308.6974263911228
 31
0.0
 12
215.7330337461278
 22
309.2807597244562
 32
0.0
 13
215.7330337461278
 23
309.2807597244562
 33
0.0
  0
MTEXT
  5
D23
330
25D
100
AcDbEntity
  8
BEM
 48
10.0
100
AcDbMText
 10
209.7403489166155
 20
312.5307597244562
 30
0.0
 40
3.5
 41
0.0
 71
     5
 72
     1
  1
\A1;16{}{\H0.71x;\C3;%%p0.1}
 73
     1
 44
1.0
  0
POINT
  5
D24
330
25D
100
AcDbEntity
  8
Defpoints
 62
     0
 48
10.0
100
AcDbPoint
 10
199.7330337461278
 20
295.8254940879147
 30
0.0
  0
POINT
  5
D25
330
25D
100
AcDbEntity
  8
Defpoints
 62
     0
 48
10.0
100
AcDbPoint
 10
215.7330337461278
 20
298.8254940879146
 30
0.0
  0
POINT
  5
D26
330
25D
100
AcDbEntity
  8
Defpoints
 62
     0
 48
10.0
100
AcDbPoint
 10
215.7330337461278
 20
309.2807597244562
 30
0.0
  0
ENDBLK
  5
268
330
25D
100
AcDbEntity
  8
0
 48
10.0
100
AcDbBlockEnd
  0
BLOCK
  5
274
330
26A
100
AcDbEntity
  8
0
 48
10.0
100
AcDbBlockBegin
  2
*D9
 70
     1
 10
0.0
 20
0.0
 30
0.0
  3
*D9
  1

  0
LINE
  5
D27
330
26A
100
AcDbEntity
  8
BEM
 48
10.0
370
    -2
100
AcDbLine
 10
199.7330337461278
 20
295.8254940879147
 30
0.0
 11
199.7330337461278
 21
310.5307597244562
 31
0.0
  0
LINE
  5
D28
330
26A
100
AcDbEntity
  8
BEM
 48
10.0
370
    -2
100
AcDbLine
 10
171.7330337461278
 20
295.8254940879147
 30
0.0
 11
171.7330337461278
 21
310.5307597244562
 31
0.0
  0
LINE
  5
D29
330
26A
100
AcDbEntity
  8
BEM
 48
10.0
370
    -2
100
AcDbLine
 10
196.2330337461278
 20
309.2807597244562
 30
0.0
 11
175.2330337461278
 21
309.2807597244562
 31
0.0
  0
SOLID
  5
D2A
330
26A
100
AcDbEntity
  8
BEM
 48
10.0
100
AcDbTrace
 10
196.2330337461278
 20
309.8640930577895
 30
0.0
 11
196.2330337461278
 21
308.6974263911228
 31
0.0
 12
199.7330337461278
 22
309.2807597244562
 32
0.0
 13
199.7330337461278
 23
309.2807597244562
 33
0.0
  0
SOLID
  5
D2B
330
26A
100
AcDbEntity
  8
BEM
 48
10.0
100
AcDbTrace
 10
175.2330337461278
 20
309.8640930577895
 30
0.0
 11
175.2330337461278
 21
308.6974263911228
 31
0.0
 12
171.7330337461278
 22
309.2807597244562
 32
0.0
 13
171.7330337461278
 23
309.2807597244562
 33
0.0
  0
MTEXT
  5
D2C
330
26A
100
AcDbEntity
  8
BEM
 48
10.0
100
AcDbMText
 10
185.7330337461278
 20
312.5307597244562
 30
0.0
 40
3.5
 41
0.0
 71
     5
 72
     1
  1
\A1;28{}{\H0.71x;\C3;%%p0.05}
 73
     1
 44
1.0
  0
POINT
  5
D2D
330
26A
100
AcDbEntity
  8
Defpoints
 62
     0
 48
10.0
100
AcDbPoint
 10
199.7330337461278
 20
295.8254940879147
 30
0.0
  0
POINT
  5
D2E
330
26A
100
AcDbEntity
  8
Defpoints
 62
     0
 48
10.0
100
AcDbPoint
 10
171.7330337461278
 20
295.8254940879147
 30
0.0
  0
POINT
  5
D2F
330
26A
100
AcDbEntity
  8
Defpoints
 62
     0
 48
10.0
100
AcDbPoint
 10
171.7330337461278
 20
309.2807597244562
 30
0.0
  0
ENDBLK
  5
275
330
26A
100
AcDbEntity
  8
0
 48
10.0
100
AcDbBlockEnd
  0
BLOCK
  5
295
330
28A
100
AcDbEntity
  8
0
 48
10.0
100
AcDbBlockBegin
  2
*D10
 70
     1
 10
0.0
 20
0.0
 30
0.0
  3
*D10
  1

  0
LINE
  5
D6A
330
28A
100
AcDbEntity
  8
BEM
 48
10.0
370
    -2
100
AcDbLine
 10
185.7330337461278
 20
235.8254940879147
 30
0.0
 11
185.7330337461278
 21
221.2682547554242
 31
0.0
  0
LINE
  5
D6B
330
28A
100
AcDbEntity
  8
BEM
 48
10.0
370
    -2
100
AcDbLine
 10
199.7330337461278
 20
235.8254940879147
 30
0.0
 11
199.7330337461278
 21
202.6867407833383
 31
0.0
  0
LINE
  5
D6C
330
28A
100
AcDbEntity
  8
BEM
 48
10.0
370
    -2
100
AcDbLine
 10
189.2330337461278
 20
203.9367407833383
 30
0.0
 11
196.2330337461278
 21
203.9367407833383
 31
0.0
  0
LINE
  5
D6D
330
28A
100
AcDbEntity
  8
BEM
 48
10.0
370
    -2
100
AcDbLine
 10
199.7330337461278
 20
203.9367407833383
 30
0.0
 11
222.9047004127945
 21
203.9367407833383
 31
0.0
  0
SOLID
  5
D6E
330
28A
100
AcDbEntity
  8
BEM
 48
10.0
100
AcDbTrace
 10
189.2330337461278
 20
204.5200741166717
 30
0.0
 11
189.2330337461278
 21
203.353407450005
 31
0.0
 12
185.7330337461278
 22
203.9367407833383
 32
0.0
 13
185.7330337461278
 23
203.9367407833383
 33
0.0
  0
SOLID
  5
D6F
330
28A
100
AcDbEntity
  8
BEM
 48
10.0
100
AcDbTrace
 10
196.2330337461278
 20
204.5200741166717
 30
0.0
 11
196.2330337461278
 21
203.353407450005
 31
0.0
 12
199.7330337461278
 22
203.9367407833383
 32
0.0
 13
199.7330337461278
 23
203.9367407833383
 33
0.0
  0
MTEXT
  5
D70
330
28A
100
AcDbEntity
  8
BEM
 48
10.0
100
AcDbMText
 10
213.0688670794611
 20
207.1867407833383
 30
0.0
 40
3.5
 41
0.0
 71
     5
 72
     1
  1
\A1;14{}{\H0.71x;\C3;%%p0.05}
 73
     1
 44
1.0
  0
POINT
  5
D71
330
28A
100
AcDbEntity
  8
Defpoints
 62
     0
 48
10.0
100
AcDbPoint
 10
185.7330337461278
 20
235.8254940879147
 30
0.0
  0
POINT
  5
D72
330
28A
100
AcDbEntity
  8
Defpoints
 62
     0
 48
10.0
100
AcDbPoint
 10
199.7330337461278
 20
235.8254940879147
 30
0.0
  0
POINT
  5
D73
330
28A
100
AcDbEntity
  8
Defpoints
 62
     0
 48
10.0
100
AcDbPoint
 10
199.7330337461278
 20
203.9367407833383
 30
0.0
  0
LINE
  5
D74
330
28A
100
AcDbEntity
  8
BEM
 48
10.0
370
    -2
100
AcDbLine
 10
185.7330337461278
 20
213.1586773181871
 30
0.0
 11
185.7330337461278
 21
202.6867407833383
 31
0.0
  0
ENDBLK
  5
296
330
28A
100
AcDbEntity
  8
0
 48
10.0
100
AcDbBlockEnd
  0
BLOCK
  5
2A4
330
298
100
AcDbEntity
  8
0
 48
10.0
100
AcDbBlockBegin
  2
*D11
 70
     1
 10
0.0
 20
0.0
 30
0.0
  3
*D11
  1

  0
LINE
  5
D3A
330
298
100
AcDbEntity
  8
BEM
 48
10.0
370
    -2
100
AcDbLine
 10
183.2330337461278
 20
239.8254940879147
 30
0.0
 11
183.2330337461278
 21
215.578045806704
 31
0.0
  0
LINE
  5
D3B
330
298
100
AcDbEntity
  8
BEM
 48
10.0
370
    -2
100
AcDbLine
 10
188.2330337461278
 20
239.8254940879147
 30
0.0
 11
188.2330337461278
 21
215.578045806704
 31
0.0
  0
LINE
  5
D3C
330
298
100
AcDbEntity
  8
BEM
 48
10.0
370
    -2
100
AcDbLine
 10
191.7330337461278
 20
216.828045806704
 30
0.0
 11
195.2330337461278
 21
216.828045806704
 31
0.0
  0
LINE
  5
D3D
330
298
100
AcDbEntity
  8
BEM
 48
10.0
370
    -2
100
AcDbLine
 10
179.7330337461278
 20
216.828045806704
 30
0.0
 11
158.6830337461278
 21
216.828045806704
 31
0.0
  0
LINE
  5
D3E
330
298
100
AcDbEntity
  8
BEM
 48
10.0
370
    -2
100
AcDbLine
 10
188.2330337461278
 20
216.828045806704
 30
0.0
 11
183.2330337461278
 21
216.828045806704
 31
0.0
  0
SOLID
  5
D3F
330
298
100
AcDbEntity
  8
BEM
 48
10.0
100
AcDbTrace
 10
191.7330337461278
 20
217.4113791400374
 30
0.0
 11
191.7330337461278
 21
216.2447124733707
 31
0.0
 12
188.2330337461278
 22
216.828045806704
 32
0.0
 13
188.2330337461278
 23
216.828045806704
 33
0.0
  0
SOLID
  5
D40
330
298
100
AcDbEntity
  8
BEM
 48
10.0
100
AcDbTrace
 10
179.7330337461278
 20
217.4113791400374
 30
0.0
 11
179.7330337461278
 21
216.2447124733707
 31
0.0
 12
183.2330337461278
 22
216.828045806704
 32
0.0
 13
183.2330337461278
 23
216.828045806704
 33
0.0
  0
MTEXT
  5
D41
330
298
100
AcDbEntity
  8
BEM
 48
10.0
100
AcDbMText
 10
166.7330337461278
 20
220.078045806704
 30
0.0
 40
3.5
 41
0.0
 71
     5
 72
     1
  1
\A1;%%c5{}{\H0.71x;\C3; H7}
 73
     1
 44
1.0
  0
POINT
  5
D42
330
298
100
AcDbEntity
  8
Defpoints
 62
     0
 48
10.0
100
AcDbPoint
 10
183.2330337461278
 20
239.8254940879147
 30
0.0
  0
POINT
  5
D43
330
298
100
AcDbEntity
  8
Defpoints
 62
     0
 48
10.0
100
AcDbPoint
 10
188.2330337461278
 20
239.8254940879147
 30
0.0
  0
POINT
  5
D44
330
298
100
AcDbEntity
  8
Defpoints
 62
     0
 48
10.0
100
AcDbPoint
 10
188.2330337461278
 20
216.828045806704
 30
0.0
  0
ENDBLK
  5
2A5
330
298
100
AcDbEntity
  8
0
 48
10.0
100
AcDbBlockEnd
  0
BLOCK
  5
2B1
330
2A7
100
AcDbEntity
  8
0
 48
10.0
100
AcDbBlockBegin
  2
*D12
 70
     1
 10
0.0
 20
0.0
 30
0.0
  3
*D12
  1

  0
LINE
  5
D45
330
2A7
100
AcDbEntity
  8
BEM
 48
10.0
370
    -2
100
AcDbLine
 10
203.7330337461278
 20
291.8254940879147
 30
0.0
 11
234.2200051027937
 21
291.8254940879147
 31
0.0
  0
LINE
  5
D46
330
2A7
100
AcDbEntity
  8
BEM
 48
10.0
370
    -2
100
AcDbLine
 10
203.7330337461278
 20
239.8254940879147
 30
0.0
 11
234.2200051027937
 21
239.8254940879147
 31
0.0
  0
LINE
  5
D47
330
2A7
100
AcDbEntity
  8
BEM
 48
10.0
370
    -2
100
AcDbLine
 10
232.9700051027937
 20
288.3254940879147
 30
0.0
 11
232.9700051027937
 21
243.3254940879146
 31
0.0
  0
SOLID
  5
D48
330
2A7
100
AcDbEntity
  8
BEM
 48
10.0
100
AcDbTrace
 10
232.3866717694604
 20
288.3254940879147
 30
0.0
 11
233.5533384361271
 21
288.3254940879147
 31
0.0
 12
232.9700051027937
 22
291.8254940879147
 32
0.0
 13
232.9700051027937
 23
291.8254940879147
 33
0.0
  0
SOLID
  5
D49
330
2A7
100
AcDbEntity
  8
BEM
 48
10.0
100
AcDbTrace
 10
232.3866717694604
 20
243.3254940879146
 30
0.0
 11
233.5533384361271
 21
243.3254940879146
 31
0.0
 12
232.9700051027937
 22
239.8254940879147
 32
0.0
 13
232.9700051027937
 23
239.8254940879147
 33
0.0
  0
MTEXT
  5
D4A
330
2A7
100
AcDbEntity
  8
BEM
 48
10.0
100
AcDbMText
 10
229.7200051027937
 20
265.8254940879147
 30
0.0
 40
3.5
 41
0.0
 71
     5
 72
     1
  1
\A1;52{}{\H0.71x;\C3;%%p0.05}
 11
0.0000000000000001
 21
1.0
 31
0.0
 73
     1
 44
1.0
  0
POINT
  5
D4B
330
2A7
100
AcDbEntity
  8
Defpoints
 62
     0
 48
10.0
100
AcDbPoint
 10
203.7330337461278
 20
291.8254940879147
 30
0.0
  0
POINT
  5
D4C
330
2A7
100
AcDbEntity
  8
Defpoints
 62
     0
 48
10.0
100
AcDbPoint
 10
203.7330337461278
 20
239.8254940879147
 30
0.0
  0
POINT
  5
D4D
330
2A7
100
AcDbEntity
  8
Defpoints
 62
     0
 48
10.0
100
AcDbPoint
 10
232.9700051027937
 20
239.8254940879147
 30
0.0
  0
ENDBLK
  5
2B2
330
2A7
100
AcDbEntity
  8
0
 48
10.0
100
AcDbBlockEnd
  0
BLOCK
  5
2BE
330
2B4
100
AcDbEntity
  8
0
 48
10.0
100
AcDbBlockBegin
  2
*D13
 70
     1
 10
0.0
 20
0.0
 30
0.0
  3
*D13
  1

  0
LINE
  5
DCD
330
2B4
100
AcDbEntity
  8
BEM
 48
10.0
370
    -2
100
AcDbLine
 10
181.7330337461278
 20
291.8254940879147
 30
0.0
 11
179.5357055804279
 21
291.8254940879147
 31
0.0
  0
LINE
  5
DCE
330
2B4
100
AcDbEntity
  8
BEM
 48
10.0
370
    -2
100
AcDbLine
 10
181.7330337461278
 20
239.8254940879147
 30
0.0
 11
179.5357055804279
 21
239.8254940879147
 31
0.0
  0
LINE
  5
DCF
330
2B4
100
AcDbEntity
  8
BEM
 48
10.0
370
    -2
100
AcDbLine
 10
180.7857055804279
 20
288.3254940879147
 30
0.0
 11
180.7857055804279
 21
243.3254940879146
 31
0.0
  0
SOLID
  5
DD0
330
2B4
100
AcDbEntity
  8
BEM
 48
10.0
100
AcDbTrace
 10
180.2023722470946
 20
288.3254940879147
 30
0.0
 11
181.3690389137613
 21
288.3254940879147
 31
0.0
 12
180.7857055804279
 22
291.8254940879147
 32
0.0
 13
180.7857055804279
 23
291.8254940879147
 33
0.0
  0
SOLID
  5
DD1
330
2B4
100
AcDbEntity
  8
BEM
 48
10.0
100
AcDbTrace
 10
180.2023722470946
 20
243.3254940879146
 30
0.0
 11
181.3690389137613
 21
243.3254940879146
 31
0.0
 12
180.7857055804279
 22
239.8254940879147
 32
0.0
 13
180.7857055804279
 23
239.8254940879147
 33
0.0
  0
MTEXT
  5
DD2
330
2B4
100
AcDbEntity
  8
BEM
 48
10.0
100
AcDbMText
 10
177.5357055804279
 20
265.8254940879147
 30
0.0
 40
3.5
 41
0.0
 71
     5
 72
     1
  1
\A1;52{}{\H0.71x;\C3;%%p0.01}
 11
0.0000000000000001
 21
1.0
 31
0.0
 73
     1
 44
1.0
  0
POINT
  5
DD3
330
2B4
100
AcDbEntity
  8
Defpoints
 62
     0
 48
10.0
100
AcDbPoint
 10
181.7330337461278
 20
291.8254940879147
 30
0.0
  0
POINT
  5
DD4
330
2B4
100
AcDbEntity
  8
Defpoints
 62
     0
 48
10.0
100
AcDbPoint
 10
181.7330337461278
 20
239.8254940879147
 30
0.0
  0
POINT
  5
DD5
330
2B4
100
AcDbEntity
  8
Defpoints
 62
     0
 48
10.0
100
AcDbPoint
 10
180.7857055804279
 20
239.8254940879147
 30
0.0
  0
ENDBLK
  5
2BF
330
2B4
100
AcDbEntity
  8
0
 48
10.0
100
AcDbBlockEnd
  0
BLOCK
  5
2CF
330
2C3
100
AcDbEntity
  8
0
 48
10.0
100
AcDbBlockBegin
  2
*D14
 70
     1
 10
0.0
 20
0.0
 30
0.0
  3
*D14
  1

  0
LINE
  5
D57
330
2C3
100
AcDbEntity
  8
BEM
 48
10.0
370
    -2
100
AcDbLine
 10
171.7330337461278
 20
294.3254940879146
 30
0.0
 11
135.8055646338266
 21
294.3254940879146
 31
0.0
  0
LINE
  5
D58
330
2C3
100
AcDbEntity
  8
BEM
 48
10.0
370
    -2
100
AcDbLine
 10
171.7330337461278
 20
289.3254940879146
 30
0.0
 11
135.8055646338266
 21
289.3254940879146
 31
0.0
  0
LINE
  5
D59
330
2C3
100
AcDbEntity
  8
BEM
 48
10.0
370
    -2
100
AcDbLine
 10
137.0555646338266
 20
297.8254940879146
 30
0.0
 11
137.0555646338266
 21
301.3254940879146
 31
0.0
  0
LINE
  5
D5A
330
2C3
100
AcDbEntity
  8
BEM
 48
10.0
370
    -2
100
AcDbLine
 10
137.0555646338266
 20
285.8254940879147
 30
0.0
 11
137.0555646338266
 21
273.158827421248
 31
0.0
  0
LINE
  5
D5B
330
2C3
100
AcDbEntity
  8
BEM
 48
10.0
370
    -2
100
AcDbLine
 10
137.0555646338266
 20
294.3254940879146
 30
0.0
 11
137.0555646338266
 21
289.3254940879146
 31
0.0
  0
SOLID
  5
D5C
330
2C3
100
AcDbEntity
  8
BEM
 48
10.0
100
AcDbTrace
 10
136.4722313004933
 20
297.8254940879146
 30
0.0
 11
137.63889796716
 21
297.8254940879146
 31
0.0
 12
137.0555646338266
 22
294.3254940879146
 32
0.0
 13
137.0555646338266
 23
294.3254940879146
 33
0.0
  0
SOLID
  5
D5D
330
2C3
100
AcDbEntity
  8
BEM
 48
10.0
100
AcDbTrace
 10
136.4722313004933
 20
285.8254940879147
 30
0.0
 11
137.63889796716
 21
285.8254940879147
 31
0.0
 12
137.0555646338266
 22
289.3254940879146
 32
0.0
 13
137.0555646338266
 23
289.3254940879146
 33
0.0
  0
MTEXT
  5
D5E
330
2C3
100
AcDbEntity
  8
BEM
 48
10.0
100
AcDbMText
 10
133.8055646338266
 20
277.7421607545814
 30
0.0
 40
3.5
 41
0.0
 71
     5
 72
     1
  1
\A1;M5
 11
0.0000000000000001
 21
1.0
 31
0.0
 73
     1
 44
1.0
  0
POINT
  5
D5F
330
2C3
100
AcDbEntity
  8
Defpoints
 62
     0
 48
10.0
100
AcDbPoint
 10
171.7330337461278
 20
294.3254940879146
 30
0.0
  0
POINT
  5
D60
330
2C3
100
AcDbEntity
  8
Defpoints
 62
     0
 48
10.0
100
AcDbPoint
 10
171.7330337461278
 20
289.3254940879146
 30
0.0
  0
POINT
  5
D61
330
2C3
100
AcDbEntity
  8
Defpoints
 62
     0
 48
10.0
100
AcDbPoint
 10
137.0555646338266
 20
289.3254940879146
 30
0.0
  0
ENDBLK
  5
2D0
330
2C3
100
AcDbEntity
  8
0
 48
10.0
100
AcDbBlockEnd
  0
BLOCK
  5
6C8
330
6BF
100
AcDbEntity
  8
0
 48
10.0
100
AcDbBlockBegin
  2
*D15
 70
     1
 10
0.0
 20
0.0
 30
0.0
  3
*D15
  1

  0
LINE
  5
D62
330
6BF
100
AcDbEntity
  8
BEM
 48
10.0
370
    -2
100
AcDbLine
 10
44.12930332429314
 20
81.27155141458862
 30
0.0
 11
55.8052916002823
 21
117.0186839828915
 31
0.0
  0
LINE
  5
D63
330
6BF
100
AcDbEntity
  8
BEM
 48
10.0
370
    -2
100
AcDbLine
 10
69.15613832566545
 20
157.8935526886783
 30
0.0
 11
70.24283515215014
 21
161.2205768856609
 31
0.0
  0
MTEXT
  5
D64
102
{ACAD_XDICTIONARY
360
1152
102
}
330
6BF
100
AcDbEntity
  8
BEM
 48
10.0
100
AcDbMText
 10
44.05680109300241
 20
91.51707992890006
 30
0.0
 40
3.5
 41
0.0
 71
     5
 72
     1
  1
\A1;\U+220536{}{\H0.71x;\C3; H8}
 11
0.3104848075670508
 21
0.9505783419950464
 31
0.0
 73
     1
 44
1.0
  0
LINE
  5
D65
330
6BF
100
AcDbEntity
  8
BEM
 48
10.0
370
    -2
100
AcDbLine
 10
68.06944149918078
 20
154.5665284916956
 30
0.0
 11
56.89198842676698
 21
120.3457081798741
 31
0.0
  0
SOLID
  5
D66
330
6BF
100
AcDbEntity
  8
BEM
 48
10.0
100
AcDbTrace
 10
68.60163429283502
 20
158.0746688264257
 30
0.0
 11
69.7106423584959
 21
157.7124365509308
 31
0.0
 12
68.06944149918078
 22
154.5665284916956
 32
0.0
 13
68.06944149918078
 23
154.5665284916956
 33
0.0
  0
SOLID
  5
D67
330
6BF
100
AcDbEntity
  8
BEM
 48
10.0
100
AcDbTrace
 10
55.25078756745186
 20
117.1998001206389
 30
0.0
 11
56.35979563311274
 21
116.837567845144
 31
0.0
 12
56.89198842676698
 22
120.3457081798741
 32
0.0
 13
56.89198842676698
 23
120.3457081798741
 33
0.0
  0
POINT
  5
D68
330
6BF
100
AcDbEntity
  8
Defpoints
 62
     0
 48
10.0
100
AcDbPoint
 10
56.89198842676698
 20
120.3457081798741
 30
0.0
  0
POINT
  5
D69
330
6BF
100
AcDbEntity
  8
Defpoints
 62
     0
 48
10.0
100
AcDbPoint
 10
68.06944149918078
 20
154.5665284916956
 30
0.0
  0
ENDBLK
  5
6C9
330
6BF
100
AcDbEntity
  8
0
 48
10.0
100
AcDbBlockEnd
  0
BLOCK
  5
FE0
330
FDF
100
AcDbEntity
  8
0
 48
10.0
100
AcDbBlockBegin
  2
*D32
 70
     1
 10
0.0
 20
0.0
 30
0.0
  3
*D32
  1

  0
LINE
  5
108C
330
FDF
100
AcDbEntity
  8
BEM
 48
10.0
370
    -2
100
AcDbLine
 10
-128.0842036179748
 20
409.3372935731614
 30
0.0
 11
-87.93008007572945
 21
409.3372935731613
 31
0.0
  0
LINE
  5
108D
330
FDF
100
AcDbEntity
  8
BEM
 48
10.0
370
    -2
100
AcDbLine
 10
-128.0842036179748
 20
353.3372935731614
 30
0.0
 11
-87.93008007572945
 21
353.3372935731614
 31
0.0
  0
LINE
  5
108E
330
FDF
100
AcDbEntity
  8
BEM
 48
10.0
370
    -2
100
AcDbLine
 10
-89.18008007572945
 20
405.8372935731614
 30
0.0
 11
-89.18008007572945
 21
356.8372935731614
 31
0.0
  0
SOLID
  5
108F
330
FDF
100
AcDbEntity
  8
BEM
 48
10.0
100
AcDbTrace
 10
-89.76341340906278
 20
405.8372935731614
 30
0.0
 11
-88.59674674239611
 21
405.8372935731614
 31
0.0
 12
-89.18008007572945
 22
409.3372935731613
 32
0.0
 13
-89.18008007572945
 23
409.3372935731613
 33
0.0
  0
SOLID
  5
1090
330
FDF
100
AcDbEntity
  8
BEM
 48
10.0
100
AcDbTrace
 10
-89.76341340906278
 20
356.8372935731614
 30
0.0
 11
-88.59674674239611
 21
356.8372935731614
 31
0.0
 12
-89.18008007572945
 22
353.3372935731614
 32
0.0
 13
-89.18008007572945
 23
353.3372935731614
 33
0.0
  0
MTEXT
  5
1091
330
FDF
100
AcDbEntity
  8
BEM
 48
10.0
100
AcDbMText
 10
-92.43008007572951
 20
381.3372935731614
 30
0.0
 40
3.5
 41
0.0
 71
     5
 72
     1
  1
\A1;56
 11
0.0000000000000001
 21
1.0
 31
0.0
 73
     1
 44
1.0
  0
POINT
  5
1092
330
FDF
100
AcDbEntity
  8
Defpoints
 62
     0
 48
10.0
100
AcDbPoint
 10
-128.0842036179748
 20
409.3372935731614
 30
0.0
  0
POINT
  5
1093
330
FDF
100
AcDbEntity
  8
Defpoints
 62
     0
 48
10.0
100
AcDbPoint
 10
-128.0842036179748
 20
353.3372935731614
 30
0.0
  0
POINT
  5
1094
330
FDF
100
AcDbEntity
  8
Defpoints
 62
     0
 48
10.0
100
AcDbPoint
 10
-89.18008007572945
 20
353.3372935731614
 30
0.0
  0
ENDBLK
  5
FE1
330
FDF
100
AcDbEntity
  8
0
 48
10.0
100
AcDbBlockEnd
  0
BLOCK
  5
FEC
330
FEB
100
AcDbEntity
  8
0
 48
10.0
100
AcDbBlockBegin
  2
*D33
 70
     1
 10
0.0
 20
0.0
 30
0.0
  3
*D33
  1

  0
LINE
  5
1095
330
FEB
100
AcDbEntity
  8
BEM
 48
10.0
370
    -2
100
AcDbLine
 10
-196.1048964861664
 20
381.3372935731615
 30
0.0
 11
-215.5866378038553
 21
381.3372935731615
 31
0.0
  0
LINE
  5
1096
330
FEB
100
AcDbEntity
  8
BEM
 48
10.0
370
    -2
100
AcDbLine
 10
-194.0842036179748
 20
353.3372935731614
 30
0.0
 11
-215.5866378038553
 21
353.3372935731614
 31
0.0
  0
LINE
  5
1097
330
FEB
100
AcDbEntity
  8
BEM
 48
10.0
370
    -2
100
AcDbLine
 10
-214.3366378038553
 20
377.8372935731614
 30
0.0
 11
-214.3366378038553
 21
356.8372935731614
 31
0.0
  0
SOLID
  5
1098
330
FEB
100
AcDbEntity
  8
BEM
 48
10.0
100
AcDbTrace
 10
-214.9199711371887
 20
377.8372935731614
 30
0.0
 11
-213.7533044705219
 21
377.8372935731614
 31
0.0
 12
-214.3366378038553
 22
381.3372935731615
 32
0.0
 13
-214.3366378038553
 23
381.3372935731615
 33
0.0
  0
SOLID
  5
1099
330
FEB
100
AcDbEntity
  8
BEM
 48
10.0
100
AcDbTrace
 10
-214.9199711371887
 20
356.8372935731614
 30
0.0
 11
-213.7533044705219
 21
356.8372935731614
 31
0.0
 12
-214.3366378038553
 22
353.3372935731614
 32
0.0
 13
-214.3366378038553
 23
353.3372935731614
 33
0.0
  0
MTEXT
  5
109A
330
FEB
100
AcDbEntity
  8
BEM
 48
10.0
100
AcDbMText
 10
-217.5866378038553
 20
367.3372935731614
 30
0.0
 40
3.5
 41
0.0
 71
     5
 72
     1
  1
\A1;28{}{\H0.71x;\C3;%%p0.05}
 11
0.0000000000000001
 21
1.0
 31
0.0
 73
     1
 44
1.0
  0
POINT
  5
109B
330
FEB
100
AcDbEntity
  8
Defpoints
 62
     0
 48
10.0
100
AcDbPoint
 10
-196.1048964861664
 20
381.3372935731615
 30
0.0
  0
POINT
  5
109C
330
FEB
100
AcDbEntity
  8
Defpoints
 62
     0
 48
10.0
100
AcDbPoint
 10
-194.0842036179748
 20
353.3372935731614
 30
0.0
  0
POINT
  5
109D
330
FEB
100
AcDbEntity
  8
Defpoints
 62
     0
 48
10.0
100
AcDbPoint
 10
-214.3366378038553
 20
353.3372935731614
 30
0.0
  0
ENDBLK
  5
FED
330
FEB
100
AcDbEntity
  8
0
 48
10.0
100
AcDbBlockEnd
  0
BLOCK
  5
FF8
330
FF7
100
AcDbEntity
  8
0
 48
10.0
100
AcDbBlockBegin
  2
*D34
 70
     1
 10
0.0
 20
0.0
 30
0.0
  3
*D34
  1

  0
LINE
  5
109E
330
FF7
100
AcDbEntity
  8
BEM
 48
10.0
370
    -2
100
AcDbLine
 10
-128.0842036179748
 20
383.3372935731615
 30
0.0
 11
-110.5040184413959
 21
383.3372935731614
 31
0.0
  0
LINE
  5
109F
330
FF7
100
AcDbEntity
  8
BEM
 48
10.0
370
    -2
100
AcDbLine
 10
-128.0842036179748
 20
379.3372935731615
 30
0.0
 11
-110.5040184413959
 21
379.3372935731614
 31
0.0
  0
LINE
  5
10A0
330
FF7
100
AcDbEntity
  8
BEM
 48
10.0
370
    -2
100
AcDbLine
 10
-111.7540184413959
 20
386.8372935731614
 30
0.0
 11
-111.7540184413959
 21
390.3372935731614
 31
0.0
  0
LINE
  5
10A1
330
FF7
100
AcDbEntity
  8
BEM
 48
10.0
370
    -2
100
AcDbLine
 10
-111.7540184413959
 20
375.8372935731614
 30
0.0
 11
-111.7540184413959
 21
366.8372935731614
 31
0.0
  0
LINE
  5
10A2
330
FF7
100
AcDbEntity
  8
BEM
 48
10.0
370
    -2
100
AcDbLine
 10
-111.7540184413959
 20
383.3372935731614
 30
0.0
 11
-111.7540184413959
 21
379.3372935731614
 31
0.0
  0
SOLID
  5
10A3
330
FF7
100
AcDbEntity
  8
BEM
 48
10.0
100
AcDbTrace
 10
-112.3373517747292
 20
386.8372935731614
 30
0.0
 11
-111.1706851080626
 21
386.8372935731614
 31
0.0
 12
-111.7540184413959
 22
383.3372935731614
 32
0.0
 13
-111.7540184413959
 23
383.3372935731614
 33
0.0
  0
SOLID
  5
10A4
330
FF7
100
AcDbEntity
  8
BEM
 48
10.0
100
AcDbTrace
 10
-112.3373517747292
 20
375.8372935731614
 30
0.0
 11
-111.1706851080626
 21
375.8372935731614
 31
0.0
 12
-111.7540184413959
 22
379.3372935731614
 32
0.0
 13
-111.7540184413959
 23
379.3372935731614
 33
0.0
  0
MTEXT
  5
10A5
330
FF7
100
AcDbEntity
  8
BEM
 48
10.0
100
AcDbMText
 10
-115.004018441396
 20
369.5872935731614
 30
0.0
 40
3.5
 41
0.0
 71
     5
 72
     1
  1
\A1;4
 11
0.0000000000000001
 21
1.0
 31
0.0
 73
     1
 44
1.0
  0
POINT
  5
10A6
330
FF7
100
AcDbEntity
  8
Defpoints
 62
     0
 48
10.0
100
AcDbPoint
 10
-128.0842036179748
 20
383.3372935731615
 30
0.0
  0
POINT
  5
10A7
330
FF7
100
AcDbEntity
  8
Defpoints
 62
     0
 48
10.0
100
AcDbPoint
 10
-128.0842036179748
 20
379.3372935731615
 30
0.0
  0
POINT
  5
10A8
330
FF7
100
AcDbEntity
  8
Defpoints
 62
     0
 48
10.0
100
AcDbPoint
 10
-111.7540184413959
 20
379.3372935731614
 30
0.0
  0
ENDBLK
  5
FF9
330
FF7
100
AcDbEntity
  8
0
 48
10.0
100
AcDbBlockEnd
  0
BLOCK
  5
1006
330
1005
100
AcDbEntity
  8
0
 48
10.0
100
AcDbBlockBegin
  2
*D35
 70
     1
 10
0.0
 20
0.0
 30
0.0
  3
*D35
  1

  0
LINE
  5
10A9
330
1005
100
AcDbEntity
  8
BEM
 48
10.0
370
    -2
100
AcDbLine
 10
-239.5660076976486
 20
353.3372935731614
 30
0.0
 11
-239.5660076976486
 21
339.4192088078544
 31
0.0
  0
LINE
  5
10AA
330
1005
100
AcDbEntity
  8
BEM
 48
10.0
370
    -2
100
AcDbLine
 10
-299.5660076976486
 20
353.3372935731614
 30
0.0
 11
-299.5660076976486
 21
339.4192088078544
 31
0.0
  0
LINE
  5
10AB
330
1005
100
AcDbEntity
  8
BEM
 48
10.0
370
    -2
100
AcDbLine
 10
-243.0660076976486
 20
340.6692088078544
 30
0.0
 11
-296.0660076976486
 21
340.6692088078544
 31
0.0
  0
SOLID
  5
10AC
330
1005
100
AcDbEntity
  8
BEM
 48
10.0
100
AcDbTrace
 10
-243.0660076976486
 20
341.2525421411877
 30
0.0
 11
-243.0660076976486
 21
340.0858754745211
 31
0.0
 12
-239.5660076976486
 22
340.6692088078544
 32
0.0
 13
-239.5660076976486
 23
340.6692088078544
 33
0.0
  0
SOLID
  5
10AD
330
1005
100
AcDbEntity
  8
BEM
 48
10.0
100
AcDbTrace
 10
-296.0660076976486
 20
341.2525421411877
 30
0.0
 11
-296.0660076976486
 21
340.0858754745211
 31
0.0
 12
-299.5660076976486
 22
340.6692088078544
 32
0.0
 13
-299.5660076976486
 23
340.6692088078544
 33
0.0
  0
MTEXT
  5
10AE
330
1005
100
AcDbEntity
  8
BEM
 48
10.0
100
AcDbMText
 10
-269.5660076976486
 20
343.9192088078544
 30
0.0
 40
3.5
 41
0.0
 71
     5
 72
     1
  1
\A1;60
 73
     1
 44
1.0
  0
POINT
  5
10AF
330
1005
100
AcDbEntity
  8
Defpoints
 62
     0
 48
10.0
100
AcDbPoint
 10
-239.5660076976486
 20
353.3372935731614
 30
0.0
  0
POINT
  5
10B0
330
1005
100
AcDbEntity
  8
Defpoints
 62
     0
 48
10.0
100
AcDbPoint
 10
-299.5660076976486
 20
353.3372935731614
 30
0.0
  0
POINT
  5
10B1
330
1005
100
AcDbEntity
  8
Defpoints
 62
     0
 48
10.0
100
AcDbPoint
 10
-299.5660076976486
 20
340.6692088078544
 30
0.0
  0
ENDBLK
  5
1007
330
1005
100
AcDbEntity
  8
0
 48
10.0
100
AcDbBlockEnd
  0
BLOCK
  5
1012
330
1011
100
AcDbEntity
  8
0
 48
10.0
100
AcDbBlockBegin
  2
*D36
 70
     1
 10
0.0
 20
0.0
 30
0.0
  3
*D36
  1

  0
LINE
  5
10B2
330
1011
100
AcDbEntity
  8
BEM
 48
10.0
370
    -2
100
AcDbLine
 10
-255.5660076976486
 20
507.8007229513478
 30
0.0
 11
-255.5660076976486
 21
523.9384371456851
 31
0.0
  0
LINE
  5
10B3
330
1011
100
AcDbEntity
  8
BEM
 48
10.0
370
    -2
100
AcDbLine
 10
-239.5660076976486
 20
510.8007229513479
 30
0.0
 11
-239.5660076976486
 21
523.9384371456851
 31
0.0
  0
LINE
  5
10B4
330
1011
100
AcDbEntity
  8
BEM
 48
10.0
370
    -2
100
AcDbLine
 10
-252.0660076976486
 20
522.6884371456852
 30
0.0
 11
-243.0660076976486
 21
522.6884371456852
 31
0.0
  0
SOLID
  5
10B5
330
1011
100
AcDbEntity
  8
BEM
 48
10.0
100
AcDbTrace
 10
-252.0660076976486
 20
523.2717704790185
 30
0.0
 11
-252.0660076976486
 21
522.1051038123517
 31
0.0
 12
-255.5660076976486
 22
522.6884371456852
 32
0.0
 13
-255.5660076976486
 23
522.6884371456852
 33
0.0
  0
SOLID
  5
10B6
330
1011
100
AcDbEntity
  8
BEM
 48
10.0
100
AcDbTrace
 10
-243.0660076976486
 20
523.2717704790185
 30
0.0
 11
-243.0660076976486
 21
522.1051038123517
 31
0.0
 12
-239.5660076976486
 22
522.6884371456852
 32
0.0
 13
-239.5660076976486
 23
522.6884371456852
 33
0.0
  0
MTEXT
  5
10B7
330
1011
100
AcDbEntity
  8
BEM
 48
10.0
100
AcDbMText
 10
-248.4994028430711
 20
525.9384371456851
 30
0.0
 40
3.5
 41
0.0
 71
     5
 72
     1
  1
\A1;16{}{\H0.71x;\C3;%%p0.1}
 73
     1
 44
1.0
  0
POINT
  5
10B8
330
1011
100
AcDbEntity
  8
Defpoints
 62
     0
 48
10.0
100
AcDbPoint
 10
-255.5660076976486
 20
507.8007229513478
 30
0.0
  0
POINT
  5
10B9
330
1011
100
AcDbEntity
  8
Defpoints
 62
     0
 48
10.0
100
AcDbPoint
 10
-239.5660076976486
 20
510.8007229513479
 30
0.0
  0
POINT
  5
10BA
330
1011
100
AcDbEntity
  8
Defpoints
 62
     0
 48
10.0
100
AcDbPoint
 10
-239.5660076976486
 20
522.6884371456852
 30
0.0
  0
ENDBLK
  5
1013
330
1011
100
AcDbEntity
  8
0
 48
10.0
100
AcDbBlockEnd
  0
BLOCK
  5
101E
330
101D
100
AcDbEntity
  8
0
 48
10.0
100
AcDbBlockBegin
  2
*D37
 70
     1
 10
0.0
 20
0.0
 30
0.0
  3
*D37
  1

  0
LINE
  5
10BB
330
101D
100
AcDbEntity
  8
BEM
 48
10.0
370
    -2
100
AcDbLine
 10
-255.5660076976486
 20
507.8007229513478
 30
0.0
 11
-255.5660076976486
 21
523.9384371456851
 31
0.0
  0
LINE
  5
10BC
330
101D
100
AcDbEntity
  8
BEM
 48
10.0
370
    -2
100
AcDbLine
 10
-283.5660076976486
 20
507.8007229513478
 30
0.0
 11
-283.5660076976486
 21
523.9384371456851
 31
0.0
  0
LINE
  5
10BD
330
101D
100
AcDbEntity
  8
BEM
 48
10.0
370
    -2
100
AcDbLine
 10
-259.0660076976486
 20
522.6884371456852
 30
0.0
 11
-280.0660076976486
 21
522.6884371456852
 31
0.0
  0
SOLID
  5
10BE
330
101D
100
AcDbEntity
  8
BEM
 48
10.0
100
AcDbTrace
 10
-259.0660076976486
 20
523.2717704790185
 30
0.0
 11
-259.0660076976486
 21
522.1051038123517
 31
0.0
 12
-255.5660076976486
 22
522.6884371456852
 32
0.0
 13
-255.5660076976486
 23
522.6884371456852
 33
0.0
  0
SOLID
  5
10BF
330
101D
100
AcDbEntity
  8
BEM
 48
10.0
100
AcDbTrace
 10
-280.0660076976486
 20
523.2717704790185
 30
0.0
 11
-280.0660076976486
 21
522.1051038123517
 31
0.0
 12
-283.5660076976486
 22
522.6884371456852
 32
0.0
 13
-283.5660076976486
 23
522.6884371456852
 33
0.0
  0
MTEXT
  5
10C0
330
101D
100
AcDbEntity
  8
BEM
 48
10.0
100
AcDbMText
 10
-269.5660076976486
 20
525.9384371456851
 30
0.0
 40
3.5
 41
0.0
 71
     5
 72
     1
  1
\A1;28{}{\H0.71x;\C3;%%p0.05}
 73
     1
 44
1.0
  0
POINT
  5
10C1
330
101D
100
AcDbEntity
  8
Defpoints
 62
     0
 48
10.0
100
AcDbPoint
 10
-255.5660076976486
 20
507.8007229513478
 30
0.0
  0
POINT
  5
10C2
330
101D
100
AcDbEntity
  8
Defpoints
 62
     0
 48
10.0
100
AcDbPoint
 10
-283.5660076976486
 20
507.8007229513478
 30
0.0
  0
POINT
  5
10C3
330
101D
100
AcDbEntity
  8
Defpoints
 62
     0
 48
10.0
100
AcDbPoint
 10
-283.5660076976486
 20
522.6884371456852
 30
0.0
  0
ENDBLK
  5
101F
330
101D
100
AcDbEntity
  8
0
 48
10.0
100
AcDbBlockEnd
  0
BLOCK
  5
102A
330
1029
100
AcDbEntity
  8
0
 48
10.0
100
AcDbBlockBegin
  2
*D38
 70
     1
 10
0.0
 20
0.0
 30
0.0
  3
*D38
  1

  0
LINE
  5
10C4
330
1029
100
AcDbEntity
  8
BEM
 48
10.0
370
    -2
100
AcDbLine
 10
-269.5660076976486
 20
447.8007229513479
 30
0.0
 11
-269.5660076976486
 21
422.6307593103859
 31
0.0
  0
LINE
  5
10C5
330
1029
100
AcDbEntity
  8
BEM
 48
10.0
370
    -2
100
AcDbLine
 10
-255.5660076976486
 20
447.8007229513479
 30
0.0
 11
-255.5660076976486
 21
422.6307593103859
 31
0.0
  0
LINE
  5
10C6
330
1029
100
AcDbEntity
  8
BEM
 48
10.0
370
    -2
100
AcDbLine
 10
-266.0660076976486
 20
423.8807593103859
 30
0.0
 11
-259.0660076976486
 21
423.8807593103859
 31
0.0
  0
LINE
  5
10C7
330
1029
100
AcDbEntity
  8
BEM
 48
10.0
370
    -2
100
AcDbLine
 10
-255.5660076976486
 20
423.8807593103859
 30
0.0
 11
-232.3943410309819
 21
423.8807593103859
 31
0.0
  0
SOLID
  5
10C8
330
1029
100
AcDbEntity
  8
BEM
 48
10.0
100
AcDbTrace
 10
-266.0660076976486
 20
424.4640926437193
 30
0.0
 11
-266.0660076976486
 21
423.2974259770527
 31
0.0
 12
-269.5660076976486
 22
423.8807593103859
 32
0.0
 13
-269.5660076976486
 23
423.8807593103859
 33
0.0
  0
SOLID
  5
10C9
330
1029
100
AcDbEntity
  8
BEM
 48
10.0
100
AcDbTrace
 10
-259.0660076976486
 20
424.4640926437193
 30
0.0
 11
-259.0660076976486
 21
423.2974259770527
 31
0.0
 12
-255.5660076976486
 22
423.8807593103859
 32
0.0
 13
-255.5660076976486
 23
423.8807593103859
 33
0.0
  0
MTEXT
  5
10CA
330
1029
100
AcDbEntity
  8
BEM
 48
10.0
100
AcDbMText
 10
-242.2301743643153
 20
427.130759310386
 30
0.0
 40
3.5
 41
0.0
 71
     5
 72
     1
  1
\A1;14{}{\H0.71x;\C3;%%p0.05}
 73
     1
 44
1.0
  0
POINT
  5
10CB
330
1029
100
AcDbEntity
  8
Defpoints
 62
     0
 48
10.0
100
AcDbPoint
 10
-269.5660076976486
 20
447.8007229513479
 30
0.0
  0
POINT
  5
10CC
330
1029
100
AcDbEntity
  8
Defpoints
 62
     0
 48
10.0
100
AcDbPoint
 10
-255.5660076976486
 20
447.8007229513479
 30
0.0
  0
POINT
  5
10CD
330
1029
100
AcDbEntity
  8
Defpoints
 62
     0
 48
10.0
100
AcDbPoint
 10
-255.5660076976486
 20
423.8807593103859
 30
0.0
  0
ENDBLK
  5
102B
330
1029
100
AcDbEntity
  8
0
 48
10.0
100
AcDbBlockEnd
  0
BLOCK
  5
1037
330
1036
100
AcDbEntity
  8
0
 48
10.0
100
AcDbBlockBegin
  2
*D39
 70
     1
 10
0.0
 20
0.0
 30
0.0
  3
*D39
  1

  0
LINE
  5
10CE
330
1036
100
AcDbEntity
  8
BEM
 48
10.0
370
    -2
100
AcDbLine
 10
-272.0660076976486
 20
451.8007229513479
 30
0.0
 11
-272.0660076976486
 21
430.0682258957472
 31
0.0
  0
LINE
  5
10CF
330
1036
100
AcDbEntity
  8
BEM
 48
10.0
370
    -2
100
AcDbLine
 10
-267.0660076976486
 20
451.8007229513479
 30
0.0
 11
-267.0660076976486
 21
430.0682258957472
 31
0.0
  0
LINE
  5
10D0
330
1036
100
AcDbEntity
  8
BEM
 48
10.0
370
    -2
100
AcDbLine
 10
-263.5660076976486
 20
431.3182258957472
 30
0.0
 11
-260.0660076976486
 21
431.3182258957472
 31
0.0
  0
LINE
  5
10D1
330
1036
100
AcDbEntity
  8
BEM
 48
10.0
370
    -2
100
AcDbLine
 10
-275.5660076976486
 20
431.3182258957472
 30
0.0
 11
-295.1660076976486
 21
431.3182258957472
 31
0.0
  0
LINE
  5
10D2
330
1036
100
AcDbEntity
  8
BEM
 48
10.0
370
    -2
100
AcDbLine
 10
-267.0660076976486
 20
431.3182258957472
 30
0.0
 11
-272.0660076976486
 21
431.3182258957472
 31
0.0
  0
SOLID
  5
10D3
330
1036
100
AcDbEntity
  8
BEM
 48
10.0
100
AcDbTrace
 10
-263.5660076976486
 20
431.9015592290805
 30
0.0
 11
-263.5660076976486
 21
430.7348925624139
 31
0.0
 12
-267.0660076976486
 22
431.3182258957472
 32
0.0
 13
-267.0660076976486
 23
431.3182258957472
 33
0.0
  0
SOLID
  5
10D4
330
1036
100
AcDbEntity
  8
BEM
 48
10.0
100
AcDbTrace
 10
-275.5660076976486
 20
431.9015592290805
 30
0.0
 11
-275.5660076976486
 21
430.7348925624139
 31
0.0
 12
-272.0660076976486
 22
431.3182258957472
 32
0.0
 13
-272.0660076976486
 23
431.3182258957472
 33
0.0
  0
MTEXT
  5
10D5
330
1036
100
AcDbEntity
  8
BEM
 48
10.0
100
AcDbMText
 10
-287.1160076976486
 20
434.5682258957472
 30
0.0
 40
3.5
 41
0.0
 71
     5
 72
     1
  1
\A1;%%c5{}{\H0.71x;\C3; H7}
 73
     1
 44
1.0
  0
POINT
  5
10D6
330
1036
100
AcDbEntity
  8
Defpoints
 62
     0
 48
10.0
100
AcDbPoint
 10
-272.0660076976486
 20
451.8007229513479
 30
0.0
  0
POINT
  5
10D7
330
1036
100
AcDbEntity
  8
Defpoints
 62
     0
 48
10.0
100
AcDbPoint
 10
-267.0660076976486
 20
451.8007229513479
 30
0.0
  0
POINT
  5
10D8
330
1036
100
AcDbEntity
  8
Defpoints
 62
     0
 48
10.0
100
AcDbPoint
 10
-267.0660076976486
 20
431.3182258957472
 30
0.0
  0
ENDBLK
  5
1038
330
1036
100
AcDbEntity
  8
0
 48
10.0
100
AcDbBlockEnd
  0
BLOCK
  5
1045
330
1044
100
AcDbEntity
  8
0
 48
10.0
100
AcDbBlockBegin
  2
*D40
 70
     1
 10
0.0
 20
0.0
 30
0.0
  3
*D40
  1

  0
LINE
  5
10D9
330
1044
100
AcDbEntity
  8
BEM
 48
10.0
370
    -2
100
AcDbLine
 10
-251.5660076976486
 20
503.8007229513478
 30
0.0
 11
-262.3798957896696
 21
503.8007229513478
 31
0.0
  0
LINE
  5
10DA
330
1044
100
AcDbEntity
  8
BEM
 48
10.0
370
    -2
100
AcDbLine
 10
-251.5660076976486
 20
451.8007229513479
 30
0.0
 11
-262.3798957896696
 21
451.8007229513479
 31
0.0
  0
LINE
  5
10DB
330
1044
100
AcDbEntity
  8
BEM
 48
10.0
370
    -2
100
AcDbLine
 10
-261.1298957896695
 20
500.3007229513478
 30
0.0
 11
-261.1298957896695
 21
455.3007229513479
 31
0.0
  0
SOLID
  5
10DC
330
1044
100
AcDbEntity
  8
BEM
 48
10.0
100
AcDbTrace
 10
-261.7132291230029
 20
500.3007229513478
 30
0.0
 11
-260.5465624563362
 21
500.3007229513478
 31
0.0
 12
-261.1298957896695
 22
503.8007229513478
 32
0.0
 13
-261.1298957896695
 23
503.8007229513478
 33
0.0
  0
SOLID
  5
10DD
330
1044
100
AcDbEntity
  8
BEM
 48
10.0
100
AcDbTrace
 10
-261.7132291230029
 20
455.3007229513479
 30
0.0
 11
-260.5465624563362
 21
455.3007229513479
 31
0.0
 12
-261.1298957896695
 22
451.8007229513479
 32
0.0
 13
-261.1298957896695
 23
451.8007229513479
 33
0.0
  0
MTEXT
  5
10DE
330
1044
100
AcDbEntity
  8
BEM
 48
10.0
100
AcDbMText
 10
-264.3798957896696
 20
477.8007229513479
 30
0.0
 40
3.5
 41
0.0
 71
     5
 72
     1
  1
\A1;52{}{\H0.71x;\C3;%%p0.05}
 11
0.0000000000000001
 21
1.0
 31
0.0
 73
     1
 44
1.0
  0
POINT
  5
10DF
330
1044
100
AcDbEntity
  8
Defpoints
 62
     0
 48
10.0
100
AcDbPoint
 10
-251.5660076976486
 20
503.8007229513478
 30
0.0
  0
POINT
  5
10E0
330
1044
100
AcDbEntity
  8
Defpoints
 62
     0
 48
10.0
100
AcDbPoint
 10
-251.5660076976486
 20
451.8007229513479
 30
0.0
  0
POINT
  5
10E1
330
1044
100
AcDbEntity
  8
Defpoints
 62
     0
 48
10.0
100
AcDbPoint
 10
-261.1298957896695
 20
451.8007229513479
 30
0.0
  0
ENDBLK
  5
1046
330
1044
100
AcDbEntity
  8
0
 48
10.0
100
AcDbBlockEnd
  0
BLOCK
  5
1051
330
1050
100
AcDbEntity
  8
0
 48
10.0
100
AcDbBlockBegin
  2
*D41
 70
     1
 10
0.0
 20
0.0
 30
0.0
  3
*D41
  1

  0
LINE
  5
10E2
330
1050
100
AcDbEntity
  8
BEM
 48
10.0
370
    -2
100
AcDbLine
 10
-273.5660076976486
 20
503.8007229513478
 30
0.0
 11
-275.7633358633485
 21
503.8007229513478
 31
0.0
  0
LINE
  5
10E3
330
1050
100
AcDbEntity
  8
BEM
 48
10.0
370
    -2
100
AcDbLine
 10
-273.5660076976486
 20
451.8007229513479
 30
0.0
 11
-275.7633358633485
 21
451.8007229513479
 31
0.0
  0
LINE
  5
10E4
330
1050
100
AcDbEntity
  8
BEM
 48
10.0
370
    -2
100
AcDbLine
 10
-274.5133358633485
 20
500.3007229513478
 30
0.0
 11
-274.5133358633485
 21
455.3007229513479
 31
0.0
  0
SOLID
  5
10E5
330
1050
100
AcDbEntity
  8
BEM
 48
10.0
100
AcDbTrace
 10
-275.0966691966818
 20
500.3007229513478
 30
0.0
 11
-273.9300025300152
 21
500.3007229513478
 31
0.0
 12
-274.5133358633485
 22
503.8007229513478
 32
0.0
 13
-274.5133358633485
 23
503.8007229513478
 33
0.0
  0
SOLID
  5
10E6
330
1050
100
AcDbEntity
  8
BEM
 48
10.0
100
AcDbTrace
 10
-275.0966691966818
 20
455.3007229513479
 30
0.0
 11
-273.9300025300152
 21
455.3007229513479
 31
0.0
 12
-274.5133358633485
 22
451.8007229513479
 32
0.0
 13
-274.5133358633485
 23
451.8007229513479
 33
0.0
  0
MTEXT
  5
10E7
330
1050
100
AcDbEntity
  8
BEM
 48
10.0
100
AcDbMText
 10
-277.7633358633486
 20
477.8007229513478
 30
0.0
 40
3.5
 41
0.0
 71
     5
 72
     1
  1
\A1;52{}{\H0.71x;\C3;%%p0.01}
 11
0.0000000000000001
 21
1.0
 31
0.0
 73
     1
 44
1.0
  0
POINT
  5
10E8
330
1050
100
AcDbEntity
  8
Defpoints
 62
     0
 48
10.0
100
AcDbPoint
 10
-273.5660076976486
 20
503.8007229513478
 30
0.0
  0
POINT
  5
10E9
330
1050
100
AcDbEntity
  8
Defpoints
 62
     0
 48
10.0
100
AcDbPoint
 10
-273.5660076976486
 20
451.8007229513479
 30
0.0
  0
POINT
  5
10EA
330
1050
100
AcDbEntity
  8
Defpoints
 62
     0
 48
10.0
100
AcDbPoint
 10
-274.5133358633485
 20
451.8007229513479
 30
0.0
  0
ENDBLK
  5
1052
330
1050
100
AcDbEntity
  8
0
 48
10.0
100
AcDbBlockEnd
  0
BLOCK
  5
105D
330
105C
100
AcDbEntity
  8
0
 48
10.0
100
AcDbBlockBegin
  2
*D42
 70
     1
 10
0.0
 20
0.0
 30
0.0
  3
*D42
  1

  0
LINE
  5
10EB
330
105C
100
AcDbEntity
  8
BEM
 48
10.0
370
    -2
100
AcDbLine
 10
-187.0842036179748
 20
350.8821940212798
 30
0.0
 11
-187.0842036179748
 21
338.8308739321197
 31
0.0
  0
LINE
  5
10EC
330
105C
100
AcDbEntity
  8
BEM
 48
10.0
370
    -2
100
AcDbLine
 10
-135.0842036179748
 20
351.2222557832668
 30
0.0
 11
-135.0842036179748
 21
338.8308739321197
 31
0.0
  0
LINE
  5
10ED
330
105C
100
AcDbEntity
  8
BEM
 48
10.0
370
    -2
100
AcDbLine
 10
-183.5842036179748
 20
340.0808739321196
 30
0.0
 11
-138.5842036179748
 21
340.0808739321196
 31
0.0
  0
SOLID
  5
10EE
330
105C
100
AcDbEntity
  8
BEM
 48
10.0
100
AcDbTrace
 10
-183.5842036179748
 20
340.664207265453
 30
0.0
 11
-183.5842036179748
 21
339.4975405987863
 31
0.0
 12
-187.0842036179748
 22
340.0808739321196
 32
0.0
 13
-187.0842036179748
 23
340.0808739321196
 33
0.0
  0
SOLID
  5
10EF
330
105C
100
AcDbEntity
  8
BEM
 48
10.0
100
AcDbTrace
 10
-138.5842036179748
 20
340.664207265453
 30
0.0
 11
-138.5842036179748
 21
339.4975405987863
 31
0.0
 12
-135.0842036179748
 22
340.0808739321196
 32
0.0
 13
-135.0842036179748
 23
340.0808739321196
 33
0.0
  0
MTEXT
  5
10F0
330
105C
100
AcDbEntity
  8
BEM
 48
10.0
100
AcDbMText
 10
-161.0842036179748
 20
343.3308739321196
 30
0.0
 40
3.5
 41
0.0
 71
     5
 72
     1
  1
\A1;52
 73
     1
 44
1.0
  0
POINT
  5
10F1
330
105C
100
AcDbEntity
  8
Defpoints
 62
     0
 48
10.0
100
AcDbPoint
 10
-187.0842036179748
 20
350.8821940212798
 30
0.0
  0
POINT
  5
10F2
330
105C
100
AcDbEntity
  8
Defpoints
 62
     0
 48
10.0
100
AcDbPoint
 10
-135.0842036179748
 20
351.2222557832668
 30
0.0
  0
POINT
  5
10F3
330
105C
100
AcDbEntity
  8
Defpoints
 62
     0
 48
10.0
100
AcDbPoint
 10
-135.0842036179748
 20
340.0808739321196
 30
0.0
  0
ENDBLK
  5
105E
330
105C
100
AcDbEntity
  8
0
 48
10.0
100
AcDbBlockEnd
  0
BLOCK
  5
1069
330
1068
100
AcDbEntity
  8
0
 48
10.0
100
AcDbBlockBegin
  2
*D43
 70
     1
 10
0.0
 20
0.0
 30
0.0
  3
*D43
  1

  0
LINE
  5
10F4
330
1068
100
AcDbEntity
  8
BEM
 48
10.0
370
    -2
100
AcDbLine
 10
-292.5660076976486
 20
271.7688977780991
 30
0.0
 11
-292.5660076976486
 21
280.0671142526957
 31
0.0
  0
LINE
  5
10F5
330
1068
100
AcDbEntity
  8
BEM
 48
10.0
370
    -2
100
AcDbLine
 10
-246.5660076976486
 20
271.7688977780991
 30
0.0
 11
-246.5660076976486
 21
280.0671142526957
 31
0.0
  0
LINE
  5
10F6
330
1068
100
AcDbEntity
  8
BEM
 48
10.0
370
    -2
100
AcDbLine
 10
-289.0660076976486
 20
278.8171142526957
 30
0.0
 11
-250.0660076976486
 21
278.8171142526957
 31
0.0
  0
SOLID
  5
10F7
330
1068
100
AcDbEntity
  8
BEM
 48
10.0
100
AcDbTrace
 10
-289.0660076976486
 20
279.400447586029
 30
0.0
 11
-289.0660076976486
 21
278.2337809193624
 31
0.0
 12
-292.5660076976486
 22
278.8171142526957
 32
0.0
 13
-292.5660076976486
 23
278.8171142526957
 33
0.0
  0
SOLID
  5
10F8
330
1068
100
AcDbEntity
  8
BEM
 48
10.0
100
AcDbTrace
 10
-250.0660076976486
 20
279.400447586029
 30
0.0
 11
-250.0660076976486
 21
278.2337809193624
 31
0.0
 12
-246.5660076976486
 22
278.8171142526957
 32
0.0
 13
-246.5660076976486
 23
278.8171142526957
 33
0.0
  0
MTEXT
  5
10F9
330
1068
100
AcDbEntity
  8
BEM
 48
10.0
100
AcDbMText
 10
-268.4657642330654
 20
282.0671142526957
 30
0.0
 40
3.5
 41
0.0
 71
     5
 72
     1
  1
\A1;46
 73
     1
 44
1.0
  0
POINT
  5
10FA
330
1068
100
AcDbEntity
  8
Defpoints
 62
     0
 48
10.0
100
AcDbPoint
 10
-292.5660076976486
 20
271.7688977780991
 30
0.0
  0
POINT
  5
10FB
330
1068
100
AcDbEntity
  8
Defpoints
 62
     0
 48
10.0
100
AcDbPoint
 10
-246.5660076976486
 20
271.7688977780991
 30
0.0
  0
POINT
  5
10FC
330
1068
100
AcDbEntity
  8
Defpoints
 62
     0
 48
10.0
100
AcDbPoint
 10
-246.5660076976486
 20
278.8171142526957
 30
0.0
  0
ENDBLK
  5
106A
330
1068
100
AcDbEntity
  8
0
 48
10.0
100
AcDbBlockEnd
  0
BLOCK
  5
1075
330
1074
100
AcDbEntity
  8
0
 48
10.0
100
AcDbBlockBegin
  2
*D44
 70
     1
 10
0.0
 20
0.0
 30
0.0
  3
*D44
  1

  0
LINE
  5
10FD
330
1074
100
AcDbEntity
  8
BEM
 48
10.0
370
    -2
100
AcDbLine
 10
-194.0842036179748
 20
353.3372935731614
 30
0.0
 11
-194.0842036179748
 21
325.1277293674293
 31
0.0
  0
LINE
  5
10FE
330
1074
100
AcDbEntity
  8
BEM
 48
10.0
370
    -2
100
AcDbLine
 10
-128.0842036179748
 20
353.3372935731614
 30
0.0
 11
-128.0842036179748
 21
325.1277293674293
 31
0.0
  0
LINE
  5
10FF
330
1074
100
AcDbEntity
  8
BEM
 48
10.0
370
    -2
100
AcDbLine
 10
-190.5842036179748
 20
326.3777293674293
 30
0.0
 11
-131.5842036179748
 21
326.3777293674293
 31
0.0
  0
SOLID
  5
1100
330
1074
100
AcDbEntity
  8
BEM
 48
10.0
100
AcDbTrace
 10
-190.5842036179748
 20
326.9610627007626
 30
0.0
 11
-190.5842036179748
 21
325.794396034096
 31
0.0
 12
-194.0842036179748
 22
326.3777293674293
 32
0.0
 13
-194.0842036179748
 23
326.3777293674293
 33
0.0
  0
SOLID
  5
1101
330
1074
100
AcDbEntity
  8
BEM
 48
10.0
100
AcDbTrace
 10
-131.5842036179748
 20
326.9610627007626
 30
0.0
 11
-131.5842036179748
 21
325.794396034096
 31
0.0
 12
-128.0842036179748
 22
326.3777293674293
 32
0.0
 13
-128.0842036179748
 23
326.3777293674293
 33
0.0
  0
MTEXT
  5
1102
330
1074
100
AcDbEntity
  8
BEM
 48
10.0
100
AcDbMText
 10
-161.0842036179748
 20
329.6277293674293
 30
0.0
 40
3.5
 41
0.0
 71
     5
 72
     1
  1
\A1;66
 73
     1
 44
1.0
  0
POINT
  5
1103
330
1074
100
AcDbEntity
  8
Defpoints
 62
     0
 48
10.0
100
AcDbPoint
 10
-194.0842036179748
 20
353.3372935731614
 30
0.0
  0
POINT
  5
1104
330
1074
100
AcDbEntity
  8
Defpoints
 62
     0
 48
10.0
100
AcDbPoint
 10
-128.0842036179748
 20
353.3372935731614
 30
0.0
  0
POINT
  5
1105
330
1074
100
AcDbEntity
  8
Defpoints
 62
     0
 48
10.0
100
AcDbPoint
 10
-128.0842036179748
 20
326.3777293674293
 30
0.0
  0
ENDBLK
  5
1076
330
1074
100
AcDbEntity
  8
0
 48
10.0
100
AcDbBlockEnd
  0
BLOCK
  5
1081
330
1080
100
AcDbEntity
  8
0
 48
10.0
100
AcDbBlockBegin
  2
*D45
 70
     1
 10
0.0
 20
0.0
 30
0.0
  3
*D45
  1

  0
LINE
  5
1106
330
1080
100
AcDbEntity
  8
BEM
 48
10.0
370
    -2
100
AcDbLine
 10
-141.3729124481816
 20
438.5513698070891
 30
0.0
 11
-153.1038369439526
 21
404.5011392760701
 31
0.0
  0
LINE
  5
1107
330
1080
100
AcDbEntity
  8
BEM
 48
10.0
370
    -2
100
AcDbLine
 10
-169.0645702919968
 20
358.1734478702528
 30
0.0
 11
-170.204622674
 21
354.8643270555516
 31
0.0
  0
MTEXT
  5
1108
102
{ACAD_XDICTIONARY
360
115A
102
}
330
1080
100
AcDbEntity
  8
BEM
 48
10.0
100
AcDbMText
 10
-148.2466564202113
 20
428.5772235026964
 30
0.0
 40
3.5
 41
0.0
 71
     5
 72
     1
  1
\A1;\U+220542{}{\H0.71x;\C3;+0.05}
 11
0.3257292520009011
 21
0.9454630899146373
 31
0.0
 73
     1
 44
1.0
  0
LINE
  5
1109
330
1080
100
AcDbEntity
  8
BEM
 48
10.0
370
    -2
100
AcDbLine
 10
-167.9245179099937
 20
361.482568684954
 30
0.0
 11
-154.2438893259558
 21
401.1920184613688
 31
0.0
  0
SOLID
  5
110A
330
1080
100
AcDbEntity
  8
BEM
 48
10.0
100
AcDbTrace
 10
-169.6160904277804
 20
358.3634566005866
 30
0.0
 11
-168.5130501562133
 21
357.9834391399189
 31
0.0
 12
-167.9245179099937
 22
361.482568684954
 32
0.0
 13
-167.9245179099937
 23
361.482568684954
 33
0.0
  0
SOLID
  5
110B
330
1080
100
AcDbEntity
  8
BEM
 48
10.0
100
AcDbTrace
 10
-153.6553570797362
 20
404.6911480064039
 30
0.0
 11
-152.5523168081691
 21
404.3111305457363
 31
0.0
 12
-154.2438893259558
 22
401.1920184613688
 32
0.0
 13
-154.2438893259558
 23
401.1920184613688
 33
0.0
  0
POINT
  5
110C
330
1080
100
AcDbEntity
  8
Defpoints
 62
     0
 48
10.0
100
AcDbPoint
 10
-154.2438893259558
 20
401.1920184613688
 30
0.0
  0
POINT
  5
110D
330
1080
100
AcDbEntity
  8
Defpoints
 62
     0
 48
10.0
100
AcDbPoint
 10
-167.9245179099937
 20
361.482568684954
 30
0.0
  0
ENDBLK
  5
1082
330
1080
100
AcDbEntity
  8
0
 48
10.0
100
AcDbBlockEnd
  0
BLOCK
  5
113B
330
1135
100
AcDbEntity
  8
0
 48
10.0
100
AcDbBlockBegin
  2
*S49
 70
     1
 10
0.0
 20
0.0
 30
0.0
  3
*S49
  1

  0
LINE
  5
1136
330
1135
100
AcDbEntity
  8
BEM
 62
     3
 48
10.0
100
AcDbLine
 10
-159.8075417841693
 20
273.5994288809724
 30
0.0
 11
-163.3075417841693
 21
273.5994288809724
 31
0.0
  0
LINE
  5
1137
330
1135
100
AcDbEntity
  8
BEM
 62
     3
 48
10.0
100
AcDbLine
 10
-163.3075417841693
 20
273.5994288809724
 30
0.0
 11
-216.9851283757474
 21
273.5994288809724
 31
0.0
  0
LINE
  5
1138
330
1135
100
AcDbEntity
  8
BEM
 62
     3
 48
10.0
100
AcDbLine
 10
-216.9851283757474
 20
273.5994288809724
 30
0.0
 11
-241.4787142183063
 21
309.3446506745174
 31
0.0
  0
TRACE
  5
1139
330
1135
100
AcDbEntity
  8
BEM
  6
Continuous
 62
     3
 48
10.0
100
AcDbTrace
 10
-241.0986061801551
 20
309.6051109093336
 30
0.0
 11
-241.8588222564574
 21
309.0841904397013
 31
0.0
 12
-243.4571061269394
 22
312.2318578814659
 32
0.0
 13
-243.4571061269394
 23
312.2318578814659
 33
0.0
  0
MTEXT
  5
113A
330
1135
100
AcDbEntity
  8
BEM
 62
     2
100
AcDbMText
 10
-159.8075417841693
 20
275.3494288809724
 30
0.0
 40
3.5
 41
0.0
 71
     7
 72
     5
  1

  7
ACDINTS
 73
     1
 44
1.0
  0
ENDBLK
  5
113C
330
1135
100
AcDbEntity
  8
0
 48
10.0
100
AcDbBlockEnd
  0
BLOCK
  5
1144
330
113E
100
AcDbEntity
  8
0
 48
10.0
100
AcDbBlockBegin
  2
*S50
 70
     1
 10
0.0
 20
0.0
 30
0.0
  3
*S50
  1

  0
LINE
  5
113F
330
113E
100
AcDbEntity
  8
BEM
 62
     3
 48
10.0
100
AcDbLine
 10
78.77885296492104
 20
28.83542568579594
 30
0.0
 11
59.50021686970194
 21
28.83542568579594
 31
0.0
  0
LINE
  5
1140
330
113E
100
AcDbEntity
  8
BEM
 62
     3
 48
10.0
100
AcDbLine
 10
59.50021686970194
 20
28.83542568579594
 30
0.0
 11
119.5478362758545
 21
28.83542568579594
 31
0.0
  0
LINE
  5
1141
330
113E
100
AcDbEntity
  8
BEM
 62
     3
 48
10.0
100
AcDbLine
 10
119.5478362758545
 20
28.83542568579594
 30
0.0
 11
156.8245349584199
 21
67.21044155838647
 31
0.0
  0
TRACE
  5
1142
330
113E
100
AcDbEntity
  8
BEM
  6
Continuous
 62
     3
 48
10.0
100
AcDbTrace
 10
157.1550537615324
 20
66.88938241215836
 30
0.0
 11
156.4940161553075
 21
67.5315007046146
 31
0.0
 12
159.2632212996909
 22
69.72098112766206
 32
0.0
 13
159.2632212996909
 23
69.72098112766206
 33
0.0
  0
MTEXT
  5
1143
330
113E
100
AcDbEntity
  8
BEM
 62
     2
100
AcDbMText
 10
78.77885296492104
 20
30.58542568579594
 30
0.0
 40
3.5
 41
0.0
 71
     7
 72
     5
  1

  7
ACDINTS
 73
     1
 44
1.0
  0
ENDBLK
  5
1145
330
113E
100
AcDbEntity
  8
0
 48
10.0
100
AcDbBlockEnd
  0
ENDSEC
  0
SECTION
  2
ENTITIES
  0
LINE
  5
178
330
2
100
AcDbEntity
  8
MITTE
 48
5.0
100
AcDbLine
 10
95.49188625881868
 20
167.7883510995692
 30
0.0
 11
95.49188625881868
 21
107.5378539443842
 31
0.0
  0
LINE
  5
179
330
2
100
AcDbEntity
  8
MITTE
 48
5.0
100
AcDbLine
 10
60.47119339062703
 20
137.4561183357848
 30
0.0
 11
130.3244064975121
 21
137.4561183357848
 31
0.0
  0
LINE
  5
17C
330
2
100
AcDbEntity
  8
0
 48
10.0
100
AcDbLine
 10
62.49188625881867
 20
165.4561183357848
 30
0.0
 11
128.4918862588187
 21
165.4561183357848
 31
0.0
  0
LINE
  5
17E
330
2
100
AcDbEntity
  8
0
 48
10.0
100
AcDbLine
 10
62.49188625881867
 20
109.4561183357848
 30
0.0
 11
128.4918862588187
 21
109.4561183357848
 31
0.0
  0
LINE
  5
17F
330
2
100
AcDbEntity
  8
0
 48
10.0
100
AcDbLine
 10
62.49188625881865
 20
165.4561183357848
 30
0.0
 11
62.49188625881865
 21
139.4561183357848
 31
0.0
  0
LINE
  5
180
330
2
100
AcDbEntity
  8
0
 48
10.0
100
AcDbLine
 10
128.4918862588187
 20
165.4561183357848
 30
0.0
 11
128.4918862588187
 21
139.4561183357848
 31
0.0
  0
LINE
  5
181
330
2
100
AcDbEntity
  8
0
 48
10.0
100
AcDbLine
 10
62.49188625881865
 20
139.4561183357848
 30
0.0
 11
77.60334243882036
 21
139.4561183357848
 31
0.0
  0
LINE
  5
182
330
2
100
AcDbEntity
  8
0
 48
10.0
100
AcDbLine
 10
62.49188625881865
 20
135.4561183357848
 30
0.0
 11
77.60334243882036
 21
135.4561183357848
 31
0.0
  0
LINE
  5
183
330
2
100
AcDbEntity
  8
0
 48
10.0
100
AcDbLine
 10
62.49188625881865
 20
135.4561183357848
 30
0.0
 11
62.49188625881867
 21
109.4561183357848
 31
0.0
  0
LINE
  5
184
330
2
100
AcDbEntity
  8
0
 48
10.0
100
AcDbLine
 10
113.380430078817
 20
139.4561183357848
 30
0.0
 11
128.4918862588187
 21
139.4561183357848
 31
0.0
  0
LINE
  5
185
330
2
100
AcDbEntity
  8
0
 48
10.0
100
AcDbLine
 10
113.380430078817
 20
135.4561183357849
 30
0.0
 11
128.4918862588187
 21
135.4561183357848
 31
0.0
  0
LINE
  5
187
330
2
100
AcDbEntity
  8
0
 48
10.0
100
AcDbLine
 10
128.4918862588187
 20
135.4561183357848
 30
0.0
 11
128.4918862588186
 21
109.4561183357848
 31
0.0
  0
LINE
  5
189
330
2
100
AcDbEntity
  8
MITTE
 48
5.0
100
AcDbLine
 10
69.49188625881866
 20
166.8706493184737
 30
0.0
 11
69.49188625881866
 21
107.0010187839032
 31
0.0
  0
LINE
  5
18A
330
2
100
AcDbEntity
  8
MITTE
 48
5.0
100
AcDbLine
 10
121.4918862588187
 20
166.7572953978115
 30
0.0
 11
121.4918862588187
 21
107.3410805458901
 31
0.0
  0
LINE
  5
190
330
2
100
AcDbEntity
  8
0
 48
10.0
100
AcDbLine
 10
66.49188625881868
 20
139.4561183357848
 30
0.0
 11
66.49188625881868
 21
135.4561183357848
 31
0.0
  0
LINE
  5
191
330
2
100
AcDbEntity
  8
0
 48
10.0
100
AcDbLine
 10
72.49188625881868
 20
139.4561183357848
 30
0.0
 11
72.49188625881867
 21
135.4561183357848
 31
0.0
  0
LINE
  5
192
330
2
100
AcDbEntity
  8
0
 48
10.0
100
AcDbLine
 10
118.4918862588187
 20
139.4561183357848
 30
0.0
 11
118.4918862588187
 21
135.4561183357848
 31
0.0
  0
LINE
  5
193
330
2
100
AcDbEntity
  8
0
 48
10.0
100
AcDbLine
 10
124.4918862588187
 20
139.4561183357848
 30
0.0
 11
124.4918862588187
 21
135.4561183357848
 31
0.0
  0
LINE
  5
195
330
2
100
AcDbEntity
  8
LINIE
 48
10.0
100
AcDbLine
 10
71.84188625881867
 20
139.4561183357848
 30
0.0
 11
71.84188625881867
 21
135.4561183357848
 31
0.0
  0
LINE
  5
196
330
2
100
AcDbEntity
  8
LINIE
 48
10.0
100
AcDbLine
 10
67.14188625881869
 20
139.4561183357848
 30
0.0
 11
67.14188625881869
 21
135.4561183357848
 31
0.0
  0
LINE
  5
197
330
2
100
AcDbEntity
  8
LINIE
 48
10.0
100
AcDbLine
 10
119.1418862588187
 20
139.4561183357848
 30
0.0
 11
119.1418862588187
 21
135.4561183357848
 31
0.0
  0
LINE
  5
198
330
2
100
AcDbEntity
  8
LINIE
 48
10.0
100
AcDbLine
 10
123.8418862588186
 20
139.4561183357848
 30
0.0
 11
123.8418862588187
 21
135.4561183357848
 31
0.0
  0
LINE
  5
199
330
2
100
AcDbEntity
  8
0
 48
10.0
100
AcDbLine
 10
155.7330337461278
 20
164.0844421454074
 30
0.0
 11
215.7330337461278
 21
164.0844421454074
 31
0.0
  0
LINE
  5
19A
330
2
100
AcDbEntity
  8
0
 48
10.0
100
AcDbLine
 10
155.7330337461278
 20
138.0844421454075
 30
0.0
 11
215.7330337461278
 21
138.0844421454075
 31
0.0
  0
LINE
  5
19B
330
2
100
AcDbEntity
  8
0
 48
10.0
100
AcDbLine
 10
155.7330337461278
 20
134.0844421454074
 30
0.0
 11
215.7330337461278
 21
134.0844421454074
 31
0.0
  0
LINE
  5
19C
330
2
100
AcDbEntity
  8
0
 48
10.0
100
AcDbLine
 10
155.7330337461278
 20
108.0844421454075
 30
0.0
 11
215.7330337461278
 21
108.0844421454075
 31
0.0
  0
LINE
  5
19D
330
2
100
AcDbEntity
  8
0
 48
10.0
100
AcDbLine
 10
155.7330337461278
 20
164.0844421454074
 30
0.0
 11
155.7330337461278
 21
138.0844421454075
 31
0.0
  0
LINE
  5
19E
330
2
100
AcDbEntity
  8
0
 48
10.0
100
AcDbLine
 10
215.7330337461278
 20
164.0844421454074
 30
0.0
 11
215.7330337461278
 21
138.0844421454075
 31
0.0
  0
LINE
  5
19F
330
2
100
AcDbEntity
  8
0
 48
10.0
100
AcDbLine
 10
155.7330337461278
 20
134.0844421454074
 30
0.0
 11
155.7330337461278
 21
108.0844421454075
 31
0.0
  0
LINE
  5
1A0
330
2
100
AcDbEntity
  8
0
 48
10.0
100
AcDbLine
 10
215.7330337461278
 20
134.0844421454074
 30
0.0
 11
215.7330337461278
 21
108.0844421454075
 31
0.0
  0
LINE
  5
1A2
330
2
100
AcDbEntity
  8
MITTE
 48
5.0
100
AcDbLine
 10
152.700411095022
 20
136.0844421454075
 30
0.0
 11
218.1143242991061
 21
136.0844421454075
 31
0.0
  0
LINE
  5
1A6
330
2
100
AcDbEntity
  8
MITTE
 48
5.0
100
AcDbLine
 10
162.7330337461278
 20
165.3856192074341
 30
0.0
 11
162.7330337461278
 21
105.9694043555128
 31
0.0
  0
LINE
  5
1A7
330
2
100
AcDbEntity
  8
0
 48
10.0
100
AcDbLine
 10
165.7330337461278
 20
138.0844421454075
 30
0.0
 11
165.7330337461278
 21
134.0844421454075
 31
0.0
  0
LINE
  5
1A8
330
2
100
AcDbEntity
  8
LINIE
 48
10.0
100
AcDbLine
 10
165.0830337461278
 20
138.0844421454075
 30
0.0
 11
165.0830337461278
 21
134.0844421454075
 31
0.0
  0
LINE
  5
1A9
330
2
100
AcDbEntity
  8
0
 48
10.0
100
AcDbLine
 10
159.7330337461278
 20
138.0844421454075
 30
0.0
 11
159.7330337461278
 21
134.0844421454075
 31
0.0
  0
LINE
  5
1AA
330
2
100
AcDbEntity
  8
LINIE
 48
10.0
100
AcDbLine
 10
160.3830337461278
 20
138.0844421454075
 30
0.0
 11
160.3830337461278
 21
134.0844421454075
 31
0.0
  0
LINE
  5
1AB
330
2
100
AcDbEntity
  8
MITTE
 48
5.0
100
AcDbLine
 10
208.7330337461278
 20
165.3856192074341
 30
0.0
 11
208.7330337461278
 21
105.9694043555128
 31
0.0
  0
LINE
  5
1AC
330
2
100
AcDbEntity
  8
0
 48
10.0
100
AcDbLine
 10
211.7330337461278
 20
138.0844421454075
 30
0.0
 11
211.7330337461278
 21
134.0844421454075
 31
0.0
  0
LINE
  5
1AD
330
2
100
AcDbEntity
  8
LINIE
 48
10.0
100
AcDbLine
 10
211.0830337461278
 20
138.0844421454075
 30
0.0
 11
211.0830337461278
 21
134.0844421454075
 31
0.0
  0
LINE
  5
1AE
330
2
100
AcDbEntity
  8
0
 48
10.0
100
AcDbLine
 10
205.7330337461278
 20
138.0844421454075
 30
0.0
 11
205.7330337461278
 21
134.0844421454075
 31
0.0
  0
LINE
  5
1AF
330
2
100
AcDbEntity
  8
LINIE
 48
10.0
100
AcDbLine
 10
206.3830337461278
 20
138.0844421454075
 30
0.0
 11
206.3830337461278
 21
134.0844421454075
 31
0.0
  0
LINE
  5
1B0
330
2
100
AcDbEntity
  8
0
 48
10.0
100
AcDbLine
 10
155.7330337461278
 20
25.87834648696968
 30
0.0
 11
155.7330337461278
 21
91.87834648696968
 31
0.0
  0
LINE
  5
1B1
330
2
100
AcDbEntity
  8
0
 48
10.0
100
AcDbLine
 10
215.7330337461278
 20
91.87834648696968
 30
0.0
 11
215.7330337461278
 21
25.87834648696969
 31
0.0
  0
LINE
  5
1B3
330
2
100
AcDbEntity
  8
0
 48
10.0
100
AcDbLine
 10
155.7330337461278
 20
91.87834648696968
 30
0.0
 11
215.7330337461278
 21
91.87834648696968
 31
0.0
  0
LINE
  5
1B4
330
2
100
AcDbEntity
  8
MITTE
 48
5.0
100
AcDbLine
 10
219.3739105189254
 20
58.87834648696969
 30
0.0
 11
152.2194233926018
 21
58.87834648696969
 31
0.0
  0
LINE
  5
1B5
330
2
100
AcDbEntity
  8
0
 48
10.0
100
AcDbLine
 10
155.7330337461278
 20
25.87834648696969
 30
0.0
 11
215.7330337461278
 21
25.87834648696969
 31
0.0
  0
LINE
  5
1B8
330
2
100
AcDbEntity
  8
0
 48
10.0
100
AcDbLine
 10
155.7330337461278
 20
181.0154936066903
 30
0.0
 11
155.7330337461278
 21
247.0154936066904
 31
0.0
  0
LINE
  5
1B9
330
2
100
AcDbEntity
  8
0
 48
10.0
100
AcDbLine
 10
215.7330337461278
 20
247.0154936066904
 30
0.0
 11
215.7330337461278
 21
181.0154936066903
 31
0.0
  0
LINE
  5
1BA
330
2
100
AcDbEntity
  8
0
 48
10.0
100
AcDbLine
 10
155.7330337461278
 20
247.0154936066904
 30
0.0
 11
215.7330337461278
 21
247.0154936066904
 31
0.0
  0
LINE
  5
1BB
330
2
100
AcDbEntity
  8
MITTE
 48
5.0
100
AcDbLine
 10
219.3739105189254
 20
214.0154936066904
 30
0.0
 11
151.408936876985
 21
214.0154936066904
 31
0.0
  0
LINE
  5
1BC
330
2
100
AcDbEntity
  8
0
 48
10.0
100
AcDbLine
 10
155.7330337461278
 20
181.0154936066903
 30
0.0
 11
215.7330337461278
 21
181.0154936066903
 31
0.0
  0
LINE
  5
1BD
330
2
100
AcDbEntity
  8
MITTE
 48
10.0
100
AcDbLine
 10
215.7330337461278
 20
84.87834648696969
 30
0.0
 11
201.7330337461278
 21
84.87834648696969
 31
0.0
  0
LINE
  5
1C0
330
2
100
AcDbEntity
  8
MITTE
 48
10.0
100
AcDbLine
 10
208.7330337461278
 20
77.87834648696969
 30
0.0
 11
208.7330337461278
 21
91.87834648696968
 31
0.0
  0
CIRCLE
  5
1C2
330
2
100
AcDbEntity
  8
0
 48
10.0
100
AcDbCircle
 10
208.7330337461278
 20
84.87834648696969
 30
0.0
 40
5.0
  0
CIRCLE
  5
1C3
330
2
100
AcDbEntity
  8
0
 48
10.0
100
AcDbCircle
 10
208.7330337461278
 20
84.87834648696969
 30
0.0
 40
5.5
  0
LWPOLYLINE
  5
1C9
330
2
100
AcDbEntity
  8
0
 48
10.0
100
AcDbPolyline
 90
        6
 70
     1
 43
0.0
 10
207.5783332077486
 20
86.87834648696968
 10
206.4236326693694
 20
84.87834648696969
 10
207.5783332077486
 20
82.8783464869697
 10
209.8877342845071
 20
82.8783464869697
 10
211.0424348228863
 20
84.87834648696969
 10
209.8877342845071
 20
86.87834648696968
  0
LINE
  5
1CA
330
2
100
AcDbEntity
  8
MITTE
 48
10.0
100
AcDbLine
 10
169.7330337461278
 20
84.87834648696969
 30
0.0
 11
155.7330337461278
 21
84.87834648696969
 31
0.0
  0
LINE
  5
1CB
330
2
100
AcDbEntity
  8
MITTE
 48
10.0
100
AcDbLine
 10
162.7330337461278
 20
77.87834648696969
 30
0.0
 11
162.7330337461278
 21
91.87834648696968
 31
0.0
  0
CIRCLE
  5
1CC
330
2
100
AcDbEntity
  8
0
 48
10.0
100
AcDbCircle
 10
162.7330337461278
 20
84.87834648696969
 30
0.0
 40
5.0
  0
CIRCLE
  5
1CD
330
2
100
AcDbEntity
  8
0
 48
10.0
100
AcDbCircle
 10
162.7330337461278
 20
84.87834648696969
 30
0.0
 40
5.5
  0
LWPOLYLINE
  5
1D0
330
2
100
AcDbEntity
  8
0
 48
10.0
100
AcDbPolyline
 90
        6
 70
     1
 43
0.0
 10
161.5783332077486
 20
86.87834648696968
 10
160.4236326693693
 20
84.87834648696969
 10
161.5783332077486
 20
82.8783464869697
 10
163.887734284507
 20
82.8783464869697
 10
165.0424348228863
 20
84.87834648696969
 10
163.887734284507
 20
86.87834648696968
  0
LINE
  5
1D1
330
2
100
AcDbEntity
  8
MITTE
 48
10.0
100
AcDbLine
 10
169.7330337461278
 20
32.87834648696969
 30
0.0
 11
155.7330337461278
 21
32.87834648696969
 31
0.0
  0
LINE
  5
1D2
330
2
100
AcDbEntity
  8
MITTE
 48
10.0
100
AcDbLine
 10
162.7330337461278
 20
25.87834648696969
 30
0.0
 11
162.7330337461278
 21
39.87834648696969
 31
0.0
  0
CIRCLE
  5
1D3
330
2
100
AcDbEntity
  8
0
 48
10.0
100
AcDbCircle
 10
162.7330337461278
 20
32.87834648696969
 30
0.0
 40
5.0
  0
CIRCLE
  5
1D4
330
2
100
AcDbEntity
  8
0
 48
10.0
100
AcDbCircle
 10
162.7330337461278
 20
32.87834648696969
 30
0.0
 40
5.5
  0
LWPOLYLINE
  5
1D7
330
2
100
AcDbEntity
  8
0
 48
10.0
100
AcDbPolyline
 90
        6
 70
     1
 43
0.0
 10
161.5783332077486
 20
34.87834648696969
 10
160.4236326693693
 20
32.87834648696969
 10
161.5783332077486
 20
30.87834648696969
 10
163.887734284507
 20
30.87834648696969
 10
165.0424348228863
 20
32.87834648696969
 10
163.887734284507
 20
34.87834648696969
  0
LINE
  5
1D8
330
2
100
AcDbEntity
  8
MITTE
 48
10.0
100
AcDbLine
 10
215.7330337461278
 20
32.87834648696969
 30
0.0
 11
201.7330337461278
 21
32.87834648696969
 31
0.0
  0
LINE
  5
1D9
330
2
100
AcDbEntity
  8
MITTE
 48
10.0
100
AcDbLine
 10
208.7330337461278
 20
25.87834648696969
 30
0.0
 11
208.7330337461278
 21
39.87834648696969
 31
0.0
  0
CIRCLE
  5
1DA
330
2
100
AcDbEntity
  8
0
 48
10.0
100
AcDbCircle
 10
208.7330337461278
 20
32.87834648696969
 30
0.0
 40
5.0
  0
CIRCLE
  5
1DB
330
2
100
AcDbEntity
  8
0
 48
10.0
100
AcDbCircle
 10
208.7330337461278
 20
32.87834648696969
 30
0.0
 40
5.5
  0
LWPOLYLINE
  5
1DE
330
2
100
AcDbEntity
  8
0
 48
10.0
100
AcDbPolyline
 90
        6
 70
     1
 43
0.0
 10
207.5783332077486
 20
34.87834648696969
 10
206.4236326693694
 20
32.87834648696969
 10
207.5783332077486
 20
30.87834648696969
 10
209.8877342845071
 20
30.87834648696969
 10
211.0424348228863
 20
32.87834648696969
 10
209.8877342845071
 20
34.87834648696969
  0
LINE
  5
1EE
330
2
100
AcDbEntity
  8
MITTE
 48
10.0
100
AcDbLine
 10
203.7330337461278
 20
240.0154936066904
 30
0.0
 11
195.7330337461278
 21
240.0154936066904
 31
0.0
  0
LINE
  5
1EF
330
2
100
AcDbEntity
  8
MITTE
 48
10.0
100
AcDbLine
 10
203.7330337461278
 20
188.0154936066903
 30
0.0
 11
195.7330337461278
 21
188.0154936066903
 31
0.0
  0
LINE
  5
1F0
330
2
100
AcDbEntity
  8
MITTE
 48
10.0
100
AcDbLine
 10
185.7330337461278
 20
244.0154936066904
 30
0.0
 11
185.7330337461278
 21
236.0154936066904
 31
0.0
  0
CIRCLE
  5
1F2
330
2
100
AcDbEntity
  8
0
 48
10.0
100
AcDbCircle
 10
185.7330337461278
 20
240.0154936066904
 30
0.0
 40
2.5
  0
CIRCLE
  5
1F3
330
2
100
AcDbEntity
  8
0
 48
10.0
100
AcDbCircle
 10
185.7330337461278
 20
188.0154936066903
 30
0.0
 40
2.5
  0
LINE
  5
1F4
330
2
100
AcDbEntity
  8
MITTE
 48
10.0
100
AcDbLine
 10
199.7330337461278
 20
244.0154936066904
 30
0.0
 11
199.7330337461278
 21
236.0154936066904
 31
0.0
  0
LINE
  5
1F5
330
2
100
AcDbEntity
  8
MITTE
 48
10.0
100
AcDbLine
 10
171.7330337461278
 20
244.0154936066904
 30
0.0
 11
171.7330337461278
 21
236.0154936066904
 31
0.0
  0
ARC
  5
1F6
330
2
100
AcDbEntity
  8
LINIE
 48
10.0
100
AcDbCircle
 10
199.7330337461278
 20
240.0154936066904
 30
0.0
 40
2.5
100
AcDbArc
 50
171.6634047776226
 51
112.2472119386734
  0
CIRCLE
  5
1F8
330
2
100
AcDbEntity
  8
0
 48
10.0
100
AcDbCircle
 10
199.7330337461278
 20
240.0154936066904
 30
0.0
 40
2.0
  0
ARC
  5
1F9
330
2
100
AcDbEntity
  8
LINIE
 48
10.0
100
AcDbCircle
 10
171.7330337461278
 20
240.0154936066904
 30
0.0
 40
2.5
100
AcDbArc
 50
167.784192782103
 51
108.9529870910445
  0
CIRCLE
  5
1FA
330
2
100
AcDbEntity
  8
0
 48
10.0
100
AcDbCircle
 10
171.7330337461278
 20
240.0154936066904
 30
0.0
 40
2.0
  0
ARC
  5
1FB
330
2
100
AcDbEntity
  8
LINIE
 48
10.0
100
AcDbCircle
 10
171.7330337461278
 20
188.0154936066903
 30
0.0
 40
2.5
100
AcDbArc
 50
168.1599359318109
 51
108.6507708249597
  0
CIRCLE
  5
1FC
330
2
100
AcDbEntity
  8
0
 48
10.0
100
AcDbCircle
 10
171.7330337461278
 20
188.0154936066903
 30
0.0
 40
2.0
  0
ARC
  5
1FD
330
2
100
AcDbEntity
  8
LINIE
 48
10.0
100
AcDbCircle
 10
199.7330337461278
 20
188.0154936066903
 30
0.0
 40
2.5
100
AcDbArc
 50
167.3540768310669
 51
112.9783023437654
  0
CIRCLE
  5
1FE
330
2
100
AcDbEntity
  8
0
 48
10.0
100
AcDbCircle
 10
199.7330337461278
 20
188.0154936066903
 30
0.0
 40
2.0
  0
LINE
  5
205
330
2
100
AcDbEntity
  8
MITTE
 48
10.0
100
AcDbLine
 10
189.7330337461278
 20
188.0154936066903
 30
0.0
 11
181.7330337461278
 21
188.0154936066903
 31
0.0
  0
LINE
  5
206
330
2
100
AcDbEntity
  8
MITTE
 48
10.0
100
AcDbLine
 10
175.7330337461278
 20
188.0154936066903
 30
0.0
 11
167.7330337461278
 21
188.0154936066903
 31
0.0
  0
LINE
  5
207
330
2
100
AcDbEntity
  8
MITTE
 48
10.0
100
AcDbLine
 10
171.7330337461278
 20
192.0154936066903
 30
0.0
 11
171.7330337461278
 21
184.0154936066904
 31
0.0
  0
LINE
  5
208
330
2
100
AcDbEntity
  8
MITTE
 48
10.0
100
AcDbLine
 10
175.7330337461278
 20
240.0154936066904
 30
0.0
 11
167.7330337461278
 21
240.0154936066904
 31
0.0
  0
LINE
  5
209
330
2
100
AcDbEntity
  8
MITTE
 48
10.0
100
AcDbLine
 10
185.7330337461278
 20
192.0154936066903
 30
0.0
 11
185.7330337461278
 21
184.0154936066904
 31
0.0
  0
LINE
  5
20A
330
2
100
AcDbEntity
  8
MITTE
 48
10.0
100
AcDbLine
 10
189.7330337461278
 20
240.0154936066904
 30
0.0
 11
181.7330337461278
 21
240.0154936066904
 31
0.0
  0
LINE
  5
20B
330
2
100
AcDbEntity
  8
MITTE
 48
10.0
100
AcDbLine
 10
199.7330337461278
 20
192.0154936066903
 30
0.0
 11
199.7330337461278
 21
184.0154936066904
 31
0.0
  0
DIMENSION
  5
20C
330
2
100
AcDbEntity
  8
BEM
 48
10.0
100
AcDbDimension
  2
*D3
 10
29.48071496297379
 20
177.8929384801931
 30
0.0
 11
62.48071496297381
 21
181.1429384801931
 31
0.0
 70
    32
 71
     5
 42
66.00000000000003
  3
ISO-25
100
AcDbAlignedDimension
 13
95.48071496297382
 23
165.4561183357848
 33
0.0
 14
29.48071496297379
 24
165.4561183357848
 34
0.0
100
AcDbRotatedDimension
1001
ACAD
1000
DSTYLE
1002
{
1070
   144
1040
1.0
1002
}
  0
DIMENSION
  5
21A
330
2
100
AcDbEntity
  8
BEM
 48
10.0
100
AcDbDimension
  2
*D4
 10
119.9773671313937
 20
109.4561183357848
 30
0.0
 11
116.7273671313937
 21
137.4561183357848
 31
0.0
 70
    32
 71
     5
 42
56.00000000000001
  3
ISO-25
100
AcDbAlignedDimension
 13
95.48071496297382
 23
165.4561183357848
 33
0.0
 14
95.48071496297382
 24
109.4561183357848
 34
0.0
 50
90.0
100
AcDbRotatedDimension
1001
ACAD
1000
DSTYLE
1002
{
1070
   144
1040
1.0
1002
}
  0
DIMENSION
  5
227
330
2
100
AcDbEntity
  8
BEM
 48
10.0
100
AcDbDimension
  2
*D5
 10
17.11808715343241
 20
109.4561183357848
 30
0.0
 11
13.86808715343239
 21
123.4561183357848
 31
0.0
 70
    32
  1
<>{}{\H0.71x;\C3;%%p0.05}
 71
     5
 42
28.00000000000006
  3
ISO-25
100
AcDbAlignedDimension
 13
27.46002209478218
 23
137.4561183357848
 33
0.0
 14
29.4807149629738
 24
109.4561183357848
 34
0.0
 50
90.0
100
AcDbRotatedDimension
1001
ACAD_DSTYLE_DIMINSPECT
1070
   396
1000
100%
1070
   395
1000

1070
   394
1070
    33
1070
   393
1070
     0
1001
ACAD
1000
DSTYLE
1002
{
1070
   286
1070
     0
1070
   284
1070
     8
1070
   274
1070
     2
1070
   272
1070
     4
1070
    47
1040
0.05
1070
    48
1040
0.05
1070
   144
1040
1.0
1002
}
1001
GENIUS_GENDTOL_13
1000
TolSmPm
1000

1000
{\H0.71x;$2%%p$P}
1040
28.0
  0
DIMENSION
  5
234
330
2
100
AcDbEntity
  8
BEM
 48
10.0
100
AcDbDimension
  2
*D6
 10
106.322339865793
 20
135.4561183357848
 30
0.0
 11
103.072339865793
 21
125.7061183357849
 31
0.0
 70
    32
 71
     5
 42
4.0
  3
ISO-25
100
AcDbAlignedDimension
 13
95.48071496297382
 23
139.4561183357848
 33
0.0
 14
95.48071496297382
 24
135.4561183357848
 34
0.0
 50
90.0
100
AcDbRotatedDimension
1001
ACAD
1000
DSTYLE
1002
{
1070
   144
1040
1.0
1002
}
  0
DIMENSION
  5
24F
330
2
100
AcDbEntity
  8
BEM
 48
10.0
100
AcDbDimension
  2
*D7
 10
155.7330337461278
 20
176.929085681702
 30
0.0
 11
185.7330337461278
 21
180.1790856817021
 31
0.0
 70
    32
 71
     5
 42
60.0
  3
ISO-25
100
AcDbAlignedDimension
 13
215.7330337461278
 23
164.0844421454074
 33
0.0
 14
155.7330337461278
 24
164.0844421454074
 34
0.0
100
AcDbRotatedDimension
1001
ACAD
1000
DSTYLE
1002
{
1070
   144
1040
1.0
1002
}
  0
DIMENSION
  5
25C
330
2
100
AcDbEntity
  8
BEM
 48
10.0
100
AcDbDimension
  2
*D8
 10
215.7330337461278
 20
309.2807597244562
 30
0.0
 11
209.7403489166155
 21
309.2807597244562
 31
0.0
 70
   160
  1
<>{}{\H0.71x;\C3;%%p0.1}
 71
     5
 42
16.0
  3
ISO-25
100
AcDbAlignedDimension
 13
199.7330337461278
 23
295.8254940879147
 33
0.0
 14
215.7330337461278
 24
298.8254940879146
 34
0.0
100
AcDbRotatedDimension
1001
ACAD_DSTYLE_DIMINSPECT
1070
   396
1000
100%
1070
   395
1000

1070
   394
1070
    33
1070
   393
1070
     0
1001
ACAD
1000
DSTYLE
1002
{
1070
   286
1070
     0
1070
   284
1070
     8
1070
   274
1070
     2
1070
   272
1070
     4
1070
    47
1040
0.1
1070
    48
1040
0.1
1070
   144
1040
1.0
1002
}
1001
GENIUS_GENDTOL_13
1000
TolSmPm
1000

1000
{\H0.71x;$2%%p$P}
1040
16.0
  0
DIMENSION
  5
269
330
2
100
AcDbEntity
  8
BEM
 48
10.0
100
AcDbDimension
  2
*D9
 10
171.7330337461278
 20
309.2807597244562
 30
0.0
 11
185.7330337461278
 21
312.5307597244562
 31
0.0
 70
    32
  1
<>{}{\H0.71x;\C3;%%p0.05}
 71
     5
 42
28.0
  3
ISO-25
100
AcDbAlignedDimension
 13
199.7330337461278
 23
295.8254940879147
 33
0.0
 14
171.7330337461278
 24
295.8254940879147
 34
0.0
100
AcDbRotatedDimension
1001
ACAD_DSTYLE_DIMINSPECT
1070
   396
1000
100%
1070
   395
1000

1070
   394
1070
    33
1070
   393
1070
     0
1001
ACAD
1000
DSTYLE
1002
{
1070
   286
1070
     0
1070
   284
1070
     8
1070
   274
1070
     2
1070
   272
1070
     4
1070
    47
1040
0.05
1070
    48
1040
0.05
1070
   144
1040
1.0
1002
}
1001
GENIUS_GENDTOL_13
1000
TolSmPm
1000

1000
{\H0.71x;$2%%p$P}
1040
28.0
  0
DIMENSION
  5
289
102
{ACAD_XDICTIONARY
360
A1C
102
}
102
{ACAD_REACTORS
330
A1D
102
}
330
2
100
AcDbEntity
  8
BEM
 48
10.0
100
AcDbDimension
  2
*D10
 10
199.7330337461278
 20
203.9367407833383
 30
0.0
 11
213.0688670794611
 21
203.9367407833383
 31
0.0
 70
   160
  1
<>{}{\H0.71x;\C3;%%p0.05}
 71
     5
 42
14.0
  3
ISO-25
100
AcDbAlignedDimension
 13
185.7330337461278
 23
235.8254940879147
 33
0.0
 14
199.7330337461278
 24
235.8254940879147
 34
0.0
100
AcDbRotatedDimension
1001
ACAD_DSTYLE_DIMINSPECT
1070
   396
1000
100%
1070
   395
1000

1070
   394
1070
    33
1070
   393
1070
     0
1001
ACAD
1000
DSTYLE
1002
{
1070
   286
1070
     0
1070
   284
1070
     8
1070
   274
1070
     2
1070
   272
1070
     4
1070
    47
1040
0.05
1070
    48
1040
0.05
1070
   144
1040
1.0
1002
}
1001
GENIUS_GENDTOL_13
1000
TolSmPm
1000

1000
{\H0.71x;$2%%p$P}
1040
14.0
  0
DIMENSION
  5
297
330
2
100
AcDbEntity
  8
BEM
 48
10.0
100
AcDbDimension
  2
*D11
 10
188.2330337461278
 20
216.828045806704
 30
0.0
 11
166.7330337461278
 21
216.828045806704
 31
0.0
 70
   160
  1
%%c<>{}{\H0.71x;\C3; H7}
 71
     5
 42
5.0
  3
ISO-25
100
AcDbAlignedDimension
 13
183.2330337461278
 23
239.8254940879147
 33
0.0
 14
188.2330337461278
 24
239.8254940879147
 34
0.0
100
AcDbRotatedDimension
1001
ACAD_DSTYLE_DIMINSPECT
1070
   396
1000
100%
1070
   395
1000

1070
   394
1070
    33
1070
   393
1070
     0
1001
GENIUS_GENDTOL_13
1000
FitSmTxt
1000
H7
1000
{\H0.71x;$2 $T}
1040
5.0
1001
ACAD
1000
DSTYLE
1002
{
1070
   286
1070
     0
1070
   284
1070
     8
1070
   274
1070
     2
1070
   272
1070
     4
1070
    48
1040
0.0
1070
    47
1040
0.0
1070
   144
1040
1.0
1002
}
  0
DIMENSION
  5
2A6
330
2
100
AcDbEntity
  8
BEM
 48
10.0
100
AcDbDimension
  2
*D12
 10
232.9700051027937
 20
239.8254940879147
 30
0.0
 11
229.7200051027937
 21
265.8254940879147
 31
0.0
 70
    32
  1
<>{}{\H0.71x;\C3;%%p0.05}
 71
     5
 42
52.0
  3
ISO-25
100
AcDbAlignedDimension
 13
203.7330337461278
 23
291.8254940879147
 33
0.0
 14
203.7330337461278
 24
239.8254940879147
 34
0.0
 50
90.0
100
AcDbRotatedDimension
1001
ACAD_DSTYLE_DIMINSPECT
1070
   396
1000
100%
1070
   395
1000

1070
   394
1070
    33
1070
   393
1070
     0
1001
ACAD
1000
DSTYLE
1002
{
1070
   286
1070
     0
1070
   284
1070
     8
1070
   274
1070
     2
1070
   272
1070
     4
1070
    47
1040
0.05
1070
    48
1040
0.05
1070
   144
1040
1.0
1002
}
1001
GENIUS_GENDTOL_13
1000
TolSmPm
1000

1000
{\H0.71x;$2%%p$P}
1040
52.0
  0
DIMENSION
  5
2B3
330
2
100
AcDbEntity
  8
BEM
 48
10.0
100
AcDbDimension
  2
*D13
 10
180.7857055804279
 20
239.8254940879147
 30
0.0
 11
177.5357055804279
 21
265.8254940879147
 31
0.0
 70
    32
  1
<>{}{\H0.71x;\C3;%%p0.01}
 71
     5
 42
52.00000000000002
  3
ISO-25
100
AcDbAlignedDimension
 13
181.7330337461278
 23
291.8254940879147
 33
0.0
 14
181.7330337461278
 24
239.8254940879147
 34
0.0
 50
90.0
100
AcDbRotatedDimension
1001
ACAD_DSTYLE_DIMINSPECT
1070
   396
1000
100%
1070
   395
1000

1070
   394
1070
    33
1070
   393
1070
     0
1001
ACAD
1000
DSTYLE
1002
{
1070
   286
1070
     0
1070
   284
1070
     8
1070
   274
1070
     2
1070
   272
1070
     4
1070
    47
1040
0.01
1070
    48
1040
0.01
1070
   144
1040
1.0
1002
}
1001
GENIUS_GENDTOL_13
1000
TolSmPm
1000

1000
{\H0.71x;$2%%p$P}
1040
52.0
  0
DIMENSION
  5
2C2
330
2
100
AcDbEntity
  8
BEM
 48
10.0
100
AcDbDimension
  2
*D14
 10
137.0555646338266
 20
289.3254940879146
 30
0.0
 11
133.8055646338266
 21
277.7421607545814
 31
0.0
 70
    32
  1
M<>
 71
     5
 42
5.0
  3
ISO-25
100
AcDbAlignedDimension
 13
171.7330337461278
 23
294.3254940879146
 33
0.0
 14
171.7330337461278
 24
289.3254940879146
 34
0.0
 50
90.0
100
AcDbRotatedDimension
1001
ACAD
1000
DSTYLE
1002
{
1070
   144
1040
1.0
1002
}
  0
TEXT
  5
46D
330
2
100
AcDbEntity
  8
TEXT
100
AcDbText
 10
381.8725546314985
 20
65.95747165905024
 30
0.0
 40
3.5
  1

100
AcDbText
  0
TEXT
  5
46E
330
2
100
AcDbEntity
  8
TEXT
100
AcDbText
 10
348.5921867209947
 20
56.08465571486515
 30
0.0
 40
3.5
  1

100
AcDbText
  0
TEXT
  5
46F
330
2
100
AcDbEntity
  8
LINIE
100
AcDbText
 10
295.1650830602254
 20
45.62248334516732
 30
0.0
 40
2.5
  1

100
AcDbText
  0
TEXT
  5
470
330
2
100
AcDbEntity
  8
LINIE
100
AcDbText
 10
310.4031003657155
 20
45.95580140624962
 30
0.0
 40
2.5
  1

100
AcDbText
  0
TEXT
  5
4A3
330
2
100
AcDbEntity
  8
0
100
AcDbText
 10
175.8227575423188
 20
147.7246006421621
 30
0.0
 40
5.0
  1
%%C36
  7
STYLE1
100
AcDbText
  0
ARC
  5
6BC
330
2
100
AcDbEntity
  8
0
 48
10.0
100
AcDbCircle
 10
95.49188625881868
 20
137.4561183357848
 30
0.0
 40
18.0
100
AcDbArc
 50
186.3793702084429
 51
353.620629791557
  0
ARC
  5
6BD
330
2
100
AcDbEntity
  8
0
 48
10.0
100
AcDbCircle
 10
95.49188625881868
 20
137.4561183357848
 30
0.0
 40
18.0
100
AcDbArc
 50
6.379370208442971
 51
173.620629791557
  0
DIMENSION
  5
6BE
330
2
100
AcDbEntity
  8
BEM
 48
10.0
100
AcDbDimension
  2
*D15
 10
68.06944149918078
 20
154.5665284916956
 30
0.0
 11
47.14618070448631
 21
90.50800430430715
 31
0.0
 70
   163
  1
<>{}{\H0.71x;\C3; H8}
 71
     5
 42
35.99999999999983
  3
ISO-25
100
AcDbDiametricDimension
 15
56.89198842676698
 25
120.3457081798741
 35
0.0
 40
0.0
1001
ACAD_DSTYLE_DIMINSPECT
1070
   396
1000
100%
1070
   395
1000

1070
   394
1070
    33
1070
   393
1070
     0
1001
GENIUS_GENDTOL_13
1000
FitSmTxt
1000
H8
1000
{\H0.71x;$2 $T}
1040
36.0
1001
ACAD
1000
DSTYLE
1002
{
1070
   286
1070
     0
1070
   284
1070
     8
1070
   274
1070
     2
1070
   272
1070
     4
1070
    48
1040
0.0
1070
    47
1040
0.0
1070
   144
1040
1.0
1002
}
  0
LINE
  5
F43
330
2
100
AcDbEntity
  8
MITTE
 48
10.0
100
AcDbLine
 10
-161.0842036179748
 20
411.6695263369458
 30
0.0
 11
-161.0842036179748
 21
351.4190291817608
 31
0.0
  0
LINE
  5
F44
330
2
100
AcDbEntity
  8
0
 48
10.0
100
AcDbLine
 10
-128.0842036179748
 20
409.3372935731614
 30
0.0
 11
-128.0842036179748
 21
383.3372935731615
 31
0.0
  0
LINE
  5
F45
330
2
100
AcDbEntity
  8
0
 48
10.0
100
AcDbLine
 10
-128.0842036179748
 20
379.3372935731615
 30
0.0
 11
-128.0842036179748
 21
353.3372935731614
 31
0.0
  0
LINE
  5
F46
330
2
100
AcDbEntity
  8
0
 48
10.0
100
AcDbLine
 10
-194.0842036179748
 20
409.3372935731614
 30
0.0
 11
-194.0842036179748
 21
383.3372935731615
 31
0.0
  0
LINE
  5
F47
330
2
100
AcDbEntity
  8
0
 48
10.0
100
AcDbLine
 10
-194.0842036179748
 20
379.3372935731615
 30
0.0
 11
-194.0842036179748
 21
353.3372935731614
 31
0.0
  0
LINE
  5
F48
330
2
100
AcDbEntity
  8
MITTE
 48
10.0
100
AcDbLine
 10
-196.1048964861664
 20
381.3372935731615
 30
0.0
 11
-126.2516833792814
 21
381.3372935731615
 31
0.0
  0
LINE
  5
F49
330
2
100
AcDbEntity
  8
0
 48
10.0
100
AcDbLine
 10
-194.0842036179748
 20
379.3372935731615
 30
0.0
 11
-181.9887485783417
 21
379.3372935731615
 31
0.0
  0
LINE
  5
F4A
330
2
100
AcDbEntity
  8
0
 48
10.0
100
AcDbLine
 10
-140.1796586576079
 20
379.3372935731615
 30
0.0
 11
-128.0842036179748
 21
379.3372935731615
 31
0.0
  0
LINE
  5
F4B
330
2
100
AcDbEntity
  8
0
 48
10.0
100
AcDbLine
 10
-194.0842036179748
 20
383.3372935731615
 30
0.0
 11
-181.9887485783417
 21
383.3372935731615
 31
0.0
  0
LINE
  5
F4C
330
2
100
AcDbEntity
  8
0
 48
10.0
100
AcDbLine
 10
-140.1796586576079
 20
383.3372935731615
 30
0.0
 11
-128.0842036179748
 21
383.3372935731615
 31
0.0
  0
LINE
  5
F4D
330
2
100
AcDbEntity
  8
0
 48
10.0
100
AcDbLine
 10
-194.0842036179748
 20
353.3372935731614
 30
0.0
 11
-128.0842036179748
 21
353.3372935731614
 31
0.0
  0
LINE
  5
F4E
330
2
100
AcDbEntity
  8
0
 48
10.0
100
AcDbLine
 10
-194.0842036179748
 20
409.3372935731614
 30
0.0
 11
-128.0842036179748
 21
409.3372935731614
 31
0.0
  0
LINE
  5
F4F
330
2
100
AcDbEntity
  8
MITTE
 48
10.0
100
AcDbLine
 10
-187.0842036179748
 20
410.7518245558503
 30
0.0
 11
-187.0842036179748
 21
350.8821940212798
 31
0.0
  0
LINE
  5
F50
330
2
100
AcDbEntity
  8
0
 48
10.0
100
AcDbLine
 10
-184.0842036179748
 20
383.3372935731615
 30
0.0
 11
-184.0842036179748
 21
379.3372935731615
 31
0.0
  0
LINE
  5
F51
330
2
100
AcDbEntity
  8
LINIE
 48
10.0
100
AcDbLine
 10
-184.7342036179748
 20
383.3372935731615
 30
0.0
 11
-184.7342036179748
 21
379.3372935731615
 31
0.0
  0
LINE
  5
F52
330
2
100
AcDbEntity
  8
0
 48
10.0
100
AcDbLine
 10
-190.0842036179748
 20
383.3372935731615
 30
0.0
 11
-190.0842036179748
 21
379.3372935731615
 31
0.0
  0
LINE
  5
F53
330
2
100
AcDbEntity
  8
LINIE
 48
10.0
100
AcDbLine
 10
-189.4342036179748
 20
383.3372935731615
 30
0.0
 11
-189.4342036179748
 21
379.3372935731615
 31
0.0
  0
LINE
  5
F54
330
2
100
AcDbEntity
  8
MITTE
 48
10.0
100
AcDbLine
 10
-135.0842036179748
 20
410.6384706351881
 30
0.0
 11
-135.0842036179748
 21
351.2222557832668
 31
0.0
  0
LINE
  5
F55
330
2
100
AcDbEntity
  8
0
 48
10.0
100
AcDbLine
 10
-132.0842036179748
 20
383.3372935731615
 30
0.0
 11
-132.0842036179748
 21
379.3372935731615
 31
0.0
  0
LINE
  5
F56
330
2
100
AcDbEntity
  8
LINIE
 48
10.0
100
AcDbLine
 10
-132.7342036179748
 20
383.3372935731615
 30
0.0
 11
-132.7342036179748
 21
379.3372935731615
 31
0.0
  0
LINE
  5
F57
330
2
100
AcDbEntity
  8
0
 48
10.0
100
AcDbLine
 10
-138.0842036179748
 20
383.3372935731615
 30
0.0
 11
-138.0842036179748
 21
379.3372935731615
 31
0.0
  0
LINE
  5
F58
330
2
100
AcDbEntity
  8
LINIE
 48
10.0
100
AcDbLine
 10
-137.4342036179748
 20
383.3372935731615
 30
0.0
 11
-137.4342036179748
 21
379.3372935731615
 31
0.0
  0
LINE
  5
F59
330
2
100
AcDbEntity
  8
0
 48
10.0
100
AcDbLine
 10
-299.5660076976486
 20
409.3372935731614
 30
0.0
 11
-239.5660076976486
 21
409.3372935731614
 31
0.0
  0
LINE
  5
F5A
330
2
100
AcDbEntity
  8
0
 48
10.0
100
AcDbLine
 10
-299.5660076976486
 20
383.3372935731615
 30
0.0
 11
-239.5660076976486
 21
383.3372935731615
 31
0.0
  0
LINE
  5
F5B
330
2
100
AcDbEntity
  8
0
 48
10.0
100
AcDbLine
 10
-299.5660076976486
 20
379.3372935731615
 30
0.0
 11
-239.5660076976486
 21
379.3372935731615
 31
0.0
  0
LINE
  5
F5C
330
2
100
AcDbEntity
  8
0
 48
10.0
100
AcDbLine
 10
-299.5660076976486
 20
353.3372935731614
 30
0.0
 11
-239.5660076976486
 21
353.3372935731614
 31
0.0
  0
LINE
  5
F5D
330
2
100
AcDbEntity
  8
0
 48
10.0
100
AcDbLine
 10
-299.5660076976486
 20
409.3372935731614
 30
0.0
 11
-299.5660076976486
 21
383.3372935731615
 31
0.0
  0
LINE
  5
F5E
330
2
100
AcDbEntity
  8
0
 48
10.0
100
AcDbLine
 10
-299.5660076976486
 20
379.3372935731615
 30
0.0
 11
-299.5660076976486
 21
353.3372935731614
 31
0.0
  0
LINE
  5
F5F
330
2
100
AcDbEntity
  8
0
 48
10.0
100
AcDbLine
 10
-239.5660076976486
 20
409.3372935731614
 30
0.0
 11
-239.5660076976486
 21
383.3372935731615
 31
0.0
  0
LINE
  5
F60
330
2
100
AcDbEntity
  8
0
 48
10.0
100
AcDbLine
 10
-239.5660076976486
 20
379.3372935731615
 30
0.0
 11
-239.5660076976486
 21
353.3372935731614
 31
0.0
  0
LINE
  5
F61
330
2
100
AcDbEntity
  8
MITTE
 48
10.0
100
AcDbLine
 10
-302.5986303487544
 20
381.3372935731615
 30
0.0
 11
-237.1847171446703
 21
381.3372935731615
 31
0.0
  0
LINE
  5
F62
330
2
100
AcDbEntity
  8
MITTE
 48
10.0
100
AcDbLine
 10
-292.5660076976486
 20
410.6384706351881
 30
0.0
 11
-292.5660076976486
 21
351.2222557832668
 31
0.0
  0
LINE
  5
F63
330
2
100
AcDbEntity
  8
0
 48
10.0
100
AcDbLine
 10
-289.5660076976486
 20
383.3372935731615
 30
0.0
 11
-289.5660076976486
 21
379.3372935731615
 31
0.0
  0
LINE
  5
F64
330
2
100
AcDbEntity
  8
LINIE
 48
10.0
100
AcDbLine
 10
-290.2160076976486
 20
383.3372935731615
 30
0.0
 11
-290.2160076976486
 21
379.3372935731615
 31
0.0
  0
LINE
  5
F65
330
2
100
AcDbEntity
  8
0
 48
10.0
100
AcDbLine
 10
-295.5660076976486
 20
383.3372935731615
 30
0.0
 11
-295.5660076976486
 21
379.3372935731615
 31
0.0
  0
LINE
  5
F66
330
2
100
AcDbEntity
  8
LINIE
 48
10.0
100
AcDbLine
 10
-294.9160076976486
 20
383.3372935731615
 30
0.0
 11
-294.9160076976486
 21
379.3372935731615
 31
0.0
  0
LINE
  5
F67
330
2
100
AcDbEntity
  8
MITTE
 48
10.0
100
AcDbLine
 10
-246.5660076976486
 20
410.6384706351881
 30
0.0
 11
-246.5660076976486
 21
351.2222557832668
 31
0.0
  0
LINE
  5
F68
330
2
100
AcDbEntity
  8
0
 48
10.0
100
AcDbLine
 10
-243.5660076976486
 20
383.3372935731615
 30
0.0
 11
-243.5660076976486
 21
379.3372935731615
 31
0.0
  0
LINE
  5
F69
330
2
100
AcDbEntity
  8
LINIE
 48
10.0
100
AcDbLine
 10
-244.2160076976486
 20
383.3372935731615
 30
0.0
 11
-244.2160076976486
 21
379.3372935731615
 31
0.0
  0
LINE
  5
F6A
330
2
100
AcDbEntity
  8
0
 48
10.0
100
AcDbLine
 10
-249.5660076976486
 20
383.3372935731615
 30
0.0
 11
-249.5660076976486
 21
379.3372935731615
 31
0.0
  0
LINE
  5
F6B
330
2
100
AcDbEntity
  8
LINIE
 48
10.0
100
AcDbLine
 10
-248.9160076976487
 20
383.3372935731615
 30
0.0
 11
-248.9160076976487
 21
379.3372935731615
 31
0.0
  0
LINE
  5
F6C
330
2
100
AcDbEntity
  8
0
 48
10.0
100
AcDbLine
 10
-299.5660076976486
 20
257.7688977780991
 30
0.0
 11
-299.5660076976486
 21
323.7688977780991
 31
0.0
  0
LINE
  5
F6D
330
2
100
AcDbEntity
  8
0
 48
10.0
100
AcDbLine
 10
-239.5660076976486
 20
323.7688977780991
 30
0.0
 11
-239.5660076976486
 21
257.7688977780991
 31
0.0
  0
LINE
  5
F6E
330
2
100
AcDbEntity
  8
0
 48
10.0
100
AcDbLine
 10
-299.5660076976486
 20
323.7688977780991
 30
0.0
 11
-239.5660076976486
 21
323.7688977780991
 31
0.0
  0
LINE
  5
F6F
330
2
100
AcDbEntity
  8
MITTE
 48
10.0
100
AcDbLine
 10
-235.925130924851
 20
290.7688977780992
 30
0.0
 11
-303.0796180511746
 21
290.7688977780992
 31
0.0
  0
LINE
  5
F70
330
2
100
AcDbEntity
  8
MITTE
 48
3.0
100
AcDbLine
 10
-239.5660076976486
 20
316.7688977780991
 30
0.0
 11
-253.5660076976486
 21
316.7688977780991
 31
0.0
  0
LINE
  5
F71
330
2
100
AcDbEntity
  8
0
 48
10.0
100
AcDbLine
 10
-299.5660076976486
 20
257.7688977780991
 30
0.0
 11
-239.5660076976486
 21
257.7688977780991
 31
0.0
  0
LINE
  5
F72
330
2
100
AcDbEntity
  8
0
 48
10.0
100
AcDbLine
 10
-299.5660076976486
 20
444.8007229513478
 30
0.0
 11
-299.5660076976486
 21
510.8007229513479
 31
0.0
  0
LINE
  5
F73
330
2
100
AcDbEntity
  8
0
 48
10.0
100
AcDbLine
 10
-239.5660076976486
 20
510.8007229513479
 30
0.0
 11
-239.5660076976486
 21
444.8007229513478
 31
0.0
  0
LINE
  5
F74
330
2
100
AcDbEntity
  8
MITTE
 48
10.0
100
AcDbLine
 10
-269.5660076976486
 20
507.8007229513478
 30
0.0
 11
-269.5660076976486
 21
499.8007229513478
 31
0.0
  0
LINE
  5
F75
330
2
100
AcDbEntity
  8
MITTE
 48
10.0
100
AcDbLine
 10
-269.5660076976486
 20
455.8007229513479
 30
0.0
 11
-269.5660076976486
 21
447.8007229513479
 31
0.0
  0
LINE
  5
F76
330
2
100
AcDbEntity
  8
MITTE
 48
10.0
100
AcDbLine
 10
-283.5660076976486
 20
507.8007229513478
 30
0.0
 11
-283.5660076976486
 21
499.8007229513478
 31
0.0
  0
LINE
  5
F77
330
2
100
AcDbEntity
  8
MITTE
 48
10.0
100
AcDbLine
 10
-283.5660076976486
 20
455.8007229513479
 30
0.0
 11
-283.5660076976486
 21
447.8007229513479
 31
0.0
  0
LINE
  5
F78
330
2
100
AcDbEntity
  8
MITTE
 48
10.0
100
AcDbLine
 10
-255.5660076976486
 20
507.8007229513478
 30
0.0
 11
-255.5660076976486
 21
499.8007229513478
 31
0.0
  0
LINE
  5
F79
330
2
100
AcDbEntity
  8
MITTE
 48
10.0
100
AcDbLine
 10
-255.5660076976486
 20
455.8007229513479
 30
0.0
 11
-255.5660076976486
 21
447.8007229513479
 31
0.0
  0
LINE
  5
F7A
330
2
100
AcDbEntity
  8
0
 48
10.0
100
AcDbLine
 10
-299.5660076976486
 20
510.8007229513479
 30
0.0
 11
-239.5660076976486
 21
510.8007229513479
 31
0.0
  0
LINE
  5
F7B
330
2
100
AcDbEntity
  8
MITTE
 48
10.0
100
AcDbLine
 10
-235.925130924851
 20
477.8007229513479
 30
0.0
 11
-258.1037335034094
 21
477.8007229513479
 31
0.0
  0
LINE
  5
F7C
330
2
100
AcDbEntity
  8
MITTE
 48
10.0
100
AcDbLine
 10
-268.5233853001406
 20
477.8007229513479
 30
0.0
 11
-273.1838821031944
 21
477.8007229513479
 31
0.0
  0
LINE
  5
F7D
330
2
100
AcDbEntity
  8
MITTE
 48
10.0
100
AcDbLine
 10
-282.5676933060105
 20
477.8007229513479
 30
0.0
 11
-303.0796180511746
 21
477.8007229513479
 31
0.0
  0
LINE
  5
F7E
330
2
100
AcDbEntity
  8
MITTE
 48
10.0
100
AcDbLine
 10
-251.5660076976486
 20
451.8007229513479
 30
0.0
 11
-259.5660076976486
 21
451.8007229513479
 31
0.0
  0
LINE
  5
F7F
330
2
100
AcDbEntity
  8
MITTE
 48
10.0
100
AcDbLine
 10
-265.5660076976486
 20
451.8007229513479
 30
0.0
 11
-273.5660076976486
 21
451.8007229513479
 31
0.0
  0
LINE
  5
F80
330
2
100
AcDbEntity
  8
MITTE
 48
10.0
100
AcDbLine
 10
-279.5660076976486
 20
451.8007229513479
 30
0.0
 11
-287.5660076976486
 21
451.8007229513479
 31
0.0
  0
LINE
  5
F81
330
2
100
AcDbEntity
  8
MITTE
 48
10.0
100
AcDbLine
 10
-251.5660076976486
 20
503.8007229513478
 30
0.0
 11
-259.5660076976486
 21
503.8007229513478
 31
0.0
  0
LINE
  5
F82
330
2
100
AcDbEntity
  8
MITTE
 48
10.0
100
AcDbLine
 10
-265.5660076976486
 20
503.8007229513478
 30
0.0
 11
-273.5660076976486
 21
503.8007229513478
 31
0.0
  0
LINE
  5
F83
330
2
100
AcDbEntity
  8
MITTE
 48
10.0
100
AcDbLine
 10
-279.5660076976486
 20
503.8007229513478
 30
0.0
 11
-287.5660076976486
 21
503.8007229513478
 31
0.0
  0
LINE
  5
F84
330
2
100
AcDbEntity
  8
0
 48
10.0
100
AcDbLine
 10
-299.5660076976486
 20
444.8007229513478
 30
0.0
 11
-239.5660076976486
 21
444.8007229513478
 31
0.0
  0
LINE
  5
F85
330
2
100
AcDbEntity
  8
MITTE
 48
3.0
100
AcDbLine
 10
-246.5660076976486
 20
309.7688977780991
 30
0.0
 11
-246.5660076976486
 21
323.7688977780991
 31
0.0
  0
CIRCLE
  5
F86
330
2
100
AcDbEntity
  8
0
 48
10.0
100
AcDbCircle
 10
-246.5660076976486
 20
316.7688977780991
 30
0.0
 40
5.0
  0
CIRCLE
  5
F87
330
2
100
AcDbEntity
  8
0
 48
10.0
100
AcDbCircle
 10
-246.5660076976486
 20
316.7688977780991
 30
0.0
 40
5.5
  0
LWPOLYLINE
  5
F88
330
2
100
AcDbEntity
  8
0
 48
10.0
100
AcDbPolyline
 90
        6
 70
     1
 43
0.0
 10
-247.7207082360278
 20
318.7688977780991
 10
-248.8754087744071
 20
316.7688977780991
 10
-247.7207082360278
 20
314.7688977780991
 10
-245.4113071592693
 20
314.7688977780991
 10
-244.2566066208901
 20
316.7688977780991
 10
-245.4113071592693
 20
318.7688977780991
  0
CIRCLE
  5
F89
330
2
100
AcDbEntity
  8
0
 48
10.0
100
AcDbCircle
 10
-292.5660076976486
 20
316.7688977780991
 30
0.0
 40
5.0
  0
CIRCLE
  5
F8A
330
2
100
AcDbEntity
  8
0
 48
10.0
100
AcDbCircle
 10
-292.5660076976486
 20
316.7688977780991
 30
0.0
 40
5.5
  0
LWPOLYLINE
  5
F8B
330
2
100
AcDbEntity
  8
0
 48
10.0
100
AcDbPolyline
 90
        6
 70
     1
 43
0.0
 10
-293.7207082360279
 20
318.7688977780991
 10
-294.8754087744071
 20
316.7688977780991
 10
-293.7207082360279
 20
314.7688977780991
 10
-291.4113071592694
 20
314.7688977780991
 10
-290.2566066208901
 20
316.7688977780991
 10
-291.4113071592694
 20
318.7688977780991
  0
CIRCLE
  5
F8C
330
2
100
AcDbEntity
  8
0
 48
10.0
100
AcDbCircle
 10
-292.5660076976486
 20
264.7688977780991
 30
0.0
 40
5.0
  0
CIRCLE
  5
F8D
330
2
100
AcDbEntity
  8
0
 48
10.0
100
AcDbCircle
 10
-292.5660076976486
 20
264.7688977780991
 30
0.0
 40
5.5
  0
LWPOLYLINE
  5
F8E
330
2
100
AcDbEntity
  8
0
 48
10.0
100
AcDbPolyline
 90
        6
 70
     1
 43
0.0
 10
-293.7207082360279
 20
266.7688977780991
 10
-294.8754087744071
 20
264.7688977780991
 10
-293.7207082360279
 20
262.7688977780991
 10
-291.4113071592694
 20
262.7688977780991
 10
-290.2566066208901
 20
264.7688977780991
 10
-291.4113071592694
 20
266.7688977780991
  0
CIRCLE
  5
F8F
330
2
100
AcDbEntity
  8
0
 48
10.0
100
AcDbCircle
 10
-246.5660076976486
 20
264.7688977780991
 30
0.0
 40
5.0
  0
CIRCLE
  5
F90
330
2
100
AcDbEntity
  8
0
 48
10.0
100
AcDbCircle
 10
-246.5660076976486
 20
264.7688977780991
 30
0.0
 40
5.5
  0
LWPOLYLINE
  5
F91
330
2
100
AcDbEntity
  8
0
 48
10.0
100
AcDbPolyline
 90
        6
 70
     1
 43
0.0
 10
-247.7207082360278
 20
266.7688977780991
 10
-248.8754087744071
 20
264.7688977780991
 10
-247.7207082360278
 20
262.7688977780991
 10
-245.4113071592693
 20
262.7688977780991
 10
-244.2566066208901
 20
264.7688977780991
 10
-245.4113071592693
 20
266.7688977780991
  0
CIRCLE
  5
F92
330
2
100
AcDbEntity
  8
0
 48
10.0
100
AcDbCircle
 10
-269.5660076976486
 20
503.8007229513478
 30
0.0
 40
2.5
  0
CIRCLE
  5
F93
330
2
100
AcDbEntity
  8
0
 48
10.0
100
AcDbCircle
 10
-269.5660076976486
 20
451.8007229513479
 30
0.0
 40
2.5
  0
ARC
  5
F94
330
2
100
AcDbEntity
  8
LINIE
 48
10.0
100
AcDbCircle
 10
-255.5660076976486
 20
503.8007229513478
 30
0.0
 40
2.5
100
AcDbArc
 50
171.6634047776225
 51
112.2472119386733
  0
CIRCLE
  5
F95
330
2
100
AcDbEntity
  8
0
 48
10.0
100
AcDbCircle
 10
-255.5660076976486
 20
503.8007229513478
 30
0.0
 40
2.0
  0
ARC
  5
F96
330
2
100
AcDbEntity
  8
LINIE
 48
10.0
100
AcDbCircle
 10
-283.5660076976486
 20
503.8007229513478
 30
0.0
 40
2.5
100
AcDbArc
 50
167.7841927821029
 51
108.9529870910443
  0
CIRCLE
  5
F97
330
2
100
AcDbEntity
  8
0
 48
10.0
100
AcDbCircle
 10
-283.5660076976486
 20
503.8007229513478
 30
0.0
 40
2.0
  0
ARC
  5
F98
330
2
100
AcDbEntity
  8
LINIE
 48
10.0
100
AcDbCircle
 10
-283.5660076976486
 20
451.8007229513479
 30
0.0
 40
2.5
100
AcDbArc
 50
168.1599359318109
 51
108.6507708249595
  0
CIRCLE
  5
F99
330
2
100
AcDbEntity
  8
0
 48
10.0
100
AcDbCircle
 10
-283.5660076976486
 20
451.8007229513479
 30
0.0
 40
2.0
  0
ARC
  5
F9A
330
2
100
AcDbEntity
  8
LINIE
 48
10.0
100
AcDbCircle
 10
-255.5660076976486
 20
451.8007229513479
 30
0.0
 40
2.5
100
AcDbArc
 50
167.3540768310668
 51
112.9783023437657
  0
CIRCLE
  5
F9B
330
2
100
AcDbEntity
  8
0
 48
10.0
100
AcDbCircle
 10
-255.5660076976486
 20
451.8007229513479
 30
0.0
 40
2.0
  0
DIMENSION
  5
F9C
330
2
100
AcDbEntity
  8
BEM
 48
10.0
100
AcDbDimension
  2
*D32
 10
-89.18008007572945
 20
353.3372935731614
 30
0.0
 11
-92.43008007572951
 21
381.3372935731614
 31
0.0
 70
    32
 71
     5
 42
56.0
  3
ISO-25
100
AcDbAlignedDimension
 13
-128.0842036179748
 23
409.3372935731614
 33
0.0
 14
-128.0842036179748
 24
353.3372935731614
 34
0.0
 50
90.0
100
AcDbRotatedDimension
1001
ACAD
1000
DSTYLE
1002
{
1070
   144
1040
1.0
1002
}
  0
DIMENSION
  5
F9D
330
2
100
AcDbEntity
  8
BEM
 48
10.0
100
AcDbDimension
  2
*D33
 10
-214.3366378038553
 20
353.3372935731614
 30
0.0
 11
-217.5866378038553
 21
367.3372935731614
 31
0.0
 70
    32
  1
<>{}{\H0.71x;\C3;%%p0.05}
 71
     5
 42
28.0
  3
ISO-25
100
AcDbAlignedDimension
 13
-196.1048964861664
 23
381.3372935731615
 33
0.0
 14
-194.0842036179748
 24
353.3372935731614
 34
0.0
 50
90.0
100
AcDbRotatedDimension
1001
ACAD_DSTYLE_DIMINSPECT
1070
   396
1000
100%
1070
   395
1000

1070
   394
1070
    33
1070
   393
1070
     0
1001
ACAD
1000
DSTYLE
1002
{
1070
   286
1070
     0
1070
   284
1070
     8
1070
   274
1070
     2
1070
   272
1070
     4
1070
    47
1040
0.05
1070
    48
1040
0.05
1070
   144
1040
1.0
1002
}
1001
GENIUS_GENDTOL_13
1000
TolSmPm
1000

1000
{\H0.71x;$2%%p$P}
1040
28.0
  0
DIMENSION
  5
F9E
330
2
100
AcDbEntity
  8
BEM
 48
10.0
100
AcDbDimension
  2
*D34
 10
-111.7540184413959
 20
379.3372935731614
 30
0.0
 11
-115.004018441396
 21
369.5872935731614
 31
0.0
 70
    32
 71
     5
 42
4.0
  3
ISO-25
100
AcDbAlignedDimension
 13
-128.0842036179748
 23
383.3372935731615
 33
0.0
 14
-128.0842036179748
 24
379.3372935731615
 34
0.0
 50
90.0
100
AcDbRotatedDimension
1001
ACAD
1000
DSTYLE
1002
{
1070
   144
1040
1.0
1002
}
  0
DIMENSION
  5
F9F
330
2
100
AcDbEntity
  8
BEM
 48
10.0
100
AcDbDimension
  2
*D35
 10
-299.5660076976486
 20
340.6692088078544
 30
0.0
 11
-269.5660076976486
 21
340.6692088078544
 31
0.0
 70
   160
 71
     5
 42
60.0
  3
ISO-25
100
AcDbAlignedDimension
 13
-239.5660076976486
 23
353.3372935731614
 33
0.0
 14
-299.5660076976486
 24
353.3372935731614
 34
0.0
100
AcDbRotatedDimension
1001
ACAD
1000
DSTYLE
1002
{
1070
   144
1040
1.0
1002
}
  0
DIMENSION
  5
FA0
330
2
100
AcDbEntity
  8
BEM
 48
10.0
100
AcDbDimension
  2
*D36
 10
-239.5660076976486
 20
522.6884371456852
 30
0.0
 11
-248.4994028430711
 21
522.6884371456852
 31
0.0
 70
   160
  1
<>{}{\H0.71x;\C3;%%p0.1}
 71
     5
 42
16.0
  3
ISO-25
100
AcDbAlignedDimension
 13
-255.5660076976486
 23
507.8007229513478
 33
0.0
 14
-239.5660076976486
 24
510.8007229513479
 34
0.0
100
AcDbRotatedDimension
1001
ACAD_DSTYLE_DIMINSPECT
1070
   396
1000
100%
1070
   395
1000

1070
   394
1070
    33
1070
   393
1070
     0
1001
ACAD
1000
DSTYLE
1002
{
1070
   286
1070
     0
1070
   284
1070
     8
1070
   274
1070
     2
1070
   272
1070
     4
1070
    47
1040
0.1
1070
    48
1040
0.1
1070
   144
1040
1.0
1002
}
1001
GENIUS_GENDTOL_13
1000
TolSmPm
1000

1000
{\H0.71x;$2%%p$P}
1040
16.0
  0
DIMENSION
  5
FA1
330
2
100
AcDbEntity
  8
BEM
 48
10.0
100
AcDbDimension
  2
*D37
 10
-283.5660076976486
 20
522.6884371456852
 30
0.0
 11
-269.5660076976486
 21
525.9384371456851
 31
0.0
 70
    32
  1
<>{}{\H0.71x;\C3;%%p0.05}
 71
     5
 42
28.0
  3
ISO-25
100
AcDbAlignedDimension
 13
-255.5660076976486
 23
507.8007229513478
 33
0.0
 14
-283.5660076976486
 24
507.8007229513478
 34
0.0
100
AcDbRotatedDimension
1001
ACAD_DSTYLE_DIMINSPECT
1070
   396
1000
100%
1070
   395
1000

1070
   394
1070
    33
1070
   393
1070
     0
1001
ACAD
1000
DSTYLE
1002
{
1070
   286
1070
     0
1070
   284
1070
     8
1070
   274
1070
     2
1070
   272
1070
     4
1070
    47
1040
0.05
1070
    48
1040
0.05
1070
   144
1040
1.0
1002
}
1001
GENIUS_GENDTOL_13
1000
TolSmPm
1000

1000
{\H0.71x;$2%%p$P}
1040
28.0
  0
DIMENSION
  5
FA2
330
2
100
AcDbEntity
  8
BEM
 48
10.0
100
AcDbDimension
  2
*D38
 10
-255.5660076976486
 20
423.8807593103859
 30
0.0
 11
-242.2301743643153
 21
423.8807593103859
 31
0.0
 70
   160
  1
<>{}{\H0.71x;\C3;%%p0.05}
 71
     5
 42
14.0
  3
ISO-25
100
AcDbAlignedDimension
 13
-269.5660076976486
 23
447.8007229513479
 33
0.0
 14
-255.5660076976486
 24
447.8007229513479
 34
0.0
100
AcDbRotatedDimension
1001
ACAD_DSTYLE_DIMINSPECT
1070
   396
1000
100%
1070
   395
1000

1070
   394
1070
    33
1070
   393
1070
     0
1001
ACAD
1000
DSTYLE
1002
{
1070
   286
1070
     0
1070
   284
1070
     8
1070
   274
1070
     2
1070
   272
1070
     4
1070
    47
1040
0.05
1070
    48
1040
0.05
1070
   144
1040
1.0
1002
}
1001
GENIUS_GENDTOL_13
1000
TolSmPm
1000

1000
{\H0.71x;$2%%p$P}
1040
14.0
  0
DIMENSION
  5
FA3
330
2
100
AcDbEntity
  8
BEM
 48
10.0
100
AcDbDimension
  2
*D39
 10
-267.0660076976486
 20
431.3182258957472
 30
0.0
 11
-287.1160076976486
 21
431.3182258957472
 31
0.0
 70
   160
  1
%%c<>{}{\H0.71x;\C3; H7}
 71
     5
 42
5.0
  3
ISO-25
100
AcDbAlignedDimension
 13
-272.0660076976486
 23
451.8007229513479
 33
0.0
 14
-267.0660076976486
 24
451.8007229513479
 34
0.0
100
AcDbRotatedDimension
1001
ACAD_DSTYLE_DIMINSPECT
1070
   396
1000
100%
1070
   395
1000

1070
   394
1070
    33
1070
   393
1070
     0
1001
GENIUS_GENDTOL_13
1000
FitSmTxt
1000
H7
1000
{\H0.71x;$2 $T}
1040
5.0
1001
ACAD
1000
DSTYLE
1002
{
1070
   286
1070
     0
1070
   284
1070
     8
1070
   274
1070
     2
1070
   272
1070
     4
1070
    48
1040
0.0
1070
    47
1040
0.0
1070
   144
1040
1.0
1002
}
  0
DIMENSION
  5
FA4
330
2
100
AcDbEntity
  8
BEM
 48
10.0
100
AcDbDimension
  2
*D40
 10
-261.1298957896695
 20
451.8007229513479
 30
0.0
 11
-261.1298957896696
 21
477.8007229513479
 31
0.0
 70
   160
  1
<>{}{\H0.71x;\C3;%%p0.05}
 71
     5
 42
52.0
  3
ISO-25
100
AcDbAlignedDimension
 13
-251.5660076976486
 23
503.8007229513478
 33
0.0
 14
-251.5660076976486
 24
451.8007229513479
 34
0.0
 50
90.0
100
AcDbRotatedDimension
1001
ACAD_DSTYLE_DIMINSPECT
1070
   396
1000
100%
1070
   395
1000

1070
   394
1070
    33
1070
   393
1070
     0
1001
ACAD
1000
DSTYLE
1002
{
1070
   286
1070
     0
1070
   284
1070
     8
1070
   274
1070
     2
1070
   272
1070
     4
1070
    47
1040
0.05
1070
    48
1040
0.05
1070
   144
1040
1.0
1002
}
1001
GENIUS_GENDTOL_13
1000
TolSmPm
1000

1000
{\H0.71x;$2%%p$P}
1040
52.0
  0
DIMENSION
  5
FA5
330
2
100
AcDbEntity
  8
BEM
 48
10.0
100
AcDbDimension
  2
*D41
 10
-274.5133358633485
 20
451.8007229513479
 30
0.0
 11
-277.7633358633486
 21
477.8007229513478
 31
0.0
 70
    32
  1
<>{}{\H0.71x;\C3;%%p0.01}
 71
     5
 42
52.0
  3
ISO-25
100
AcDbAlignedDimension
 13
-273.5660076976486
 23
503.8007229513478
 33
0.0
 14
-273.5660076976486
 24
451.8007229513479
 34
0.0
 50
90.0
100
AcDbRotatedDimension
1001
ACAD_DSTYLE_DIMINSPECT
1070
   396
1000
100%
1070
   395
1000

1070
   394
1070
    33
1070
   393
1070
     0
1001
ACAD
1000
DSTYLE
1002
{
1070
   286
1070
     0
1070
   284
1070
     8
1070
   274
1070
     2
1070
   272
1070
     4
1070
    47
1040
0.01
1070
    48
1040
0.01
1070
   144
1040
1.0
1002
}
1001
GENIUS_GENDTOL_13
1000
TolSmPm
1000

1000
{\H0.71x;$2%%p$P}
1040
52.0
  0
TEXT
  5
FA6
330
2
100
AcDbEntity
  8
0
100
AcDbText
 10
-279.4762839014576
 20
392.9774520699161
 30
0.0
 40
5.0
  1
%%C42
  7
STYLE1
100
AcDbText
  0
TEXT
  5
FA7
330
2
100
AcDbEntity
  8
LINIE
100
AcDbText
 10
-317.7498013607977
 20
519.0480778882486
 30
0.0
 40
2.5
  1
max. 24
100
AcDbText
  0
TEXT
  5
FA8
330
2
100
AcDbEntity
  8
LINIE
100
AcDbText
 10
-294.9429527032872
 20
427.572963286579
 30
0.0
 40
2.5
  1
max. 24
100
AcDbText
  0
DIMENSION
  5
FA9
330
2
100
AcDbEntity
  8
BEM
 48
10.0
100
AcDbDimension
  2
*D42
 10
-135.0842036179748
 20
340.0808739321196
 30
0.0
 11
-161.0842036179748
 21
340.0808739321196
 31
0.0
 70
   160
 71
     5
 42
52.0
  3
ISO-25
100
AcDbAlignedDimension
 13
-187.0842036179748
 23
350.8821940212798
 33
0.0
 14
-135.0842036179748
 24
351.2222557832668
 34
0.0
100
AcDbRotatedDimension
1001
ACAD
1000
DSTYLE
1002
{
1070
   144
1040
1.0
1002
}
  0
DIMENSION
  5
FAA
330
2
100
AcDbEntity
  8
BEM
 48
10.0
100
AcDbDimension
  2
*D43
 10
-246.5660076976486
 20
278.8171142526957
 30
0.0
 11
-268.4657642330654
 21
278.8171142526957
 31
0.0
 70
   160
 71
     5
 42
46.0
  3
ISO-25
100
AcDbAlignedDimension
 13
-292.5660076976486
 23
271.7688977780991
 33
0.0
 14
-246.5660076976486
 24
271.7688977780991
 34
0.0
100
AcDbRotatedDimension
1001
ACAD
1000
DSTYLE
1002
{
1070
   144
1040
1.0
1002
}
  0
DIMENSION
  5
FAB
330
2
100
AcDbEntity
  8
BEM
 48
10.0
100
AcDbDimension
  2
*D44
 10
-128.0842036179748
 20
326.3777293674293
 30
0.0
 11
-161.0842036179748
 21
329.6277293674293
 31
0.0
 70
    32
  1
<>
 71
     5
 42
66.0
  3
ISO-25
100
AcDbAlignedDimension
 13
-194.0842036179748
 23
353.3372935731614
 33
0.0
 14
-128.0842036179748
 24
353.3372935731614
 34
0.0
100
AcDbRotatedDimension
1001
ACAD
1000
DSTYLE
1002
{
1070
   144
1040
1.0
1002
}
  0
LINE
  5
FAC
330
2
100
AcDbEntity
  8
TEXT
100
AcDbLine
 10
-212.5110376194172
 20
323.7527293674293
 30
0.0
 11
-212.5110376194172
 21
329.0027293674293
 31
0.0
  0
LINE
  5
FAD
330
2
100
AcDbEntity
  8
TEXT
100
AcDbLine
 10
-207.2610376194173
 20
329.0027293674293
 30
0.0
 11
-207.2610376194173
 21
323.7527293674293
 31
0.0
  0
LINE
  5
FAE
330
2
100
AcDbEntity
  8
TEXT
100
AcDbLine
 10
-207.2610376194173
 20
326.3777293674293
 30
0.0
 11
-194.0842036179748
 21
326.3777293674293
 31
0.0
  0
LINE
  5
FAF
330
2
100
AcDbEntity
  8
TEXT
100
AcDbLine
 10
-196.4842036179748
 20
326.3777293674293
 30
0.0
 11
-194.0842036179748
 21
327.8777293674293
 31
0.0
  0
LINE
  5
FB0
330
2
100
AcDbEntity
  8
TEXT
100
AcDbLine
 10
-194.0842036179748
 20
324.8777293674293
 30
0.0
 11
-196.4842036179748
 21
326.3777293674293
 31
0.0
  0
HATCH
  5
FB1
330
2
100
AcDbEntity
  8
TEXT
100
AcDbHatch
 10
0.0
 20
0.0
 30
0.0
210
0.0
220
0.0
230
1.0
  2
SOLID
 70
     1
 71
     0
 91
        2
 92
        7
 72
     0
 73
     1
 93
        3
 10
-196.4842036179748
 20
326.3777293674293
 10
-194.0842036179748
 20
326.3777293674293
 10
-194.0842036179748
 20
327.8777293674293
 97
        0
 92
        7
 72
     0
 73
     1
 93
        3
 10
-196.4842036179748
 20
326.3777293674293
 10
-194.0842036179748
 20
324.8777293674292
 10
-194.0842036179748
 20
326.3777293674293
 97
        0
 75
     0
 76
     1
 47
0.0105355460898181
 98
        2
 10
-195.2622053504963
 20
326.7880126889549
 10
-194.9777453000117
 20
325.9106273107116
450
        0
451
        0
460
0.0
461
0.0
452
        0
462
0.0
453
        0
470

  0
LINE
  5
FB2
330
2
100
AcDbEntity
  8
TEXT
100
AcDbLine
 10
-194.0842036179748
 20
327.8777293674293
 30
0.0
 11
-194.0842036179748
 21
324.8777293674293
 31
0.0
  0
LINE
  5
FB3
330
2
100
AcDbEntity
  8
TEXT
100
AcDbLine
 10
-212.5110376194172
 20
323.7527293674293
 30
0.0
 11
-207.2610376194173
 21
323.7527293674293
 31
0.0
  0
TEXT
  5
FB4
330
2
100
AcDbEntity
  8
TEXT
100
AcDbText
 10
-210.8892375622603
 20
325.0249401016656
 30
0.0
 40
2.625
  1
C
 72
     1
 11
-209.5767375622603
 21
325.0249401016656
 31
0.0
100
AcDbText
  0
LINE
  5
FB5
330
2
100
AcDbEntity
  8
TEXT
100
AcDbLine
 10
-212.5110376194172
 20
329.0027293674293
 30
0.0
 11
-207.2610376194173
 21
329.0027293674293
 31
0.0
  0
LINE
  5
FB6
330
2
100
AcDbEntity
  8
TEXT
100
AcDbLine
 10
-135.60668224883
 20
462.9676071162371
 30
0.0
 11
-130.6515364252856
 21
461.2329515690432
 31
0.0
  0
LINE
  5
FB7
330
2
100
AcDbEntity
  8
TEXT
100
AcDbLine
 10
-137.3413377960238
 20
458.0124612926925
 30
0.0
 11
-132.3861919724793
 21
456.2778057454988
 31
0.0
  0
LINE
  5
FB8
330
2
100
AcDbEntity
  8
TEXT
100
AcDbLine
 10
-137.5901586140606
 20
441.4123682748655
 30
0.0
 11
-142.545304437605
 21
443.1470238220593
 31
0.0
  0
LINE
  5
FB9
330
2
100
AcDbEntity
  8
TEXT
100
AcDbLine
 10
-140.8106488904113
 20
448.1021696456037
 30
0.0
 11
-135.8555030668669
 21
446.36751409841
 31
0.0
  0
LINE
  5
FBA
330
2
100
AcDbEntity
  8
TEXT
100
AcDbLine
 10
-130.6515364252856
 20
461.2329515690432
 30
0.0
 11
-137.5901586140606
 21
441.4123682748655
 31
0.0
  0
LINE
  5
FBB
330
2
100
AcDbEntity
  8
TEXT
100
AcDbLine
 10
-139.6870967166818
 20
443.1363642207263
 30
0.0
 11
-138.5683730245066
 21
446.332064392988
 31
0.0
  0
LINE
  5
FBC
330
2
100
AcDbEntity
  8
TEXT
100
AcDbLine
 10
-138.4009328077109
 20
443.5829482113047
 30
0.0
 11
-137.8415709616234
 21
445.1807982974355
 31
0.0
  0
LINE
  5
FBD
330
2
100
AcDbEntity
  8
TEXT
100
AcDbLine
 10
-140.413898779565
 20
444.2876303162789
 30
0.0
 11
-139.8545369334775
 21
445.8854804024097
 31
0.0
  0
TEXT
  5
FBE
330
2
100
AcDbEntity
  8
TEXT
100
AcDbText
 10
-136.8094957149863
 20
447.6441539552169
 30
0.0
 40
2.625
  1
0,05
 50
70.70630206171895
 72
     1
 11
-135.3639494256583
 21
451.773442141504
 31
0.0
100
AcDbText
  0
TEXT
  5
FBF
330
2
100
AcDbEntity
  8
TEXT
100
AcDbText
 10
-133.1338716313194
 20
458.1437908177435
 30
0.0
 40
2.625
  1
C
 50
70.70630206171895
 72
     1
 11
-132.700207744521
 21
459.3825772736296
 31
0.0
100
AcDbText
  0
LINE
  5
FC0
330
2
100
AcDbEntity
  8
TEXT
100
AcDbLine
 10
-141.3729124481815
 20
438.5513698070892
 30
0.0
 11
-140.0677315258328
 21
442.2796960484624
 31
0.0
  0
LINE
  5
FC1
330
2
100
AcDbEntity
  8
TEXT
100
AcDbLine
 10
-142.545304437605
 20
443.1470238220593
 30
0.0
 11
-135.60668224883
 21
462.9676071162371
 31
0.0
  0
DIMENSION
  5
FC2
330
2
100
AcDbEntity
  8
BEM
 48
10.0
100
AcDbDimension
  2
*D45
 10
-167.9245179099937
 20
361.482568684954
 30
0.0
 11
-145.1739013779887
 21
427.5186034336934
 31
0.0
 70
   163
  1
<>{}{\H0.71x;\C3;+0.05}
 71
     5
 42
42.00000000000011
  3
ISO-25
100
AcDbDiametricDimension
 15
-154.2438893259558
 25
401.1920184613688
 35
0.0
 40
0.0
1001
ACAD
1000
DSTYLE
1002
{
1070
   286
1070
     0
1070
   284
1070
     8
1070
   274
1070
     2
1070
   272
1070
     4
1070
    48
1040
0.0
1070
    47
1040
0.05
1070
   144
1040
1.0
1002
}
1001
GENIUS_GENDTOL_13
1000
TolSmPm
1000

1000
{\H0.71x;$2$+$P}
1040
42.0
  0
ARC
  5
FC3
330
2
100
AcDbEntity
  8
0
 48
10.0
100
AcDbCircle
 10
-161.0842036179748
 20
381.3372935731615
 30
0.0
 40
21.0
100
AcDbArc
 50
5.465023799907915
 51
174.5349762000921
  0
ARC
  5
FC4
330
2
100
AcDbEntity
  8
0
 48
10.0
100
AcDbCircle
 10
-161.0842036179748
 20
381.3372935731615
 30
0.0
 40
21.0
100
AcDbArc
 50
185.4650237999079
 51
354.534976200092
  0
LINE
  5
FC5
330
2
100
AcDbEntity
  8
LINIE
  6
HIDDEN
 48
10.0
100
AcDbLine
 10
-239.5660076976486
 20
402.3372935731614
 30
0.0
 11
-299.5660076976486
 21
402.3372935731614
 31
0.0
  0
LINE
  5
FC6
330
2
100
AcDbEntity
  8
LINIE
  6
HIDDEN
 48
10.0
100
AcDbLine
 10
-239.5660076976486
 20
360.3372935731615
 30
0.0
 11
-299.5660076976486
 21
360.3372935731615
 31
0.0
  0
LINE
  5
FC7
330
2
100
AcDbEntity
  8
LINIE
  6
HIDDEN
 48
10.0
100
AcDbLine
 10
-239.5660076976486
 20
498.8007229513478
 30
0.0
 11
-299.5660076976486
 21
498.8007229513478
 31
0.0
  0
LINE
  5
FC8
330
2
100
AcDbEntity
  8
LINIE
  6
HIDDEN
 48
10.0
100
AcDbLine
 10
-239.5660076976486
 20
456.8007229513479
 30
0.0
 11
-299.5660076976486
 21
456.8007229513479
 31
0.0
  0
LINE
  5
FC9
330
2
100
AcDbEntity
  8
LINIE
  6
HIDDEN
 48
10.0
100
AcDbLine
 10
-239.5660076976486
 20
311.7688977780991
 30
0.0
 11
-299.5660076976486
 21
311.7688977780991
 31
0.0
  0
LINE
  5
FCA
330
2
100
AcDbEntity
  8
LINIE
  6
HIDDEN
 48
10.0
100
AcDbLine
 10
-239.5660076976486
 20
269.7688977780991
 30
0.0
 11
-299.5660076976486
 21
269.7688977780991
 31
0.0
  0
ARC
  5
FCB
330
2
100
AcDbEntity
  8
LINIE
 48
10.0
100
AcDbCircle
 10
-292.5660076976486
 20
451.8007229513479
 30
0.0
 40
3.0
100
AcDbArc
 50
342.2943509015599
 51
295.5092457574979
  0
CIRCLE
  5
FCC
330
2
100
AcDbEntity
  8
0
 48
10.0
100
AcDbCircle
 10
-292.5660076976486
 20
451.8007229513479
 30
0.0
 40
2.35
  0
ARC
  5
FCD
330
2
100
AcDbEntity
  8
LINIE
 48
10.0
100
AcDbCircle
 10
-246.5660076976486
 20
451.8007229513479
 30
0.0
 40
3.0
100
AcDbArc
 50
346.3099609633498
 51
285.9873432776703
  0
CIRCLE
  5
FCE
330
2
100
AcDbEntity
  8
0
 48
10.0
100
AcDbCircle
 10
-246.5660076976486
 20
451.8007229513479
 30
0.0
 40
2.35
  0
ARC
  5
FCF
330
2
100
AcDbEntity
  8
LINIE
 48
10.0
100
AcDbCircle
 10
-292.5660076976486
 20
503.8007229513478
 30
0.0
 40
3.0
100
AcDbArc
 50
64.49075424250209
 51
17.70564909844007
  0
CIRCLE
  5
FD0
330
2
100
AcDbEntity
  8
0
 48
10.0
100
AcDbCircle
 10
-292.5660076976486
 20
503.8007229513478
 30
0.0
 40
2.35
  0
ARC
  5
FD1
330
2
100
AcDbEntity
  8
LINIE
 48
10.0
100
AcDbCircle
 10
-246.5660076976486
 20
503.8007229513478
 30
0.0
 40
3.0
100
AcDbArc
 50
74.01265672232965
 51
13.69003903665027
  0
CIRCLE
  5
FD2
330
2
100
AcDbEntity
  8
0
 48
10.0
100
AcDbCircle
 10
-246.5660076976486
 20
503.8007229513478
 30
0.0
 40
2.35
  0
LEADER
  5
FD3
330
2
100
AcDbEntity
  8
BEM
 48
10.0
100
AcDbLeader
  3
ISO-25
 73
     0
 75
     1
 40
3.5
 41
16.0
 76
     3
 10
-284.9559255344381
 20
505.2388218377164
 30
0.0
 10
-294.3124973593023
 20
522.6884371456852
 30
0.0
 10
-297.8124973593022
 20
522.6884371456852
 30
0.0
213
0.0
223
1.75
233
0.0
1001
ACAD
1000
DSTYLE
1002
{
1070
   147
1040
3.0
1070
   144
1040
1.0
1002
}
  0
MTEXT
  5
FD4
102
{ACAD_REACTORS
330
FD3
102
}
330
2
100
AcDbEntity
  8
BEM
 48
10.0
100
AcDbMText
 10
-300.8124973593023
 20
523.9384371456851
 30
0.0
 40
3.5
 41
0.0
 71
     9
 72
     1
  1
4x M5
 73
     1
 44
1.0
  0
MTEXT
  5
FD5
330
2
100
AcDbEntity
  8
BEM
 48
10.0
100
AcDbMText
 10
-219.3158261231107
 20
289.1639359823363
 30
0.0
 40
5.0
 41
76.62068133002435
 71
     1
 72
     5
  1
{\fArial|b0|i0|c0|p34;4x Klemmschraube\P     clamping screw}
 73
     1
 44
1.0
1001
ACAD
1000
ACAD_MTEXT_DEFINED_HEIGHT_BEGIN
1070
    46
1040
22.62613756003259
1000
ACAD_MTEXT_DEFINED_HEIGHT_END
  0
INSERT
  5
FD6
330
2
100
AcDbEntity
  8
BEM
 48
10.0
100
AcDbBlockReference
  2
*S49
 10
0.0
 20
0.0
 30
0.0
  0
LINE
  5
FD8
330
2
100
AcDbEntity
  8
MITTE
 48
3.0
100
AcDbLine
 10
-285.5660076976486
 20
316.7688977780991
 30
0.0
 11
-299.5660076976486
 21
316.7688977780991
 31
0.0
  0
LINE
  5
FD9
330
2
100
AcDbEntity
  8
MITTE
 48
3.0
100
AcDbLine
 10
-292.5660076976486
 20
309.7688977780991
 30
0.0
 11
-292.5660076976486
 21
323.7688977780991
 31
0.0
  0
LINE
  5
FDA
330
2
100
AcDbEntity
  8
MITTE
 48
3.0
100
AcDbLine
 10
-285.5660076976486
 20
264.7688977780991
 30
0.0
 11
-299.5660076976486
 21
264.7688977780991
 31
0.0
  0
LINE
  5
FDB
330
2
100
AcDbEntity
  8
MITTE
 48
3.0
100
AcDbLine
 10
-292.5660076976486
 20
257.7688977780991
 30
0.0
 11
-292.5660076976486
 21
271.7688977780991
 31
0.0
  0
LINE
  5
FDC
330
2
100
AcDbEntity
  8
MITTE
 48
3.0
100
AcDbLine
 10
-239.5660076976486
 20
264.7688977780991
 30
0.0
 11
-253.5660076976486
 21
264.7688977780991
 31
0.0
  0
LINE
  5
FDD
330
2
100
AcDbEntity
  8
MITTE
 48
3.0
100
AcDbLine
 10
-246.5660076976486
 20
257.7688977780991
 30
0.0
 11
-246.5660076976486
 21
271.7688977780991
 31
0.0
  0
MTEXT
  5
FDE
102
{ACAD_XDICTIONARY
360
1158
102
}
330
2
100
AcDbEntity
  8
0
 48
10.0
100
AcDbMText
 10
-178.3614794052163
 20
495.5620743076309
 30
0.0
 40
5.0
 41
88.1398269184574
 71
     1
 72
     5
  1
{\fArial|b0|i0|c0|p34;Fu\U+00DFflansch\Pfoot flang\P29948415}
 73
     1
 44
1.0
  0
MTEXT
  5
110F
330
2
100
AcDbEntity
  8
BEM
 48
10.0
100
AcDbMText
 10
59.62249526000613
 20
44.90211721981404
 30
0.0
 40
5.0
 41
76.62068133002435
 71
     1
 72
     5
  1
{\fArial|b0|i0|c0|p34;4x Klemmschraube\P     clamping screw}
 73
     1
 44
1.0
1001
ACAD
1000
ACAD_MTEXT_DEFINED_HEIGHT_BEGIN
1070
    46
1040
22.62613756003259
1000
ACAD_MTEXT_DEFINED_HEIGHT_END
  0
INSERT
  5
1110
330
2
100
AcDbEntity
  8
BEM
 48
10.0
100
AcDbBlockReference
  2
*S50
 10
0.0
 20
0.0
 30
0.0
  0
ENDSEC
  0
SECTION
  2
OBJECTS
  0
DICTIONARY
  5
1B
330
0
100
AcDbDictionary
281
     1
  3
ACAD_2007HEADERVARS_RT
350
1148
  3
ACAD_COLOR
350
5F
  3
ACAD_GROUP
350
19
  3
ACAD_LAYOUT
350
60
  3
ACAD_MATERIAL
350
5E
  3
ACAD_MLEADERSTYLE
350
81E
  3
ACAD_MLINESTYLE
350
1A
  3
ACAD_PLOTSETTINGS
350
61
  3
ACAD_PLOTSTYLENAME
350
5C
  3
ACAD_SCALELIST
350
7FC
  3
ACAD_TABLESTYLE
350
141
  3
ACAD_VISUALSTYLE
350
7C0
  3
ACDB_RECOMPOSE_DATA
350
856
  3
ACDBVARIABLEDICTIONARY
350
4D
  3
AcmDictionary
350
BC
  3
AMG
350
68
  3
AMGSNAPSETTINGS
350
F9
  3
ASE_INDEX_DICTIONARY
350
852
  0
DICTIONARY
  5
869
330
B
100
AcDbDictionary
280
     1
281
     1
  3
ACAD_LAYERSTATES
360
86A
  0
DICTIONARY
  5
841
330
5
100
AcDbDictionary
280
     1
281
     1
  3
ADSK_XREC_LAYER_RECONCILED
360
842
  0
DICTIONARY
  5
843
330
20
100
AcDbDictionary
280
     1
281
     1
  3
ADSK_XREC_LAYER_RECONCILED
360
844
  0
DICTIONARY
  5
845
330
26
100
AcDbDictionary
280
     1
281
     1
  3
ADSK_XREC_LAYER_RECONCILED
360
846
  0
DICTIONARY
  5
847
330
28
100
AcDbDictionary
280
     1
281
     1
  3
ADSK_XREC_LAYER_RECONCILED
360
848
  0
DICTIONARY
  5
849
330
24
100
AcDbDictionary
280
     1
281
     1
  3
ADSK_XREC_LAYER_RECONCILED
360
84A
  0
DICTIONARY
  5
3
330
2
100
AcDbDictionary
280
     1
281
     1
  3
ACAD_SORTENTS
360
17D
  0
DICTIONARY
  5
1152
330
D64
100
AcDbDictionary
280
     1
281
     1
  3
ACAD_MTEXT_2008_RT
360
1153
  0
DICTIONARY
  5
115A
330
1108
100
AcDbDictionary
280
     1
281
     1
  3
ACAD_MTEXT_2008_RT
360
115B
  0
DICTIONARY
  5
A1C
330
289
100
AcDbDictionary
280
     1
281
     1
  3
ACMDIMBREAKPERSREACTOR
360
A1D
  0
DICTIONARY
  5
1158
330
FDE
100
AcDbDictionary
280
     1
281
     1
  3
ACAD_MTEXT_2008_RT
360
1159
  0
DICTIONARY
  5
1148
102
{ACAD_REACTORS
330
1B
102
}
330
1B
100
AcDbDictionary
281
     1
  3
DIMJOGANG
350
1149
  0
DICTIONARY
  5
5F
102
{ACAD_REACTORS
330
1B
102
}
330
1B
100
AcDbDictionary
281
     1
  0
DICTIONARY
  5
19
102
{ACAD_REACTORS
330
1B
102
}
330
1B
100
AcDbDictionary
281
     1
  0
DICTIONARY
  5
60
102
{ACAD_REACTORS
330
1B
102
}
330
1B
100
AcDbDictionary
281
     1
  3
Layout1
350
63
  3
Model
350
62
  0
DICTIONARY
  5
5E
102
{ACAD_REACTORS
330
1B
102
}
330
1B
100
AcDbDictionary
281
     1
  3
ByBlock
350
7BE
  3
ByLayer
350
7BD
  3
Global
350
7BF
  0
DICTIONARY
  5
81E
102
{ACAD_REACTORS
330
1B
102
}
330
1B
100
AcDbDictionary
281
     1
  3
Standard
350
81F
  0
DICTIONARY
  5
1A
102
{ACAD_REACTORS
330
1B
102
}
330
1B
100
AcDbDictionary
281
     1
  3
STANDARD
350
1D
  0
DICTIONARY
  5
61
102
{ACAD_REACTORS
330
1B
102
}
330
1B
100
AcDbDictionary
281
     1
  0
ACDBDICTIONARYWDFLT
  5
5C
102
{ACAD_REACTORS
330
1B
102
}
330
1B
100
AcDbDictionary
281
     1
  3
Normal
350
5D
100
AcDbDictionaryWithDefault
340
5D
  0
DICTIONARY
  5
7FC
102
{ACAD_REACTORS
330
1B
102
}
330
1B
100
AcDbDictionary
281
     1
  3
A0
350
7FD
  3
A1
350
7FE
  3
A2
350
7FF
  3
A3
350
800
  3
A4
350
801
  3
A5
350
802
  3
A6
350
803
  3
A7
350
804
  3
A8
350
805
  3
A9
350
806
  3
B0
350
807
  3
B1
350
808
  3
B2
350
809
  3
B3
350
80A
  3
B4
350
80B
  3
B5
350
80C
  3
B6
350
80D
  3
B7
350
80E
  3
B8
350
80F
  3
B9
350
810
  3
C0
350
811
  3
C1
350
812
  3
C2
350
813
  3
C3
350
814
  3
C4
350
815
  3
C5
350
816
  3
C6
350
817
  3
C7
350
818
  3
C8
350
819
  3
C9
350
81A
  3
D0
350
81B
  3
D1
350
81C
  3
D2
350
81D
  0
DICTIONARY
  5
141
102
{ACAD_REACTORS
330
1B
102
}
330
1B
100
AcDbDictionary
281
     1
  3
Standard
350
142
  0
DICTIONARY
  5
7C0
102
{ACAD_REACTORS
330
1B
102
}
330
1B
100
AcDbDictionary
281
     1
  3
2dWireframe
350
7C6
  3
3D Hidden
350
7C8
  3
3dWireframe
350
7C7
  3
Basic
350
7C5
  3
Brighten
350
7CC
  3
ColorChange
350
7D0
  3
Conceptual
350
7C9
  3
Dim
350
7CB
  3
Facepattern
350
7CF
  3
Flat
350
7C1
  3
FlatWithEdges
350
7C2
  3
Gouraud
350
7C3
  3
GouraudWithEdges
350
7C4
  3
Linepattern
350
7CE
  3
Realistic
350
7CA
  3
Thicken
350
7CD
  0
XRECORD
  5
856
102
{ACAD_REACTORS
330
1B
102
}
330
1B
100
AcDbXrecord
280
     1
 90
        1
330
142
  0
DICTIONARY
  5
4D
102
{ACAD_REACTORS
330
1B
102
}
330
1B
100
AcDbDictionary
281
     1
  3
CANNOSCALE
350
859
  3
CMLEADERSTYLE
350
857
  3
CTABLESTYLE
350
15F
  3
INDEXCTL
350
4E
  3
LIGHTINGUNITS
350
85A
  3
MSLTSCALE
350
858
  0
DICTIONARY
  5
BC
102
{ACAD_REACTORS
330
1B
102
}
330
1B
100
AcDbDictionary
281
     1
  3
AcmStdDictionary
350
C7
  3
AMDTSECTSYM_ARROWCOLOR
350
156
  0
DICTIONARY
  5
68
102
{ACAD_REACTORS
330
1B
102
}
330
1B
100
AcDbDictionary
281
     1
  0
DICTIONARY
  5
F9
102
{ACAD_REACTORS
330
1B
102
}
330
1B
100
AcDbDictionary
281
     1
  0
DICTIONARY
  5
852
102
{ACAD_REACTORS
330
1B
102
}
330
1B
100
AcDbDictionary
281
     1
  3
ASEBlockHierarchyIndexRecord
350
853
1001
DCO15
1040
1743768941.322
  0
DICTIONARY
  5
86A
102
{ACAD_REACTORS
330
869
102
}
330
869
100
AcDbDictionary
281
     1
  0
XRECORD
  5
842
102
{ACAD_REACTORS
330
841
102
}
330
841
100
AcDbXrecord
280
     1
290
     1
  0
XRECORD
  5
844
102
{ACAD_REACTORS
330
843
102
}
330
843
100
AcDbXrecord
280
     1
290
     1
  0
XRECORD
  5
846
102
{ACAD_REACTORS
330
845
102
}
330
845
100
AcDbXrecord
280
     1
290
     1
  0
XRECORD
  5
848
102
{ACAD_REACTORS
330
847
102
}
330
847
100
AcDbXrecord
280
     1
290
     1
  0
XRECORD
  5
84A
102
{ACAD_REACTORS
330
849
102
}
330
849
100
AcDbXrecord
280
     1
290
     1
  0
SORTENTSTABLE
  5
17D
102
{ACAD_REACTORS
330
3
102
}
330
3
100
AcDbSortentsTable
330
2
331
193
  5
195
331
1CA
  5
1DB
331
209
  5
1BE
331
297
  5
2A6
331
6BD
  5
6BD
331
1D2
  5
1F2
331
19B
  5
19B
331
46E
  5
570
331
1DA
  5
1F9
331
FB5
  5
FB5
331
F76
  5
F76
331
FBD
  5
FBD
331
F7E
  5
F7E
331
FC5
  5
FC5
331
F86
  5
F86
331
FCD
  5
FCD
331
F8E
  5
F8E
331
F59
  5
F59
331
F61
  5
F61
331
F69
  5
F69
331
1AB
  5
1AB
331
1B3
  5
1B3
331
1BB
  5
1CA
331
1F2
  5
1FD
331
17C
  5
185
331
184
  5
183
331
1FA
  5
202
331
FD5
  5
FD5
331
F96
  5
F96
331
FDD
  5
FDD
331
F9E
  5
F9E
331
FA6
  5
FA6
331
FAE
  5
FAE
331
F4A
  5
F4A
331
F52
  5
F52
331
1C3
  5
1D9
331
6BE
  5
6BE
331
1CB
  5
1DE
331
20A
  5
1D2
331
19C
  5
19C
331
1D3
  5
1F3
331
1DB
  5
1FA
331
21A
  5
227
331
46F
  5
571
331
FB6
  5
FB6
331
F77
  5
F77
331
FBE
  5
FBE
331
F7F
  5
F7F
331
FC6
  5
FC6
331
F87
  5
F87
331
FCE
  5
FCE
331
F8F
  5
F8F
331
F5A
  5
F5A
331
F62
  5
F62
331
F6A
  5
F6A
331
1AC
  5
1AC
331
269
  5
289
331
1B4
  5
1B4
331
1BC
  5
1D4
331
1F3
  5
1FE
331
289
  5
297
331
185
  5
181
331
1FB
  5
203
331
FD6
  5
FD6
331
F97
  5
F97
331
FDE
  5
FDE
331
F9F
  5
F9F
331
FA7
  5
FA7
331
FAF
  5
FAF
331
F43
  5
F43
331
F4B
  5
F4B
331
F53
  5
F53
331
195
  5
190
331
1CC
  5
1E0
331
20B
  5
1C4
331
19D
  5
19D
331
1D4
  5
1F4
331
470
  5
572
331
F70
  5
F70
331
FB7
  5
FB7
331
F78
  5
F78
331
FBF
  5
FBF
331
F80
  5
F80
331
FC7
  5
FC7
331
F88
  5
F88
331
FCF
  5
FCF
331
F5B
  5
F5B
331
F63
  5
F63
331
F6B
  5
F6B
331
1AD
  5
1AD
331
1B5
  5
1BA
331
1BD
  5
1B8
331
17E
  5
184
331
1F4
  5
1C3
331
1FC
  5
204
331
F90
  5
F90
331
F98
  5
F98
331
FA0
  5
FA0
331
FA8
  5
FA8
331
F44
  5
F44
331
F4C
  5
F4C
331
F54
  5
F54
331
20C
  5
21A
331
196
  5
192
331
1CD
  5
1EE
331
19E
  5
19F
331
1A6
  5
1A6
331
FB0
  5
FB0
331
F71
  5
F71
331
FB8
  5
FB8
331
F79
  5
F79
331
FC0
  5
FC0
331
F81
  5
F81
331
FC8
  5
FC8
331
F89
  5
F89
331
F5C
  5
F5C
331
F64
  5
F64
331
F6C
  5
F6C
331
1AE
  5
1AE
331
2C2
  5
46A
331
234
  5
243
331
17F
  5
17C
331
1F5
  5
1BF
331
187
  5
17B
331
1FD
  5
205
331
FD0
  5
FD0
331
F91
  5
F91
331
FD8
  5
FD8
331
F99
  5
F99
331
FA1
  5
FA1
331
FA9
  5
FA9
331
F45
  5
F45
331
F4D
  5
F4D
331
F55
  5
F55
331
205
  5
1CD
331
197
  5
198
331
19F
  5
19E
331
25C
  5
269
331
1A7
  5
1A7
331
1DE
  5
1FC
331
2B3
  5
2C2
331
FB1
  5
FB1
331
F72
  5
F72
331
FB9
  5
FB9
331
F7A
  5
F7A
331
FC1
  5
FC1
331
F82
  5
F82
331
FC9
  5
FC9
331
F8A
  5
F8A
331
F5D
  5
F5D
331
F65
  5
F65
331
F6D
  5
F6D
331
1AF
  5
1AF
331
1EE
  5
1D1
331
178
  5
178
331
180
  5
179
331
1F6
  5
1FF
331
1FE
  5
20C
331
FD1
  5
FD1
331
F92
  5
F92
331
FD9
  5
FD9
331
F9A
  5
F9A
331
FA2
  5
FA2
331
FAA
  5
FAA
331
F46
  5
F46
331
F4E
  5
F4E
331
F56
  5
F56
331
190
  5
191
331
206
  5
1D0
331
198
  5
196
331
1A0
  5
1A0
331
1D7
  5
1F5
331
FB2
  5
FB2
331
F73
  5
F73
331
FBA
  5
FBA
331
F7B
  5
F7B
331
FC2
  5
FC2
331
F83
  5
F83
331
FCA
  5
FCA
331
F8B
  5
F8B
331
F5E
  5
F5E
331
F66
  5
F66
331
F6E
  5
F6E
331
1A8
  5
1A8
331
1B0
  5
1B0
331
1B8
  5
1BB
331
1EF
  5
1CC
331
179
  5
17F
331
4A3
  5
56E
331
181
  5
182
331
FD2
  5
FD2
331
F93
  5
F93
331
FDA
  5
FDA
331
F9B
  5
F9B
331
FA3
  5
FA3
331
FAB
  5
FAB
331
F47
  5
F47
331
F4F
  5
F4F
331
F57
  5
F57
331
189
  5
189
331
1C0
  5
1D7
331
191
  5
18E
331
207
  5
1C1
331
1D0
  5
1EF
331
199
  5
199
331
1D8
  5
1F6
331
FB3
  5
FB3
331
F74
  5
F74
331
FBB
  5
FBB
331
F7C
  5
F7C
331
FC3
  5
FC3
331
F84
  5
F84
331
FCB
  5
FCB
331
F8C
  5
F8C
331
F5F
  5
F5F
331
F67
  5
F67
331
F6F
  5
F6F
331
1A9
  5
1A9
331
1B1
  5
1B1
331
227
  5
234
331
1B9
  5
1BC
331
1F0
  5
1BD
331
182
  5
180
331
1F8
  5
200
331
FD3
  5
FD3
331
F94
  5
F94
331
FDB
  5
FDB
331
F9C
  5
F9C
331
FA4
  5
FA4
331
FAC
  5
FAC
331
F48
  5
F48
331
F50
  5
F50
331
18A
  5
193
331
6BC
  5
6BC
331
192
  5
197
331
1C9
  5
1DA
331
208
  5
1D3
331
1D1
  5
1F0
331
19A
  5
19A
331
24F
  5
25C
331
46D
  5
56F
331
1A2
  5
1A2
331
1D9
  5
1F8
331
2A6
  5
2B3
331
FB4
  5
FB4
331
F75
  5
F75
331
FBC
  5
FBC
331
F7D
  5
F7D
331
FC4
  5
FC4
331
F85
  5
F85
331
FCC
  5
FCC
331
F8D
  5
F8D
331
F58
  5
F58
331
F60
  5
F60
331
F68
  5
F68
331
1AA
  5
1AA
331
1BA
  5
1C9
331
183
  5
17E
331
1F9
  5
201
331
FD4
  5
FD4
331
F95
  5
F95
331
FDC
  5
FDC
331
F9D
  5
F9D
331
FA5
  5
FA5
331
FAD
  5
FAD
331
F49
  5
F49
331
F51
  5
F51
331
1C2
  5
1D8
  0
XRECORD
  5
1153
102
{ACAD_REACTORS
330
1152
102
}
330
1152
100
AcDbXrecord
280
     1
 40
37664.0
  1
\A1;\U+220536{}{\H0.71x;\C3; H8}
  0
XRECORD
  5
115B
102
{ACAD_REACTORS
330
115A
102
}
330
115A
100
AcDbXrecord
280
     1
 40
40448.0
  1
\A1;\U+220542{}{\H0.71x;\C3;+0.05}
  0
XRECORD
  5
1159
102
{ACAD_REACTORS
330
1158
102
}
330
1158
100
AcDbXrecord
280
     1
 40
157005.0
  1
{\fArial|b0|i0|c0|p34;Fußflansch\Pfoot flang\P29948415}
  0
XRECORD
  5
1149
102
{ACAD_REACTORS
330
1148
102
}
330
1148
100
AcDbXrecord
280
     1
 40
1.570796326794896
  0
LAYOUT
  5
63
102
{ACAD_REACTORS
330
60
102
}
330
60
100
AcDbPlotSettings
  1

  2
HP LaserJet 5000 Series PCL6
  4

  6

 40
0.0
 41
0.0
 42
0.0
 43
0.0
 44
0.0
 45
0.0
 46
0.0
 47
0.0
 48
0.0
 49
0.0
140
0.0
141
0.0
142
1.0
143
1.0
 70
   688
 72
     0
 73
     0
 74
     5
  7
Zeich.ctb
 75
    16
147
1.0
 76
     0
 77
     2
 78
   300
148
0.0
149
0.0
100
AcDbLayout
  1
Layout1
 70
     0
 71
     1
 10
0.0
 20
0.0
 11
420.0
 21
297.0
 12
0.0
 22
0.0
 32
0.0
 14
1.000000000000000E+20
 24
1.000000000000000E+20
 34
1.000000000000000E+20
 15
-1.000000000000000E+20
 25
-1.000000000000000E+20
 35
-1.000000000000000E+20
146
0.0
 13
0.0
 23
0.0
 33
0.0
 16
1.0
 26
0.0
 36
0.0
 17
0.0
 27
1.0
 37
0.0
 76
     0
330
8
  0
LAYOUT
  5
62
102
{ACAD_REACTORS
330
60
102
}
330
60
100
AcDbPlotSettings
  1

  2
Müller CAD 2
  4
A4
  6

 40
6.805083274841308
 41
5.027085304260253
 42
6.805084228515625
 43
5.027069091796875
 44
209.9733276367187
 45
296.9683227539062
 46
0.0
 47
3.050558838810957
 48
5.0
 49
15.0
140
414.0
141
301.0
142
1.0
143
1.456485013817054
 70
 11956
 72
     1
 73
     1
 74
     4
  7
Zeich.ctb
 75
     0
147
0.6865844759907756
 76
     0
 77
     2
 78
   300
148
-5.0
149
-15.0
100
AcDbLayout
  1
Model
 70
     1
 71
     0
 10
0.0
 20
0.0
 11
12.0
 21
9.0
 12
0.0
 22
0.0
 32
0.0
 14
0.0
 24
0.0
 34
0.0
 15
0.0
 25
0.0
 35
0.0
146
0.0
 13
0.0
 23
0.0
 33
0.0
 16
1.0
 26
0.0
 36
0.0
 17
0.0
 27
1.0
 37
0.0
 76
     0
330
2
331
7BB
1001
ACAD_PSEXT
1000
Müller CAD 2
1000
HP LaserJet 5000 Series PCL
1000
CAD 2
1000
Laser A3
1070
     0
  0
MATERIAL
  5
7BE
102
{ACAD_XDICTIONARY
360
114D
102
}
102
{ACAD_REACTORS
330
5E
102
}
330
5E
100
AcDbMaterial
  1
ByBlock
 73
     1
 78
     1
172
     1
176
     1
270
     1
274
     1
  0
MATERIAL
  5
7BD
102
{ACAD_XDICTIONARY
360
114B
102
}
102
{ACAD_REACTORS
330
5E
102
}
330
5E
100
AcDbMaterial
  1
ByLayer
 73
     1
 78
     1
172
     1
176
     1
270
     1
274
     1
  0
MATERIAL
  5
7BF
102
{ACAD_XDICTIONARY
360
114F
102
}
102
{ACAD_REACTORS
330
5E
102
}
330
5E
100
AcDbMaterial
  1
Global
 73
     1
 78
     1
172
     1
176
     1
270
     1
274
     1
  0
MLEADERSTYLE
  5
81F
102
{ACAD_REACTORS
330
81E
102
}
330
81E
100
AcDbMLeaderStyle
170
     2
171
     1
172
     0
 90
        2
 40
0.0
 41
0.0
173
     1
 91
-1056964608
340
F
 92
       -2
290
     1
 42
0.09
291
     1
 43
0.36
  3
Standard
 44
0.18
300

342
D
174
     1
178
     6
175
     1
176
     0
 93
-1056964608
 45
0.18
292
     0
297
     0
 46
0.18
 94
-1056964608
 47
1.0
 49
1.0
140
1.0
293
     1
141
0.0
294
     1
177
     0
142
1.0
295
     0
296
     0
143
0.125
1001
ACAD_MLEADERVER
1070
     2
  0
MLINESTYLE
  5
1D
102
{ACAD_REACTORS
330
1A
102
}
330
1A
100
AcDbMlineStyle
  2
STANDARD
 70
     0
  3

 62
     0
 51
90.0
 52
90.0
 71
     2
 49
0.5
 62
   256
  6
BYLAYER
 49
-0.5
 62
   256
  6
BYLAYER
  0
ACDBPLACEHOLDER
  5
5D
102
{ACAD_REACTORS
330
5C
102
}
330
5C
  0
SCALE
  5
7FD
102
{ACAD_REACTORS
330
7FC
102
}
330
7FC
100
AcDbScale
 70
     0
300
1:1
140
1.0
141
1.0
290
     1
  0
SCALE
  5
7FE
102
{ACAD_REACTORS
330
7FC
102
}
330
7FC
100
AcDbScale
 70
     0
300
1:2
140
1.0
141
2.0
290
     0
  0
SCALE
  5
7FF
102
{ACAD_REACTORS
330
7FC
102
}
330
7FC
100
AcDbScale
 70
     0
300
1:4
140
1.0
141
4.0
290
     0
  0
SCALE
  5
800
102
{ACAD_REACTORS
330
7FC
102
}
330
7FC
100
AcDbScale
 70
     0
300
1:5
140
1.0
141
5.0
290
     0
  0
SCALE
  5
801
102
{ACAD_REACTORS
330
7FC
102
}
330
7FC
100
AcDbScale
 70
     0
300
1:8
140
1.0
141
8.0
290
     0
  0
SCALE
  5
802
102
{ACAD_REACTORS
330
7FC
102
}
330
7FC
100
AcDbScale
 70
     0
300
1:10
140
1.0
141
10.0
290
     0
  0
SCALE
  5
803
102
{ACAD_REACTORS
330
7FC
102
}
330
7FC
100
AcDbScale
 70
     0
300
1:16
140
1.0
141
16.0
290
     0
  0
SCALE
  5
804
102
{ACAD_REACTORS
330
7FC
102
}
330
7FC
100
AcDbScale
 70
     0
300
1:20
140
1.0
141
20.0
290
     0
  0
SCALE
  5
805
102
{ACAD_REACTORS
330
7FC
102
}
330
7FC
100
AcDbScale
 70
     0
300
1:30
140
1.0
141
30.0
290
     0
  0
SCALE
  5
806
102
{ACAD_REACTORS
330
7FC
102
}
330
7FC
100
AcDbScale
 70
     0
300
1:40
140
1.0
141
40.0
290
     0
  0
SCALE
  5
807
102
{ACAD_REACTORS
330
7FC
102
}
330
7FC
100
AcDbScale
 70
     0
300
1:50
140
1.0
141
50.0
290
     0
  0
SCALE
  5
808
102
{ACAD_REACTORS
330
7FC
102
}
330
7FC
100
AcDbScale
 70
     0
300
1:100
140
1.0
141
100.0
290
     0
  0
SCALE
  5
809
102
{ACAD_REACTORS
330
7FC
102
}
330
7FC
100
AcDbScale
 70
     0
300
2:1
140
2.0
141
1.0
290
     0
  0
SCALE
  5
80A
102
{ACAD_REACTORS
330
7FC
102
}
330
7FC
100
AcDbScale
 70
     0
300
4:1
140
4.0
141
1.0
290
     0
  0
SCALE
  5
80B
102
{ACAD_REACTORS
330
7FC
102
}
330
7FC
100
AcDbScale
 70
     0
300
8:1
140
8.0
141
1.0
290
     0
  0
SCALE
  5
80C
102
{ACAD_REACTORS
330
7FC
102
}
330
7FC
100
AcDbScale
 70
     0
300
10:1
140
10.0
141
1.0
290
     0
  0
SCALE
  5
80D
102
{ACAD_REACTORS
330
7FC
102
}
330
7FC
100
AcDbScale
 70
     0
300
100:1
140
100.0
141
1.0
290
     0
  0
SCALE
  5
80E
102
{ACAD_REACTORS
330
7FC
102
}
330
7FC
100
AcDbScale
 70
     0
300
1/128" = 1'-0"
140
0.0078125
141
12.0
290
     0
  0
SCALE
  5
80F
102
{ACAD_REACTORS
330
7FC
102
}
330
7FC
100
AcDbScale
 70
     0
300
1/64" = 1'-0"
140
0.015625
141
12.0
290
     0
  0
SCALE
  5
810
102
{ACAD_REACTORS
330
7FC
102
}
330
7FC
100
AcDbScale
 70
     0
300
1/32" = 1'-0"
140
0.03125
141
12.0
290
     0
  0
SCALE
  5
811
102
{ACAD_REACTORS
330
7FC
102
}
330
7FC
100
AcDbScale
 70
     0
300
1/16" = 1'-0"
140
0.0625
141
12.0
290
     0
  0
SCALE
  5
812
102
{ACAD_REACTORS
330
7FC
102
}
330
7FC
100
AcDbScale
 70
     0
300
3/32" = 1'-0"
140
0.09375
141
12.0
290
     0
  0
SCALE
  5
813
102
{ACAD_REACTORS
330
7FC
102
}
330
7FC
100
AcDbScale
 70
     0
300
1/8" = 1'-0"
140
0.125
141
12.0
290
     0
  0
SCALE
  5
814
102
{ACAD_REACTORS
330
7FC
102
}
330
7FC
100
AcDbScale
 70
     0
300
3/16" = 1'-0"
140
0.1875
141
12.0
290
     0
  0
SCALE
  5
815
102
{ACAD_REACTORS
330
7FC
102
}
330
7FC
100
AcDbScale
 70
     0
300
1/4" = 1'-0"
140
0.25
141
12.0
290
     0
  0
SCALE
  5
816
102
{ACAD_REACTORS
330
7FC
102
}
330
7FC
100
AcDbScale
 70
     0
300
3/8" = 1'-0"
140
0.375
141
12.0
290
     0
  0
SCALE
  5
817
102
{ACAD_REACTORS
330
7FC
102
}
330
7FC
100
AcDbScale
 70
     0
300
1/2" = 1'-0"
140
0.5
141
12.0
290
     0
  0
SCALE
  5
818
102
{ACAD_REACTORS
330
7FC
102
}
330
7FC
100
AcDbScale
 70
     0
300
3/4" = 1'-0"
140
0.75
141
12.0
290
     0
  0
SCALE
  5
819
102
{ACAD_REACTORS
330
7FC
102
}
330
7FC
100
AcDbScale
 70
     0
300
1" = 1'-0"
140
1.0
141
12.0
290
     0
  0
SCALE
  5
81A
102
{ACAD_REACTORS
330
7FC
102
}
330
7FC
100
AcDbScale
 70
     0
300
1-1/2" = 1'-0"
140
1.5
141
12.0
290
     0
  0
SCALE
  5
81B
102
{ACAD_REACTORS
330
7FC
102
}
330
7FC
100
AcDbScale
 70
     0
300
3" = 1'-0"
140
3.0
141
12.0
290
     0
  0
SCALE
  5
81C
102
{ACAD_REACTORS
330
7FC
102
}
330
7FC
100
AcDbScale
 70
     0
300
6" = 1'-0"
140
6.0
141
12.0
290
     0
  0
SCALE
  5
81D
102
{ACAD_REACTORS
330
7FC
102
}
330
7FC
100
AcDbScale
 70
     0
300
1'-0" = 1'-0"
140
12.0
141
12.0
290
     0
  0
TABLESTYLE
  5
142
102
{ACAD_XDICTIONARY
360
854
102
}
102
{ACAD_REACTORS
330
141
102
}
330
141
100
AcDbTableStyle
  3
Standard
 70
     0
 71
     0
 40
0.06
 41
0.06
280
     0
281
     0
  7
STANDARD
140
0.18
170
     2
 62
     0
 63
     7
283
     0
274
    -2
284
     1
 64
     0
275
    -2
285
     1
 65
     0
276
    -2
286
     1
 66
     0
277
    -2
287
     1
 67
     0
278
    -2
288
     1
 68
     0
279
    -2
289
     1
 69
     0
  7
STANDARD
140
0.25
170
     5
 62
     0
 63
     7
283
     0
274
    -2
284
     1
 64
     0
275
    -2
285
     1
 65
     0
276
    -2
286
     1
 66
     0
277
    -2
287
     1
 67
     0
278
    -2
288
     1
 68
     0
279
    -2
289
     1
 69
     0
  7
STANDARD
140
0.18
170
     5
 62
     0
 63
     7
283
     0
274
    -2
284
     1
 64
     0
275
    -2
285
     1
 65
     0
276
    -2
286
     1
 66
     0
277
    -2
287
     1
 67
     0
278
    -2
288
     1
 68
     0
279
    -2
289
     1
 69
     0
  0
VISUALSTYLE
  5
7C6
102
{ACAD_REACTORS
330
7C0
102
}
330
7C0
100
AcDbVisualStyle
  2
2dWireframe
 70
     4
 71
     0
 72
     2
 73
     0
 90
        0
 40
-0.6
 41
-30.0
 62
     5
 63
     7
421
 16777215
 74
     1
 91
        4
 64
     7
 65
   257
 75
     1
175
     1
 42
1.0
 92
        0
 66
   257
 43
1.0
 76
     1
 77
     6
 78
     2
 67
     7
 79
     5
170
     0
171
     0
290
     0
174
     0
 93
        1
 44
0.0
173
     0
291
     0
 45
0.0
1001
ACAD
1000
AcDbSavedByObjectVersion
1070
     0
  0
VISUALSTYLE
  5
7C8
102
{ACAD_REACTORS
330
7C0
102
}
330
7C0
100
AcDbVisualStyle
  2
3D Hidden
 70
     6
 71
     1
 72
     2
 73
     2
 90
        0
 40
-0.6
 41
-30.0
 62
     5
 63
     7
421
 16777215
 74
     2
 91
        2
 64
     7
 65
   257
 75
     2
175
     1
 42
40.0
 92
        0
 66
   257
 43
1.0
 76
     1
 77
     6
 78
     2
 67
     7
 79
     3
170
     0
171
     0
290
     0
174
     0
 93
        1
 44
0.0
173
     0
291
     0
 45
0.0
1001
ACAD
1000
AcDbSavedByObjectVersion
1070
     0
  0
VISUALSTYLE
  5
7C7
102
{ACAD_REACTORS
330
7C0
102
}
330
7C0
100
AcDbVisualStyle
  2
3dWireframe
 70
     5
 71
     0
 72
     2
 73
     0
 90
        0
 40
-0.6
 41
-30.0
 62
     5
 63
     7
421
 16777215
 74
     1
 91
        4
 64
     7
 65
   257
 75
     1
175
     1
 42
1.0
 92
        0
 66
   257
 43
1.0
 76
     1
 77
     6
 78
     2
 67
     7
 79
     5
170
     0
171
     0
290
     0
174
     0
 93
        1
 44
0.0
173
     0
291
     0
 45
0.0
1001
ACAD
1000
AcDbSavedByObjectVersion
1070
     0
  0
VISUALSTYLE
  5
7C5
102
{ACAD_REACTORS
330
7C0
102
}
330
7C0
100
AcDbVisualStyle
  2
Basic
 70
     7
 71
     1
 72
     0
 73
     1
 90
        0
 40
-0.6
 41
-30.0
 62
     5
 63
     7
421
 16777215
 74
     0
 91
        4
 64
     7
 65
   257
 75
     1
175
     1
 42
1.0
 92
        8
 66
     7
 43
1.0
 76
     1
 77
     6
 78
     2
 67
     7
 79
     5
170
     0
171
     0
290
     0
174
     0
 93
        1
 44
0.0
173
     0
291
     1
 45
0.0
1001
ACAD
1000
AcDbSavedByObjectVersion
1070
     0
  0
VISUALSTYLE
  5
7CC
102
{ACAD_REACTORS
330
7C0
102
}
330
7C0
100
AcDbVisualStyle
  2
Brighten
 70
    12
 71
     2
 72
     2
 73
     0
 90
        0
 40
-0.6
 41
-30.0
 62
     5
 63
     7
421
 16777215
 74
     1
 91
        4
 64
     7
 65
   257
 75
     1
175
     1
 42
1.0
 92
        8
 66
     7
 43
1.0
 76
     1
 77
     6
 78
     2
 67
     7
 79
     5
170
     0
171
     0
290
     0
174
     0
 93
        1
 44
50.0
173
     0
291
     1
 45
0.0
1001
ACAD
1000
AcDbSavedByObjectVersion
1070
     0
  0
VISUALSTYLE
  5
7D0
102
{ACAD_REACTORS
330
7C0
102
}
330
7C0
100
AcDbVisualStyle
  2
ColorChange
 70
    16
 71
     2
 72
     2
 73
     3
 90
        0
 40
-0.6
 41
-30.0
 62
     5
 63
     8
421
  8421504
 74
     1
 91
        4
 64
     7
 65
   257
 75
     1
175
     1
 42
1.0
 92
        8
 66
     8
424
  8421504
 43
1.0
 76
     1
 77
     6
 78
     2
 67
     7
 79
     5
170
     0
171
     0
290
     0
174
     0
 93
        1
 44
0.0
173
     0
291
     1
 45
0.0
1001
ACAD
1000
AcDbSavedByObjectVersion
1070
     0
  0
VISUALSTYLE
  5
7C9
102
{ACAD_REACTORS
330
7C0
102
}
330
7C0
100
AcDbVisualStyle
  2
Conceptual
 70
     9
 71
     3
 72
     2
 73
     0
 90
        0
 40
-0.6
 41
-30.0
 62
     5
 63
     7
421
 16777215
 74
     2
 91
        2
 64
     7
 65
   257
 75
     1
175
     1
 42
40.0
 92
        8
 66
     7
 43
1.0
 76
     1
 77
     6
 78
     2
 67
     7
 79
     3
170
     0
171
     0
290
     0
174
     0
 93
        1
 44
0.0
173
     0
291
     0
 45
0.0
1001
ACAD
1000
AcDbSavedByObjectVersion
1070
     0
  0
VISUALSTYLE
  5
7CB
102
{ACAD_REACTORS
330
7C0
102
}
330
7C0
100
AcDbVisualStyle
  2
Dim
 70
    11
 71
     2
 72
     2
 73
     0
 90
        0
 40
-0.6
 41
-30.0
 62
     5
 63
     7
421
 16777215
 74
     1
 91
        4
 64
     7
 65
   257
 75
     1
175
     1
 42
1.0
 92
        8
 66
     7
 43
1.0
 76
     1
 77
     6
 78
     2
 67
     7
 79
     5
170
     0
171
     0
290
     0
174
     0
 93
        1
 44
-50.0
173
     0
291
     1
 45
0.0
1001
ACAD
1000
AcDbSavedByObjectVersion
1070
     0
  0
VISUALSTYLE
  5
7CF
102
{ACAD_REACTORS
330
7C0
102
}
330
7C0
100
AcDbVisualStyle
  2
Facepattern
 70
    15
 71
     2
 72
     2
 73
     0
 90
        0
 40
-0.6
 41
-30.0
 62
     5
 63
     7
421
 16777215
 74
     1
 91
        4
 64
     7
 65
   257
 75
     1
175
     1
 42
1.0
 92
        8
 66
     7
 43
1.0
 76
     1
 77
     6
 78
     2
 67
     7
 79
     5
170
     0
171
     0
290
     0
174
     0
 93
        1
 44
0.0
173
     0
291
     1
 45
0.0
1001
ACAD
1000
AcDbSavedByObjectVersion
1070
     0
  0
VISUALSTYLE
  5
7C1
102
{ACAD_REACTORS
330
7C0
102
}
330
7C0
100
AcDbVisualStyle
  2
Flat
 70
     0
 71
     2
 72
     1
 73
     1
 90
        2
 40
-0.6
 41
30.0
 62
     5
 63
     7
421
 16777215
 74
     0
 91
        4
 64
     7
 65
   257
 75
     1
175
     1
 42
1.0
 92
        8
 66
     7
 43
1.0
 76
     1
 77
     6
 78
     2
 67
     7
 79
     5
170
     0
171
     0
290
     0
174
     0
 93
       13
 44
0.0
173
     0
291
     1
 45
0.0
1001
ACAD
1000
AcDbSavedByObjectVersion
1070
     0
  0
VISUALSTYLE
  5
7C2
102
{ACAD_REACTORS
330
7C0
102
}
330
7C0
100
AcDbVisualStyle
  2
FlatWithEdges
 70
     1
 71
     2
 72
     1
 73
     1
 90
        2
 40
-0.6
 41
30.0
 62
     5
 63
     7
421
 16777215
 74
     1
 91
        4
 64
     7
 65
   257
 75
     1
175
     1
 42
1.0
 92
        0
 66
   257
 43
1.0
 76
     1
 77
     6
 78
     2
 67
     7
 79
     5
170
     0
171
     0
290
     0
174
     0
 93
       13
 44
0.0
173
     0
291
     1
 45
0.0
1001
ACAD
1000
AcDbSavedByObjectVersion
1070
     0
  0
VISUALSTYLE
  5
7C3
102
{ACAD_REACTORS
330
7C0
102
}
330
7C0
100
AcDbVisualStyle
  2
Gouraud
 70
     2
 71
     2
 72
     2
 73
     1
 90
        2
 40
-0.6
 41
30.0
 62
     5
 63
     7
421
 16777215
 74
     0
 91
        4
 64
     7
 65
   257
 75
     1
175
     1
 42
1.0
 92
        0
 66
     7
 43
1.0
 76
     1
 77
     6
 78
     2
 67
     7
 79
     5
170
     0
171
     0
290
     0
174
     0
 93
       13
 44
0.0
173
     0
291
     1
 45
0.0
1001
ACAD
1000
AcDbSavedByObjectVersion
1070
     0
  0
VISUALSTYLE
  5
7C4
102
{ACAD_REACTORS
330
7C0
102
}
330
7C0
100
AcDbVisualStyle
  2
GouraudWithEdges
 70
     3
 71
     2
 72
     2
 73
     1
 90
        2
 40
-0.6
 41
30.0
 62
     5
 63
     7
421
 16777215
 74
     1
 91
        4
 64
     7
 65
   257
 75
     1
175
     1
 42
1.0
 92
        0
 66
   257
 43
1.0
 76
     1
 77
     6
 78
     2
 67
     7
 79
     5
170
     0
171
     0
290
     0
174
     0
 93
       13
 44
0.0
173
     0
291
     1
 45
0.0
1001
ACAD
1000
AcDbSavedByObjectVersion
1070
     0
  0
VISUALSTYLE
  5
7CE
102
{ACAD_REACTORS
330
7C0
102
}
330
7C0
100
AcDbVisualStyle
  2
Linepattern
 70
    14
 71
     2
 72
     2
 73
     0
 90
        0
 40
-0.6
 41
-30.0
 62
     5
 63
     7
421
 16777215
 74
     1
 91
        4
 64
     7
 65
   257
 75
     7
175
     7
 42
1.0
 92
        8
 66
     7
 43
1.0
 76
     1
 77
     6
 78
     2
 67
     7
 79
     5
170
     0
171
     0
290
     0
174
     0
 93
        1
 44
0.0
173
     0
291
     1
 45
0.0
1001
ACAD
1000
AcDbSavedByObjectVersion
1070
     0
  0
VISUALSTYLE
  5
7CA
102
{ACAD_REACTORS
330
7C0
102
}
330
7C0
100
AcDbVisualStyle
  2
Realistic
 70
     8
 71
     2
 72
     2
 73
     0
 90
        0
 40
-0.6
 41
-30.0
 62
     5
 63
     7
421
 16777215
 74
     1
 91
        0
 64
     7
 65
   257
 75
     1
175
     1
 42
1.0
 92
        8
 66
     8
424
  7895160
 43
1.0
 76
     1
 77
     6
 78
     2
 67
     7
 79
     5
170
     0
171
     0
290
     0
174
     0
 93
       13
 44
0.0
173
     0
291
     0
 45
0.0
1001
ACAD
1000
AcDbSavedByObjectVersion
1070
     0
  0
VISUALSTYLE
  5
7CD
102
{ACAD_REACTORS
330
7C0
102
}
330
7C0
100
AcDbVisualStyle
  2
Thicken
 70
    13
 71
     2
 72
     2
 73
     0
 90
        0
 40
-0.6
 41
-30.0
 62
     5
 63
     7
421
 16777215
 74
     1
 91
        4
 64
     7
 65
   257
 75
     1
175
     1
 42
1.0
 92
       12
 66
     7
 43
1.0
 76
     1
 77
     6
 78
     2
 67
     7
 79
     5
170
     0
171
     0
290
     0
174
     0
 93
        1
 44
0.0
173
     0
291
     1
 45
0.0
1001
ACAD
1000
AcDbSavedByObjectVersion
1070
     0
  0
DICTIONARYVAR
  5
859
102
{ACAD_REACTORS
330
4D
102
}
330
4D
100
DictionaryVariables
280
     0
  1
1:1
  0
DICTIONARYVAR
  5
857
102
{ACAD_REACTORS
330
4D
102
}
330
4D
100
DictionaryVariables
280
     0
  1
STANDARD
  0
DICTIONARYVAR
  5
15F
102
{ACAD_REACTORS
330
4D
102
}
330
4D
100
DictionaryVariables
280
     0
  1
STANDARD
  0
DICTIONARYVAR
  5
4E
102
{ACAD_REACTORS
330
4D
102
}
330
4D
100
DictionaryVariables
280
     0
  1
1
  0
DICTIONARYVAR
  5
85A
102
{ACAD_REACTORS
330
4D
102
}
330
4D
100
DictionaryVariables
280
     0
  1
0
  0
DICTIONARYVAR
  5
858
102
{ACAD_REACTORS
330
4D
102
}
330
4D
100
DictionaryVariables
280
     0
  1
0
  0
DICTIONARY
  5
C7
102
{ACAD_REACTORS
330
BC
102
}
330
BC
100
AcDbDictionary
281
     1
  0
XRECORD
  5
156
102
{ACAD_REACTORS
330
BC
102
}
330
BC
100
AcDbXrecord
280
     1
 90
-1023410169
  0
XRECORD
  5
853
102
{ACAD_REACTORS
330
852
102
}
330
852
100
AcDbXrecord
280
     1
330
113D
330
1146
  0
DICTIONARY
  5
114D
330
7BE
100
AcDbDictionary
280
     1
281
     1
  3
ACAD_XREC_ROUNDTRIP
360
114E
  0
DICTIONARY
  5
114B
330
7BD
100
AcDbDictionary
280
     1
281
     1
  3
ACAD_XREC_ROUNDTRIP
360
114C
  0
DICTIONARY
  5
114F
330
7BF
100
AcDbDictionary
280
     1
281
     1
  3
ACAD_XREC_ROUNDTRIP
360
1150
  0
DICTIONARY
  5
854
330
142
100
AcDbDictionary
280
     1
281
     1
  3
ACAD_ROUNDTRIP_2008_TABLESTYLE_CELLSTYLEMAP
360
1147
  3
ACAD_XREC_ROUNDTRIP
360
114A
  0
XRECORD
  5
114E
102
{ACAD_REACTORS
330
114D
102
}
330
114D
100
AcDbXrecord
280
     1
102
MATERIAL
148
0.0
149
0.0
149
0.0
 93
        0
 94
       63
282
     0
 72
     1
 77
     1
171
     1
175
     1
179
     1
273
     0
  0
XRECORD
  5
114C
102
{ACAD_REACTORS
330
114B
102
}
330
114B
100
AcDbXrecord
280
     1
102
MATERIAL
148
0.0
149
0.0
149
0.0
 93
        0
 94
       63
282
     0
 72
     1
 77
     1
171
     1
175
     1
179
     1
273
     0
  0
XRECORD
  5
1150
102
{ACAD_REACTORS
330
114F
102
}
330
114F
100
AcDbXrecord
280
     1
102
MATERIAL
148
0.0
149
0.0
149
0.0
 93
        0
 94
       63
282
     0
 72
     1
 77
     1
171
     1
175
     1
179
     1
273
     0
  0
CELLSTYLEMAP
  5
1147
102
{ACAD_REACTORS
330
854
102
}
330
854
100
AcDbCellStyleMap
 90
        3
300
CELLSTYLE
  1
TABLEFORMAT_BEGIN
 90
        5
170
     1
 91
        0
 92
    32768
 62
   257
 93
        1
300
CONTENTFORMAT
  1
CONTENTFORMAT_BEGIN
 90
        0
 91
        0
 92
        4
 93
        0
300

 40
0.0
140
1.0
 94
        5
 62
     0
340
D
144
0.25
309
CONTENTFORMAT_END
171
     0
 94
        6
 95
        1
302
GRIDFORMAT
  1
GRIDFORMAT_BEGIN
 90
        0
 91
        1
 62
     0
 92
       -2
340
0
 93
        0
 40
0.045
309
GRIDFORMAT_END
 95
        2
302
GRIDFORMAT
  1
GRIDFORMAT_BEGIN
 90
        0
 91
        1
 62
     0
 92
       -2
340
0
 93
        0
 40
0.045
309
GRIDFORMAT_END
 95
        4
302
GRIDFORMAT
  1
GRIDFORMAT_BEGIN
 90
        0
 91
        1
 62
     0
 92
       -2
340
0
 93
        0
 40
0.045
309
GRIDFORMAT_END
 95
        8
302
GRIDFORMAT
  1
GRIDFORMAT_BEGIN
 90
        0
 91
        1
 62
     0
 92
       -2
340
0
 93
        0
 40
0.045
309
GRIDFORMAT_END
 95
       16
302
GRIDFORMAT
  1
GRIDFORMAT_BEGIN
 90
        0
 91
        1
 62
     0
 92
       -2
340
0
 93
        0
 40
0.045
309
GRIDFORMAT_END
 95
       32
302
GRIDFORMAT
  1
GRIDFORMAT_BEGIN
 90
        0
 91
        1
 62
     0
 92
       -2
340
0
 93
        0
 40
0.045
309
GRIDFORMAT_END
309
TABLEFORMAT_END
  1
CELLSTYLE_BEGIN
 90
        1
 91
        1
300
_TITLE
309
CELLSTYLE_END
300
CELLSTYLE
  1
TABLEFORMAT_BEGIN
 90
        5
170
     1
 91
        0
 92
        0
 62
   257
 93
        1
300
CONTENTFORMAT
  1
CONTENTFORMAT_BEGIN
 90
        0
 91
        0
 92
        4
 93
        0
300

 40
0.0
140
1.0
 94
        5
 62
     0
340
D
144
0.18
309
CONTENTFORMAT_END
171
     0
 94
        6
 95
        1
302
GRIDFORMAT
  1
GRIDFORMAT_BEGIN
 90
        0
 91
        1
 62
     0
 92
       -2
340
0
 93
        0
 40
0.045
309
GRIDFORMAT_END
 95
        2
302
GRIDFORMAT
  1
GRIDFORMAT_BEGIN
 90
        0
 91
        1
 62
     0
 92
       -2
340
0
 93
        0
 40
0.045
309
GRIDFORMAT_END
 95
        4
302
GRIDFORMAT
  1
GRIDFORMAT_BEGIN
 90
        0
 91
        1
 62
     0
 92
       -2
340
0
 93
        0
 40
0.045
309
GRIDFORMAT_END
 95
        8
302
GRIDFORMAT
  1
GRIDFORMAT_BEGIN
 90
        0
 91
        1
 62
     0
 92
       -2
340
0
 93
        0
 40
0.045
309
GRIDFORMAT_END
 95
       16
302
GRIDFORMAT
  1
GRIDFORMAT_BEGIN
 90
        0
 91
        1
 62
     0
 92
       -2
340
0
 93
        0
 40
0.045
309
GRIDFORMAT_END
 95
       32
302
GRIDFORMAT
  1
GRIDFORMAT_BEGIN
 90
        0
 91
        1
 62
     0
 92
       -2
340
0
 93
        0
 40
0.045
309
GRIDFORMAT_END
309
TABLEFORMAT_END
  1
CELLSTYLE_BEGIN
 90
        2
 91
        1
300
_HEADER
309
CELLSTYLE_END
300
CELLSTYLE
  1
TABLEFORMAT_BEGIN
 90
        5
170
     1
 91
        0
 92
        0
 62
   257
 93
        1
300
CONTENTFORMAT
  1
CONTENTFORMAT_BEGIN
 90
        0
 91
        0
 92
        4
 93
        0
300

 40
0.0
140
1.0
 94
        2
 62
     0
340
D
144
0.18
309
CONTENTFORMAT_END
171
     0
 94
        6
 95
        1
302
GRIDFORMAT
  1
GRIDFORMAT_BEGIN
 90
        0
 91
        1
 62
     0
 92
       -2
340
0
 93
        0
 40
0.045
309
GRIDFORMAT_END
 95
        2
302
GRIDFORMAT
  1
GRIDFORMAT_BEGIN
 90
        0
 91
        1
 62
     0
 92
       -2
340
0
 93
        0
 40
0.045
309
GRIDFORMAT_END
 95
        4
302
GRIDFORMAT
  1
GRIDFORMAT_BEGIN
 90
        0
 91
        1
 62
     0
 92
       -2
340
0
 93
        0
 40
0.045
309
GRIDFORMAT_END
 95
        8
302
GRIDFORMAT
  1
GRIDFORMAT_BEGIN
 90
        0
 91
        1
 62
     0
 92
       -2
340
0
 93
        0
 40
0.045
309
GRIDFORMAT_END
 95
       16
302
GRIDFORMAT
  1
GRIDFORMAT_BEGIN
 90
        0
 91
        1
 62
     0
 92
       -2
340
0
 93
        0
 40
0.045
309
GRIDFORMAT_END
 95
       32
302
GRIDFORMAT
  1
GRIDFORMAT_BEGIN
 90
        0
 91
        1
 62
     0
 92
       -2
340
0
 93
        0
 40
0.045
309
GRIDFORMAT_END
309
TABLEFORMAT_END
  1
CELLSTYLE_BEGIN
 90
        3
 91
        2
300
_DATA
309
CELLSTYLE_END
  0
XRECORD
  5
114A
102
{ACAD_REACTORS
330
854
102
}
330
854
100
AcDbXrecord
280
     1
102
ACAD_ROUNDTRIP_PRE2007_TABLESTYLE
 90
        4
 91
        0
  1

 92
        4
 93
        0
  2

 94
        4
 95
        0
  3

  0
ENDSEC
  0
EOF
