  0
SECTION
  2
HEADER
  9
$ACADVER
  1
AC1018
  9
$ACADMAINTVER
 70
   104
  9
$DWGCODEPAGE
  3
ANSI_1252
  9
$LASTSAVEDBY
  1
IBasyouni
  9
$INSBASE
 10
0.0
 20
0.0
 30
0.0
  9
$EXTMIN
 10
8.981324300381061
 20
11.19369584973162
 30
-0.0015258207003583
  9
$EXTMAX
 10
238.3552559283041
 20
281.141510721228
 30
0.0000000349246037
  9
$LIMMIN
 10
0.0
 20
0.0
  9
$LIMMAX
 10
250.0
 20
300.0
  9
$ORTHOMODE
 70
     1
  9
$REGENMODE
 70
     1
  9
$FILLMODE
 70
     1
  9
$QTEXTMODE
 70
     0
  9
$MIRRTEXT
 70
     1
  9
$LTSCALE
 40
1.0
  9
$ATTMODE
 70
     1
  9
$TEXTSIZE
 40
20.0
  9
$TRACEWID
 40
1.0
  9
$TEXTSTYLE
  7
STANDARD
  9
$CLAYER
  8
0
  9
$CELTYPE
  6
BYLAYER
  9
$CECOLOR
 62
   256
  9
$CELTSCALE
 40
10.0
  9
$DISPSILH
 70
     0
  9
$DIMSCALE
 40
1.0
  9
$DIMASZ
 40
2.5
  9
$DIMEXO
 40
1.0
  9
$DIMDLI
 40
10.0
  9
$DIMRND
 40
0.0
  9
$DIMDLE
 40
0.0
  9
$DIMEXE
 40
1.0
  9
$DIMTP
 40
0.1
  9
$DIMTM
 40
0.1
  9
$DIMTXT
 40
3.5
  9
$DIMCEN
 40
0.0
  9
$DIMTSZ
 40
0.0
  9
$DIMTOL
 70
     0
  9
$DIMLIM
 70
     0
  9
$DIMTIH
 70
     0
  9
$DIMTOH
 70
     0
  9
$DIMSE1
 70
     0
  9
$DIMSE2
 70
     0
  9
$DIMTAD
 70
     1
  9
$DIMZIN
 70
     8
  9
$DIMBLK
  1

  9
$DIMASO
 70
     1
  9
$DIMSHO
 70
     1
  9
$DIMPOST
  1

  9
$DIMAPOST
  1
"
  9
$DIMALT
 70
     0
  9
$DIMALTD
 70
     2
  9
$DIMALTF
 40
0.0393701
  9
$DIMLFAC
 40
1.0
  9
$DIMTOFL
 70
     1
  9
$DIMTVP
 40
0.0
  9
$DIMTIX
 70
     0
  9
$DIMSOXD
 70
     0
  9
$DIMSAH
 70
     0
  9
$DIMBLK1
  1

  9
$DIMBLK2
  1

  9
$DIMSTYLE
  2
AM_DIN
  9
$DIMCLRD
 70
   256
  9
$DIMCLRE
 70
   256
  9
$DIMCLRT
 70
     2
  9
$DIMTFAC
 40
0.71
  9
$DIMGAP
 40
1.5
  9
$DIMJUST
 70
     0
  9
$DIMSD1
 70
     0
  9
$DIMSD2
 70
     0
  9
$DIMTOLJ
 70
     0
  9
$DIMTZIN
 70
     8
  9
$DIMALTZ
 70
     0
  9
$DIMALTTZ
 70
     0
  9
$DIMUPT
 70
     0
  9
$DIMDEC
 70
     2
  9
$DIMTDEC
 70
     3
  9
$DIMALTU
 70
     2
  9
$DIMALTTD
 70
     4
  9
$DIMTXSTY
  7
STANDARD
  9
$DIMAUNIT
 70
     0
  9
$DIMADEC
 70
     0
  9
$DIMALTRND
 40
0.0
  9
$DIMAZIN
 70
     2
  9
$DIMDSEP
 70
    46
  9
$DIMATFIT
 70
     3
  9
$DIMFRAC
 70
     0
  9
$DIMLDRBLK
  1

  9
$DIMLUNIT
 70
     2
  9
$DIMLWD
 70
    -1
  9
$DIMLWE
 70
    -1
  9
$DIMTMOVE
 70
     0
  9
$LUNITS
 70
     2
  9
$LUPREC
 70
     2
  9
$SKETCHINC
 40
1.0
  9
$FILLETRAD
 40
2.5
  9
$AUNITS
 70
     0
  9
$AUPREC
 70
     0
  9
$MENU
  1
.
  9
$ELEVATION
 40
0.0
  9
$PELEVATION
 40
0.0
  9
$THICKNESS
 40
0.0
  9
$LIMCHECK
 70
     0
  9
$CHAMFERA
 40
2.5
  9
$CHAMFERB
 40
2.5
  9
$CHAMFERC
 40
0.0
  9
$CHAMFERD
 40
0.0
  9
$SKPOLY
 70
     0
  9
$TDCREATE
 40
2450382.390390463
  9
$TDUCREATE
 40
2450382.348723796
  9
$TDUPDATE
 40
2455985.708332651
  9
$TDUUPDATE
 40
2455985.666665984
  9
$TDINDWG
 40
0.3803082060
  9
$TDUSRTIMER
 40
0.3803082060
  9
$USRTIMER
 70
     1
  9
$ANGBASE
 50
0.0
  9
$ANGDIR
 70
     0
  9
$PDMODE
 70
     0
  9
$PDSIZE
 40
0.0
  9
$PLINEWID
 40
0.0
  9
$SPLFRAME
 70
     0
  9
$SPLINETYPE
 70
     6
  9
$SPLINESEGS
 70
     8
  9
$HANDSEED
  5
1253
  9
$SURFTAB1
 70
     6
  9
$SURFTAB2
 70
     6
  9
$SURFTYPE
 70
     6
  9
$SURFU
 70
     6
  9
$SURFV
 70
     6
  9
$UCSBASE
  2

  9
$UCSNAME
  2

  9
$UCSORG
 10
0.0
 20
0.0
 30
0.0
  9
$UCSXDIR
 10
1.0
 20
0.0
 30
0.0
  9
$UCSYDIR
 10
0.0
 20
1.0
 30
0.0
  9
$UCSORTHOREF
  2

  9
$UCSORTHOVIEW
 70
     0
  9
$UCSORGTOP
 10
0.0
 20
0.0
 30
0.0
  9
$UCSORGBOTTOM
 10
0.0
 20
0.0
 30
0.0
  9
$UCSORGLEFT
 10
0.0
 20
0.0
 30
0.0
  9
$UCSORGRIGHT
 10
0.0
 20
0.0
 30
0.0
  9
$UCSORGFRONT
 10
0.0
 20
0.0
 30
0.0
  9
$UCSORGBACK
 10
0.0
 20
0.0
 30
0.0
  9
$PUCSBASE
  2

  9
$PUCSNAME
  2

  9
$PUCSORG
 10
0.0
 20
0.0
 30
0.0
  9
$PUCSXDIR
 10
1.0
 20
0.0
 30
0.0
  9
$PUCSYDIR
 10
0.0
 20
1.0
 30
0.0
  9
$PUCSORTHOREF
  2

  9
$PUCSORTHOVIEW
 70
     0
  9
$PUCSORGTOP
 10
0.0
 20
0.0
 30
0.0
  9
$PUCSORGBOTTOM
 10
0.0
 20
0.0
 30
0.0
  9
$PUCSORGLEFT
 10
0.0
 20
0.0
 30
0.0
  9
$PUCSORGRIGHT
 10
0.0
 20
0.0
 30
0.0
  9
$PUCSORGFRONT
 10
0.0
 20
0.0
 30
0.0
  9
$PUCSORGBACK
 10
0.0
 20
0.0
 30
0.0
  9
$USERI1
 70
     0
  9
$USERI2
 70
     0
  9
$USERI3
 70
     0
  9
$USERI4
 70
     0
  9
$USERI5
 70
     0
  9
$USERR1
 40
0.0
  9
$USERR2
 40
0.0
  9
$USERR3
 40
0.0
  9
$USERR4
 40
0.0
  9
$USERR5
 40
0.0
  9
$WORLDVIEW
 70
     1
  9
$SHADEDGE
 70
     3
  9
$SHADEDIF
 70
    70
  9
$TILEMODE
 70
     1
  9
$MAXACTVP
 70
    16
  9
$PINSBASE
 10
0.0
 20
0.0
 30
0.0
  9
$PLIMCHECK
 70
     0
  9
$PEXTMIN
 10
1.000000000000000E+20
 20
1.000000000000000E+20
 30
1.000000000000000E+20
  9
$PEXTMAX
 10
-1.000000000000000E+20
 20
-1.000000000000000E+20
 30
-1.000000000000000E+20
  9
$PLIMMIN
 10
0.0
 20
0.0
  9
$PLIMMAX
 10
420.0
 20
297.0
  9
$UNITMODE
 70
     0
  9
$VISRETAIN
 70
     0
  9
$PLINEGEN
 70
     0
  9
$PSLTSCALE
 70
     0
  9
$TREEDEPTH
 70
  3020
  9
$CMLSTYLE
  2
STANDARD
  9
$CMLJUST
 70
     0
  9
$CMLSCALE
 40
1.0
  9
$PROXYGRAPHICS
 70
     1
  9
$MEASUREMENT
 70
     1
  9
$CELWEIGHT
370
    -1
  9
$ENDCAPS
280
     0
  9
$JOINSTYLE
280
     0
  9
$LWDISPLAY
290
     0
  9
$INSUNITS
 70
     4
  9
$HYPERLINKBASE
  1

  9
$STYLESHEET
  1
Zeich.ctb
  9
$XEDIT
290
     1
  9
$CEPSNTYPE
380
     0
  9
$PSTYLEMODE
290
     1
  9
$FINGERPRINTGUID
  2
{325BFBD5-B27C-480F-A6FD-52B59258B312}
  9
$VERSIONGUID
  2
{293ADC65-2206-4C73-874F-4C4AED1E7E94}
  9
$EXTNAMES
290
     1
  9
$PSVPSCALE
 40
0.0
  9
$OLESTARTUP
290
     0
  9
$SORTENTS
280
   127
  9
$INDEXCTL
280
     0
  9
$HIDETEXT
280
     0
  9
$XCLIPFRAME
290
     0
  9
$HALOGAP
280
     0
  9
$OBSCOLOR
 70
   257
  9
$OBSLTYPE
280
     0
  9
$INTERSECTIONDISPLAY
280
     0
  9
$INTERSECTIONCOLOR
 70
   257
  9
$DIMASSOC
280
     1
  9
$PROJECTNAME
  1

  0
ENDSEC
  0
SECTION
  2
CLASSES
  0
CLASS
  1
ACMESTATEMGR
  2
AcMeStateMgr
  3
AcMeServices
 90
     1024
 91
        1
280
     0
281
     0
  0
CLASS
  1
ACMESCOPE
  2
AcMeScope
  3
AcMeServices
 90
     1024
 91
        1
280
     0
281
     0
  0
CLASS
  1
ACMECOMMANDHISTORY
  2
AcMeCommandHistory
  3
AcMeServices
 90
     1024
 91
        1
280
     0
281
     0
  0
CLASS
  1
ACRFINSADJUSTERMGR
  2
AcRfInsAdjusterMgr
  3
AcMeServices
 90
     1024
 91
        1
280
     0
281
     0
  0
CLASS
  1
ACMEDRAWINGMAN
  2
AcMeDrawingMan
  3
AcMeServices
 90
     1024
 91
        1
280
     0
281
     0
  0
CLASS
  1
AMATTR
  2
AcMeAttribute
  3
AcMeServices
 90
     1024
 91
        0
280
     0
281
     0
  0
CLASS
  1
ACMEBOMCOLUMN
  2
AcMeBOMColumn
  3
AcMeServices
 90
     1024
 91
        0
280
     0
281
     0
  0
CLASS
  1
ACMEBOMCONF
  2
AcMeBOMConf
  3
AcMeServices
 90
     1024
 91
        0
280
     0
281
     0
  0
CLASS
  1
ACMEBOMTABLE
  2
AcMeBOMTable
  3
AcMeServices
 90
     1024
 91
        0
280
     0
281
     0
  0
CLASS
  1
ACMEBOMENTRY
  2
AcMeBOMEntry
  3
AcMeServices
 90
     1024
 91
        0
280
     0
281
     0
  0
CLASS
  1
ACMEVIEW
  2
AcMeView
  3
AcMeServices
 90
     1024
 91
        0
280
     0
281
     0
  0
CLASS
  1
DICTIONARYVAR
  2
AcDbDictionaryVar
  3
ObjectDBX Classes
 90
        0
 91
        6
280
     0
281
     0
  0
CLASS
  1
LAYER_INDEX
  2
AcDbLayerIndex
  3
ObjectDBX Classes
 90
        0
 91
        0
280
     0
281
     0
  0
CLASS
  1
IDBUFFER
  2
AcDbIdBuffer
  3
ObjectDBX Classes
 90
        0
 91
        0
280
     0
281
     0
  0
CLASS
  1
ACDBDICTIONARYWDFLT
  2
AcDbDictionaryWithDefault
  3
ObjectDBX Classes
 90
        0
 91
        1
280
     0
281
     0
  0
CLASS
  1
ACME_DOCUMENT
  2
AcMeDbDoc
  3
AcMeServices
 90
     1024
 91
        2
280
     0
281
     0
  0
CLASS
  1
AMGSETTINGSOBJ
  2
AmgSettingsObj
  3
"AcadM|Product Description: AutoCAD Mechanical|Company: Autodesk, Inc."
 90
     1024
 91
        4
280
     0
281
     0
  0
CLASS
  1
ACIMSYSVARMAN
  2
AcImSysVarManager
  3
AcMeServices
 90
     1024
 91
        5
280
     0
281
     0
  0
CLASS
  1
ACIMINTSYSVAR
  2
AcImIntSysVar
  3
AcMeServices
 90
     1024
 91
       28
280
     0
281
     0
  0
CLASS
  1
ACDBENTITYCACHE
  2
AcMeEntityCache
  3
AcMeServices
 90
     1024
 91
        1
280
     0
281
     0
  0
CLASS
  1
GSMANAGER
  2
AcMeGSManager
  3
AcMeServices
 90
     1024
 91
        1
280
     0
281
     0
  0
CLASS
  1
AMDTINTERNALREACTOR
  2
AmdtInternalReactor
  3
AcMeServices
 90
     1024
 91
        4
280
     0
281
     0
  0
CLASS
  1
ACGREFMASTER
  2
AcGrefMaster
  3
AcAttribServices
 90
     1024
 91
        1
280
     0
281
     0
  0
CLASS
  1
AM_DRAWING_MGR
  2
AcDmDwgMgr
  3
AcMechDwgViewMgmt
 90
     1024
 91
        1
280
     0
281
     0
  0
CLASS
  1
AM_DWG_DOCUMENT
  2
AcDmDwgDocument
  3
AcMechDwgViewMgmt
 90
     1024
 91
        1
280
     0
281
     0
  0
CLASS
  1
AM_DWG_SHEET
  2
AcDmSheet
  3
AcMechDwgViewMgmt
 90
     1024
 91
        1
280
     0
281
     0
  0
CLASS
  1
AM_VIEWDIMPARMAP
  2
AcDmViewDimParMap
  3
AcMechDwgViewMgmt
 90
     1024
 91
        1
280
     0
281
     0
  0
CLASS
  1
ACIMREALSYSVAR
  2
AcImRealSysVar
  3
AcMeServices
 90
     1024
 91
        1
280
     0
281
     0
  0
CLASS
  1
AM_DWGMGR_NAME
  2
AcDmDwgMgrName
  3
AcMechDwgViewMgmt
 90
     1024
 91
        1
280
     0
281
     0
  0
CLASS
  1
ACME_DATABASE
  2
AcMeDbDatabase
  3
AcMeServices
 90
     1024
 91
        4
280
     0
281
     0
  0
CLASS
  1
ACGREFACADMASTER
  2
AcGrefacadMaster
  3
AcGrefServices
 90
     1024
 91
        1
280
     0
281
     0
  0
CLASS
  1
AMDTMENUSTATEMGR
  2
AmdtMenuStateMgr
  3
McadcomServices
 90
     1024
 91
        1
280
     0
281
     0
  0
CLASS
  1
AMDTMCOMMENUSTATE
  2
AmdtMcomMenuState
  3
McadcomServices
 90
     1024
 91
        1
280
     0
281
     0
  0
CLASS
  1
AMIMASTER
  2
AmiMaster
  3
AmiServices
 90
     1024
 91
        1
280
     0
281
     0
  0
CLASS
  1
MAPIAMMOUDLE
  2
MApiAmModule
  3
MApiAmServices
 90
     1024
 91
        1
280
     0
281
     0
  0
CLASS
  1
AMDTADMENUSTATE
  2
AmdtAdMenuState
  3
DesignerServices
 90
     1024
 91
        1
280
     0
281
     0
  0
CLASS
  1
ADAPPL
  2
AcAdAppl
  3
DesignerServices
 90
     1024
 91
        1
280
     0
281
     0
  0
CLASS
  1
DEPMGR
  2
AcAdDepMgr
  3
DesignerServices
 90
     1024
 91
        1
280
     0
281
     0
  0
CLASS
  1
PARAMMGR
  2
AcAdParamMgr
  3
DesignerServices
 90
     1024
 91
        1
280
     0
281
     0
  0
CLASS
  1
PARAMSCOPE
  2
AcAdParamScope
  3
DesignerServices
 90
     1024
 91
        1
280
     0
281
     0
  0
CLASS
  1
NAMEDAPPL
  2
AcAdNamedAppl
  3
DesignerServices
 90
     1024
 91
        1
280
     0
281
     0
  0
CLASS
  1
AMDTDMMENUSTATE
  2
AmdtDmMenuState
  3
AcMechDwgViewMgmt
 90
     1024
 91
        1
280
     0
281
     0
  0
CLASS
  1
AMDTAMMENUSTATE
  2
AmdtAmMenuState
  3
DesignerAssemblies
 90
     1024
 91
        1
280
     0
281
     0
  0
CLASS
  1
ACIMSTRSYSVAR
  2
AcImStrSysVar
  3
AcMeServices
 90
     1024
 91
        5
280
     0
281
     0
  0
CLASS
  1
ACAMPROJECT
  2
AcAmProject
  3
DesignerAssemblies
 90
     1024
 91
        1
280
     0
281
     0
  0
CLASS
  1
ACAMGRCOMPDEF
  2
AcAmGrCompDef
  3
DesignerAssemblies
 90
     1024
 91
        1
280
     0
281
     0
  0
CLASS
  1
ACCMCONTEXT
  2
AcCmContext
  3
DesignerAssemblies
 90
     1024
 91
        1
280
     0
281
     0
  0
CLASS
  1
ACAMCOMPDEF
  2
AcAmCompDef
  3
DesignerAssemblies
 90
     1024
 91
        1
280
     0
281
     0
  0
CLASS
  1
ACAMCOMPDEFMGR
  2
AcAmCompDefMgr
  3
DesignerAssemblies
 90
     1024
 91
        1
280
     0
281
     0
  0
CLASS
  1
AMCONTEXTMGR
  2
AcAmContextMgr
  3
DesignerAssemblies
 90
     1024
 91
        1
280
     0
281
     0
  0
CLASS
  1
ACAMCONTEXTMODELER
  2
AcAmContextModeler
  3
DesignerAssemblies
 90
     1024
 91
        1
280
     0
281
     0
  0
CLASS
  1
ACMDATADICTIONARY
  2
AcmDataDictionary
  3
"AcmSymBB|Product Description: AutoCAD Mechanical|Company: Autodesk, Inc."
 90
     1024
 91
        1
280
     0
281
     0
  0
CLASS
  1
CATALOGSTATE
  2
AcAmCatalogState
  3
DesignerAssemblies
 90
     1024
 91
        1
280
     0
281
     0
  0
CLASS
  1
ACAMGRCOMPDEFSET
  2
AcAmGrCompDefSet
  3
DesignerAssemblies
 90
     1024
 91
        1
280
     0
281
     0
  0
CLASS
  1
AMDTBROWSERDBTAB
  2
AmdtBrowserDbTab
  3
McadcomServices
 90
     1024
 91
        1
280
     0
281
     0
  0
CLASS
  1
CBROWSERAPPOBJECT
  2
CBrowserAppObject
  3
McadcomServices
 90
     1024
 91
        3
280
     0
281
     0
  0
CLASS
  1
DM_PLACEHOLDER
  2
AcDmSelsetPlaceholder
  3
AcMechDwgViewMgmt
 90
     1024
 91
        1
280
     0
281
     0
  0
CLASS
  1
ACMSTANDARDANSI
  2
AcmStandardANSI
  3
"Amdt_StdImp|Product Description: AutoCAD Mechanical|Company: Autodesk, Inc."
 90
     1024
 91
        1
280
     0
281
     0
  0
CLASS
  1
AMGOBJPROPCFG
  2
AmgObjPropCfg
  3
"AmgLay|Product Description: AutoCAD Mechanical|Company: Autodesk, Inc."
 90
     1025
 91
        1
280
     0
281
     0
  0
CLASS
  1
ACMSURFSTANDARDANSI
  2
AcmSurfTextStdANSI
  3
"Amdt_StdImp|Product Description: AutoCAD Mechanical|Company: Autodesk, Inc."
 90
     1024
 91
        1
280
     0
281
     0
  0
CLASS
  1
ACMFCFSTANDARDANSI
  2
AcmFCFStdANSI
  3
"Amdt_StdImp|Product Description: AutoCAD Mechanical|Company: Autodesk, Inc."
 90
     1024
 91
        1
280
     0
281
     0
  0
CLASS
  1
ACMWELDSTANDARDANSI
  2
AcmWeldingStdANSI
  3
"Amdt_StdImp|Product Description: AutoCAD Mechanical|Company: Autodesk, Inc."
 90
     1024
 91
        1
280
     0
281
     0
  0
CLASS
  1
ACMIDSTANDARDANSI
  2
AcmIdStdANSI
  3
"Amdt_StdImp|Product Description: AutoCAD Mechanical|Company: Autodesk, Inc."
 90
     1024
 91
        1
280
     0
281
     0
  0
CLASS
  1
ACMDATUMSTANDARDANSI
  2
AcmDatumStdANSI
  3
"Amdt_StdImp|Product Description: AutoCAD Mechanical|Company: Autodesk, Inc."
 90
     1024
 91
        1
280
     0
281
     0
  0
CLASS
  1
ACMBOMSTANDARDANSI
  2
AcmBOMStdANSI
  3
"Amdt_StdImp|Product Description: AutoCAD Mechanical|Company: Autodesk, Inc."
 90
     1024
 91
        1
280
     0
281
     0
  0
CLASS
  1
ACMDETAILSTANDARDANSI
  2
AmdtDetailSymStdANSI
  3
"Amdt_StdImp|Product Description: AutoCAD Mechanical|Company: Autodesk, Inc."
 90
     1024
 91
        1
280
     0
281
     0
  0
CLASS
  1
ACMSECTIONSTANDARDANSI
  2
AmdtSectionSymStdANSI
  3
"Amdt_StdImp|Product Description: AutoCAD Mechanical|Company: Autodesk, Inc."
 90
     1024
 91
        1
280
     0
281
     0
  0
CLASS
  1
ACMCENTERLINESTANDARDANSI
  2
AmdtCenterLineStdANSI
  3
"Amdt_StdImp|Product Description: AutoCAD Mechanical|Company: Autodesk, Inc."
 90
     1024
 91
        1
280
     0
281
     0
  0
CLASS
  1
ACMTHREADLINESTANDARDANSI
  2
AmdtThreadLineStdANSI
  3
"Amdt_StdImp|Product Description: AutoCAD Mechanical|Company: Autodesk, Inc."
 90
     1024
 91
        1
280
     0
281
     0
  0
CLASS
  1
ACMNOTESTANDARDANSI
  2
AmdtNoteStdANSI
  3
"Amdt_StdImp|Product Description: AutoCAD Mechanical|Company: Autodesk, Inc."
 90
     1024
 91
        1
280
     0
281
     0
  0
CLASS
  1
AMDTNOTETEMPLATEDB
  2
AmdtNoteTemplateDB
  3
AcmSymBB|Product Description: AutoCAD Mechanical|Company: Autodesk, Inc.
 90
     1024
 91
       10
280
     0
281
     0
  0
CLASS
  1
ACAMGLAYSTD
  2
AcAmgLayStd
  3
"AmgLay|Product Description: AutoCAD Mechanical|Company: Autodesk, Inc."
 90
     1024
 91
        2
280
     0
281
     0
  0
CLASS
  1
ACAMGDIMSTD
  2
AcAmgDimStd
  3
"AmgDim|Product Description: AutoCAD Mechanical|Company: Autodesk, Inc."
 90
     1024
 91
        2
280
     0
281
     0
  0
CLASS
  1
ACAMGHOLECHARTSTDANSI
  2
AcAmgHoleChartStdANSI
  3
AmgDim|Product Description: AutoCAD Mechanical|Company: Autodesk, Inc.
 90
     1024
 91
        1
280
     0
281
     0
  0
CLASS
  1
ACAMGTITLESTD
  2
AcAmgTitleStd
  3
"AmgTitle|Product Description: AutoCAD Mechanical|Company: Autodesk, Inc."
 90
     4095
 91
        2
280
     0
281
     0
  0
CLASS
  1
ACAMGFILTERDAT
  2
AcAmgFilterDat
  3
"AcadM|Product Description: AutoCAD Mechanical|Company: Autodesk, Inc."
 90
     1024
 91
        6
280
     0
281
     0
  0
CLASS
  1
TABLESTYLE
  2
AcDbTableStyle
  3
ObjectDBX Classes
 90
     4095
 91
        1
280
     0
281
     0
  0
CLASS
  1
ACMDATAENTRYBLOCK
  2
AcmDataEntryBlock
  3
AcmSymBB|Product Description: AutoCAD Mechanical|Company: Autodesk, Inc.
 90
     1024
 91
        1
280
     0
281
     0
  0
CLASS
  1
AC_AM_2D_XREF_MGR
  2
AcAmXrefMgr2d
  3
DesignerAssemblies
 90
     1024
 91
        0
280
     0
281
     0
  0
CLASS
  1
SORTENTSTABLE
  2
AcDbSortentsTable
  3
ObjectDBX Classes
 90
        0
 91
        4
280
     0
281
     0
  0
CLASS
  1
VAACXREFPANELOBJECT
  2
VaAcXREFPanelObject
  3
VAAC_ADDIN
 90
        0
 91
        0
280
     0
281
     0
  0
CLASS
  1
VAACIMAGEINVENTORY
  2
VaAcImageInventory
  3
VAAC_ADDIN
 90
        0
 91
        0
280
     0
281
     0
  0
CLASS
  1
ACMDIMBREAKPERSREACTOR
  2
AcmDimBreakPersReactor
  3
AmgDim|Product Description: AutoCAD Mechanical|Company: Autodesk, Inc.
 90
     4095
 91
        1
280
     0
281
     0
  0
CLASS
  1
MATERIAL
  2
AcDbMaterial
  3
ObjectDBX Classes
 90
     1153
 91
        3
280
     0
281
     0
  0
CLASS
  1
VISUALSTYLE
  2
AcDbVisualStyle
  3
ObjectDBX Classes
 90
     4095
 91
       16
280
     0
281
     0
  0
CLASS
  1
ACMTAPERSTANDARDANSI
  2
AcmTaperStdANSI
  3
"Amdt_StdImp|Product Description: AutoCAD Mechanical|Company: Autodesk, Inc."
 90
     1024
 91
        1
280
     0
281
     0
  0
CLASS
  1
CAMSSTRUCTBTNSTATE
  2
StructBtnState
  3
DesignerAssemblies
 90
     1024
 91
        1
280
     0
281
     0
  0
CLASS
  1
SCALE
  2
AcDbScale
  3
ObjectDBX Classes
 90
     1153
 91
       33
280
     0
281
     0
  0
CLASS
  1
MLEADERSTYLE
  2
AcDbMLeaderStyle
  3
ACDB_MLEADERSTYLE_CLASS
 90
     4095
 91
        1
280
     0
281
     0
  0
CLASS
  1
ACMANOOTATIONVIEWSTANDARDANSI
  2
AmdtAnViewStdANSI
  3
"Amdt_StdImp|Product Description: AutoCAD Mechanical|Company: Autodesk, Inc."
 90
     1024
 91
        1
280
     0
281
     0
  0
CLASS
  1
CELLSTYLEMAP
  2
AcDbCellStyleMap
  3
ObjectDBX Classes
 90
     1152
 91
       11
280
     0
281
     0
  0
CLASS
  1
ACDBLINERES
  2
AcDbLineRes
  3
AcGrefServices
 90
     1024
 91
        1
280
     0
281
     0
  0
CLASS
  1
AMDTNOTE
  2
AmdtNote
  3
"AcmSymBB|Product Description: AutoCAD Mechanical|Company: Autodesk, Inc."
 90
     4095
 91
        4
280
     0
281
     1
  0
CLASS
  1
AMDTFORMULAUPDATEDISPATCHER
  2
AmdtFormulaUpdateDispatcher
  3
AcMeServices
 90
     1024
 91
        4
280
     0
281
     0
  0
CLASS
  1
ACMSTANDARDDIN
  2
AcmStandardDIN
  3
"Amdt_StdImp|Product Description: AutoCAD Mechanical|Company: Autodesk, Inc."
 90
     1024
 91
        1
280
     0
281
     0
  0
CLASS
  1
AMDTEDGESTANDARDDIN13715
  2
AmdtEdgeStdDIN13715
  3
"Amdt_StdImp|Product Description: AutoCAD Mechanical|Company: Autodesk, Inc."
 90
     1024
 91
        1
280
     0
281
     0
  0
CLASS
  1
ACMSURFSTANDARDDIN2002
  2
AcmSurfTextStdDIN2002
  3
"Amdt_StdImp|Product Description: AutoCAD Mechanical|Company: Autodesk, Inc."
 90
     1024
 91
        1
280
     0
281
     0
  0
CLASS
  1
ACMFCFSTANDARDDIN
  2
AcmFCFStdDIN
  3
"Amdt_StdImp|Product Description: AutoCAD Mechanical|Company: Autodesk, Inc."
 90
     1024
 91
        1
280
     0
281
     0
  0
CLASS
  1
ACMWELDSTANDARDDIN
  2
AcmWeldingStdDIN
  3
"Amdt_StdImp|Product Description: AutoCAD Mechanical|Company: Autodesk, Inc."
 90
     1024
 91
        1
280
     0
281
     0
  0
CLASS
  1
ACMIDSTANDARDDIN
  2
AcmIdStdDIN
  3
"Amdt_StdImp|Product Description: AutoCAD Mechanical|Company: Autodesk, Inc."
 90
     1024
 91
        1
280
     0
281
     0
  0
CLASS
  1
ACMDATUMSTANDARDDIN
  2
AcmDatumStdDIN
  3
"Amdt_StdImp|Product Description: AutoCAD Mechanical|Company: Autodesk, Inc."
 90
     1024
 91
        1
280
     0
281
     0
  0
CLASS
  1
ACMBOMSTANDARDDIN
  2
AcmBOMStdDIN
  3
"Amdt_StdImp|Product Description: AutoCAD Mechanical|Company: Autodesk, Inc."
 90
     1024
 91
        1
280
     0
281
     0
  0
CLASS
  1
ACMDETAILSTANDARDDIN
  2
AmdtDetailSymStdDIN
  3
"Amdt_StdImp|Product Description: AutoCAD Mechanical|Company: Autodesk, Inc."
 90
     1024
 91
        1
280
     0
281
     0
  0
CLASS
  1
ACMSECTIONSTANDARDDIN
  2
AmdtSectionSymStdDIN
  3
"Amdt_StdImp|Product Description: AutoCAD Mechanical|Company: Autodesk, Inc."
 90
     1024
 91
        1
280
     0
281
     0
  0
CLASS
  1
ACMCENTERLINESTANDARDDIN
  2
AmdtCenterLineStdDIN
  3
"Amdt_StdImp|Product Description: AutoCAD Mechanical|Company: Autodesk, Inc."
 90
     1024
 91
        1
280
     0
281
     0
  0
CLASS
  1
ACMTHREADLINESTANDARDDIN
  2
AmdtThreadLineStdDIN
  3
"Amdt_StdImp|Product Description: AutoCAD Mechanical|Company: Autodesk, Inc."
 90
     1024
 91
        1
280
     0
281
     0
  0
CLASS
  1
ACMNOTESTANDARDDIN
  2
AmdtNoteStdDIN
  3
"Amdt_StdImp|Product Description: AutoCAD Mechanical|Company: Autodesk, Inc."
 90
     1024
 91
        1
280
     0
281
     0
  0
CLASS
  1
ACMTAPERSTANDARDDIN
  2
AcmTaperStdDIN
  3
"Amdt_StdImp|Product Description: AutoCAD Mechanical|Company: Autodesk, Inc."
 90
     1024
 91
        1
280
     0
281
     0
  0
CLASS
  1
ACMANOOTATIONVIEWSTANDARDDIN
  2
AmdtAnViewStdDIN
  3
"Amdt_StdImp|Product Description: AutoCAD Mechanical|Company: Autodesk, Inc."
 90
     1024
 91
        1
280
     0
281
     0
  0
CLASS
  1
ACAMGHOLECHARTSTDDIN
  2
AcAmgHoleChartStdDIN
  3
AmgDim|Product Description: AutoCAD Mechanical|Company: Autodesk, Inc.
 90
     1024
 91
        1
280
     0
281
     0
  0
CLASS
  1
ACDBCIRCARCRES
  2
AcDbCircArcRes
  3
AcGrefServices
 90
     1024
 91
        1
280
     0
281
     0
  0
ENDSEC
  0
SECTION
  2
TABLES
  0
TABLE
  2
VPORT
  5
13
330
0
100
AcDbSymbolTable
 70
     1
  0
VPORT
  5
E4A
330
13
100
AcDbSymbolTableRecord
100
AcDbViewportTableRecord
  2
*Active
 70
     0
 10
0.0
 20
0.0
 11
1.0
 21
1.0
 12
125.0
 22
150.0
 13
0.0
 23
0.0
 14
2.5
 24
2.5
 15
10.0
 25
10.0
 16
0.0
 26
0.0
 36
1.0
 17
0.0
 27
0.0
 37
0.0
 40
300.0
 41
1.511511511511511
 42
50.0
 43
0.0
 44
0.0
 50
0.0
 51
0.0
 71
     0
 72
   100
 73
     1
 74
     0
 75
     0
 76
     0
 77
     0
 78
     0
281
     0
 65
     1
110
0.0
120
0.0
130
0.0
111
1.0
121
0.0
131
0.0
112
0.0
122
1.0
132
0.0
 79
     0
146
0.0
  0
ENDTAB
  0
TABLE
  2
LTYPE
  5
E
330
0
100
AcDbSymbolTable
 70
    26
  0
LTYPE
  5
F
330
E
100
AcDbSymbolTableRecord
100
AcDbLinetypeTableRecord
  2
BYBLOCK
 70
     0
  3

 72
    65
 73
     0
 40
0.0
  0
LTYPE
  5
10
330
E
100
AcDbSymbolTableRecord
100
AcDbLinetypeTableRecord
  2
BYLAYER
 70
     0
  3

 72
    65
 73
     0
 40
0.0
  0
LTYPE
  5
6
330
E
100
AcDbSymbolTableRecord
100
AcDbLinetypeTableRecord
  2
CONTINUOUS
 70
     0
  3
Solid line
 72
    65
 73
     0
 40
0.0
  0
LTYPE
  5
29
330
E
100
AcDbSymbolTableRecord
100
AcDbLinetypeTableRecord
  2
MITTE
 70
     0
  3
____ _ ____ _ ____ _ ____ _ ____ _ ____ _ ____ 
 72
    65
 73
     4
 40
2.0
 49
1.25
 74
     0
 49
-0.25
 74
     0
 49
0.25
 74
     0
 49
-0.25
 74
     0
  0
LTYPE
  5
81
330
E
100
AcDbSymbolTableRecord
100
AcDbLinetypeTableRecord
  2
HIDDEN
 70
     0
  3
Verdeckt
 72
    65
 73
     2
 40
0.375
 49
0.25
 74
     0
 49
-0.125
 74
     0
  0
LTYPE
  5
82
330
E
100
AcDbSymbolTableRecord
100
AcDbLinetypeTableRecord
  2
PHANTOM2
 70
     0
  3
Phantom (.5x) ___ _ _ ___ _ _ ___ _ _ ___ _ _
 72
    65
 73
     6
 40
1.25
 49
0.625
 74
     0
 49
-0.125
 74
     0
 49
0.125
 74
     0
 49
-0.125
 74
     0
 49
0.125
 74
     0
 49
-0.125
 74
     0
  0
LTYPE
  5
83
330
E
100
AcDbSymbolTableRecord
100
AcDbLinetypeTableRecord
  2
CENTER
 70
     0
  3
Mitte ____ _ ____ _ ____ _ ____ _ ____ _ ____
 72
    65
 73
     4
 40
2.0
 49
1.25
 74
     0
 49
-0.25
 74
     0
 49
0.25
 74
     0
 49
-0.25
 74
     0
  0
LTYPE
  5
CD
330
E
100
AcDbSymbolTableRecord
100
AcDbLinetypeTableRecord
  2
Amconstr
 70
     0
  3
_______________________
 72
    65
 73
     2
 40
9999.0
 49
9999.0
 74
     0
 49
0.0
 74
     0
  0
LTYPE
  5
D3
330
E
100
AcDbSymbolTableRecord
100
AcDbLinetypeTableRecord
  2
CENTER2
 70
     0
  3
Center (.5x) ___ _ ___ _ ___ _ ___ _ ___ _ ___
 72
    65
 73
     4
 40
1.125
 49
0.75
 74
     0
 49
-0.125
 74
     0
 49
0.125
 74
     0
 49
-0.125
 74
     0
  0
LTYPE
  5
D4
330
E
100
AcDbSymbolTableRecord
100
AcDbLinetypeTableRecord
  2
HIDDEN2
 70
     0
  3
Hidden (.5x) _ _ _ _ _ _ _ _ _ _ _ _ _ _ _ _ _
 72
    65
 73
     2
 40
0.1875
 49
0.125
 74
     0
 49
-0.0625
 74
     0
  0
LTYPE
  5
D5
330
E
100
AcDbSymbolTableRecord
100
AcDbLinetypeTableRecord
  2
Amzigzag2
 70
     0
  3
/\/-/\/-/\/-/\/-/\/-/\/
 72
    65
 73
     2
 40
0.4401
 49
0.0001
 74
     4
 75
   135
340
D1
 46
0.0016
 50
0.0
 44
0.0
 45
0.0
 49
-0.4400000000000001
 74
     0
  0
LTYPE
  5
E3
330
E
100
AcDbSymbolTableRecord
100
AcDbLinetypeTableRecord
  2
ACANSTGB
 70
     0
  3
__ . . __ . .
 72
    65
 73
     6
 40
0.35433070866
 49
0.15748031496
 74
     0
 49
-0.03937007874
 74
     0
 49
0.03937007874
 74
     0
 49
-0.03937007874
 74
     0
 49
0.03937007874
 74
     0
 49
-0.03937007874
 74
     0
  0
LTYPE
  5
E4
330
E
100
AcDbSymbolTableRecord
100
AcDbLinetypeTableRecord
  2
ACANSTGL
 70
     0
  3
_ _ _ _ _
 72
    65
 73
     2
 40
0.11811023622
 49
0.07874015748
 74
     0
 49
-0.03937007874
 74
     0
  0
LTYPE
  5
F5C
330
E
100
AcDbSymbolTableRecord
100
AcDbLinetypeTableRecord
  2
ACDINWELD
 70
     0
  3
_ _ _ _ _
 72
    65
 73
     2
 40
2.0
 49
2.0
 74
     0
 49
-1.0
 74
     0
  0
LTYPE
  5
F5D
330
E
100
AcDbSymbolTableRecord
100
AcDbLinetypeTableRecord
  2
ACDINTGB
 70
     0
  3
__ . . __ . .
 72
    65
 73
     6
 40
9.0
 49
4.0
 74
     0
 49
-1.0
 74
     0
 49
1.0
 74
     0
 49
-1.0
 74
     0
 49
1.0
 74
     0
 49
-1.0
 74
     0
  0
LTYPE
  5
F5E
330
E
100
AcDbSymbolTableRecord
100
AcDbLinetypeTableRecord
  2
ACDINTGL
 70
     0
  3
_ _ _ _ _
 72
    65
 73
     2
 40
3.0
 49
2.0
 74
     0
 49
-1.0
 74
     0
  0
LTYPE
  5
F78
330
E
100
AcDbSymbolTableRecord
100
AcDbLinetypeTableRecord
  2
Amzigzag
 70
     0
  3
/\/-/\/-/\/-/\/-/\/-/\/
 72
    65
 73
     2
 40
11.0001
 49
0.0001
 74
     4
 75
   136
340
F77
 46
0.04
 50
0.0
 44
0.0
 45
0.0
 49
-11.0
 74
     0
  0
LTYPE
  5
F79
330
E
100
AcDbSymbolTableRecord
100
AcDbLinetypeTableRecord
  2
AM_DIN_F_W050
 70
     0
  3
__ __ __ __ __ __ __ __ __ __ __ __ __ __ __
 72
    65
 73
     2
 40
6.25
 49
4.75
 74
     0
 49
-1.5
 74
     0
  0
LTYPE
  5
F7A
330
E
100
AcDbSymbolTableRecord
100
AcDbLinetypeTableRecord
  2
AM_DIN_G_W050
 70
     0
  3
____ . ____ . ____ . ____ . ____ . ____ . ____
 72
    65
 73
     4
 40
13.75
 49
9.75
 74
     0
 49
-1.5
 74
     0
 49
1.0
 74
     0
 49
-1.5
 74
     0
  0
LTYPE
  5
F7B
330
E
100
AcDbSymbolTableRecord
100
AcDbLinetypeTableRecord
  2
AM_DIN_K_W050
 70
     0
  3
_____ . . _____ . . _____ . . ____ .. ____
 72
    65
 73
     6
 40
16.25
 49
9.75
 74
     0
 49
-1.5
 74
     0
 49
1.0
 74
     0
 49
-1.5
 74
     0
 49
1.0
 74
     0
 49
-1.5
 74
     0
  0
LTYPE
  5
F7C
330
E
100
AcDbSymbolTableRecord
100
AcDbLinetypeTableRecord
  2
AM_DIN_G_W050x2
 70
     0
  3
__ . __ . __ . __ . __ . __
 72
    65
 73
     4
 40
6.875
 49
4.75
 74
     0
 49
-0.875
 74
     0
 49
0.375
 74
     0
 49
-0.875
 74
     0
  0
LTYPE
  5
F7D
330
E
100
AcDbSymbolTableRecord
100
AcDbLinetypeTableRecord
  2
AM_DIN_F_W050x2
 70
     0
  3
 _ _ _ _ _ _ _ _ _ _ _ _
 72
    65
 73
     2
 40
3.125
 49
2.25
 74
     0
 49
-0.875
 74
     0
  0
ENDTAB
  0
TABLE
  2
LAYER
  5
B
330
0
100
AcDbSymbolTable
 70
     9
  0
LAYER
  5
5
102
{ACAD_XDICTIONARY
360
F03
102
}
330
B
100
AcDbSymbolTableRecord
100
AcDbLayerTableRecord
  2
0
 70
     0
 62
     7
  6
CONTINUOUS
370
    -3
390
5D
  0
LAYER
  5
20
102
{ACAD_XDICTIONARY
360
F05
102
}
330
B
100
AcDbSymbolTableRecord
100
AcDbLayerTableRecord
  2
BEM
 70
     1
 62
     3
  6
CONTINUOUS
370
    -3
390
5D
  0
LAYER
  5
26
102
{ACAD_XDICTIONARY
360
F07
102
}
330
B
100
AcDbSymbolTableRecord
100
AcDbLayerTableRecord
  2
TEXT
 70
     0
 62
     2
  6
CONTINUOUS
370
    -3
390
5D
  0
LAYER
  5
28
102
{ACAD_XDICTIONARY
360
F09
102
}
330
B
100
AcDbSymbolTableRecord
100
AcDbLayerTableRecord
  2
MITTE
 70
     0
 62
     4
  6
MITTE
370
    -3
390
5D
  0
LAYER
  5
24
102
{ACAD_XDICTIONARY
360
F0B
102
}
330
B
100
AcDbSymbolTableRecord
100
AcDbLayerTableRecord
  2
LINIE
 70
     0
 62
     4
  6
CONTINUOUS
370
    -3
390
5D
  0
LAYER
  5
1E1
330
B
100
AcDbSymbolTableRecord
100
AcDbLayerTableRecord
  2
Defpoints
 70
     0
 62
     7
  6
CONTINUOUS
290
     0
370
    -3
390
5D
  0
ENDTAB
  0
TABLE
  2
STYLE
  5
C
330
0
100
AcDbSymbolTable
 70
    11
  0
STYLE
  5
D
330
C
100
AcDbSymbolTableRecord
100
AcDbTextStyleTableRecord
  2
STANDARD
 70
     0
 40
0.0
 41
1.0
 50
0.0
 71
     0
 42
20.0
  3
romans.shx
  4

  0
STYLE
  5
1C
330
C
100
AcDbSymbolTableRecord
100
AcDbTextStyleTableRecord
  2
STYLE1
 70
     0
 40
0.0
 41
1.0
 50
0.0
 71
     0
 42
20.0
  3

  4

1001
ACAD
1000
Arial Black
1071
       34
  0
STYLE
  5
D1
330
C
100
AcDbSymbolTableRecord
100
AcDbTextStyleTableRecord
  2

 70
     1
 40
0.0
 41
1.0
 50
0.0
 71
     0
 42
20.0
  3
ltypeshp.shx
  4

  0
STYLE
  5
D6
330
C
100
AcDbSymbolTableRecord
100
AcDbTextStyleTableRecord
  2
ACANSTS
 70
     0
 40
1.0
 41
1.0
 50
0.0
 71
     0
 42
20.0
  3
romans.shx
  4

  0
STYLE
  5
E2
330
C
100
AcDbSymbolTableRecord
100
AcDbTextStyleTableRecord
  2
ACANSGDT
 70
     0
 40
0.0
 41
1.0
 50
0.0
 71
     0
 42
20.0
  3
amgdtans.shx
  4

  0
STYLE
  5
F4C
330
C
100
AcDbSymbolTableRecord
100
AcDbTextStyleTableRecord
  2
ACDINTS
 70
     0
 40
1.0
 41
1.0
 50
0.0
 71
     0
 42
20.0
  3
isocp.shx
  4

  0
STYLE
  5
F5B
330
C
100
AcDbSymbolTableRecord
100
AcDbTextStyleTableRecord
  2
ACDINGDT
 70
     0
 40
0.0
 41
1.0
 50
0.0
 71
     0
 42
20.0
  3
amgdt.shx
  4

  0
STYLE
  5
F77
330
C
100
AcDbSymbolTableRecord
100
AcDbTextStyleTableRecord
  2

 70
     1
 40
0.0
 41
1.0
 50
0.0
 71
     0
 42
20.0
  3
genltshp.shx
  4

  0
ENDTAB
  0
TABLE
  2
VIEW
  5
11
330
0
100
AcDbSymbolTable
 70
     0
  0
ENDTAB
  0
TABLE
  2
UCS
  5
12
330
0
100
AcDbSymbolTable
 70
     0
  0
ENDTAB
  0
TABLE
  2
APPID
  5
15
330
0
100
AcDbSymbolTable
 70
    17
  0
APPID
  5
16
330
15
100
AcDbSymbolTableRecord
100
AcDbRegAppTableRecord
  2
ACAD
 70
     0
  0
APPID
  5
30
330
15
100
AcDbSymbolTableRecord
100
AcDbRegAppTableRecord
  2
MCAD_NO_VIS
 70
     0
  0
APPID
  5
6D
330
15
100
AcDbSymbolTableRecord
100
AcDbRegAppTableRecord
  2
ACAD_TEMP_GRAPHIC
 70
     0
  0
APPID
  5
98
330
15
100
AcDbSymbolTableRecord
100
AcDbRegAppTableRecord
  2
AD_DRAW
 70
     0
  0
APPID
  5
9B
330
15
100
AcDbSymbolTableRecord
100
AcDbRegAppTableRecord
  2
ACATTRIBSERVICES
 70
     0
  0
APPID
  5
B9
330
15
100
AcDbSymbolTableRecord
100
AcDbRegAppTableRecord
  2
DESIGNERASSEMBLIES
 70
     0
  0
APPID
  5
C1
330
15
100
AcDbSymbolTableRecord
100
AcDbRegAppTableRecord
  2
ACADM_DIM_EDIT
 70
     0
  0
APPID
  5
C2
330
15
100
AcDbSymbolTableRecord
100
AcDbRegAppTableRecord
  2
AMDT_DM_ADJ
 70
     0
  0
APPID
  5
49B
330
15
100
AcDbSymbolTableRecord
100
AcDbRegAppTableRecord
  2
ACAD_PSEXT
 70
     0
  0
APPID
  5
B80
330
15
100
AcDbSymbolTableRecord
100
AcDbRegAppTableRecord
  2
GENIUS_GENDTOL_13
 70
     0
  0
APPID
  5
EE8
330
15
100
AcDbSymbolTableRecord
100
AcDbRegAppTableRecord
  2
ACAD_MLEADERVER
 70
     0
  0
APPID
  5
F18
330
15
100
AcDbSymbolTableRecord
100
AcDbRegAppTableRecord
  2
DCO15
 70
     0
  0
APPID
  5
F43
330
15
100
AcDbSymbolTableRecord
100
AcDbRegAppTableRecord
  2
AcAecLayerStandard
 70
     0
  0
APPID
  5
F83
330
15
100
AcDbSymbolTableRecord
100
AcDbRegAppTableRecord
  2
AcadAnnoPO
 70
     0
  0
APPID
  5
FB0
330
15
100
AcDbSymbolTableRecord
100
AcDbRegAppTableRecord
  2
ACAD_DSTYLE_DIMINSPECT
 70
     0
  0
APPID
  5
122A
330
15
100
AcDbSymbolTableRecord
100
AcDbRegAppTableRecord
  2
ACAD_EXEMPT_FROM_CAD_STANDARDS
 70
     0
  0
APPID
  5
1250
330
15
100
AcDbSymbolTableRecord
100
AcDbRegAppTableRecord
  2
ACAD_DSTYLE_DIMJOGGED_JOGANGLE_SYMBOL
 70
     0
  0
ENDTAB
  0
TABLE
  2
DIMSTYLE
  5
17
330
0
100
AcDbSymbolTable
 70
    19
100
AcDbDimStyleTable
 71
     2
340
F68
340
1E
  0
DIMSTYLE
105
1E
102
{ACAD_REACTORS
330
21A
330
234
330
24F
330
25C
330
269
330
297
330
A5D
330
A77
330
B43
330
B2C
330
D5A
330
2B3
330
2A6
330
289
330
227
102
}
330
17
100
AcDbSymbolTableRecord
100
AcDbDimStyleTableRecord
  2
ISO-25
 70
     0
 41
3.5
 42
0.0
 43
7.0
 44
1.25
 73
     0
 74
     0
 77
     1
 78
     8
140
3.5
141
0.0
143
0.0394
144
0.5
145
1.0
147
1.5
172
     1
176
   256
177
   256
178
   256
284
     8
288
     1
340
D
  0
DIMSTYLE
105
EB
330
17
100
AcDbSymbolTableRecord
100
AcDbDimStyleTableRecord
  2
AM_ANSI
 70
     0
  4
mm
 41
0.1
 42
0.05
 43
0.5
 44
0.1
 47
0.1
 48
0.1
 78
     7
 79
     2
140
0.12
141
0.0
146
0.71
147
0.06
176
   256
177
   256
178
     2
274
     4
284
     7
340
D
371
    -1
372
    -1
  0
DIMSTYLE
105
EC
330
17
100
AcDbSymbolTableRecord
100
AcDbDimStyleTableRecord
  2
AM_ANSI$3
 70
     0
  4
mm
 41
0.1
 42
0.05
 43
0.5
 44
0.1
 47
0.1
 48
0.1
 78
     7
 79
     2
140
0.12
141
0.0
146
0.71
147
0.06
176
   256
177
   256
178
     2
274
     4
284
     7
288
     1
289
     0
340
D
371
    -1
372
    -1
  0
DIMSTYLE
105
ED
330
17
100
AcDbSymbolTableRecord
100
AcDbDimStyleTableRecord
  2
AM_ANSI$4
 70
     0
  4
mm
 41
0.1
 42
0.05
 43
0.5
 44
0.1
 47
0.1
 48
0.1
 78
     7
 79
     2
140
0.12
141
0.0
146
0.71
147
0.06
176
   256
177
   256
178
     2
274
     4
284
     7
288
     1
289
     0
340
D
371
    -1
372
    -1
  0
DIMSTYLE
105
EE
330
17
100
AcDbSymbolTableRecord
100
AcDbDimStyleTableRecord
  2
AM_ANSI$7
 70
     0
  4
mm
 41
0.1
 42
0.05
 43
0.5
 44
0.1
 47
0.1
 48
0.1
 78
     7
 79
     2
140
0.24
141
0.0
146
0.71
147
0.06
176
   256
177
   256
178
     2
274
     4
284
     7
340
D
371
    -1
372
    -1
  0
DIMSTYLE
105
EF
330
17
100
AcDbSymbolTableRecord
100
AcDbDimStyleTableRecord
  2
AM_ANSI$SF
 70
     0
  4
mm
 41
0.1
 42
0.05
 43
0.5
 44
0.1
 47
0.1
 48
0.1
 75
     1
 76
     1
 78
     7
 79
     2
140
0.12
141
0.0
146
0.71
147
0.06
176
   256
177
   256
178
     2
274
     4
284
     7
340
D
371
    -1
372
    -1
  0
DIMSTYLE
105
F4
330
17
100
AcDbSymbolTableRecord
100
AcDbDimStyleTableRecord
  2
AM_ANSI$SH
 70
     0
  4
mm
 41
0.1
 42
0.05
 43
0.5
 44
0.1
 47
0.1
 48
0.1
 75
     1
 76
     1
 78
     7
 79
     2
140
0.12
141
0.0
146
0.71
147
0.06
173
     1
176
   256
177
   256
178
     2
274
     4
284
     7
340
D
343
F0
371
    -1
372
    -1
  0
DIMSTYLE
105
38B
330
17
100
AcDbSymbolTableRecord
100
AcDbDimStyleTableRecord
  2
STANDARD
 70
     0
 41
3.5
 42
0.0
 43
7.0
 44
1.25
 73
     0
 74
     0
 77
     1
 78
     8
140
3.5
141
0.0
147
1.5
172
     1
176
   256
177
   256
178
   256
288
     1
340
D
  0
DIMSTYLE
105
F68
330
17
100
AcDbSymbolTableRecord
100
AcDbDimStyleTableRecord
  2
AM_DIN
 70
     0
  4
"
 41
2.5
 42
1.0
 43
10.0
 44
1.0
 47
0.1
 48
0.1
 73
     0
 74
     0
 77
     1
 78
     8
 79
     2
140
3.5
141
0.0
143
0.0393701
146
0.71
147
1.5
172
     1
176
   256
177
   256
178
     2
271
     2
272
     3
274
     4
283
     0
284
     8
340
D
371
    -1
372
    -1
1001
ACAD_DSTYLE_DIMJOGGED_JOGANGLE_SYMBOL
1070
   384
1040
1.570796326794896
  0
DIMSTYLE
105
F69
330
17
100
AcDbSymbolTableRecord
100
AcDbDimStyleTableRecord
  2
AM_DIN$3
 70
     0
  4
"
 41
2.5
 42
1.0
 43
10.0
 44
1.0
 47
0.1
 48
0.1
 73
     0
 77
     1
 78
     8
 79
     2
140
3.5
141
0.0
143
0.0393701
146
0.71
147
1.5
176
   256
177
   256
178
     2
271
     2
272
     3
274
     4
283
     0
284
     8
288
     1
289
     0
340
D
371
    -1
372
    -1
1001
ACAD_DSTYLE_DIMJOGGED_JOGANGLE_SYMBOL
1070
   384
1040
1.570796326794896
  0
DIMSTYLE
105
F6A
330
17
100
AcDbSymbolTableRecord
100
AcDbDimStyleTableRecord
  2
AM_DIN$4
 70
     0
  4
"
 41
2.5
 42
1.0
 43
10.0
 44
1.0
 47
0.1
 48
0.1
 73
     0
 77
     1
 78
     8
 79
     2
140
3.5
141
0.0
143
0.0393701
146
0.71
147
1.5
176
   256
177
   256
178
     2
271
     2
272
     3
274
     4
283
     0
284
     8
288
     1
289
     0
340
D
371
    -1
372
    -1
1001
ACAD_DSTYLE_DIMJOGGED_JOGANGLE_SYMBOL
1070
   384
1040
1.570796326794896
  0
DIMSTYLE
105
F6B
330
17
100
AcDbSymbolTableRecord
100
AcDbDimStyleTableRecord
  2
AM_DIN$6
 70
     0
  4
"
 41
2.5
 42
1.0
 43
10.0
 44
1.0
 47
0.1
 48
0.1
 73
     0
 74
     0
 78
     8
 79
     2
140
3.5
141
0.0
143
0.0393701
146
0.71
147
1.5
172
     1
176
   256
177
   256
178
     2
271
     2
272
     3
274
     4
283
     0
284
     8
340
D
371
    -1
372
    -1
1001
ACAD_DSTYLE_DIMJOGGED_JOGANGLE_SYMBOL
1070
   384
1040
1.570796326794896
  0
DIMSTYLE
105
F6C
330
17
100
AcDbSymbolTableRecord
100
AcDbDimStyleTableRecord
  2
AM_DIN$7
 70
     0
  4
"
 41
2.5
 42
1.0
 43
10.0
 44
1.0
 47
0.1
 48
0.1
 73
     0
 74
     0
 77
     1
 78
     8
 79
     2
140
5.0
141
0.0
143
0.0393701
146
0.71
147
1.5
172
     1
176
   256
177
   256
178
     2
271
     2
272
     3
274
     4
283
     0
284
     8
340
D
371
    -1
372
    -1
1001
ACAD_DSTYLE_DIMJOGGED_JOGANGLE_SYMBOL
1070
   384
1040
1.570796326794896
  0
DIMSTYLE
105
F6D
330
17
100
AcDbSymbolTableRecord
100
AcDbDimStyleTableRecord
  2
AM_DIN$SF
 70
     0
  4
"
 41
2.5
 42
1.0
 43
10.0
 44
1.0
 47
0.1
 48
0.1
 73
     0
 74
     0
 75
     1
 76
     1
 77
     1
 78
     8
 79
     2
140
3.5
141
0.0
143
0.0393701
146
0.71
147
1.5
172
     1
176
   256
177
   256
178
     2
271
     2
272
     3
274
     4
283
     0
284
     8
340
D
371
    -1
372
    -1
1001
ACAD_DSTYLE_DIMJOGGED_JOGANGLE_SYMBOL
1070
   384
1040
1.570796326794896
  0
DIMSTYLE
105
F6E
330
17
100
AcDbSymbolTableRecord
100
AcDbDimStyleTableRecord
  2
AM_DIN$SH
 70
     0
  4
"
 41
2.5
 42
1.0
 43
10.0
 44
1.0
 47
0.1
 48
0.1
 73
     0
 74
     0
 75
     1
 76
     1
 77
     1
 78
     8
 79
     2
140
3.5
141
0.0
143
0.0393701
144
2.0
146
0.71
147
1.5
172
     1
173
     1
176
   256
177
   256
178
     2
271
     2
272
     3
274
     4
283
     0
284
     8
340
D
343
F0
371
    -1
372
    -1
1001
ACAD_DSTYLE_DIMJOGGED_JOGANGLE_SYMBOL
1070
   384
1040
1.570796326794896
  0
ENDTAB
  0
TABLE
  2
BLOCK_RECORD
  5
1
330
0
100
AcDbSymbolTable
 70
    24
  0
BLOCK_RECORD
  5
2
102
{ACAD_XDICTIONARY
360
3
102
}
330
1
100
AcDbSymbolTableRecord
100
AcDbBlockTableRecord
  2
*MODEL_SPACE
340
62
  0
BLOCK_RECORD
  5
8
330
1
100
AcDbSymbolTableRecord
100
AcDbBlockTableRecord
  2
*PAPER_SPACE
340
63
  0
BLOCK_RECORD
  5
F0
330
1
100
AcDbSymbolTableRecord
100
AcDbBlockTableRecord
  2
GENAXEH
340
0
  0
BLOCK_RECORD
  5
21B
330
1
100
AcDbSymbolTableRecord
100
AcDbBlockTableRecord
  2
*D2
340
0
  0
BLOCK_RECORD
  5
228
330
1
100
AcDbSymbolTableRecord
100
AcDbBlockTableRecord
  2
*D3
340
0
  0
BLOCK_RECORD
  5
235
330
1
100
AcDbSymbolTableRecord
100
AcDbBlockTableRecord
  2
*D4
340
0
  0
BLOCK_RECORD
  5
250
330
1
100
AcDbSymbolTableRecord
100
AcDbBlockTableRecord
  2
*D5
340
0
  0
BLOCK_RECORD
  5
25D
330
1
100
AcDbSymbolTableRecord
100
AcDbBlockTableRecord
  2
*D6
340
0
  0
BLOCK_RECORD
  5
26A
330
1
100
AcDbSymbolTableRecord
100
AcDbBlockTableRecord
  2
*D7
340
0
  0
BLOCK_RECORD
  5
28A
330
1
100
AcDbSymbolTableRecord
100
AcDbBlockTableRecord
  2
*D8
340
0
  0
BLOCK_RECORD
  5
298
330
1
100
AcDbSymbolTableRecord
100
AcDbBlockTableRecord
  2
*D9
340
0
  0
BLOCK_RECORD
  5
2A7
330
1
100
AcDbSymbolTableRecord
100
AcDbBlockTableRecord
  2
*D10
340
0
  0
BLOCK_RECORD
  5
2B4
330
1
100
AcDbSymbolTableRecord
100
AcDbBlockTableRecord
  2
*D11
340
0
  0
BLOCK_RECORD
  5
A5E
330
1
100
AcDbSymbolTableRecord
100
AcDbBlockTableRecord
  2
*D12
340
0
  0
BLOCK_RECORD
  5
A78
330
1
100
AcDbSymbolTableRecord
100
AcDbBlockTableRecord
  2
*D13
340
0
  0
BLOCK_RECORD
  5
B44
330
1
100
AcDbSymbolTableRecord
100
AcDbBlockTableRecord
  2
*D14
340
0
  0
BLOCK_RECORD
  5
B50
330
1
100
AcDbSymbolTableRecord
100
AcDbBlockTableRecord
  2
*D15
340
0
  0
BLOCK_RECORD
  5
123D
330
1
100
AcDbSymbolTableRecord
100
AcDbBlockTableRecord
  2
*S23
340
0
  0
ENDTAB
  0
ENDSEC
  0
SECTION
  2
BLOCKS
  0
BLOCK
  5
4
330
2
100
AcDbEntity
  8
0
100
AcDbBlockBegin
  2
*MODEL_SPACE
 70
     0
 10
0.0
 20
0.0
 30
0.0
  3
*MODEL_SPACE
  1

  0
ENDBLK
  5
7
330
2
100
AcDbEntity
  8
0
100
AcDbBlockEnd
  0
BLOCK
  5
9
330
8
100
AcDbEntity
 67
     1
  8
0
100
AcDbBlockBegin
  2
*PAPER_SPACE
 70
     0
 10
0.0
 20
0.0
 30
0.0
  3
*PAPER_SPACE
  1

  0
ENDBLK
  5
A
330
8
100
AcDbEntity
 67
     1
  8
0
100
AcDbBlockEnd
  0
BLOCK
  5
F2
330
F0
100
AcDbEntity
  8
0
 48
10.0
100
AcDbBlockBegin
  2
GENAXEH
 70
     0
 10
0.0
 20
0.0
 30
0.0
  3
GENAXEH
  1

  0
LINE
  5
F1
330
F0
100
AcDbEntity
  8
0
100
AcDbLine
 10
-1.0
 20
0.0
 30
0.0
 11
1.0
 21
0.0
 31
0.0
  0
ENDBLK
  5
F3
330
F0
100
AcDbEntity
  8
0
 48
10.0
100
AcDbBlockEnd
  0
BLOCK
  5
225
330
21B
100
AcDbEntity
  8
0
 48
10.0
100
AcDbBlockBegin
  2
*D2
 70
     1
 10
0.0
 20
0.0
 30
0.0
  3
*D2
  1

  0
LINE
  5
11DC
330
21B
100
AcDbEntity
  8
BEM
 48
10.0
370
    -2
100
AcDbLine
 10
198.1854977671771
 20
162.7761681227037
 30
0.0
 11
238.3396213094225
 21
162.7761681227037
 31
0.0
  0
LINE
  5
11DD
330
21B
100
AcDbEntity
  8
BEM
 48
10.0
370
    -2
100
AcDbLine
 10
198.1854977671771
 20
106.7761681227038
 30
0.0
 11
238.3396213094225
 21
106.7761681227037
 31
0.0
  0
LINE
  5
11DE
330
21B
100
AcDbEntity
  8
BEM
 48
10.0
370
    -2
100
AcDbLine
 10
237.0896213094225
 20
159.2761681227037
 30
0.0
 11
237.0896213094225
 21
110.2761681227037
 31
0.0
  0
SOLID
  5
11DF
330
21B
100
AcDbEntity
  8
BEM
 48
10.0
100
AcDbTrace
 10
236.5062879760892
 20
159.2761681227037
 30
0.0
 11
237.6729546427558
 21
159.2761681227037
 31
0.0
 12
237.0896213094225
 22
162.7761681227037
 32
0.0
 13
237.0896213094225
 23
162.7761681227037
 33
0.0
  0
SOLID
  5
11E0
330
21B
100
AcDbEntity
  8
BEM
 48
10.0
100
AcDbTrace
 10
236.5062879760892
 20
110.2761681227037
 30
0.0
 11
237.6729546427558
 21
110.2761681227037
 31
0.0
 12
237.0896213094225
 22
106.7761681227037
 32
0.0
 13
237.0896213094225
 23
106.7761681227037
 33
0.0
  0
MTEXT
  5
11E1
330
21B
100
AcDbEntity
  8
BEM
 48
10.0
100
AcDbMText
 10
233.8396213094225
 20
134.7761681227038
 30
0.0
 40
3.5
 41
0.0
 71
     5
 72
     1
  1
\A1;56
 11
0.0000000000000001
 21
1.0
 31
0.0
 73
     1
 44
1.0
  0
POINT
  5
11E2
330
21B
100
AcDbEntity
  8
Defpoints
 62
     0
 48
10.0
100
AcDbPoint
 10
198.1854977671771
 20
162.7761681227037
 30
0.0
  0
POINT
  5
11E3
330
21B
100
AcDbEntity
  8
Defpoints
 62
     0
 48
10.0
100
AcDbPoint
 10
198.1854977671771
 20
106.7761681227038
 30
0.0
  0
POINT
  5
11E4
330
21B
100
AcDbEntity
  8
Defpoints
 62
     0
 48
10.0
100
AcDbPoint
 10
237.0896213094225
 20
106.7761681227037
 30
0.0
  0
ENDBLK
  5
226
330
21B
100
AcDbEntity
  8
0
 48
10.0
100
AcDbBlockEnd
  0
BLOCK
  5
232
330
228
100
AcDbEntity
  8
0
 48
10.0
100
AcDbBlockBegin
  2
*D3
 70
     1
 10
0.0
 20
0.0
 30
0.0
  3
*D3
  1

  0
LINE
  5
11E5
330
228
100
AcDbEntity
  8
BEM
 48
10.0
370
    -2
100
AcDbLine
 10
130.1648048989855
 20
134.7761681227038
 30
0.0
 11
110.6830635812966
 21
134.7761681227038
 31
0.0
  0
LINE
  5
11E6
330
228
100
AcDbEntity
  8
BEM
 48
10.0
370
    -2
100
AcDbLine
 10
132.1854977671771
 20
106.7761681227037
 30
0.0
 11
110.6830635812966
 21
106.7761681227037
 31
0.0
  0
LINE
  5
11E7
330
228
100
AcDbEntity
  8
BEM
 48
10.0
370
    -2
100
AcDbLine
 10
111.9330635812966
 20
131.2761681227038
 30
0.0
 11
111.9330635812966
 21
110.2761681227037
 31
0.0
  0
SOLID
  5
11E8
330
228
100
AcDbEntity
  8
BEM
 48
10.0
100
AcDbTrace
 10
111.3497302479633
 20
131.2761681227038
 30
0.0
 11
112.51639691463
 21
131.2761681227038
 31
0.0
 12
111.9330635812966
 22
134.7761681227038
 32
0.0
 13
111.9330635812966
 23
134.7761681227038
 33
0.0
  0
SOLID
  5
11E9
330
228
100
AcDbEntity
  8
BEM
 48
10.0
100
AcDbTrace
 10
111.3497302479633
 20
110.2761681227037
 30
0.0
 11
112.51639691463
 21
110.2761681227037
 31
0.0
 12
111.9330635812966
 22
106.7761681227037
 32
0.0
 13
111.9330635812966
 23
106.7761681227037
 33
0.0
  0
MTEXT
  5
11EA
330
228
100
AcDbEntity
  8
BEM
 48
10.0
100
AcDbMText
 10
108.6830635812966
 20
120.7761681227038
 30
0.0
 40
3.5
 41
0.0
 71
     5
 72
     1
  1
\A1;28{}{\H0.71x;\C3;%%p0.05}
 11
0.0000000000000001
 21
1.0
 31
0.0
 73
     1
 44
1.0
  0
POINT
  5
11EB
330
228
100
AcDbEntity
  8
Defpoints
 62
     0
 48
10.0
100
AcDbPoint
 10
130.1648048989855
 20
134.7761681227038
 30
0.0
  0
POINT
  5
11EC
330
228
100
AcDbEntity
  8
Defpoints
 62
     0
 48
10.0
100
AcDbPoint
 10
132.1854977671771
 20
106.7761681227037
 30
0.0
  0
POINT
  5
11ED
330
228
100
AcDbEntity
  8
Defpoints
 62
     0
 48
10.0
100
AcDbPoint
 10
111.9330635812966
 20
106.7761681227037
 30
0.0
  0
ENDBLK
  5
233
330
228
100
AcDbEntity
  8
0
 48
10.0
100
AcDbBlockEnd
  0
BLOCK
  5
241
330
235
100
AcDbEntity
  8
0
 48
10.0
100
AcDbBlockBegin
  2
*D4
 70
     1
 10
0.0
 20
0.0
 30
0.0
  3
*D4
  1

  0
LINE
  5
11EE
330
235
100
AcDbEntity
  8
BEM
 48
10.0
370
    -2
100
AcDbLine
 10
198.1854977671771
 20
136.7761681227038
 30
0.0
 11
215.765682943756
 21
136.7761681227038
 31
0.0
  0
LINE
  5
11EF
330
235
100
AcDbEntity
  8
BEM
 48
10.0
370
    -2
100
AcDbLine
 10
198.1854977671771
 20
132.7761681227038
 30
0.0
 11
215.765682943756
 21
132.7761681227038
 31
0.0
  0
LINE
  5
11F0
330
235
100
AcDbEntity
  8
BEM
 48
10.0
370
    -2
100
AcDbLine
 10
214.515682943756
 20
140.2761681227038
 30
0.0
 11
214.515682943756
 21
143.7761681227038
 31
0.0
  0
LINE
  5
11F1
330
235
100
AcDbEntity
  8
BEM
 48
10.0
370
    -2
100
AcDbLine
 10
214.515682943756
 20
129.2761681227038
 30
0.0
 11
214.515682943756
 21
120.2761681227038
 31
0.0
  0
LINE
  5
11F2
330
235
100
AcDbEntity
  8
BEM
 48
10.0
370
    -2
100
AcDbLine
 10
214.515682943756
 20
136.7761681227038
 30
0.0
 11
214.515682943756
 21
132.7761681227038
 31
0.0
  0
SOLID
  5
11F3
330
235
100
AcDbEntity
  8
BEM
 48
10.0
100
AcDbTrace
 10
213.9323496104227
 20
140.2761681227038
 30
0.0
 11
215.0990162770894
 21
140.2761681227038
 31
0.0
 12
214.515682943756
 22
136.7761681227038
 32
0.0
 13
214.515682943756
 23
136.7761681227038
 33
0.0
  0
SOLID
  5
11F4
330
235
100
AcDbEntity
  8
BEM
 48
10.0
100
AcDbTrace
 10
213.9323496104227
 20
129.2761681227038
 30
0.0
 11
215.0990162770894
 21
129.2761681227038
 31
0.0
 12
214.515682943756
 22
132.7761681227038
 32
0.0
 13
214.515682943756
 23
132.7761681227038
 33
0.0
  0
MTEXT
  5
11F5
330
235
100
AcDbEntity
  8
BEM
 48
10.0
100
AcDbMText
 10
211.265682943756
 20
123.0261681227038
 30
0.0
 40
3.5
 41
0.0
 71
     5
 72
     1
  1
\A1;4
 11
0.0000000000000001
 21
1.0
 31
0.0
 73
     1
 44
1.0
  0
POINT
  5
11F6
330
235
100
AcDbEntity
  8
Defpoints
 62
     0
 48
10.0
100
AcDbPoint
 10
198.1854977671771
 20
136.7761681227038
 30
0.0
  0
POINT
  5
11F7
330
235
100
AcDbEntity
  8
Defpoints
 62
     0
 48
10.0
100
AcDbPoint
 10
198.1854977671771
 20
132.7761681227038
 30
0.0
  0
POINT
  5
11F8
330
235
100
AcDbEntity
  8
Defpoints
 62
     0
 48
10.0
100
AcDbPoint
 10
214.515682943756
 20
132.7761681227038
 30
0.0
  0
ENDBLK
  5
242
330
235
100
AcDbEntity
  8
0
 48
10.0
100
AcDbBlockEnd
  0
BLOCK
  5
25A
330
250
100
AcDbEntity
  8
0
 48
10.0
100
AcDbBlockBegin
  2
*D5
 70
     1
 10
0.0
 20
0.0
 30
0.0
  3
*D5
  1

  0
LINE
  5
116C
330
250
100
AcDbEntity
  8
BEM
 48
10.0
370
    -2
100
AcDbLine
 10
86.70369368750334
 20
106.7761681227038
 30
0.0
 11
86.70369368750334
 21
92.85808335739671
 31
0.0
  0
LINE
  5
116D
330
250
100
AcDbEntity
  8
BEM
 48
10.0
370
    -2
100
AcDbLine
 10
26.70369368750335
 20
106.7761681227038
 30
0.0
 11
26.70369368750335
 21
92.85808335739671
 31
0.0
  0
LINE
  5
116E
330
250
100
AcDbEntity
  8
BEM
 48
10.0
370
    -2
100
AcDbLine
 10
83.20369368750334
 20
94.10808335739671
 30
0.0
 11
30.20369368750335
 21
94.10808335739671
 31
0.0
  0
SOLID
  5
116F
330
250
100
AcDbEntity
  8
BEM
 48
10.0
100
AcDbTrace
 10
83.20369368750334
 20
94.69141669073003
 30
0.0
 11
83.20369368750334
 21
93.52475002406338
 31
0.0
 12
86.70369368750334
 22
94.10808335739671
 32
0.0
 13
86.70369368750334
 23
94.10808335739671
 33
0.0
  0
SOLID
  5
1170
330
250
100
AcDbEntity
  8
BEM
 48
10.0
100
AcDbTrace
 10
30.20369368750335
 20
94.69141669073003
 30
0.0
 11
30.20369368750335
 21
93.52475002406338
 31
0.0
 12
26.70369368750335
 22
94.10808335739671
 32
0.0
 13
26.70369368750335
 23
94.10808335739671
 33
0.0
  0
MTEXT
  5
1171
330
250
100
AcDbEntity
  8
BEM
 48
10.0
100
AcDbMText
 10
56.70369368750335
 20
97.35808335739671
 30
0.0
 40
3.5
 41
0.0
 71
     5
 72
     1
  1
\A1;60
 73
     1
 44
1.0
  0
POINT
  5
1172
330
250
100
AcDbEntity
  8
Defpoints
 62
     0
 48
10.0
100
AcDbPoint
 10
86.70369368750334
 20
106.7761681227038
 30
0.0
  0
POINT
  5
1173
330
250
100
AcDbEntity
  8
Defpoints
 62
     0
 48
10.0
100
AcDbPoint
 10
26.70369368750335
 20
106.7761681227038
 30
0.0
  0
POINT
  5
1174
330
250
100
AcDbEntity
  8
Defpoints
 62
     0
 48
10.0
100
AcDbPoint
 10
26.70369368750335
 20
94.10808335739671
 30
0.0
  0
ENDBLK
  5
25B
330
250
100
AcDbEntity
  8
0
 48
10.0
100
AcDbBlockEnd
  0
BLOCK
  5
267
330
25D
100
AcDbEntity
  8
0
 48
10.0
100
AcDbBlockBegin
  2
*D6
 70
     1
 10
0.0
 20
0.0
 30
0.0
  3
*D6
  1

  0
LINE
  5
1175
330
25D
100
AcDbEntity
  8
BEM
 48
10.0
370
    -2
100
AcDbLine
 10
70.70369368750334
 20
261.2395975008902
 30
0.0
 11
70.70369368750334
 21
277.3773116952275
 31
0.0
  0
LINE
  5
1176
330
25D
100
AcDbEntity
  8
BEM
 48
10.0
370
    -2
100
AcDbLine
 10
86.70369368750334
 20
264.2395975008902
 30
0.0
 11
86.70369368750334
 21
277.3773116952275
 31
0.0
  0
LINE
  5
1177
330
25D
100
AcDbEntity
  8
BEM
 48
10.0
370
    -2
100
AcDbLine
 10
74.20369368750335
 20
276.1273116952275
 30
0.0
 11
83.20369368750334
 21
276.1273116952275
 31
0.0
  0
SOLID
  5
1178
330
25D
100
AcDbEntity
  8
BEM
 48
10.0
100
AcDbTrace
 10
74.20369368750335
 20
276.7106450285608
 30
0.0
 11
74.20369368750335
 21
275.5439783618942
 31
0.0
 12
70.70369368750334
 22
276.1273116952275
 32
0.0
 13
70.70369368750334
 23
276.1273116952275
 33
0.0
  0
SOLID
  5
1179
330
25D
100
AcDbEntity
  8
BEM
 48
10.0
100
AcDbTrace
 10
83.20369368750334
 20
276.7106450285608
 30
0.0
 11
83.20369368750334
 21
275.5439783618942
 31
0.0
 12
86.70369368750334
 22
276.1273116952275
 32
0.0
 13
86.70369368750334
 23
276.1273116952275
 33
0.0
  0
MTEXT
  5
117A
330
25D
100
AcDbEntity
  8
BEM
 48
10.0
100
AcDbMText
 10
77.7702985420808
 20
279.3773116952275
 30
0.0
 40
3.5
 41
0.0
 71
     5
 72
     1
  1
\A1;16{}{\H0.71x;\C3;%%p0.1}
 73
     1
 44
1.0
  0
POINT
  5
117B
330
25D
100
AcDbEntity
  8
Defpoints
 62
     0
 48
10.0
100
AcDbPoint
 10
70.70369368750334
 20
261.2395975008902
 30
0.0
  0
POINT
  5
117C
330
25D
100
AcDbEntity
  8
Defpoints
 62
     0
 48
10.0
100
AcDbPoint
 10
86.70369368750334
 20
264.2395975008902
 30
0.0
  0
POINT
  5
117D
330
25D
100
AcDbEntity
  8
Defpoints
 62
     0
 48
10.0
100
AcDbPoint
 10
86.70369368750334
 20
276.1273116952275
 30
0.0
  0
ENDBLK
  5
268
330
25D
100
AcDbEntity
  8
0
 48
10.0
100
AcDbBlockEnd
  0
BLOCK
  5
274
330
26A
100
AcDbEntity
  8
0
 48
10.0
100
AcDbBlockBegin
  2
*D7
 70
     1
 10
0.0
 20
0.0
 30
0.0
  3
*D7
  1

  0
LINE
  5
117E
330
26A
100
AcDbEntity
  8
BEM
 48
10.0
370
    -2
100
AcDbLine
 10
70.70369368750334
 20
261.2395975008902
 30
0.0
 11
70.70369368750334
 21
277.3773116952275
 31
0.0
  0
LINE
  5
117F
330
26A
100
AcDbEntity
  8
BEM
 48
10.0
370
    -2
100
AcDbLine
 10
42.70369368750334
 20
261.2395975008902
 30
0.0
 11
42.70369368750334
 21
277.3773116952275
 31
0.0
  0
LINE
  5
1180
330
26A
100
AcDbEntity
  8
BEM
 48
10.0
370
    -2
100
AcDbLine
 10
67.20369368750334
 20
276.1273116952275
 30
0.0
 11
46.20369368750334
 21
276.1273116952275
 31
0.0
  0
SOLID
  5
1181
330
26A
100
AcDbEntity
  8
BEM
 48
10.0
100
AcDbTrace
 10
67.20369368750334
 20
276.7106450285608
 30
0.0
 11
67.20369368750334
 21
275.5439783618942
 31
0.0
 12
70.70369368750334
 22
276.1273116952275
 32
0.0
 13
70.70369368750334
 23
276.1273116952275
 33
0.0
  0
SOLID
  5
1182
330
26A
100
AcDbEntity
  8
BEM
 48
10.0
100
AcDbTrace
 10
46.20369368750334
 20
276.7106450285608
 30
0.0
 11
46.20369368750334
 21
275.5439783618942
 31
0.0
 12
42.70369368750334
 22
276.1273116952275
 32
0.0
 13
42.70369368750334
 23
276.1273116952275
 33
0.0
  0
MTEXT
  5
1183
330
26A
100
AcDbEntity
  8
BEM
 48
10.0
100
AcDbMText
 10
56.70369368750335
 20
279.3773116952275
 30
0.0
 40
3.5
 41
0.0
 71
     5
 72
     1
  1
\A1;28{}{\H0.71x;\C3;%%p0.05}
 73
     1
 44
1.0
  0
POINT
  5
1184
330
26A
100
AcDbEntity
  8
Defpoints
 62
     0
 48
10.0
100
AcDbPoint
 10
70.70369368750334
 20
261.2395975008902
 30
0.0
  0
POINT
  5
1185
330
26A
100
AcDbEntity
  8
Defpoints
 62
     0
 48
10.0
100
AcDbPoint
 10
42.70369368750334
 20
261.2395975008902
 30
0.0
  0
POINT
  5
1186
330
26A
100
AcDbEntity
  8
Defpoints
 62
     0
 48
10.0
100
AcDbPoint
 10
42.70369368750334
 20
276.1273116952275
 30
0.0
  0
ENDBLK
  5
275
330
26A
100
AcDbEntity
  8
0
 48
10.0
100
AcDbBlockEnd
  0
BLOCK
  5
295
330
28A
100
AcDbEntity
  8
0
 48
10.0
100
AcDbBlockBegin
  2
*D8
 70
     1
 10
0.0
 20
0.0
 30
0.0
  3
*D8
  1

  0
LINE
  5
11D1
330
28A
100
AcDbEntity
  8
BEM
 48
10.0
370
    -2
100
AcDbLine
 10
56.70369368750335
 20
201.2395975008902
 30
0.0
 11
56.70369368750335
 21
188.8686196288989
 31
0.0
  0
LINE
  5
11D2
330
28A
100
AcDbEntity
  8
BEM
 48
10.0
370
    -2
100
AcDbLine
 10
70.70369368750334
 20
201.2395975008902
 30
0.0
 11
70.70369368750334
 21
176.0696338599283
 31
0.0
  0
LINE
  5
11D3
330
28A
100
AcDbEntity
  8
BEM
 48
10.0
370
    -2
100
AcDbLine
 10
60.20369368750334
 20
177.3196338599283
 30
0.0
 11
67.20369368750334
 21
177.3196338599283
 31
0.0
  0
LINE
  5
11D4
330
28A
100
AcDbEntity
  8
BEM
 48
10.0
370
    -2
100
AcDbLine
 10
70.70369368750334
 20
177.3196338599283
 30
0.0
 11
93.87536035417001
 21
177.3196338599283
 31
0.0
  0
SOLID
  5
11D5
330
28A
100
AcDbEntity
  8
BEM
 48
10.0
100
AcDbTrace
 10
60.20369368750334
 20
177.9029671932617
 30
0.0
 11
60.20369368750334
 21
176.736300526595
 31
0.0
 12
56.70369368750335
 22
177.3196338599283
 32
0.0
 13
56.70369368750335
 23
177.3196338599283
 33
0.0
  0
SOLID
  5
11D6
330
28A
100
AcDbEntity
  8
BEM
 48
10.0
100
AcDbTrace
 10
67.20369368750334
 20
177.9029671932617
 30
0.0
 11
67.20369368750334
 21
176.736300526595
 31
0.0
 12
70.70369368750334
 22
177.3196338599283
 32
0.0
 13
70.70369368750334
 23
177.3196338599283
 33
0.0
  0
MTEXT
  5
11D7
330
28A
100
AcDbEntity
  8
BEM
 48
10.0
100
AcDbMText
 10
84.03952702083669
 20
180.5696338599283
 30
0.0
 40
3.5
 41
0.0
 71
     5
 72
     1
  1
\A1;14{}{\H0.71x;\C3;%%p0.05}
 73
     1
 44
1.0
  0
POINT
  5
11D8
330
28A
100
AcDbEntity
  8
Defpoints
 62
     0
 48
10.0
100
AcDbPoint
 10
56.70369368750335
 20
201.2395975008902
 30
0.0
  0
POINT
  5
11D9
330
28A
100
AcDbEntity
  8
Defpoints
 62
     0
 48
10.0
100
AcDbPoint
 10
70.70369368750334
 20
201.2395975008902
 30
0.0
  0
POINT
  5
11DA
330
28A
100
AcDbEntity
  8
Defpoints
 62
     0
 48
10.0
100
AcDbPoint
 10
70.70369368750334
 20
177.3196338599283
 30
0.0
  0
LINE
  5
11DB
330
28A
100
AcDbEntity
  8
BEM
 48
10.0
370
    -2
100
AcDbLine
 10
56.70369368750335
 20
181.3233300076084
 30
0.0
 11
56.70369368750335
 21
176.0696338599283
 31
0.0
  0
ENDBLK
  5
296
330
28A
100
AcDbEntity
  8
0
 48
10.0
100
AcDbBlockEnd
  0
BLOCK
  5
2A4
330
298
100
AcDbEntity
  8
0
 48
10.0
100
AcDbBlockBegin
  2
*D9
 70
     1
 10
0.0
 20
0.0
 30
0.0
  3
*D9
  1

  0
LINE
  5
1191
330
298
100
AcDbEntity
  8
BEM
 48
10.0
370
    -2
100
AcDbLine
 10
54.20369368750335
 20
205.2395975008902
 30
0.0
 11
54.20369368750335
 21
183.5071004452895
 31
0.0
  0
LINE
  5
1192
330
298
100
AcDbEntity
  8
BEM
 48
10.0
370
    -2
100
AcDbLine
 10
59.20369368750335
 20
205.2395975008902
 30
0.0
 11
59.20369368750335
 21
183.5071004452895
 31
0.0
  0
LINE
  5
1193
330
298
100
AcDbEntity
  8
BEM
 48
10.0
370
    -2
100
AcDbLine
 10
62.70369368750334
 20
184.7571004452895
 30
0.0
 11
66.20369368750335
 21
184.7571004452895
 31
0.0
  0
LINE
  5
1194
330
298
100
AcDbEntity
  8
BEM
 48
10.0
370
    -2
100
AcDbLine
 10
50.70369368750334
 20
184.7571004452895
 30
0.0
 11
31.10369368750335
 21
184.7571004452895
 31
0.0
  0
LINE
  5
1195
330
298
100
AcDbEntity
  8
BEM
 48
10.0
370
    -2
100
AcDbLine
 10
59.20369368750335
 20
184.7571004452895
 30
0.0
 11
54.20369368750335
 21
184.7571004452895
 31
0.0
  0
SOLID
  5
1196
330
298
100
AcDbEntity
  8
BEM
 48
10.0
100
AcDbTrace
 10
62.70369368750334
 20
185.3404337786229
 30
0.0
 11
62.70369368750334
 21
184.1737671119562
 31
0.0
 12
59.20369368750335
 22
184.7571004452895
 32
0.0
 13
59.20369368750335
 23
184.7571004452895
 33
0.0
  0
SOLID
  5
1197
330
298
100
AcDbEntity
  8
BEM
 48
10.0
100
AcDbTrace
 10
50.70369368750334
 20
185.3404337786229
 30
0.0
 11
50.70369368750334
 21
184.1737671119562
 31
0.0
 12
54.20369368750335
 22
184.7571004452895
 32
0.0
 13
54.20369368750335
 23
184.7571004452895
 33
0.0
  0
MTEXT
  5
1198
330
298
100
AcDbEntity
  8
BEM
 48
10.0
100
AcDbMText
 10
39.15369368750335
 20
188.0071004452895
 30
0.0
 40
3.5
 41
0.0
 71
     5
 72
     1
  1
\A1;%%c5{}{\H0.71x;\C3; H7}
 73
     1
 44
1.0
  0
POINT
  5
1199
330
298
100
AcDbEntity
  8
Defpoints
 62
     0
 48
10.0
100
AcDbPoint
 10
54.20369368750335
 20
205.2395975008902
 30
0.0
  0
POINT
  5
119A
330
298
100
AcDbEntity
  8
Defpoints
 62
     0
 48
10.0
100
AcDbPoint
 10
59.20369368750335
 20
205.2395975008902
 30
0.0
  0
POINT
  5
119B
330
298
100
AcDbEntity
  8
Defpoints
 62
     0
 48
10.0
100
AcDbPoint
 10
59.20369368750335
 20
184.7571004452895
 30
0.0
  0
ENDBLK
  5
2A5
330
298
100
AcDbEntity
  8
0
 48
10.0
100
AcDbBlockEnd
  0
BLOCK
  5
2B1
330
2A7
100
AcDbEntity
  8
0
 48
10.0
100
AcDbBlockBegin
  2
*D10
 70
     1
 10
0.0
 20
0.0
 30
0.0
  3
*D10
  1

  0
LINE
  5
119C
330
2A7
100
AcDbEntity
  8
BEM
 48
10.0
370
    -2
100
AcDbLine
 10
74.70369368750334
 20
257.2395975008902
 30
0.0
 11
63.8898055954824
 21
257.2395975008902
 31
0.0
  0
LINE
  5
119D
330
2A7
100
AcDbEntity
  8
BEM
 48
10.0
370
    -2
100
AcDbLine
 10
74.70369368750334
 20
205.2395975008902
 30
0.0
 11
63.88980559548238
 21
205.2395975008903
 31
0.0
  0
LINE
  5
119E
330
2A7
100
AcDbEntity
  8
BEM
 48
10.0
370
    -2
100
AcDbLine
 10
65.1398055954824
 20
253.7395975008902
 30
0.0
 11
65.13980559548238
 21
208.7395975008902
 31
0.0
  0
SOLID
  5
119F
330
2A7
100
AcDbEntity
  8
BEM
 48
10.0
100
AcDbTrace
 10
64.55647226214907
 20
253.7395975008902
 30
0.0
 11
65.72313892881573
 21
253.7395975008902
 31
0.0
 12
65.1398055954824
 22
257.2395975008902
 32
0.0
 13
65.1398055954824
 23
257.2395975008902
 33
0.0
  0
SOLID
  5
11A0
330
2A7
100
AcDbEntity
  8
BEM
 48
10.0
100
AcDbTrace
 10
64.55647226214906
 20
208.7395975008902
 30
0.0
 11
65.72313892881571
 21
208.7395975008902
 31
0.0
 12
65.13980559548238
 22
205.2395975008902
 32
0.0
 13
65.13980559548238
 23
205.2395975008902
 33
0.0
  0
MTEXT
  5
11A1
330
2A7
100
AcDbEntity
  8
BEM
 48
10.0
100
AcDbMText
 10
61.88980559548236
 20
231.2395975008902
 30
0.0
 40
3.5
 41
0.0
 71
     5
 72
     1
  1
\A1;52{}{\H0.71x;\C3;%%p0.05}
 11
0.0000000000000001
 21
1.0
 31
0.0
 73
     1
 44
1.0
  0
POINT
  5
11A2
330
2A7
100
AcDbEntity
  8
Defpoints
 62
     0
 48
10.0
100
AcDbPoint
 10
74.70369368750334
 20
257.2395975008902
 30
0.0
  0
POINT
  5
11A3
330
2A7
100
AcDbEntity
  8
Defpoints
 62
     0
 48
10.0
100
AcDbPoint
 10
74.70369368750334
 20
205.2395975008902
 30
0.0
  0
POINT
  5
11A4
330
2A7
100
AcDbEntity
  8
Defpoints
 62
     0
 48
10.0
100
AcDbPoint
 10
65.13980559548238
 20
205.2395975008902
 30
0.0
  0
ENDBLK
  5
2B2
330
2A7
100
AcDbEntity
  8
0
 48
10.0
100
AcDbBlockEnd
  0
BLOCK
  5
2BE
330
2B4
100
AcDbEntity
  8
0
 48
10.0
100
AcDbBlockBegin
  2
*D11
 70
     1
 10
0.0
 20
0.0
 30
0.0
  3
*D11
  1

  0
LINE
  5
11A5
330
2B4
100
AcDbEntity
  8
BEM
 48
10.0
370
    -2
100
AcDbLine
 10
52.70369368750334
 20
257.2395975008902
 30
0.0
 11
50.50636552180346
 21
257.2395975008902
 31
0.0
  0
LINE
  5
11A6
330
2B4
100
AcDbEntity
  8
BEM
 48
10.0
370
    -2
100
AcDbLine
 10
52.70369368750334
 20
205.2395975008902
 30
0.0
 11
50.50636552180344
 21
205.2395975008902
 31
0.0
  0
LINE
  5
11A7
330
2B4
100
AcDbEntity
  8
BEM
 48
10.0
370
    -2
100
AcDbLine
 10
51.75636552180346
 20
253.7395975008902
 30
0.0
 11
51.75636552180345
 21
208.7395975008902
 31
0.0
  0
SOLID
  5
11A8
330
2B4
100
AcDbEntity
  8
BEM
 48
10.0
100
AcDbTrace
 10
51.17303218847013
 20
253.7395975008902
 30
0.0
 11
52.3396988551368
 21
253.7395975008902
 31
0.0
 12
51.75636552180346
 22
257.2395975008902
 32
0.0
 13
51.75636552180346
 23
257.2395975008902
 33
0.0
  0
SOLID
  5
11A9
330
2B4
100
AcDbEntity
  8
BEM
 48
10.0
100
AcDbTrace
 10
51.17303218847012
 20
208.7395975008902
 30
0.0
 11
52.33969885513679
 21
208.7395975008902
 31
0.0
 12
51.75636552180344
 22
205.2395975008902
 32
0.0
 13
51.75636552180344
 23
205.2395975008902
 33
0.0
  0
MTEXT
  5
11AA
330
2B4
100
AcDbEntity
  8
BEM
 48
10.0
100
AcDbMText
 10
48.50636552180342
 20
231.2395975008902
 30
0.0
 40
3.5
 41
0.0
 71
     5
 72
     1
  1
\A1;52{}{\H0.71x;\C3;%%p0.01}
 11
0.0000000000000001
 21
1.0
 31
0.0
 73
     1
 44
1.0
  0
POINT
  5
11AB
330
2B4
100
AcDbEntity
  8
Defpoints
 62
     0
 48
10.0
100
AcDbPoint
 10
52.70369368750334
 20
257.2395975008902
 30
0.0
  0
POINT
  5
11AC
330
2B4
100
AcDbEntity
  8
Defpoints
 62
     0
 48
10.0
100
AcDbPoint
 10
52.70369368750334
 20
205.2395975008902
 30
0.0
  0
POINT
  5
11AD
330
2B4
100
AcDbEntity
  8
Defpoints
 62
     0
 48
10.0
100
AcDbPoint
 10
51.75636552180344
 20
205.2395975008902
 30
0.0
  0
ENDBLK
  5
2BF
330
2B4
100
AcDbEntity
  8
0
 48
10.0
100
AcDbBlockEnd
  0
BLOCK
  5
A68
330
A5E
100
AcDbEntity
  8
0
 48
10.0
100
AcDbBlockBegin
  2
*D12
 70
     1
 10
0.0
 20
0.0
 30
0.0
  3
*D12
  1

  0
LINE
  5
11F9
330
A5E
100
AcDbEntity
  8
BEM
 48
10.0
370
    -2
100
AcDbLine
 10
139.1854977671771
 20
104.3210685708221
 30
0.0
 11
139.1854977671771
 21
92.26974848166197
 31
0.0
  0
LINE
  5
11FA
330
A5E
100
AcDbEntity
  8
BEM
 48
10.0
370
    -2
100
AcDbLine
 10
191.1854977671771
 20
104.6611303328091
 30
0.0
 11
191.1854977671771
 21
92.26974848166197
 31
0.0
  0
LINE
  5
11FB
330
A5E
100
AcDbEntity
  8
BEM
 48
10.0
370
    -2
100
AcDbLine
 10
142.6854977671771
 20
93.51974848166197
 30
0.0
 11
187.6854977671771
 21
93.51974848166197
 31
0.0
  0
SOLID
  5
11FC
330
A5E
100
AcDbEntity
  8
BEM
 48
10.0
100
AcDbTrace
 10
142.6854977671771
 20
94.10308181499528
 30
0.0
 11
142.6854977671771
 21
92.93641514832863
 31
0.0
 12
139.1854977671771
 22
93.51974848166197
 32
0.0
 13
139.1854977671771
 23
93.51974848166197
 33
0.0
  0
SOLID
  5
11FD
330
A5E
100
AcDbEntity
  8
BEM
 48
10.0
100
AcDbTrace
 10
187.6854977671771
 20
94.10308181499528
 30
0.0
 11
187.6854977671771
 21
92.93641514832863
 31
0.0
 12
191.1854977671771
 22
93.51974848166197
 32
0.0
 13
191.1854977671771
 23
93.51974848166197
 33
0.0
  0
MTEXT
  5
11FE
330
A5E
100
AcDbEntity
  8
BEM
 48
10.0
100
AcDbMText
 10
165.1854977671771
 20
96.76974848166196
 30
0.0
 40
3.5
 41
0.0
 71
     5
 72
     1
  1
\A1;52
 73
     1
 44
1.0
  0
POINT
  5
11FF
330
A5E
100
AcDbEntity
  8
Defpoints
 62
     0
 48
10.0
100
AcDbPoint
 10
139.1854977671771
 20
104.3210685708221
 30
0.0
  0
POINT
  5
1200
330
A5E
100
AcDbEntity
  8
Defpoints
 62
     0
 48
10.0
100
AcDbPoint
 10
191.1854977671771
 20
104.6611303328091
 30
0.0
  0
POINT
  5
1201
330
A5E
100
AcDbEntity
  8
Defpoints
 62
     0
 48
10.0
100
AcDbPoint
 10
191.1854977671771
 20
93.51974848166197
 30
0.0
  0
ENDBLK
  5
A69
330
A5E
100
AcDbEntity
  8
0
 48
10.0
100
AcDbBlockEnd
  0
BLOCK
  5
A82
330
A78
100
AcDbEntity
  8
0
 48
10.0
100
AcDbBlockBegin
  2
*D13
 70
     1
 10
0.0
 20
0.0
 30
0.0
  3
*D13
  1

  0
LINE
  5
11B7
330
A78
100
AcDbEntity
  8
BEM
 48
10.0
370
    -2
100
AcDbLine
 10
33.70369368750335
 20
25.20777232764146
 30
0.0
 11
33.70369368750335
 21
33.50598880223799
 31
0.0
  0
LINE
  5
11B8
330
A78
100
AcDbEntity
  8
BEM
 48
10.0
370
    -2
100
AcDbLine
 10
79.70369368750334
 20
25.20777232764146
 30
0.0
 11
79.70369368750334
 21
33.50598880223799
 31
0.0
  0
LINE
  5
11B9
330
A78
100
AcDbEntity
  8
BEM
 48
10.0
370
    -2
100
AcDbLine
 10
37.20369368750335
 20
32.25598880223799
 30
0.0
 11
76.20369368750335
 21
32.25598880223799
 31
0.0
  0
SOLID
  5
11BA
330
A78
100
AcDbEntity
  8
BEM
 48
10.0
100
AcDbTrace
 10
37.20369368750335
 20
32.83932213557133
 30
0.0
 11
37.20369368750335
 21
31.67265546890466
 31
0.0
 12
33.70369368750335
 22
32.25598880223799
 32
0.0
 13
33.70369368750335
 23
32.25598880223799
 33
0.0
  0
SOLID
  5
11BB
330
A78
100
AcDbEntity
  8
BEM
 48
10.0
100
AcDbTrace
 10
76.20369368750335
 20
32.83932213557133
 30
0.0
 11
76.20369368750335
 21
31.67265546890466
 31
0.0
 12
79.70369368750334
 22
32.25598880223799
 32
0.0
 13
79.70369368750334
 23
32.25598880223799
 33
0.0
  0
MTEXT
  5
11BC
330
A78
100
AcDbEntity
  8
BEM
 48
10.0
100
AcDbMText
 10
57.80393715208652
 20
35.50598880223799
 30
0.0
 40
3.5
 41
0.0
 71
     5
 72
     1
  1
\A1;46
 73
     1
 44
1.0
  0
POINT
  5
11BD
330
A78
100
AcDbEntity
  8
Defpoints
 62
     0
 48
10.0
100
AcDbPoint
 10
33.70369368750335
 20
25.20777232764146
 30
0.0
  0
POINT
  5
11BE
330
A78
100
AcDbEntity
  8
Defpoints
 62
     0
 48
10.0
100
AcDbPoint
 10
79.70369368750334
 20
25.20777232764146
 30
0.0
  0
POINT
  5
11BF
330
A78
100
AcDbEntity
  8
Defpoints
 62
     0
 48
10.0
100
AcDbPoint
 10
79.70369368750334
 20
32.25598880223799
 30
0.0
  0
ENDBLK
  5
A83
330
A78
100
AcDbEntity
  8
0
 48
10.0
100
AcDbBlockEnd
  0
BLOCK
  5
B4E
330
B44
100
AcDbEntity
  8
0
 48
10.0
100
AcDbBlockBegin
  2
*D14
 70
     1
 10
0.0
 20
0.0
 30
0.0
  3
*D14
  1

  0
LINE
  5
1202
330
B44
100
AcDbEntity
  8
BEM
 48
10.0
370
    -2
100
AcDbLine
 10
132.1854977671771
 20
106.7761681227038
 30
0.0
 11
132.1854977671771
 21
78.56660391697161
 31
0.0
  0
LINE
  5
1203
330
B44
100
AcDbEntity
  8
BEM
 48
10.0
370
    -2
100
AcDbLine
 10
198.1854977671771
 20
106.7761681227038
 30
0.0
 11
198.1854977671771
 21
78.56660391697161
 31
0.0
  0
LINE
  5
1204
330
B44
100
AcDbEntity
  8
BEM
 48
10.0
370
    -2
100
AcDbLine
 10
135.6854977671771
 20
79.81660391697161
 30
0.0
 11
194.6854977671771
 21
79.81660391697161
 31
0.0
  0
SOLID
  5
1205
330
B44
100
AcDbEntity
  8
BEM
 48
10.0
100
AcDbTrace
 10
135.6854977671771
 20
80.39993725030495
 30
0.0
 11
135.6854977671771
 21
79.23327058363828
 31
0.0
 12
132.1854977671771
 22
79.81660391697161
 32
0.0
 13
132.1854977671771
 23
79.81660391697161
 33
0.0
  0
SOLID
  5
1206
330
B44
100
AcDbEntity
  8
BEM
 48
10.0
100
AcDbTrace
 10
194.6854977671771
 20
80.39993725030495
 30
0.0
 11
194.6854977671771
 21
79.23327058363828
 31
0.0
 12
198.1854977671771
 22
79.81660391697161
 32
0.0
 13
198.1854977671771
 23
79.81660391697161
 33
0.0
  0
MTEXT
  5
1207
330
B44
100
AcDbEntity
  8
BEM
 48
10.0
100
AcDbMText
 10
165.1854977671771
 20
83.06660391697162
 30
0.0
 40
3.5
 41
0.0
 71
     5
 72
     1
  1
\A1;66
 73
     1
 44
1.0
  0
POINT
  5
1208
330
B44
100
AcDbEntity
  8
Defpoints
 62
     0
 48
10.0
100
AcDbPoint
 10
132.1854977671771
 20
106.7761681227038
 30
0.0
  0
POINT
  5
1209
330
B44
100
AcDbEntity
  8
Defpoints
 62
     0
 48
10.0
100
AcDbPoint
 10
198.1854977671771
 20
106.7761681227038
 30
0.0
  0
POINT
  5
120A
330
B44
100
AcDbEntity
  8
Defpoints
 62
     0
 48
10.0
100
AcDbPoint
 10
198.1854977671771
 20
79.81660391697161
 30
0.0
  0
ENDBLK
  5
B4F
330
B44
100
AcDbEntity
  8
0
 48
10.0
100
AcDbBlockEnd
  0
BLOCK
  5
B59
330
B50
100
AcDbEntity
  8
0
 48
10.0
100
AcDbBlockBegin
  2
*D15
 70
     1
 10
0.0
 20
0.0
 30
0.0
  3
*D15
  1

  0
LINE
  5
120B
330
B50
100
AcDbEntity
  8
BEM
 48
10.0
370
    -2
100
AcDbLine
 10
184.8967889369704
 20
191.9902443566315
 30
0.0
 11
173.1658644411992
 21
157.9400138256124
 31
0.0
  0
LINE
  5
120C
330
B50
100
AcDbEntity
  8
BEM
 48
10.0
370
    -2
100
AcDbLine
 10
157.205131093155
 20
111.6123224197951
 30
0.0
 11
156.0650787111519
 21
108.3032016050939
 31
0.0
  0
MTEXT
  5
120D
102
{ACAD_XDICTIONARY
360
1251
102
}
330
B50
100
AcDbEntity
  8
BEM
 48
10.0
100
AcDbMText
 10
178.0230449649406
 20
182.0160980522388
 30
0.0
 40
3.5
 41
0.0
 71
     5
 72
     1
  1
\A1;\U+220542{}{\H0.71x;\C3;+0.05}
 11
0.3257292520009011
 21
0.9454630899146373
 31
0.0
 73
     1
 44
1.0
  0
LINE
  5
120E
330
B50
100
AcDbEntity
  8
BEM
 48
10.0
370
    -2
100
AcDbLine
 10
158.3451834751582
 20
114.9214432344964
 30
0.0
 11
172.0258120591961
 21
154.6308930109112
 31
0.0
  0
SOLID
  5
120F
330
B50
100
AcDbEntity
  8
BEM
 48
10.0
100
AcDbTrace
 10
156.6536109573715
 20
111.802331150129
 30
0.0
 11
157.7566512289386
 21
111.4223136894612
 31
0.0
 12
158.3451834751582
 22
114.9214432344964
 32
0.0
 13
158.3451834751582
 23
114.9214432344964
 33
0.0
  0
SOLID
  5
1210
330
B50
100
AcDbEntity
  8
BEM
 48
10.0
100
AcDbTrace
 10
172.6143443054157
 20
158.1300225559462
 30
0.0
 11
173.7173845769828
 21
157.7500050952785
 31
0.0
 12
172.0258120591961
 22
154.6308930109112
 32
0.0
 13
172.0258120591961
 23
154.6308930109112
 33
0.0
  0
POINT
  5
1211
330
B50
100
AcDbEntity
  8
Defpoints
 62
     0
 48
10.0
100
AcDbPoint
 10
172.0258120591961
 20
154.6308930109112
 30
0.0
  0
POINT
  5
1212
330
B50
100
AcDbEntity
  8
Defpoints
 62
     0
 48
10.0
100
AcDbPoint
 10
158.3451834751582
 20
114.9214432344964
 30
0.0
  0
ENDBLK
  5
B5A
330
B50
100
AcDbEntity
  8
0
 48
10.0
100
AcDbBlockEnd
  0
BLOCK
  5
1243
330
123D
100
AcDbEntity
  8
0
 48
10.0
100
AcDbBlockBegin
  2
*S23
 70
     1
 10
0.0
 20
0.0
 30
0.0
  3
*S23
  1

  0
LINE
  5
123E
330
123D
100
AcDbEntity
  8
BEM
 62
     3
 48
10.0
100
AcDbLine
 10
166.4621596009826
 20
51.33830358713055
 30
0.0
 11
162.9621596009826
 21
51.33830358713055
 31
0.0
  0
LINE
  5
123F
330
123D
100
AcDbEntity
  8
BEM
 62
     3
 48
10.0
100
AcDbLine
 10
162.9621596009826
 20
51.33830358713055
 30
0.0
 11
109.2845730094045
 21
51.33830358713055
 31
0.0
  0
LINE
  5
1240
330
123D
100
AcDbEntity
  8
BEM
 62
     3
 48
10.0
100
AcDbLine
 10
109.2845730094045
 20
51.33830358713055
 30
0.0
 11
84.79098716684568
 21
87.08352538067563
 31
0.0
  0
TRACE
  5
1241
330
123D
100
AcDbEntity
  8
BEM
  6
Continuous
 62
     3
 48
10.0
100
AcDbTrace
 10
85.17109520499683
 20
87.34398561549179
 30
0.0
 11
84.41087912869452
 21
86.82306514585949
 31
0.0
 12
82.81259525821255
 22
89.97073258762407
 32
0.0
 13
82.81259525821255
 23
89.97073258762407
 33
0.0
  0
MTEXT
  5
1242
330
123D
100
AcDbEntity
  8
BEM
 62
     2
100
AcDbMText
 10
166.4621596009826
 20
53.08830358713056
 30
0.0
 40
3.5
 41
0.0
 71
     7
 72
     5
  1

  7
ACDINTS
 73
     1
 44
1.0
  0
ENDBLK
  5
1244
330
123D
100
AcDbEntity
  8
0
 48
10.0
100
AcDbBlockEnd
  0
ENDSEC
  0
SECTION
  2
ENTITIES
  0
LINE
  5
178
330
2
100
AcDbEntity
  8
MITTE
 48
10.0
100
AcDbLine
 10
165.1854977671771
 20
172.3084005284449
 30
0.0
 11
165.1854977671771
 21
112.0579033732599
 31
0.0
  0
LINE
  5
179
330
2
100
AcDbEntity
  8
MITTE
 48
10.0
100
AcDbLine
 10
130.1648048989855
 20
141.9761677646605
 30
0.0
 11
200.0180180058706
 21
141.9761677646605
 31
0.0
  0
LINE
  5
17C
330
2
100
AcDbEntity
  8
0
 48
10.0
100
AcDbLine
 10
132.1854977671771
 20
169.9761677646605
 30
0.0
 11
198.1854977671771
 21
169.9761677646605
 31
0.0
  0
LINE
  5
17E
330
2
100
AcDbEntity
  8
0
 48
10.0
100
AcDbLine
 10
132.1854977671771
 20
113.9761677646605
 30
0.0
 11
198.1854977671771
 21
113.9761677646605
 31
0.0
  0
LINE
  5
17F
330
2
100
AcDbEntity
  8
0
 48
10.0
100
AcDbLine
 10
132.1854977671771
 20
169.9761677646605
 30
0.0
 11
132.1854977671771
 21
143.9761677646605
 31
0.0
  0
LINE
  5
180
330
2
100
AcDbEntity
  8
0
 48
10.0
100
AcDbLine
 10
198.1854977671771
 20
169.9761677646605
 30
0.0
 11
198.1854977671771
 21
143.9761677646605
 31
0.0
  0
LINE
  5
181
330
2
100
AcDbEntity
  8
0
 48
10.0
100
AcDbLine
 10
132.1854977671771
 20
143.9761677646605
 30
0.0
 11
144.2809528068102
 21
143.9761677646605
 31
0.0
  0
LINE
  5
182
330
2
100
AcDbEntity
  8
0
 48
10.0
100
AcDbLine
 10
132.1854977671771
 20
139.9761677646605
 30
0.0
 11
144.2809528068102
 21
139.9761677646605
 31
0.0
  0
LINE
  5
183
330
2
100
AcDbEntity
  8
0
 48
10.0
100
AcDbLine
 10
132.1854977671771
 20
139.9761677646605
 30
0.0
 11
132.1854977671771
 21
113.9761677646605
 31
0.0
  0
LINE
  5
184
330
2
100
AcDbEntity
  8
0
 48
10.0
100
AcDbLine
 10
186.090042727544
 20
143.9761677646605
 30
0.0
 11
198.1854977671771
 21
143.9761677646606
 31
0.0
  0
LINE
  5
185
330
2
100
AcDbEntity
  8
0
 48
10.0
100
AcDbLine
 10
186.090042727544
 20
139.9761677646605
 30
0.0
 11
198.1854977671771
 21
139.9761677646605
 31
0.0
  0
LINE
  5
187
330
2
100
AcDbEntity
  8
0
 48
10.0
100
AcDbLine
 10
198.1854977671771
 20
139.9761677646605
 30
0.0
 11
198.1854977671771
 21
113.9761677646605
 31
0.0
  0
LINE
  5
189
330
2
100
AcDbEntity
  8
MITTE
 48
10.0
100
AcDbLine
 10
139.1854977671771
 20
171.3906987473494
 30
0.0
 11
139.1854977671771
 21
111.5210682127789
 31
0.0
  0
LINE
  5
18A
330
2
100
AcDbEntity
  8
MITTE
 48
10.0
100
AcDbLine
 10
191.1854977671771
 20
171.2773448266872
 30
0.0
 11
191.1854977671771
 21
111.8611299747658
 31
0.0
  0
LINE
  5
190
330
2
100
AcDbEntity
  8
0
 48
10.0
100
AcDbLine
 10
136.1854977671771
 20
143.9761677646605
 30
0.0
 11
136.1854977671771
 21
139.9761677646605
 31
0.0
  0
LINE
  5
191
330
2
100
AcDbEntity
  8
0
 48
10.0
100
AcDbLine
 10
142.1854977671771
 20
143.9761677646605
 30
0.0
 11
142.1854977671771
 21
139.9761677646605
 31
0.0
  0
LINE
  5
192
330
2
100
AcDbEntity
  8
0
 48
10.0
100
AcDbLine
 10
188.1854977671771
 20
143.9761677646605
 30
0.0
 11
188.1854977671771
 21
139.9761677646605
 31
0.0
  0
LINE
  5
193
330
2
100
AcDbEntity
  8
0
 48
10.0
100
AcDbLine
 10
194.1854977671771
 20
143.9761677646605
 30
0.0
 11
194.1854977671771
 21
139.9761677646605
 31
0.0
  0
LINE
  5
195
330
2
100
AcDbEntity
  8
LINIE
 48
10.0
100
AcDbLine
 10
141.5354977671771
 20
143.9761677646605
 30
0.0
 11
141.5354977671771
 21
139.9761677646605
 31
0.0
  0
LINE
  5
196
330
2
100
AcDbEntity
  8
LINIE
 48
10.0
100
AcDbLine
 10
136.8354977671771
 20
143.9761677646605
 30
0.0
 11
136.8354977671771
 21
139.9761677646605
 31
0.0
  0
LINE
  5
197
330
2
100
AcDbEntity
  8
LINIE
 48
10.0
100
AcDbLine
 10
188.8354977671771
 20
143.9761677646605
 30
0.0
 11
188.8354977671771
 21
139.9761677646605
 31
0.0
  0
LINE
  5
198
330
2
100
AcDbEntity
  8
LINIE
 48
10.0
100
AcDbLine
 10
193.5354977671771
 20
143.9761677646605
 30
0.0
 11
193.5354977671771
 21
139.9761677646605
 31
0.0
  0
LINE
  5
199
330
2
100
AcDbEntity
  8
0
 48
10.0
100
AcDbLine
 10
26.70369368750335
 20
169.9761677646605
 30
0.0
 11
86.70369368750334
 21
169.9761677646605
 31
0.0
  0
LINE
  5
19A
330
2
100
AcDbEntity
  8
0
 48
10.0
100
AcDbLine
 10
26.70369368750335
 20
143.9761677646606
 30
0.0
 11
86.70369368750334
 21
143.9761677646606
 31
0.0
  0
LINE
  5
19B
330
2
100
AcDbEntity
  8
0
 48
10.0
100
AcDbLine
 10
26.70369368750335
 20
139.9761677646605
 30
0.0
 11
86.70369368750334
 21
139.9761677646605
 31
0.0
  0
LINE
  5
19C
330
2
100
AcDbEntity
  8
0
 48
10.0
100
AcDbLine
 10
26.70369368750335
 20
113.9761677646605
 30
0.0
 11
86.70369368750334
 21
113.9761677646605
 31
0.0
  0
LINE
  5
19D
330
2
100
AcDbEntity
  8
0
 48
10.0
100
AcDbLine
 10
26.70369368750335
 20
169.9761677646605
 30
0.0
 11
26.70369368750335
 21
143.9761677646606
 31
0.0
  0
LINE
  5
19E
330
2
100
AcDbEntity
  8
0
 48
10.0
100
AcDbLine
 10
86.70369368750334
 20
169.9761677646605
 30
0.0
 11
86.70369368750334
 21
143.9761677646606
 31
0.0
  0
LINE
  5
19F
330
2
100
AcDbEntity
  8
0
 48
10.0
100
AcDbLine
 10
26.70369368750335
 20
139.9761677646605
 30
0.0
 11
26.70369368750335
 21
113.9761677646605
 31
0.0
  0
LINE
  5
1A0
330
2
100
AcDbEntity
  8
0
 48
10.0
100
AcDbLine
 10
86.70369368750334
 20
139.9761677646605
 30
0.0
 11
86.70369368750334
 21
113.9761677646605
 31
0.0
  0
LINE
  5
1A2
330
2
100
AcDbEntity
  8
MITTE
 48
10.0
100
AcDbLine
 10
23.67107103639751
 20
141.9761677646605
 30
0.0
 11
89.08498424048161
 21
141.9761677646605
 31
0.0
  0
LINE
  5
1A6
330
2
100
AcDbEntity
  8
MITTE
 48
10.0
100
AcDbLine
 10
33.70369368750335
 20
171.2773448266872
 30
0.0
 11
33.70369368750335
 21
111.8611299747658
 31
0.0
  0
LINE
  5
1A7
330
2
100
AcDbEntity
  8
0
 48
10.0
100
AcDbLine
 10
36.70369368750335
 20
143.9761677646606
 30
0.0
 11
36.70369368750335
 21
139.9761677646606
 31
0.0
  0
LINE
  5
1A8
330
2
100
AcDbEntity
  8
LINIE
 48
10.0
100
AcDbLine
 10
36.05369368750337
 20
143.9761677646606
 30
0.0
 11
36.05369368750337
 21
139.9761677646606
 31
0.0
  0
LINE
  5
1A9
330
2
100
AcDbEntity
  8
0
 48
10.0
100
AcDbLine
 10
30.70369368750335
 20
143.9761677646606
 30
0.0
 11
30.70369368750335
 21
139.9761677646606
 31
0.0
  0
LINE
  5
1AA
330
2
100
AcDbEntity
  8
LINIE
 48
10.0
100
AcDbLine
 10
31.35369368750332
 20
143.9761677646606
 30
0.0
 11
31.35369368750332
 21
139.9761677646606
 31
0.0
  0
LINE
  5
1AB
330
2
100
AcDbEntity
  8
MITTE
 48
10.0
100
AcDbLine
 10
79.70369368750334
 20
171.2773448266872
 30
0.0
 11
79.70369368750334
 21
111.8611299747658
 31
0.0
  0
LINE
  5
1AC
330
2
100
AcDbEntity
  8
0
 48
10.0
100
AcDbLine
 10
82.70369368750335
 20
143.9761677646606
 30
0.0
 11
82.70369368750335
 21
139.9761677646606
 31
0.0
  0
LINE
  5
1AD
330
2
100
AcDbEntity
  8
LINIE
 48
10.0
100
AcDbLine
 10
82.05369368750337
 20
143.9761677646606
 30
0.0
 11
82.05369368750337
 21
139.9761677646606
 31
0.0
  0
LINE
  5
1AE
330
2
100
AcDbEntity
  8
0
 48
10.0
100
AcDbLine
 10
76.70369368750335
 20
143.9761677646606
 30
0.0
 11
76.70369368750335
 21
139.9761677646606
 31
0.0
  0
LINE
  5
1AF
330
2
100
AcDbEntity
  8
LINIE
 48
10.0
100
AcDbLine
 10
77.35369368750332
 20
143.9761677646606
 30
0.0
 11
77.35369368750332
 21
139.9761677646606
 31
0.0
  0
LINE
  5
1B0
330
2
100
AcDbEntity
  8
0
 48
10.0
100
AcDbLine
 10
26.70369368750335
 20
35.50777248425732
 30
0.0
 11
26.70369368750335
 21
101.5077724842573
 31
0.0
  0
LINE
  5
1B1
330
2
100
AcDbEntity
  8
0
 48
10.0
100
AcDbLine
 10
86.70369368750334
 20
101.5077724842573
 30
0.0
 11
86.70369368750334
 21
35.50777248425732
 31
0.0
  0
LINE
  5
1B3
330
2
100
AcDbEntity
  8
0
 48
10.0
100
AcDbLine
 10
26.70369368750335
 20
101.5077724842573
 30
0.0
 11
86.70369368750334
 21
101.5077724842573
 31
0.0
  0
LINE
  5
1B4
330
2
100
AcDbEntity
  8
MITTE
 48
10.0
100
AcDbLine
 10
90.34457046030093
 20
68.50777248425732
 30
0.0
 11
23.19008333397733
 21
68.50777248425732
 31
0.0
  0
LINE
  5
1B5
330
2
100
AcDbEntity
  8
0
 48
10.0
100
AcDbLine
 10
26.70369368750335
 20
35.50777248425732
 30
0.0
 11
86.70369368750334
 21
35.50777248425732
 31
0.0
  0
LINE
  5
1B8
330
2
100
AcDbEntity
  8
0
 48
10.0
100
AcDbLine
 10
26.70369368750335
 20
179.0395968631586
 30
0.0
 11
26.70369368750335
 21
245.0395968631586
 31
0.0
  0
LINE
  5
1B9
330
2
100
AcDbEntity
  8
0
 48
10.0
100
AcDbLine
 10
86.70369368750334
 20
245.0395968631586
 30
0.0
 11
86.70369368750334
 21
179.0395968631586
 31
0.0
  0
LINE
  5
1BA
330
2
100
AcDbEntity
  8
0
 48
10.0
100
AcDbLine
 10
26.70369368750335
 20
245.0395968631586
 30
0.0
 11
86.70369368750334
 21
245.0395968631586
 31
0.0
  0
LINE
  5
1BB
330
2
100
AcDbEntity
  8
MITTE
 48
10.0
100
AcDbLine
 10
90.34457046030093
 20
212.0395968631586
 30
0.0
 11
23.2655719992988
 21
212.0395968631586
 31
0.0
  0
LINE
  5
1BC
330
2
100
AcDbEntity
  8
0
 48
10.0
100
AcDbLine
 10
26.70369368750335
 20
179.0395968631586
 30
0.0
 11
86.70369368750334
 21
179.0395968631586
 31
0.0
  0
LINE
  5
1BD
330
2
100
AcDbEntity
  8
MITTE
 48
3.0
100
AcDbLine
 10
86.70369368750334
 20
94.50777248425731
 30
0.0
 11
72.70369368750334
 21
94.50777248425731
 31
0.0
  0
LINE
  5
1C0
330
2
100
AcDbEntity
  8
MITTE
 48
3.0
100
AcDbLine
 10
79.70369368750334
 20
87.50777248425732
 30
0.0
 11
79.70369368750334
 21
101.5077724842573
 31
0.0
  0
CIRCLE
  5
1C2
330
2
100
AcDbEntity
  8
0
 48
10.0
100
AcDbCircle
 10
79.70369368750334
 20
94.50777248425731
 30
0.0
 40
5.0
  0
CIRCLE
  5
1C3
330
2
100
AcDbEntity
  8
0
 48
10.0
100
AcDbCircle
 10
79.70369368750334
 20
94.50777248425731
 30
0.0
 40
5.5
  0
LWPOLYLINE
  5
1C9
330
2
100
AcDbEntity
  8
0
 48
10.0
100
AcDbPolyline
 90
        6
 70
     1
 43
0.0
 10
78.5489931491241
 20
96.50777248425733
 10
77.39429261074485
 20
94.50777248425731
 10
78.5489931491241
 20
92.50777248425732
 10
80.85839422588259
 20
92.50777248425732
 10
82.01309476426184
 20
94.50777248425731
 10
80.85839422588259
 20
96.50777248425733
  0
CIRCLE
  5
1CC
330
2
100
AcDbEntity
  8
0
 48
10.0
100
AcDbCircle
 10
33.70369368750335
 20
94.50777248425731
 30
0.0
 40
5.0
  0
CIRCLE
  5
1CD
330
2
100
AcDbEntity
  8
0
 48
10.0
100
AcDbCircle
 10
33.70369368750335
 20
94.50777248425731
 30
0.0
 40
5.5
  0
LWPOLYLINE
  5
1D0
330
2
100
AcDbEntity
  8
0
 48
10.0
100
AcDbPolyline
 90
        6
 70
     1
 43
0.0
 10
32.5489931491241
 20
96.50777248425733
 10
31.39429261074486
 20
94.50777248425731
 10
32.5489931491241
 20
92.50777248425732
 10
34.85839422588259
 20
92.50777248425732
 10
36.01309476426184
 20
94.50777248425731
 10
34.85839422588259
 20
96.50777248425733
  0
CIRCLE
  5
1D3
330
2
100
AcDbEntity
  8
0
 48
10.0
100
AcDbCircle
 10
33.70369368750335
 20
42.50777248425731
 30
0.0
 40
5.0
  0
CIRCLE
  5
1D4
330
2
100
AcDbEntity
  8
0
 48
10.0
100
AcDbCircle
 10
33.70369368750335
 20
42.50777248425731
 30
0.0
 40
5.5
  0
LWPOLYLINE
  5
1D7
330
2
100
AcDbEntity
  8
0
 48
10.0
100
AcDbPolyline
 90
        6
 70
     1
 43
0.0
 10
32.5489931491241
 20
44.50777248425731
 10
31.39429261074486
 20
42.50777248425731
 10
32.5489931491241
 20
40.50777248425731
 10
34.85839422588259
 20
40.50777248425731
 10
36.01309476426184
 20
42.50777248425731
 10
34.85839422588259
 20
44.50777248425731
  0
CIRCLE
  5
1DA
330
2
100
AcDbEntity
  8
0
 48
10.0
100
AcDbCircle
 10
79.70369368750334
 20
42.50777248425731
 30
0.0
 40
5.0
  0
CIRCLE
  5
1DB
330
2
100
AcDbEntity
  8
0
 48
10.0
100
AcDbCircle
 10
79.70369368750334
 20
42.50777248425731
 30
0.0
 40
5.5
  0
LWPOLYLINE
  5
1DE
330
2
100
AcDbEntity
  8
0
 48
10.0
100
AcDbPolyline
 90
        6
 70
     1
 43
0.0
 10
78.5489931491241
 20
44.50777248425731
 10
77.39429261074485
 20
42.50777248425731
 10
78.5489931491241
 20
40.50777248425731
 10
80.85839422588259
 20
40.50777248425731
 10
82.01309476426184
 20
42.50777248425731
 10
80.85839422588259
 20
44.50777248425731
  0
LINE
  5
1EE
330
2
100
AcDbEntity
  8
MITTE
 48
10.0
100
AcDbLine
 10
74.70369368750334
 20
238.0395968631586
 30
0.0
 11
66.70369368750335
 21
238.0395968631586
 31
0.0
  0
LINE
  5
1EF
330
2
100
AcDbEntity
  8
MITTE
 48
10.0
100
AcDbLine
 10
74.70369368750334
 20
186.0395968631586
 30
0.0
 11
66.70369368750335
 21
186.0395968631586
 31
0.0
  0
LINE
  5
1F0
330
2
100
AcDbEntity
  8
MITTE
 48
10.0
100
AcDbLine
 10
56.70369368750335
 20
242.0395968631587
 30
0.0
 11
56.70369368750335
 21
234.0395968631586
 31
0.0
  0
CIRCLE
  5
1F2
330
2
100
AcDbEntity
  8
0
 48
10.0
100
AcDbCircle
 10
56.70369368750335
 20
238.0395968631586
 30
0.0
 40
2.5
  0
CIRCLE
  5
1F3
330
2
100
AcDbEntity
  8
0
 48
10.0
100
AcDbCircle
 10
56.70369368750335
 20
186.0395968631586
 30
0.0
 40
2.5
  0
LINE
  5
1F4
330
2
100
AcDbEntity
  8
MITTE
 48
10.0
100
AcDbLine
 10
70.70369368750334
 20
242.0395968631587
 30
0.0
 11
70.70369368750334
 21
234.0395968631586
 31
0.0
  0
LINE
  5
1F5
330
2
100
AcDbEntity
  8
MITTE
 48
10.0
100
AcDbLine
 10
42.70369368750334
 20
242.0395968631587
 30
0.0
 11
42.70369368750334
 21
234.0395968631586
 31
0.0
  0
ARC
  5
1F6
330
2
100
AcDbEntity
  8
LINIE
 48
10.0
100
AcDbCircle
 10
70.70369368750334
 20
238.0395968631586
 30
0.0
 40
2.5
100
AcDbArc
 50
171.6634047776224
 51
112.2472119386732
  0
CIRCLE
  5
1F8
330
2
100
AcDbEntity
  8
0
 48
10.0
100
AcDbCircle
 10
70.70369368750334
 20
238.0395968631586
 30
0.0
 40
2.0
  0
ARC
  5
1F9
330
2
100
AcDbEntity
  8
LINIE
 48
10.0
100
AcDbCircle
 10
42.70369368750334
 20
238.0395968631586
 30
0.0
 40
2.5
100
AcDbArc
 50
167.7841927821024
 51
108.9529870910443
  0
CIRCLE
  5
1FA
330
2
100
AcDbEntity
  8
0
 48
10.0
100
AcDbCircle
 10
42.70369368750334
 20
238.0395968631586
 30
0.0
 40
2.0
  0
ARC
  5
1FB
330
2
100
AcDbEntity
  8
LINIE
 48
10.0
100
AcDbCircle
 10
42.70369368750334
 20
186.0395968631586
 30
0.0
 40
2.5
100
AcDbArc
 50
168.159935931812
 51
108.6507708249597
  0
CIRCLE
  5
1FC
330
2
100
AcDbEntity
  8
0
 48
10.0
100
AcDbCircle
 10
42.70369368750334
 20
186.0395968631586
 30
0.0
 40
2.0
  0
ARC
  5
1FD
330
2
100
AcDbEntity
  8
LINIE
 48
10.0
100
AcDbCircle
 10
70.70369368750334
 20
186.0395968631586
 30
0.0
 40
2.5
100
AcDbArc
 50
167.3540768310669
 51
112.9783023437654
  0
CIRCLE
  5
1FE
330
2
100
AcDbEntity
  8
0
 48
10.0
100
AcDbCircle
 10
70.70369368750334
 20
186.0395968631586
 30
0.0
 40
2.0
  0
LINE
  5
205
330
2
100
AcDbEntity
  8
MITTE
 48
10.0
100
AcDbLine
 10
60.70369368750334
 20
186.0395968631586
 30
0.0
 11
52.70369368750334
 21
186.0395968631586
 31
0.0
  0
LINE
  5
206
330
2
100
AcDbEntity
  8
MITTE
 48
10.0
100
AcDbLine
 10
46.70369368750335
 20
186.0395968631586
 30
0.0
 11
38.70369368750335
 21
186.0395968631586
 31
0.0
  0
LINE
  5
207
330
2
100
AcDbEntity
  8
MITTE
 48
10.0
100
AcDbLine
 10
42.70369368750334
 20
190.0395968631586
 30
0.0
 11
42.70369368750334
 21
182.0395968631586
 31
0.0
  0
LINE
  5
208
330
2
100
AcDbEntity
  8
MITTE
 48
10.0
100
AcDbLine
 10
46.70369368750335
 20
238.0395968631586
 30
0.0
 11
38.70369368750335
 21
238.0395968631586
 31
0.0
  0
LINE
  5
209
330
2
100
AcDbEntity
  8
MITTE
 48
10.0
100
AcDbLine
 10
56.70369368750335
 20
190.0395968631586
 30
0.0
 11
56.70369368750335
 21
182.0395968631586
 31
0.0
  0
LINE
  5
20A
330
2
100
AcDbEntity
  8
MITTE
 48
10.0
100
AcDbLine
 10
60.70369368750334
 20
238.0395968631586
 30
0.0
 11
52.70369368750334
 21
238.0395968631586
 31
0.0
  0
LINE
  5
20B
330
2
100
AcDbEntity
  8
MITTE
 48
10.0
100
AcDbLine
 10
70.70369368750334
 20
190.0395968631586
 30
0.0
 11
70.70369368750334
 21
182.0395968631586
 31
0.0
  0
DIMENSION
  5
21A
330
2
100
AcDbEntity
  8
BEM
 48
10.0
100
AcDbDimension
  2
*D2
 10
237.0896213094225
 20
106.7761681227037
 30
0.0
 11
233.8396213094225
 21
134.7761681227038
 31
0.0
 70
    32
 71
     5
 42
55.99999999999998
  3
ISO-25
100
AcDbAlignedDimension
 13
198.1854977671771
 23
162.7761681227037
 33
0.0
 14
198.1854977671771
 24
106.7761681227038
 34
0.0
 50
90.0
100
AcDbRotatedDimension
1001
ACAD
1000
DSTYLE
1002
{
1070
   144
1040
1.0
1002
}
  0
DIMENSION
  5
227
330
2
100
AcDbEntity
  8
BEM
 48
10.0
100
AcDbDimension
  2
*D3
 10
111.9330635812966
 20
106.7761681227037
 30
0.0
 11
108.6830635812966
 21
120.7761681227038
 31
0.0
 70
    32
  1
<>{}{\H0.71x;\C3;%%p0.05}
 71
     5
 42
28.00000000000006
  3
ISO-25
100
AcDbAlignedDimension
 13
130.1648048989855
 23
134.7761681227038
 33
0.0
 14
132.1854977671771
 24
106.7761681227037
 34
0.0
 50
90.0
100
AcDbRotatedDimension
1001
ACAD_DSTYLE_DIMINSPECT
1070
   396
1000
100%
1070
   395
1000

1070
   394
1070
    33
1070
   393
1070
     0
1001
ACAD
1000
DSTYLE
1002
{
1070
   286
1070
     0
1070
   284
1070
     8
1070
   274
1070
     2
1070
   272
1070
     4
1070
    47
1040
0.05
1070
    48
1040
0.05
1070
   144
1040
1.0
1002
}
1001
GENIUS_GENDTOL_13
1000
TolSmPm
1000

1000
{\H0.71x;$2%%p$P}
1040
28.0
  0
DIMENSION
  5
234
330
2
100
AcDbEntity
  8
BEM
 48
10.0
100
AcDbDimension
  2
*D4
 10
214.515682943756
 20
132.7761681227038
 30
0.0
 11
211.265682943756
 21
123.0261681227038
 31
0.0
 70
    32
 71
     5
 42
4.0
  3
ISO-25
100
AcDbAlignedDimension
 13
198.1854977671771
 23
136.7761681227038
 33
0.0
 14
198.1854977671771
 24
132.7761681227038
 34
0.0
 50
90.0
100
AcDbRotatedDimension
1001
ACAD
1000
DSTYLE
1002
{
1070
   144
1040
1.0
1002
}
  0
DIMENSION
  5
24F
330
2
100
AcDbEntity
  8
BEM
 48
10.0
100
AcDbDimension
  2
*D5
 10
26.70369368750335
 20
94.10808335739671
 30
0.0
 11
56.70369368750335
 21
94.10808335739671
 31
0.0
 70
   160
 71
     5
 42
60.0
  3
ISO-25
100
AcDbAlignedDimension
 13
86.70369368750334
 23
106.7761681227038
 33
0.0
 14
26.70369368750335
 24
106.7761681227038
 34
0.0
100
AcDbRotatedDimension
1001
ACAD
1000
DSTYLE
1002
{
1070
   144
1040
1.0
1002
}
  0
DIMENSION
  5
25C
330
2
100
AcDbEntity
  8
BEM
 48
10.0
100
AcDbDimension
  2
*D6
 10
86.70369368750334
 20
276.1273116952275
 30
0.0
 11
77.7702985420808
 21
276.1273116952275
 31
0.0
 70
   160
  1
<>{}{\H0.71x;\C3;%%p0.1}
 71
     5
 42
16.0
  3
ISO-25
100
AcDbAlignedDimension
 13
70.70369368750334
 23
261.2395975008902
 33
0.0
 14
86.70369368750334
 24
264.2395975008902
 34
0.0
100
AcDbRotatedDimension
1001
ACAD_DSTYLE_DIMINSPECT
1070
   396
1000
100%
1070
   395
1000

1070
   394
1070
    33
1070
   393
1070
     0
1001
ACAD
1000
DSTYLE
1002
{
1070
   286
1070
     0
1070
   284
1070
     8
1070
   274
1070
     2
1070
   272
1070
     4
1070
    47
1040
0.1
1070
    48
1040
0.1
1070
   144
1040
1.0
1002
}
1001
GENIUS_GENDTOL_13
1000
TolSmPm
1000

1000
{\H0.71x;$2%%p$P}
1040
16.0
  0
DIMENSION
  5
269
330
2
100
AcDbEntity
  8
BEM
 48
10.0
100
AcDbDimension
  2
*D7
 10
42.70369368750334
 20
276.1273116952275
 30
0.0
 11
56.70369368750335
 21
279.3773116952275
 31
0.0
 70
    32
  1
<>{}{\H0.71x;\C3;%%p0.05}
 71
     5
 42
28.0
  3
ISO-25
100
AcDbAlignedDimension
 13
70.70369368750334
 23
261.2395975008902
 33
0.0
 14
42.70369368750334
 24
261.2395975008902
 34
0.0
100
AcDbRotatedDimension
1001
ACAD_DSTYLE_DIMINSPECT
1070
   396
1000
100%
1070
   395
1000

1070
   394
1070
    33
1070
   393
1070
     0
1001
ACAD
1000
DSTYLE
1002
{
1070
   286
1070
     0
1070
   284
1070
     8
1070
   274
1070
     2
1070
   272
1070
     4
1070
    47
1040
0.05
1070
    48
1040
0.05
1070
   144
1040
1.0
1002
}
1001
GENIUS_GENDTOL_13
1000
TolSmPm
1000

1000
{\H0.71x;$2%%p$P}
1040
28.0
  0
DIMENSION
  5
289
102
{ACAD_XDICTIONARY
360
D39
102
}
102
{ACAD_REACTORS
330
D3A
102
}
330
2
100
AcDbEntity
  8
BEM
 48
10.0
100
AcDbDimension
  2
*D8
 10
70.70369368750334
 20
177.3196338599283
 30
0.0
 11
84.03952702083669
 21
177.3196338599283
 31
0.0
 70
   160
  1
<>{}{\H0.71x;\C3;%%p0.05}
 71
     5
 42
14.0
  3
ISO-25
100
AcDbAlignedDimension
 13
56.70369368750335
 23
201.2395975008902
 33
0.0
 14
70.70369368750334
 24
201.2395975008902
 34
0.0
100
AcDbRotatedDimension
1001
ACAD_DSTYLE_DIMINSPECT
1070
   396
1000
100%
1070
   395
1000

1070
   394
1070
    33
1070
   393
1070
     0
1001
ACAD
1000
DSTYLE
1002
{
1070
   286
1070
     0
1070
   284
1070
     8
1070
   274
1070
     2
1070
   272
1070
     4
1070
    47
1040
0.05
1070
    48
1040
0.05
1070
   144
1040
1.0
1002
}
1001
GENIUS_GENDTOL_13
1000
TolSmPm
1000

1000
{\H0.71x;$2%%p$P}
1040
14.0
  0
DIMENSION
  5
297
330
2
100
AcDbEntity
  8
BEM
 48
10.0
100
AcDbDimension
  2
*D9
 10
59.20369368750335
 20
184.7571004452895
 30
0.0
 11
39.15369368750335
 21
184.7571004452895
 31
0.0
 70
   160
  1
%%c<>{}{\H0.71x;\C3; H7}
 71
     5
 42
5.0
  3
ISO-25
100
AcDbAlignedDimension
 13
54.20369368750335
 23
205.2395975008902
 33
0.0
 14
59.20369368750335
 24
205.2395975008902
 34
0.0
100
AcDbRotatedDimension
1001
ACAD_DSTYLE_DIMINSPECT
1070
   396
1000
100%
1070
   395
1000

1070
   394
1070
    33
1070
   393
1070
     0
1001
GENIUS_GENDTOL_13
1000
FitSmTxt
1000
H7
1000
{\H0.71x;$2 $T}
1040
5.0
1001
ACAD
1000
DSTYLE
1002
{
1070
   286
1070
     0
1070
   284
1070
     8
1070
   274
1070
     2
1070
   272
1070
     4
1070
    48
1040
0.0
1070
    47
1040
0.0
1070
   144
1040
1.0
1002
}
  0
DIMENSION
  5
2A6
330
2
100
AcDbEntity
  8
BEM
 48
10.0
100
AcDbDimension
  2
*D10
 10
65.13980559548238
 20
205.2395975008902
 30
0.0
 11
65.13980559548236
 21
231.2395975008902
 31
0.0
 70
   160
  1
<>{}{\H0.71x;\C3;%%p0.05}
 71
     5
 42
51.99999999999997
  3
ISO-25
100
AcDbAlignedDimension
 13
74.70369368750334
 23
257.2395975008902
 33
0.0
 14
74.70369368750334
 24
205.2395975008902
 34
0.0
 50
90.0
100
AcDbRotatedDimension
1001
ACAD_DSTYLE_DIMINSPECT
1070
   396
1000
100%
1070
   395
1000

1070
   394
1070
    33
1070
   393
1070
     0
1001
ACAD
1000
DSTYLE
1002
{
1070
   286
1070
     0
1070
   284
1070
     8
1070
   274
1070
     2
1070
   272
1070
     4
1070
    47
1040
0.05
1070
    48
1040
0.05
1070
   144
1040
1.0
1002
}
1001
GENIUS_GENDTOL_13
1000
TolSmPm
1000

1000
{\H0.71x;$2%%p$P}
1040
52.0
  0
DIMENSION
  5
2B3
330
2
100
AcDbEntity
  8
BEM
 48
10.0
100
AcDbDimension
  2
*D11
 10
51.75636552180344
 20
205.2395975008902
 30
0.0
 11
48.50636552180342
 21
231.2395975008902
 31
0.0
 70
    32
  1
<>{}{\H0.71x;\C3;%%p0.01}
 71
     5
 42
52.0
  3
ISO-25
100
AcDbAlignedDimension
 13
52.70369368750334
 23
257.2395975008902
 33
0.0
 14
52.70369368750334
 24
205.2395975008902
 34
0.0
 50
90.0
100
AcDbRotatedDimension
1001
ACAD_DSTYLE_DIMINSPECT
1070
   396
1000
100%
1070
   395
1000

1070
   394
1070
    33
1070
   393
1070
     0
1001
ACAD
1000
DSTYLE
1002
{
1070
   286
1070
     0
1070
   284
1070
     8
1070
   274
1070
     2
1070
   272
1070
     4
1070
    47
1040
0.01
1070
    48
1040
0.01
1070
   144
1040
1.0
1002
}
1001
GENIUS_GENDTOL_13
1000
TolSmPm
1000

1000
{\H0.71x;$2%%p$P}
1040
52.0
  0
TEXT
  5
46D
330
2
100
AcDbEntity
  8
TEXT
100
AcDbText
 10
381.8725546314985
 20
65.95747165905024
 30
0.0
 40
3.5
  1

100
AcDbText
  0
TEXT
  5
46E
330
2
100
AcDbEntity
  8
TEXT
100
AcDbText
 10
348.5921867209947
 20
56.08465571486515
 30
0.0
 40
3.5
  1

100
AcDbText
  0
TEXT
  5
46F
330
2
100
AcDbEntity
  8
LINIE
100
AcDbText
 10
295.1650830602254
 20
45.62248334516732
 30
0.0
 40
2.5
  1

100
AcDbText
  0
TEXT
  5
470
330
2
100
AcDbEntity
  8
LINIE
100
AcDbText
 10
310.4031003657155
 20
45.95580140624962
 30
0.0
 40
2.5
  1

100
AcDbText
  0
TEXT
  5
4A3
330
2
100
AcDbEntity
  8
0
100
AcDbText
 10
46.79341748369438
 20
153.6163262614151
 30
0.0
 40
5.0
  1
%%C42
  7
STYLE1
100
AcDbText
  0
DIMENSION
  5
A5D
330
2
100
AcDbEntity
  8
BEM
 48
10.0
100
AcDbDimension
  2
*D12
 10
191.1854977671771
 20
93.51974848166197
 30
0.0
 11
165.1854977671771
 21
93.51974848166197
 31
0.0
 70
   160
 71
     5
 42
52.0
  3
ISO-25
100
AcDbAlignedDimension
 13
139.1854977671771
 23
104.3210685708221
 33
0.0
 14
191.1854977671771
 24
104.6611303328091
 34
0.0
100
AcDbRotatedDimension
1001
ACAD
1000
DSTYLE
1002
{
1070
   144
1040
1.0
1002
}
  0
DIMENSION
  5
A77
330
2
100
AcDbEntity
  8
BEM
 48
10.0
100
AcDbDimension
  2
*D13
 10
79.70369368750334
 20
32.25598880223799
 30
0.0
 11
57.80393715208652
 21
32.25598880223799
 31
0.0
 70
   160
 71
     5
 42
46.0
  3
ISO-25
100
AcDbAlignedDimension
 13
33.70369368750335
 23
25.20777232764146
 33
0.0
 14
79.70369368750334
 24
25.20777232764146
 34
0.0
100
AcDbRotatedDimension
1001
ACAD
1000
DSTYLE
1002
{
1070
   144
1040
1.0
1002
}
  0
ARC
  5
B29
330
2
100
AcDbEntity
  8
0
 48
10.0
100
AcDbCircle
 10
165.1854977671771
 20
141.9761677646605
 30
0.0
 40
21.0
100
AcDbArc
 50
5.46502379990586
 51
174.5349762000943
  0
ARC
  5
B2A
330
2
100
AcDbEntity
  8
0
 48
10.0
100
AcDbCircle
 10
165.1854977671771
 20
141.9761677646605
 30
0.0
 40
21.0
100
AcDbArc
 50
185.4650237999057
 51
354.5349762000943
  0
DIMENSION
  5
B2C
330
2
100
AcDbEntity
  8
BEM
 48
10.0
100
AcDbDimension
  2
*D14
 10
198.1854977671771
 20
79.81660391697161
 30
0.0
 11
165.1854977671771
 21
83.06660391697162
 31
0.0
 70
    32
  1
<>
 71
     5
 42
66.0
  3
ISO-25
100
AcDbAlignedDimension
 13
132.1854977671771
 23
106.7761681227038
 33
0.0
 14
198.1854977671771
 24
106.7761681227038
 34
0.0
100
AcDbRotatedDimension
1001
ACAD
1000
DSTYLE
1002
{
1070
   144
1040
1.0
1002
}
  0
DIMENSION
  5
B43
330
2
100
AcDbEntity
  8
BEM
 48
10.0
100
AcDbDimension
  2
*D15
 10
158.3451834751582
 20
114.9214432344964
 30
0.0
 11
181.0958000071632
 21
180.9574779832359
 31
0.0
 70
   163
  1
<>{}{\H0.71x;\C3;+0.05}
 71
     5
 42
42.00000000000005
  3
ISO-25
100
AcDbDiametricDimension
 15
172.0258120591961
 25
154.6308930109112
 35
0.0
 40
0.0
1001
ACAD
1000
DSTYLE
1002
{
1070
   286
1070
     0
1070
   284
1070
     8
1070
   274
1070
     2
1070
   272
1070
     4
1070
    48
1040
0.0
1070
    47
1040
0.05
1070
   144
1040
1.0
1002
}
1001
GENIUS_GENDTOL_13
1000
TolSmPm
1000

1000
{\H0.71x;$2$+$P}
1040
42.0
  0
LINE
  5
C1B
330
2
100
AcDbEntity
  8
LINIE
  6
HIDDEN
 48
10.0
100
AcDbLine
 10
86.70369368750334
 20
162.9761677646605
 30
0.0
 11
26.70369368750335
 21
162.9761677646605
 31
0.0
  0
LINE
  5
C21
330
2
100
AcDbEntity
  8
LINIE
  6
HIDDEN
 48
10.0
100
AcDbLine
 10
86.70369368750334
 20
120.9761677646605
 30
0.0
 11
26.70369368750335
 21
120.9761677646605
 31
0.0
  0
LINE
  5
C59
330
2
100
AcDbEntity
  8
LINIE
  6
HIDDEN
 48
10.0
100
AcDbLine
 10
86.70369368750334
 20
233.0395968631586
 30
0.0
 11
26.70369368750335
 21
233.0395968631586
 31
0.0
  0
LINE
  5
C5A
330
2
100
AcDbEntity
  8
LINIE
  6
HIDDEN
 48
10.0
100
AcDbLine
 10
86.70369368750334
 20
191.0395968631586
 30
0.0
 11
26.70369368750335
 21
191.0395968631586
 31
0.0
  0
LINE
  5
C5B
330
2
100
AcDbEntity
  8
LINIE
  6
HIDDEN
 48
10.0
100
AcDbLine
 10
86.70369368750334
 20
89.50777248425731
 30
0.0
 11
26.70369368750335
 21
89.50777248425731
 31
0.0
  0
LINE
  5
C5C
330
2
100
AcDbEntity
  8
LINIE
  6
HIDDEN
 48
10.0
100
AcDbLine
 10
86.70369368750334
 20
47.50777248425731
 30
0.0
 11
26.70369368750335
 21
47.50777248425731
 31
0.0
  0
ARC
  5
CD3
330
2
100
AcDbEntity
  8
LINIE
 48
10.0
100
AcDbCircle
 10
33.70369368750337
 20
186.0395968631586
 30
0.0
 40
3.0
100
AcDbArc
 50
342.29435090156
 51
295.5092457574981
  0
CIRCLE
  5
CD4
330
2
100
AcDbEntity
  8
0
 48
10.0
100
AcDbCircle
 10
33.70369368750337
 20
186.0395968631586
 30
0.0
 40
2.35
  0
ARC
  5
CD5
330
2
100
AcDbEntity
  8
LINIE
 48
10.0
100
AcDbCircle
 10
79.70369368750337
 20
186.0395968631586
 30
0.0
 40
3.0
100
AcDbArc
 50
346.3099609633498
 51
285.9873432776703
  0
CIRCLE
  5
CD6
330
2
100
AcDbEntity
  8
0
 48
10.0
100
AcDbCircle
 10
79.70369368750337
 20
186.0395968631586
 30
0.0
 40
2.35
  0
ARC
  5
CDB
330
2
100
AcDbEntity
  8
LINIE
 48
10.0
100
AcDbCircle
 10
33.70369368750337
 20
238.0395968631586
 30
0.0
 40
3.0
100
AcDbArc
 50
64.49075424250196
 51
17.70564909843999
  0
CIRCLE
  5
CDC
330
2
100
AcDbEntity
  8
0
 48
10.0
100
AcDbCircle
 10
33.70369368750337
 20
238.0395968631586
 30
0.0
 40
2.35
  0
ARC
  5
CDD
330
2
100
AcDbEntity
  8
LINIE
 48
10.0
100
AcDbCircle
 10
79.70369368750337
 20
238.0395968631586
 30
0.0
 40
3.0
100
AcDbArc
 50
74.01265672232965
 51
13.69003903665019
  0
CIRCLE
  5
CDE
330
2
100
AcDbEntity
  8
0
 48
10.0
100
AcDbCircle
 10
79.70369368750337
 20
238.0395968631586
 30
0.0
 40
2.35
  0
LEADER
  5
D5A
330
2
100
AcDbEntity
  8
BEM
 48
10.0
100
AcDbLeader
  3
ISO-25
 73
     0
 75
     1
 40
3.5
 41
16.0
 76
     3
 10
41.31377585071388
 20
258.6776963872588
 30
0.0
 10
31.95720402584971
 20
276.1273116952275
 30
0.0
 10
28.45720402584971
 20
276.1273116952275
 30
0.0
340
D5B
213
0.0
223
1.75
233
0.0
1001
ACAD
1000
DSTYLE
1002
{
1070
   147
1040
3.0
1070
   144
1040
1.0
1002
}
  0
MTEXT
  5
D5B
102
{ACAD_REACTORS
330
D5A
102
}
330
2
100
AcDbEntity
  8
BEM
 48
10.0
100
AcDbMText
 10
25.45720402584971
 20
277.3773116952275
 30
0.0
 40
3.5
 41
0.0
 71
     9
 72
     1
  1
4x M5
 73
     1
 44
1.0
  0
MTEXT
  5
F85
330
2
100
AcDbEntity
  8
BEM
 48
10.0
100
AcDbMText
 10
106.9538752620412
 20
42.60281053187862
 30
0.0
 40
5.0
 41
76.62068133002435
 71
     1
 72
     5
  1
{\fArial|b0|i0|c0|p34;4x Klemmschraube\P     clamping screw}
 73
     1
 44
1.0
1001
ACAD
1000
ACAD_MTEXT_DEFINED_HEIGHT_BEGIN
1070
    46
1040
22.62613756003259
1000
ACAD_MTEXT_DEFINED_HEIGHT_END
  0
INSERT
  5
F87
330
2
100
AcDbEntity
  8
BEM
 48
10.0
100
AcDbBlockReference
  2
*S23
 10
0.0
 20
0.0
 30
0.0
  0
LINE
  5
F94
330
2
100
AcDbEntity
  8
MITTE
 48
3.0
100
AcDbLine
 10
40.70369368750334
 20
94.50777248425731
 30
0.0
 11
26.70369368750335
 21
94.50777248425731
 31
0.0
  0
LINE
  5
F95
330
2
100
AcDbEntity
  8
MITTE
 48
3.0
100
AcDbLine
 10
33.70369368750335
 20
87.50777248425732
 30
0.0
 11
33.70369368750335
 21
101.5077724842573
 31
0.0
  0
LINE
  5
F9F
330
2
100
AcDbEntity
  8
MITTE
 48
3.0
100
AcDbLine
 10
40.70369368750334
 20
42.50777248425731
 30
0.0
 11
26.70369368750335
 21
42.50777248425731
 31
0.0
  0
LINE
  5
FA0
330
2
100
AcDbEntity
  8
MITTE
 48
3.0
100
AcDbLine
 10
33.70369368750335
 20
35.50777248425732
 30
0.0
 11
33.70369368750335
 21
49.50777248425731
 31
0.0
  0
LINE
  5
FAA
330
2
100
AcDbEntity
  8
MITTE
 48
3.0
100
AcDbLine
 10
86.70369368750334
 20
42.50777248425731
 30
0.0
 11
72.70369368750334
 21
42.50777248425731
 31
0.0
  0
LINE
  5
FAB
330
2
100
AcDbEntity
  8
MITTE
 48
3.0
100
AcDbLine
 10
79.70369368750334
 20
35.50777248425732
 30
0.0
 11
79.70369368750334
 21
49.50777248425731
 31
0.0
  0
ENDSEC
  0
SECTION
  2
OBJECTS
  0
DICTIONARY
  5
1B
330
0
100
AcDbDictionary
281
     1
  3
ACAD_2007HEADERVARS_RT
350
1247
  3
ACAD_COLOR
350
5F
  3
ACAD_GROUP
350
19
  3
ACAD_LAYOUT
350
60
  3
ACAD_MATERIAL
350
5E
  3
ACAD_MLEADERSTYLE
350
EE6
  3
ACAD_MLINESTYLE
350
1A
  3
ACAD_PLOTSETTINGS
350
61
  3
ACAD_PLOTSTYLENAME
350
5C
  3
ACAD_SCALELIST
350
EC4
  3
ACAD_TABLESTYLE
350
141
  3
ACAD_VISUALSTYLE
350
E4F
  3
ACDB_RECOMPOSE_DATA
350
F23
  3
ACDBVARIABLEDICTIONARY
350
4D
  3
AcmDictionary
350
BC
  3
AMG
350
68
  3
AMGSNAPSETTINGS
350
F9
  3
ASE_INDEX_DICTIONARY
350
F17
  0
DICTIONARY
  5
F03
330
5
100
AcDbDictionary
280
     1
281
     1
  3
ADSK_XREC_LAYER_RECONCILED
360
F04
  0
DICTIONARY
  5
F05
330
20
100
AcDbDictionary
280
     1
281
     1
  3
ADSK_XREC_LAYER_RECONCILED
360
F06
  0
DICTIONARY
  5
F07
330
26
100
AcDbDictionary
280
     1
281
     1
  3
ADSK_XREC_LAYER_RECONCILED
360
F08
  0
DICTIONARY
  5
F09
330
28
100
AcDbDictionary
280
     1
281
     1
  3
ADSK_XREC_LAYER_RECONCILED
360
F0A
  0
DICTIONARY
  5
F0B
330
24
100
AcDbDictionary
280
     1
281
     1
  3
ADSK_XREC_LAYER_RECONCILED
360
F0C
  0
DICTIONARY
  5
3
330
2
100
AcDbDictionary
280
     1
281
     1
  3
ACAD_SORTENTS
360
17D
  0
DICTIONARY
  5
1251
330
120D
100
AcDbDictionary
280
     1
281
     1
  3
ACAD_MTEXT_2008_RT
360
1252
  0
DICTIONARY
  5
D39
330
289
100
AcDbDictionary
280
     1
281
     1
  3
ACMDIMBREAKPERSREACTOR
360
D3A
  0
DICTIONARY
  5
1247
102
{ACAD_REACTORS
330
1B
102
}
330
1B
100
AcDbDictionary
281
     1
  3
DIMJOGANG
350
1248
  0
DICTIONARY
  5
5F
102
{ACAD_REACTORS
330
1B
102
}
330
1B
100
AcDbDictionary
281
     1
  0
DICTIONARY
  5
19
102
{ACAD_REACTORS
330
1B
102
}
330
1B
100
AcDbDictionary
281
     1
  0
DICTIONARY
  5
60
102
{ACAD_REACTORS
330
1B
102
}
330
1B
100
AcDbDictionary
281
     1
  3
Layout1
350
63
  3
Model
350
62
  0
DICTIONARY
  5
5E
102
{ACAD_REACTORS
330
1B
102
}
330
1B
100
AcDbDictionary
281
     1
  3
ByBlock
350
E4D
  3
ByLayer
350
E4C
  3
Global
350
E4E
  0
DICTIONARY
  5
EE6
102
{ACAD_REACTORS
330
1B
102
}
330
1B
100
AcDbDictionary
281
     1
  3
Standard
350
EE7
  0
DICTIONARY
  5
1A
102
{ACAD_REACTORS
330
1B
102
}
330
1B
100
AcDbDictionary
281
     1
  3
STANDARD
350
1D
  0
DICTIONARY
  5
61
102
{ACAD_REACTORS
330
1B
102
}
330
1B
100
AcDbDictionary
281
     1
  0
ACDBDICTIONARYWDFLT
  5
5C
102
{ACAD_REACTORS
330
1B
102
}
330
1B
100
AcDbDictionary
281
     1
  3
Normal
350
5D
100
AcDbDictionaryWithDefault
340
5D
  0
DICTIONARY
  5
EC4
102
{ACAD_REACTORS
330
1B
102
}
330
1B
100
AcDbDictionary
281
     1
  3
A0
350
EC5
  3
A1
350
EC6
  3
A2
350
EC7
  3
A3
350
EC8
  3
A4
350
EC9
  3
A5
350
ECA
  3
A6
350
ECB
  3
A7
350
ECC
  3
A8
350
ECD
  3
A9
350
ECE
  3
B0
350
ECF
  3
B1
350
ED0
  3
B2
350
ED1
  3
B3
350
ED2
  3
B4
350
ED3
  3
B5
350
ED4
  3
B6
350
ED5
  3
B7
350
ED6
  3
B8
350
ED7
  3
B9
350
ED8
  3
C0
350
ED9
  3
C1
350
EDA
  3
C2
350
EDB
  3
C3
350
EDC
  3
C4
350
EDD
  3
C5
350
EDE
  3
C6
350
EDF
  3
C7
350
EE0
  3
C8
350
EE1
  3
C9
350
EE2
  3
D0
350
EE3
  3
D1
350
EE4
  3
D2
350
EE5
  0
DICTIONARY
  5
141
102
{ACAD_REACTORS
330
1B
102
}
330
1B
100
AcDbDictionary
281
     1
  3
Standard
350
142
  0
DICTIONARY
  5
E4F
102
{ACAD_REACTORS
330
1B
102
}
330
1B
100
AcDbDictionary
281
     1
  3
2dWireframe
350
E55
  3
3D Hidden
350
E57
  3
3dWireframe
350
E56
  3
Basic
350
E54
  3
Brighten
350
E5B
  3
ColorChange
350
E5F
  3
Conceptual
350
E58
  3
Dim
350
E5A
  3
Facepattern
350
E5E
  3
Flat
350
E50
  3
FlatWithEdges
350
E51
  3
Gouraud
350
E52
  3
GouraudWithEdges
350
E53
  3
Linepattern
350
E5D
  3
Realistic
350
E59
  3
Thicken
350
E5C
  0
XRECORD
  5
F23
102
{ACAD_REACTORS
330
1B
102
}
330
1B
100
AcDbXrecord
280
     1
 90
        1
330
142
  0
DICTIONARY
  5
4D
102
{ACAD_REACTORS
330
1B
102
}
330
1B
100
AcDbDictionary
281
     1
  3
CANNOSCALE
350
F26
  3
CMLEADERSTYLE
350
F24
  3
CTABLESTYLE
350
15F
  3
INDEXCTL
350
4E
  3
LIGHTINGUNITS
350
F27
  3
MSLTSCALE
350
F25
  0
DICTIONARY
  5
BC
102
{ACAD_REACTORS
330
1B
102
}
330
1B
100
AcDbDictionary
281
     1
  3
AcmStdDictionary
350
C7
  3
AMDTSECTSYM_ARROWCOLOR
350
156
  0
DICTIONARY
  5
68
102
{ACAD_REACTORS
330
1B
102
}
330
1B
100
AcDbDictionary
281
     1
  0
DICTIONARY
  5
F9
102
{ACAD_REACTORS
330
1B
102
}
330
1B
100
AcDbDictionary
281
     1
  0
DICTIONARY
  5
F17
102
{ACAD_REACTORS
330
1B
102
}
330
1B
100
AcDbDictionary
281
     1
  3
ASEBlockHierarchyIndexRecord
350
F19
1001
DCO15
1040
1743767695.941
  0
XRECORD
  5
F04
102
{ACAD_REACTORS
330
F03
102
}
330
F03
100
AcDbXrecord
280
     1
290
     1
  0
XRECORD
  5
F06
102
{ACAD_REACTORS
330
F05
102
}
330
F05
100
AcDbXrecord
280
     1
290
     1
  0
XRECORD
  5
F08
102
{ACAD_REACTORS
330
F07
102
}
330
F07
100
AcDbXrecord
280
     1
290
     1
  0
XRECORD
  5
F0A
102
{ACAD_REACTORS
330
F09
102
}
330
F09
100
AcDbXrecord
280
     1
290
     1
  0
XRECORD
  5
F0C
102
{ACAD_REACTORS
330
F0B
102
}
330
F0B
100
AcDbXrecord
280
     1
290
     1
  0
SORTENTSTABLE
  5
17D
102
{ACAD_REACTORS
330
3
102
}
330
3
100
AcDbSortentsTable
330
2
331
178
  5
178
331
1EE
  5
1D2
331
180
  5
179
331
1F6
  5
200
331
1FE
  5
227
331
206
  5
1D1
331
4A3
  5
56F
331
B29
  5
B43
331
190
  5
191
331
198
  5
196
331
1A0
  5
1A0
331
1D7
  5
1F6
331
1A8
  5
1A8
331
1B0
  5
1B0
331
1B8
  5
1BB
331
179
  5
17F
331
1EF
  5
1CD
331
181
  5
182
331
1C0
  5
1D8
331
189
  5
189
331
207
  5
1C1
331
B2A
  5
BCA
331
191
  5
18E
331
199
  5
199
331
1D0
  5
1F0
331
227
  5
243
331
1A9
  5
1A9
331
C21
  5
C59
331
C59
  5
C5A
331
1B1
  5
1B1
331
46D
  5
570
331
1B9
  5
1BC
331
1F0
  5
1BD
331
182
  5
180
331
1F8
  5
201
331
18A
  5
193
331
24F
  5
269
331
208
  5
1D4
331
192
  5
197
331
1C9
  5
1DB
331
2A6
  5
2C2
331
19A
  5
19A
331
1A2
  5
1A2
331
1AA
  5
1AA
331
B43
  5
B42
331
C5A
  5
C5B
331
1BA
  5
1C9
331
46E
  5
571
331
1F9
  5
202
331
183
  5
17E
331
1C2
  5
1D9
331
297
  5
2B3
331
209
  5
1BE
331
B2C
  5
B2B
331
193
  5
195
331
19B
  5
19B
331
1DA
  5
1FA
331
1AB
  5
1AB
331
C1B
  5
C21
331
A5D
  5
A77
331
C5B
  5
C5C
331
1B3
  5
1B3
331
1BB
  5
1CA
331
17C
  5
185
331
1F2
  5
1FE
331
46F
  5
572
331
1FA
  5
203
331
184
  5
183
331
1C3
  5
1DA
331
CD3
  5
CD4
331
CDB
  5
CDC
331
20A
  5
1D3
331
21A
  5
234
331
19C
  5
19C
331
1D3
  5
1F4
331
1DB
  5
1FC
331
269
  5
297
331
1AC
  5
1AC
331
C5C
  5
C5D
331
1B4
  5
1B4
331
289
  5
2A6
331
1F3
  5
1FF
331
1BC
  5
1D7
331
470
  5
575
331
185
  5
181
331
1FB
  5
204
331
CD4
  5
CD5
331
CDC
  5
CDD
331
20B
  5
1C4
331
195
  5
190
331
1CC
  5
1EE
331
19D
  5
19D
331
1D4
  5
1F5
331
1AD
  5
1AD
331
1B5
  5
1BA
331
1BD
  5
1B8
331
17E
  5
184
331
1F4
  5
1C3
331
1FC
  5
205
331
CD5
  5
CD6
331
A77
  5
B2A
331
CDD
  5
CDE
331
196
  5
192
331
1CD
  5
1EF
331
19E
  5
19F
331
1A6
  5
1A6
331
1AE
  5
1AE
331
234
  5
25C
331
17F
  5
17C
331
1F5
  5
1BF
331
187
  5
17B
331
1FD
  5
20C
331
205
  5
1D0
331
CD6
  5
CDB
331
CDE
  5
D59
331
197
  5
198
331
25C
  5
289
331
19F
  5
19E
331
2B3
  5
46A
331
1DE
  5
1FD
331
1A7
  5
1A7
331
1AF
  5
1AF
  0
XRECORD
  5
1252
102
{ACAD_REACTORS
330
1251
102
}
330
1251
100
AcDbXrecord
280
     1
 40
40448.0
  1
\A1;\U+220542{}{\H0.71x;\C3;+0.05}
  0
XRECORD
  5
1248
102
{ACAD_REACTORS
330
1247
102
}
330
1247
100
AcDbXrecord
280
     1
 40
1.570796326794896
  0
LAYOUT
  5
63
102
{ACAD_REACTORS
330
60
102
}
330
60
100
AcDbPlotSettings
  1

  2
HP LaserJet 5000 Series PCL6
  4

  6

 40
0.0
 41
0.0
 42
0.0
 43
0.0
 44
0.0
 45
0.0
 46
0.0
 47
0.0
 48
0.0
 49
0.0
140
0.0
141
0.0
142
1.0
143
1.0
 70
   688
 72
     0
 73
     0
 74
     5
  7
Zeich.ctb
 75
    16
147
1.0
 76
     0
 77
     2
 78
   300
148
0.0
149
0.0
100
AcDbLayout
  1
Layout1
 70
     0
 71
     1
 10
0.0
 20
0.0
 11
420.0
 21
297.0
 12
0.0
 22
0.0
 32
0.0
 14
1.000000000000000E+20
 24
1.000000000000000E+20
 34
1.000000000000000E+20
 15
-1.000000000000000E+20
 25
-1.000000000000000E+20
 35
-1.000000000000000E+20
146
0.0
 13
0.0
 23
0.0
 33
0.0
 16
1.0
 26
0.0
 36
0.0
 17
0.0
 27
1.0
 37
0.0
 76
     0
330
8
  0
LAYOUT
  5
62
102
{ACAD_REACTORS
330
60
102
}
330
60
100
AcDbPlotSettings
  1

  2
Basyouni
  4
A4
  6

 40
5.027083396911621
 41
6.551072120666503
 42
5.027084350585937
 43
5.027069091796875
 44
209.9733276367187
 45
296.9683227539062
 46
-0.0000000000000142
 47
1.202955744543402
 48
5.0
 49
15.0
140
414.0
141
301.0
142
1.0
143
1.480754466401995
 70
 11956
 72
     1
 73
     1
 74
     1
  7
Zeich.ctb
 75
     0
147
0.6753314088795867
 76
     0
 77
     2
 78
   300
148
0.0188875846667998
149
-9.98519975457475
100
AcDbLayout
  1
Model
 70
     1
 71
     0
 10
0.0
 20
0.0
 11
12.0
 21
9.0
 12
0.0
 22
0.0
 32
0.0
 14
0.0
 24
0.0
 34
0.0
 15
0.0
 25
0.0
 35
0.0
146
0.0
 13
0.0
 23
0.0
 33
0.0
 16
1.0
 26
0.0
 36
0.0
 17
0.0
 27
1.0
 37
0.0
 76
     0
330
2
331
E4A
1001
ACAD_PSEXT
1000
Basyouni
1000
HP LaserJet 2300 Series PCL 6
1000
Konstruktion
1000
CAD 1_A4
1070
     0
  0
MATERIAL
  5
E4D
102
{ACAD_XDICTIONARY
360
124C
102
}
102
{ACAD_REACTORS
330
5E
102
}
330
5E
100
AcDbMaterial
  1
ByBlock
 73
     1
 78
     1
172
     1
176
     1
270
     1
274
     1
  0
MATERIAL
  5
E4C
102
{ACAD_XDICTIONARY
360
124A
102
}
102
{ACAD_REACTORS
330
5E
102
}
330
5E
100
AcDbMaterial
  1
ByLayer
 73
     1
 78
     1
172
     1
176
     1
270
     1
274
     1
  0
MATERIAL
  5
E4E
102
{ACAD_XDICTIONARY
360
124E
102
}
102
{ACAD_REACTORS
330
5E
102
}
330
5E
100
AcDbMaterial
  1
Global
 73
     1
 78
     1
172
     1
176
     1
270
     1
274
     1
  0
MLEADERSTYLE
  5
EE7
102
{ACAD_REACTORS
330
EE6
102
}
330
EE6
100
AcDbMLeaderStyle
170
     2
171
     1
172
     0
 90
        2
 40
0.0
 41
0.0
173
     1
 91
-1056964608
340
F
 92
       -2
290
     1
 42
0.09
291
     1
 43
0.36
  3
Standard
 44
0.18
300

342
D
174
     1
178
     6
175
     1
176
     0
 93
-1056964608
 45
0.18
292
     0
297
     0
 46
0.18
 94
-1056964608
 47
1.0
 49
1.0
140
1.0
293
     1
141
0.0
294
     1
177
     0
142
1.0
295
     0
296
     0
143
0.125
1001
ACAD_MLEADERVER
1070
     2
  0
MLINESTYLE
  5
1D
102
{ACAD_REACTORS
330
1A
102
}
330
1A
100
AcDbMlineStyle
  2
STANDARD
 70
     0
  3

 62
     0
 51
90.0
 52
90.0
 71
     2
 49
0.5
 62
   256
  6
BYLAYER
 49
-0.5
 62
   256
  6
BYLAYER
  0
ACDBPLACEHOLDER
  5
5D
102
{ACAD_REACTORS
330
5C
102
}
330
5C
  0
SCALE
  5
EC5
102
{ACAD_REACTORS
330
EC4
102
}
330
EC4
100
AcDbScale
 70
     0
300
1:1
140
1.0
141
1.0
290
     1
  0
SCALE
  5
EC6
102
{ACAD_REACTORS
330
EC4
102
}
330
EC4
100
AcDbScale
 70
     0
300
1:2
140
1.0
141
2.0
290
     0
  0
SCALE
  5
EC7
102
{ACAD_REACTORS
330
EC4
102
}
330
EC4
100
AcDbScale
 70
     0
300
1:4
140
1.0
141
4.0
290
     0
  0
SCALE
  5
EC8
102
{ACAD_REACTORS
330
EC4
102
}
330
EC4
100
AcDbScale
 70
     0
300
1:5
140
1.0
141
5.0
290
     0
  0
SCALE
  5
EC9
102
{ACAD_REACTORS
330
EC4
102
}
330
EC4
100
AcDbScale
 70
     0
300
1:8
140
1.0
141
8.0
290
     0
  0
SCALE
  5
ECA
102
{ACAD_REACTORS
330
EC4
102
}
330
EC4
100
AcDbScale
 70
     0
300
1:10
140
1.0
141
10.0
290
     0
  0
SCALE
  5
ECB
102
{ACAD_REACTORS
330
EC4
102
}
330
EC4
100
AcDbScale
 70
     0
300
1:16
140
1.0
141
16.0
290
     0
  0
SCALE
  5
ECC
102
{ACAD_REACTORS
330
EC4
102
}
330
EC4
100
AcDbScale
 70
     0
300
1:20
140
1.0
141
20.0
290
     0
  0
SCALE
  5
ECD
102
{ACAD_REACTORS
330
EC4
102
}
330
EC4
100
AcDbScale
 70
     0
300
1:30
140
1.0
141
30.0
290
     0
  0
SCALE
  5
ECE
102
{ACAD_REACTORS
330
EC4
102
}
330
EC4
100
AcDbScale
 70
     0
300
1:40
140
1.0
141
40.0
290
     0
  0
SCALE
  5
ECF
102
{ACAD_REACTORS
330
EC4
102
}
330
EC4
100
AcDbScale
 70
     0
300
1:50
140
1.0
141
50.0
290
     0
  0
SCALE
  5
ED0
102
{ACAD_REACTORS
330
EC4
102
}
330
EC4
100
AcDbScale
 70
     0
300
1:100
140
1.0
141
100.0
290
     0
  0
SCALE
  5
ED1
102
{ACAD_REACTORS
330
EC4
102
}
330
EC4
100
AcDbScale
 70
     0
300
2:1
140
2.0
141
1.0
290
     0
  0
SCALE
  5
ED2
102
{ACAD_REACTORS
330
EC4
102
}
330
EC4
100
AcDbScale
 70
     0
300
4:1
140
4.0
141
1.0
290
     0
  0
SCALE
  5
ED3
102
{ACAD_REACTORS
330
EC4
102
}
330
EC4
100
AcDbScale
 70
     0
300
8:1
140
8.0
141
1.0
290
     0
  0
SCALE
  5
ED4
102
{ACAD_REACTORS
330
EC4
102
}
330
EC4
100
AcDbScale
 70
     0
300
10:1
140
10.0
141
1.0
290
     0
  0
SCALE
  5
ED5
102
{ACAD_REACTORS
330
EC4
102
}
330
EC4
100
AcDbScale
 70
     0
300
100:1
140
100.0
141
1.0
290
     0
  0
SCALE
  5
ED6
102
{ACAD_REACTORS
330
EC4
102
}
330
EC4
100
AcDbScale
 70
     0
300
1/128" = 1'-0"
140
0.0078125
141
12.0
290
     0
  0
SCALE
  5
ED7
102
{ACAD_REACTORS
330
EC4
102
}
330
EC4
100
AcDbScale
 70
     0
300
1/64" = 1'-0"
140
0.015625
141
12.0
290
     0
  0
SCALE
  5
ED8
102
{ACAD_REACTORS
330
EC4
102
}
330
EC4
100
AcDbScale
 70
     0
300
1/32" = 1'-0"
140
0.03125
141
12.0
290
     0
  0
SCALE
  5
ED9
102
{ACAD_REACTORS
330
EC4
102
}
330
EC4
100
AcDbScale
 70
     0
300
1/16" = 1'-0"
140
0.0625
141
12.0
290
     0
  0
SCALE
  5
EDA
102
{ACAD_REACTORS
330
EC4
102
}
330
EC4
100
AcDbScale
 70
     0
300
3/32" = 1'-0"
140
0.09375
141
12.0
290
     0
  0
SCALE
  5
EDB
102
{ACAD_REACTORS
330
EC4
102
}
330
EC4
100
AcDbScale
 70
     0
300
1/8" = 1'-0"
140
0.125
141
12.0
290
     0
  0
SCALE
  5
EDC
102
{ACAD_REACTORS
330
EC4
102
}
330
EC4
100
AcDbScale
 70
     0
300
3/16" = 1'-0"
140
0.1875
141
12.0
290
     0
  0
SCALE
  5
EDD
102
{ACAD_REACTORS
330
EC4
102
}
330
EC4
100
AcDbScale
 70
     0
300
1/4" = 1'-0"
140
0.25
141
12.0
290
     0
  0
SCALE
  5
EDE
102
{ACAD_REACTORS
330
EC4
102
}
330
EC4
100
AcDbScale
 70
     0
300
3/8" = 1'-0"
140
0.375
141
12.0
290
     0
  0
SCALE
  5
EDF
102
{ACAD_REACTORS
330
EC4
102
}
330
EC4
100
AcDbScale
 70
     0
300
1/2" = 1'-0"
140
0.5
141
12.0
290
     0
  0
SCALE
  5
EE0
102
{ACAD_REACTORS
330
EC4
102
}
330
EC4
100
AcDbScale
 70
     0
300
3/4" = 1'-0"
140
0.75
141
12.0
290
     0
  0
SCALE
  5
EE1
102
{ACAD_REACTORS
330
EC4
102
}
330
EC4
100
AcDbScale
 70
     0
300
1" = 1'-0"
140
1.0
141
12.0
290
     0
  0
SCALE
  5
EE2
102
{ACAD_REACTORS
330
EC4
102
}
330
EC4
100
AcDbScale
 70
     0
300
1-1/2" = 1'-0"
140
1.5
141
12.0
290
     0
  0
SCALE
  5
EE3
102
{ACAD_REACTORS
330
EC4
102
}
330
EC4
100
AcDbScale
 70
     0
300
3" = 1'-0"
140
3.0
141
12.0
290
     0
  0
SCALE
  5
EE4
102
{ACAD_REACTORS
330
EC4
102
}
330
EC4
100
AcDbScale
 70
     0
300
6" = 1'-0"
140
6.0
141
12.0
290
     0
  0
SCALE
  5
EE5
102
{ACAD_REACTORS
330
EC4
102
}
330
EC4
100
AcDbScale
 70
     0
300
1'-0" = 1'-0"
140
12.0
141
12.0
290
     0
  0
TABLESTYLE
  5
142
102
{ACAD_XDICTIONARY
360
F21
102
}
102
{ACAD_REACTORS
330
141
102
}
330
141
100
AcDbTableStyle
  3
Standard
 70
     0
 71
     0
 40
0.06
 41
0.06
280
     0
281
     0
  7
STANDARD
140
0.18
170
     2
 62
     0
 63
     7
283
     0
274
    -2
284
     1
 64
     0
275
    -2
285
     1
 65
     0
276
    -2
286
     1
 66
     0
277
    -2
287
     1
 67
     0
278
    -2
288
     1
 68
     0
279
    -2
289
     1
 69
     0
  7
STANDARD
140
0.25
170
     5
 62
     0
 63
     7
283
     0
274
    -2
284
     1
 64
     0
275
    -2
285
     1
 65
     0
276
    -2
286
     1
 66
     0
277
    -2
287
     1
 67
     0
278
    -2
288
     1
 68
     0
279
    -2
289
     1
 69
     0
  7
STANDARD
140
0.18
170
     5
 62
     0
 63
     7
283
     0
274
    -2
284
     1
 64
     0
275
    -2
285
     1
 65
     0
276
    -2
286
     1
 66
     0
277
    -2
287
     1
 67
     0
278
    -2
288
     1
 68
     0
279
    -2
289
     1
 69
     0
  0
VISUALSTYLE
  5
E55
102
{ACAD_REACTORS
330
E4F
102
}
330
E4F
100
AcDbVisualStyle
  2
2dWireframe
 70
     4
 71
     0
 72
     2
 73
     0
 90
        0
 40
-0.6
 41
-30.0
 62
     5
 63
     7
421
 16777215
 74
     1
 91
        4
 64
     7
 65
   257
 75
     1
175
     1
 42
1.0
 92
        0
 66
   257
 43
1.0
 76
     1
 77
     6
 78
     2
 67
     7
 79
     5
170
     0
171
     0
290
     0
174
     0
 93
        1
 44
0.0
173
     0
291
     0
 45
0.0
1001
ACAD
1000
AcDbSavedByObjectVersion
1070
     0
  0
VISUALSTYLE
  5
E57
102
{ACAD_REACTORS
330
E4F
102
}
330
E4F
100
AcDbVisualStyle
  2
3D Hidden
 70
     6
 71
     1
 72
     2
 73
     2
 90
        0
 40
-0.6
 41
-30.0
 62
     5
 63
     7
421
 16777215
 74
     2
 91
        2
 64
     7
 65
   257
 75
     2
175
     1
 42
40.0
 92
        0
 66
   257
 43
1.0
 76
     1
 77
     6
 78
     2
 67
     7
 79
     3
170
     0
171
     0
290
     0
174
     0
 93
        1
 44
0.0
173
     0
291
     0
 45
0.0
1001
ACAD
1000
AcDbSavedByObjectVersion
1070
     0
  0
VISUALSTYLE
  5
E56
102
{ACAD_REACTORS
330
E4F
102
}
330
E4F
100
AcDbVisualStyle
  2
3dWireframe
 70
     5
 71
     0
 72
     2
 73
     0
 90
        0
 40
-0.6
 41
-30.0
 62
     5
 63
     7
421
 16777215
 74
     1
 91
        4
 64
     7
 65
   257
 75
     1
175
     1
 42
1.0
 92
        0
 66
   257
 43
1.0
 76
     1
 77
     6
 78
     2
 67
     7
 79
     5
170
     0
171
     0
290
     0
174
     0
 93
        1
 44
0.0
173
     0
291
     0
 45
0.0
1001
ACAD
1000
AcDbSavedByObjectVersion
1070
     0
  0
VISUALSTYLE
  5
E54
102
{ACAD_REACTORS
330
E4F
102
}
330
E4F
100
AcDbVisualStyle
  2
Basic
 70
     7
 71
     1
 72
     0
 73
     1
 90
        0
 40
-0.6
 41
-30.0
 62
     5
 63
     7
421
 16777215
 74
     0
 91
        4
 64
     7
 65
   257
 75
     1
175
     1
 42
1.0
 92
        8
 66
     7
 43
1.0
 76
     1
 77
     6
 78
     2
 67
     7
 79
     5
170
     0
171
     0
290
     0
174
     0
 93
        1
 44
0.0
173
     0
291
     1
 45
0.0
1001
ACAD
1000
AcDbSavedByObjectVersion
1070
     0
  0
VISUALSTYLE
  5
E5B
102
{ACAD_REACTORS
330
E4F
102
}
330
E4F
100
AcDbVisualStyle
  2
Brighten
 70
    12
 71
     2
 72
     2
 73
     0
 90
        0
 40
-0.6
 41
-30.0
 62
     5
 63
     7
421
 16777215
 74
     1
 91
        4
 64
     7
 65
   257
 75
     1
175
     1
 42
1.0
 92
        8
 66
     7
 43
1.0
 76
     1
 77
     6
 78
     2
 67
     7
 79
     5
170
     0
171
     0
290
     0
174
     0
 93
        1
 44
50.0
173
     0
291
     1
 45
0.0
1001
ACAD
1000
AcDbSavedByObjectVersion
1070
     0
  0
VISUALSTYLE
  5
E5F
102
{ACAD_REACTORS
330
E4F
102
}
330
E4F
100
AcDbVisualStyle
  2
ColorChange
 70
    16
 71
     2
 72
     2
 73
     3
 90
        0
 40
-0.6
 41
-30.0
 62
     5
 63
     8
421
  8421504
 74
     1
 91
        4
 64
     7
 65
   257
 75
     1
175
     1
 42
1.0
 92
        8
 66
     8
424
  8421504
 43
1.0
 76
     1
 77
     6
 78
     2
 67
     7
 79
     5
170
     0
171
     0
290
     0
174
     0
 93
        1
 44
0.0
173
     0
291
     1
 45
0.0
1001
ACAD
1000
AcDbSavedByObjectVersion
1070
     0
  0
VISUALSTYLE
  5
E58
102
{ACAD_REACTORS
330
E4F
102
}
330
E4F
100
AcDbVisualStyle
  2
Conceptual
 70
     9
 71
     3
 72
     2
 73
     0
 90
        0
 40
-0.6
 41
-30.0
 62
     5
 63
     7
421
 16777215
 74
     2
 91
        2
 64
     7
 65
   257
 75
     1
175
     1
 42
40.0
 92
        8
 66
     7
 43
1.0
 76
     1
 77
     6
 78
     2
 67
     7
 79
     3
170
     0
171
     0
290
     0
174
     0
 93
        1
 44
0.0
173
     0
291
     0
 45
0.0
1001
ACAD
1000
AcDbSavedByObjectVersion
1070
     0
  0
VISUALSTYLE
  5
E5A
102
{ACAD_REACTORS
330
E4F
102
}
330
E4F
100
AcDbVisualStyle
  2
Dim
 70
    11
 71
     2
 72
     2
 73
     0
 90
        0
 40
-0.6
 41
-30.0
 62
     5
 63
     7
421
 16777215
 74
     1
 91
        4
 64
     7
 65
   257
 75
     1
175
     1
 42
1.0
 92
        8
 66
     7
 43
1.0
 76
     1
 77
     6
 78
     2
 67
     7
 79
     5
170
     0
171
     0
290
     0
174
     0
 93
        1
 44
-50.0
173
     0
291
     1
 45
0.0
1001
ACAD
1000
AcDbSavedByObjectVersion
1070
     0
  0
VISUALSTYLE
  5
E5E
102
{ACAD_REACTORS
330
E4F
102
}
330
E4F
100
AcDbVisualStyle
  2
Facepattern
 70
    15
 71
     2
 72
     2
 73
     0
 90
        0
 40
-0.6
 41
-30.0
 62
     5
 63
     7
421
 16777215
 74
     1
 91
        4
 64
     7
 65
   257
 75
     1
175
     1
 42
1.0
 92
        8
 66
     7
 43
1.0
 76
     1
 77
     6
 78
     2
 67
     7
 79
     5
170
     0
171
     0
290
     0
174
     0
 93
        1
 44
0.0
173
     0
291
     1
 45
0.0
1001
ACAD
1000
AcDbSavedByObjectVersion
1070
     0
  0
VISUALSTYLE
  5
E50
102
{ACAD_REACTORS
330
E4F
102
}
330
E4F
100
AcDbVisualStyle
  2
Flat
 70
     0
 71
     2
 72
     1
 73
     1
 90
        2
 40
-0.6
 41
30.0
 62
     5
 63
     7
421
 16777215
 74
     0
 91
        4
 64
     7
 65
   257
 75
     1
175
     1
 42
1.0
 92
        8
 66
     7
 43
1.0
 76
     1
 77
     6
 78
     2
 67
     7
 79
     5
170
     0
171
     0
290
     0
174
     0
 93
       13
 44
0.0
173
     0
291
     1
 45
0.0
1001
ACAD
1000
AcDbSavedByObjectVersion
1070
     0
  0
VISUALSTYLE
  5
E51
102
{ACAD_REACTORS
330
E4F
102
}
330
E4F
100
AcDbVisualStyle
  2
FlatWithEdges
 70
     1
 71
     2
 72
     1
 73
     1
 90
        2
 40
-0.6
 41
30.0
 62
     5
 63
     7
421
 16777215
 74
     1
 91
        4
 64
     7
 65
   257
 75
     1
175
     1
 42
1.0
 92
        0
 66
   257
 43
1.0
 76
     1
 77
     6
 78
     2
 67
     7
 79
     5
170
     0
171
     0
290
     0
174
     0
 93
       13
 44
0.0
173
     0
291
     1
 45
0.0
1001
ACAD
1000
AcDbSavedByObjectVersion
1070
     0
  0
VISUALSTYLE
  5
E52
102
{ACAD_REACTORS
330
E4F
102
}
330
E4F
100
AcDbVisualStyle
  2
Gouraud
 70
     2
 71
     2
 72
     2
 73
     1
 90
        2
 40
-0.6
 41
30.0
 62
     5
 63
     7
421
 16777215
 74
     0
 91
        4
 64
     7
 65
   257
 75
     1
175
     1
 42
1.0
 92
        0
 66
     7
 43
1.0
 76
     1
 77
     6
 78
     2
 67
     7
 79
     5
170
     0
171
     0
290
     0
174
     0
 93
       13
 44
0.0
173
     0
291
     1
 45
0.0
1001
ACAD
1000
AcDbSavedByObjectVersion
1070
     0
  0
VISUALSTYLE
  5
E53
102
{ACAD_REACTORS
330
E4F
102
}
330
E4F
100
AcDbVisualStyle
  2
GouraudWithEdges
 70
     3
 71
     2
 72
     2
 73
     1
 90
        2
 40
-0.6
 41
30.0
 62
     5
 63
     7
421
 16777215
 74
     1
 91
        4
 64
     7
 65
   257
 75
     1
175
     1
 42
1.0
 92
        0
 66
   257
 43
1.0
 76
     1
 77
     6
 78
     2
 67
     7
 79
     5
170
     0
171
     0
290
     0
174
     0
 93
       13
 44
0.0
173
     0
291
     1
 45
0.0
1001
ACAD
1000
AcDbSavedByObjectVersion
1070
     0
  0
VISUALSTYLE
  5
E5D
102
{ACAD_REACTORS
330
E4F
102
}
330
E4F
100
AcDbVisualStyle
  2
Linepattern
 70
    14
 71
     2
 72
     2
 73
     0
 90
        0
 40
-0.6
 41
-30.0
 62
     5
 63
     7
421
 16777215
 74
     1
 91
        4
 64
     7
 65
   257
 75
     7
175
     7
 42
1.0
 92
        8
 66
     7
 43
1.0
 76
     1
 77
     6
 78
     2
 67
     7
 79
     5
170
     0
171
     0
290
     0
174
     0
 93
        1
 44
0.0
173
     0
291
     1
 45
0.0
1001
ACAD
1000
AcDbSavedByObjectVersion
1070
     0
  0
VISUALSTYLE
  5
E59
102
{ACAD_REACTORS
330
E4F
102
}
330
E4F
100
AcDbVisualStyle
  2
Realistic
 70
     8
 71
     2
 72
     2
 73
     0
 90
        0
 40
-0.6
 41
-30.0
 62
     5
 63
     7
421
 16777215
 74
     1
 91
        0
 64
     7
 65
   257
 75
     1
175
     1
 42
1.0
 92
        8
 66
     8
424
  7895160
 43
1.0
 76
     1
 77
     6
 78
     2
 67
     7
 79
     5
170
     0
171
     0
290
     0
174
     0
 93
       13
 44
0.0
173
     0
291
     0
 45
0.0
1001
ACAD
1000
AcDbSavedByObjectVersion
1070
     0
  0
VISUALSTYLE
  5
E5C
102
{ACAD_REACTORS
330
E4F
102
}
330
E4F
100
AcDbVisualStyle
  2
Thicken
 70
    13
 71
     2
 72
     2
 73
     0
 90
        0
 40
-0.6
 41
-30.0
 62
     5
 63
     7
421
 16777215
 74
     1
 91
        4
 64
     7
 65
   257
 75
     1
175
     1
 42
1.0
 92
       12
 66
     7
 43
1.0
 76
     1
 77
     6
 78
     2
 67
     7
 79
     5
170
     0
171
     0
290
     0
174
     0
 93
        1
 44
0.0
173
     0
291
     1
 45
0.0
1001
ACAD
1000
AcDbSavedByObjectVersion
1070
     0
  0
DICTIONARYVAR
  5
F26
102
{ACAD_REACTORS
330
4D
102
}
330
4D
100
DictionaryVariables
280
     0
  1
1:1
  0
DICTIONARYVAR
  5
F24
102
{ACAD_REACTORS
330
4D
102
}
330
4D
100
DictionaryVariables
280
     0
  1
STANDARD
  0
DICTIONARYVAR
  5
15F
102
{ACAD_REACTORS
330
4D
102
}
330
4D
100
DictionaryVariables
280
     0
  1
STANDARD
  0
DICTIONARYVAR
  5
4E
102
{ACAD_REACTORS
330
4D
102
}
330
4D
100
DictionaryVariables
280
     0
  1
1
  0
DICTIONARYVAR
  5
F27
102
{ACAD_REACTORS
330
4D
102
}
330
4D
100
DictionaryVariables
280
     0
  1
0
  0
DICTIONARYVAR
  5
F25
102
{ACAD_REACTORS
330
4D
102
}
330
4D
100
DictionaryVariables
280
     0
  1
0
  0
DICTIONARY
  5
C7
102
{ACAD_REACTORS
330
BC
102
}
330
BC
100
AcDbDictionary
281
     1
  0
XRECORD
  5
156
102
{ACAD_REACTORS
330
BC
102
}
330
BC
100
AcDbXrecord
280
     1
 90
-1023410169
  0
XRECORD
  5
F19
102
{ACAD_REACTORS
330
F17
102
}
330
F17
100
AcDbXrecord
280
     1
330
1245
  0
DICTIONARY
  5
124C
330
E4D
100
AcDbDictionary
280
     1
281
     1
  3
ACAD_XREC_ROUNDTRIP
360
124D
  0
DICTIONARY
  5
124A
330
E4C
100
AcDbDictionary
280
     1
281
     1
  3
ACAD_XREC_ROUNDTRIP
360
124B
  0
DICTIONARY
  5
124E
330
E4E
100
AcDbDictionary
280
     1
281
     1
  3
ACAD_XREC_ROUNDTRIP
360
124F
  0
DICTIONARY
  5
F21
330
142
100
AcDbDictionary
280
     1
281
     1
  3
ACAD_ROUNDTRIP_2008_TABLESTYLE_CELLSTYLEMAP
360
1246
  3
ACAD_XREC_ROUNDTRIP
360
1249
  0
XRECORD
  5
124D
102
{ACAD_REACTORS
330
124C
102
}
330
124C
100
AcDbXrecord
280
     1
102
MATERIAL
148
0.0
149
0.0
149
0.0
 93
        0
 94
       63
282
     0
 72
     1
 77
     1
171
     1
175
     1
179
     1
273
     0
  0
XRECORD
  5
124B
102
{ACAD_REACTORS
330
124A
102
}
330
124A
100
AcDbXrecord
280
     1
102
MATERIAL
148
0.0
149
0.0
149
0.0
 93
        0
 94
       63
282
     0
 72
     1
 77
     1
171
     1
175
     1
179
     1
273
     0
  0
XRECORD
  5
124F
102
{ACAD_REACTORS
330
124E
102
}
330
124E
100
AcDbXrecord
280
     1
102
MATERIAL
148
0.0
149
0.0
149
0.0
 93
        0
 94
       63
282
     0
 72
     1
 77
     1
171
     1
175
     1
179
     1
273
     0
  0
CELLSTYLEMAP
  5
1246
102
{ACAD_REACTORS
330
F21
102
}
330
F21
100
AcDbCellStyleMap
 90
        3
300
CELLSTYLE
  1
TABLEFORMAT_BEGIN
 90
        5
170
     1
 91
        0
 92
    32768
 62
   257
 93
        1
300
CONTENTFORMAT
  1
CONTENTFORMAT_BEGIN
 90
        0
 91
        0
 92
        4
 93
        0
300

 40
0.0
140
1.0
 94
        5
 62
     0
340
D
144
0.25
309
CONTENTFORMAT_END
171
     0
 94
        6
 95
        1
302
GRIDFORMAT
  1
GRIDFORMAT_BEGIN
 90
        0
 91
        1
 62
     0
 92
       -2
340
0
 93
        0
 40
0.045
309
GRIDFORMAT_END
 95
        2
302
GRIDFORMAT
  1
GRIDFORMAT_BEGIN
 90
        0
 91
        1
 62
     0
 92
       -2
340
0
 93
        0
 40
0.045
309
GRIDFORMAT_END
 95
        4
302
GRIDFORMAT
  1
GRIDFORMAT_BEGIN
 90
        0
 91
        1
 62
     0
 92
       -2
340
0
 93
        0
 40
0.045
309
GRIDFORMAT_END
 95
        8
302
GRIDFORMAT
  1
GRIDFORMAT_BEGIN
 90
        0
 91
        1
 62
     0
 92
       -2
340
0
 93
        0
 40
0.045
309
GRIDFORMAT_END
 95
       16
302
GRIDFORMAT
  1
GRIDFORMAT_BEGIN
 90
        0
 91
        1
 62
     0
 92
       -2
340
0
 93
        0
 40
0.045
309
GRIDFORMAT_END
 95
       32
302
GRIDFORMAT
  1
GRIDFORMAT_BEGIN
 90
        0
 91
        1
 62
     0
 92
       -2
340
0
 93
        0
 40
0.045
309
GRIDFORMAT_END
309
TABLEFORMAT_END
  1
CELLSTYLE_BEGIN
 90
        1
 91
        1
300
_TITLE
309
CELLSTYLE_END
300
CELLSTYLE
  1
TABLEFORMAT_BEGIN
 90
        5
170
     1
 91
        0
 92
        0
 62
   257
 93
        1
300
CONTENTFORMAT
  1
CONTENTFORMAT_BEGIN
 90
        0
 91
        0
 92
        4
 93
        0
300

 40
0.0
140
1.0
 94
        5
 62
     0
340
D
144
0.18
309
CONTENTFORMAT_END
171
     0
 94
        6
 95
        1
302
GRIDFORMAT
  1
GRIDFORMAT_BEGIN
 90
        0
 91
        1
 62
     0
 92
       -2
340
0
 93
        0
 40
0.045
309
GRIDFORMAT_END
 95
        2
302
GRIDFORMAT
  1
GRIDFORMAT_BEGIN
 90
        0
 91
        1
 62
     0
 92
       -2
340
0
 93
        0
 40
0.045
309
GRIDFORMAT_END
 95
        4
302
GRIDFORMAT
  1
GRIDFORMAT_BEGIN
 90
        0
 91
        1
 62
     0
 92
       -2
340
0
 93
        0
 40
0.045
309
GRIDFORMAT_END
 95
        8
302
GRIDFORMAT
  1
GRIDFORMAT_BEGIN
 90
        0
 91
        1
 62
     0
 92
       -2
340
0
 93
        0
 40
0.045
309
GRIDFORMAT_END
 95
       16
302
GRIDFORMAT
  1
GRIDFORMAT_BEGIN
 90
        0
 91
        1
 62
     0
 92
       -2
340
0
 93
        0
 40
0.045
309
GRIDFORMAT_END
 95
       32
302
GRIDFORMAT
  1
GRIDFORMAT_BEGIN
 90
        0
 91
        1
 62
     0
 92
       -2
340
0
 93
        0
 40
0.045
309
GRIDFORMAT_END
309
TABLEFORMAT_END
  1
CELLSTYLE_BEGIN
 90
        2
 91
        1
300
_HEADER
309
CELLSTYLE_END
300
CELLSTYLE
  1
TABLEFORMAT_BEGIN
 90
        5
170
     1
 91
        0
 92
        0
 62
   257
 93
        1
300
CONTENTFORMAT
  1
CONTENTFORMAT_BEGIN
 90
        0
 91
        0
 92
        4
 93
        0
300

 40
0.0
140
1.0
 94
        2
 62
     0
340
D
144
0.18
309
CONTENTFORMAT_END
171
     0
 94
        6
 95
        1
302
GRIDFORMAT
  1
GRIDFORMAT_BEGIN
 90
        0
 91
        1
 62
     0
 92
       -2
340
0
 93
        0
 40
0.045
309
GRIDFORMAT_END
 95
        2
302
GRIDFORMAT
  1
GRIDFORMAT_BEGIN
 90
        0
 91
        1
 62
     0
 92
       -2
340
0
 93
        0
 40
0.045
309
GRIDFORMAT_END
 95
        4
302
GRIDFORMAT
  1
GRIDFORMAT_BEGIN
 90
        0
 91
        1
 62
     0
 92
       -2
340
0
 93
        0
 40
0.045
309
GRIDFORMAT_END
 95
        8
302
GRIDFORMAT
  1
GRIDFORMAT_BEGIN
 90
        0
 91
        1
 62
     0
 92
       -2
340
0
 93
        0
 40
0.045
309
GRIDFORMAT_END
 95
       16
302
GRIDFORMAT
  1
GRIDFORMAT_BEGIN
 90
        0
 91
        1
 62
     0
 92
       -2
340
0
 93
        0
 40
0.045
309
GRIDFORMAT_END
 95
       32
302
GRIDFORMAT
  1
GRIDFORMAT_BEGIN
 90
        0
 91
        1
 62
     0
 92
       -2
340
0
 93
        0
 40
0.045
309
GRIDFORMAT_END
309
TABLEFORMAT_END
  1
CELLSTYLE_BEGIN
 90
        3
 91
        2
300
_DATA
309
CELLSTYLE_END
  0
XRECORD
  5
1249
102
{ACAD_REACTORS
330
F21
102
}
330
F21
100
AcDbXrecord
280
     1
102
ACAD_ROUNDTRIP_PRE2007_TABLESTYLE
 90
        4
 91
        0
  1

 92
        4
 93
        0
  2

 94
        4
 95
        0
  3

  0
ENDSEC
  0
EOF
