  0
SECTION
  2
HEADER
  9
$ACADVER
  1
AC1018
  9
$ACADMAINTVER
 70
   104
  9
$DWGCODEPAGE
  3
ANSI_1252
  9
$LASTSAVEDBY
  1
ibasyouni
  9
$INSBASE
 10
0.0
 20
0.0
 30
0.0
  9
$EXTMIN
 10
9.125603282691827
 20
16.23499240200272
 30
-0.0015258207003583
  9
$EXTMAX
 10
224.3958484490029
 20
277.6749984247467
 30
0.0000000349246037
  9
$LIMMIN
 10
0.0
 20
0.0
  9
$LIMMAX
 10
260.0
 20
300.0
  9
$ORTHOMODE
 70
     1
  9
$REGENMODE
 70
     1
  9
$FILLMODE
 70
     1
  9
$QTEXTMODE
 70
     0
  9
$MIRRTEXT
 70
     1
  9
$LTSCALE
 40
1.0
  9
$ATTMODE
 70
     1
  9
$TEXTSIZE
 40
20.0
  9
$TRACEWID
 40
1.0
  9
$TEXTSTYLE
  7
STANDARD
  9
$CLAYER
  8
0
  9
$CELTYPE
  6
BYLAYER
  9
$CECOLOR
 62
   256
  9
$CELTSCALE
 40
10.0
  9
$DISPSILH
 70
     0
  9
$DIMSCALE
 40
1.0
  9
$DIMASZ
 40
2.5
  9
$DIMEXO
 40
1.0
  9
$DIMDLI
 40
10.0
  9
$DIMRND
 40
0.0
  9
$DIMDLE
 40
0.0
  9
$DIMEXE
 40
1.0
  9
$DIMTP
 40
0.1
  9
$DIMTM
 40
0.1
  9
$DIMTXT
 40
3.5
  9
$DIMCEN
 40
0.0
  9
$DIMTSZ
 40
0.0
  9
$DIMTOL
 70
     0
  9
$DIMLIM
 70
     0
  9
$DIMTIH
 70
     0
  9
$DIMTOH
 70
     0
  9
$DIMSE1
 70
     0
  9
$DIMSE2
 70
     0
  9
$DIMTAD
 70
     1
  9
$DIMZIN
 70
     8
  9
$DIMBLK
  1

  9
$DIMASO
 70
     1
  9
$DIMSHO
 70
     1
  9
$DIMPOST
  1

  9
$DIMAPOST
  1
"
  9
$DIMALT
 70
     0
  9
$DIMALTD
 70
     2
  9
$DIMALTF
 40
0.0393701
  9
$DIMLFAC
 40
1.0
  9
$DIMTOFL
 70
     1
  9
$DIMTVP
 40
0.0
  9
$DIMTIX
 70
     0
  9
$DIMSOXD
 70
     0
  9
$DIMSAH
 70
     0
  9
$DIMBLK1
  1

  9
$DIMBLK2
  1

  9
$DIMSTYLE
  2
AM_DIN
  9
$DIMCLRD
 70
   256
  9
$DIMCLRE
 70
   256
  9
$DIMCLRT
 70
     2
  9
$DIMTFAC
 40
0.71
  9
$DIMGAP
 40
1.5
  9
$DIMJUST
 70
     0
  9
$DIMSD1
 70
     0
  9
$DIMSD2
 70
     0
  9
$DIMTOLJ
 70
     0
  9
$DIMTZIN
 70
     8
  9
$DIMALTZ
 70
     0
  9
$DIMALTTZ
 70
     0
  9
$DIMUPT
 70
     0
  9
$DIMDEC
 70
     2
  9
$DIMTDEC
 70
     3
  9
$DIMALTU
 70
     2
  9
$DIMALTTD
 70
     4
  9
$DIMTXSTY
  7
STANDARD
  9
$DIMAUNIT
 70
     0
  9
$DIMADEC
 70
     0
  9
$DIMALTRND
 40
0.0
  9
$DIMAZIN
 70
     2
  9
$DIMDSEP
 70
    46
  9
$DIMATFIT
 70
     3
  9
$DIMFRAC
 70
     0
  9
$DIMLDRBLK
  1

  9
$DIMLUNIT
 70
     2
  9
$DIMLWD
 70
    -1
  9
$DIMLWE
 70
    -1
  9
$DIMTMOVE
 70
     0
  9
$LUNITS
 70
     2
  9
$LUPREC
 70
     2
  9
$SKETCHINC
 40
1.0
  9
$FILLETRAD
 40
2.5
  9
$AUNITS
 70
     0
  9
$AUPREC
 70
     0
  9
$MENU
  1
.
  9
$ELEVATION
 40
0.0
  9
$PELEVATION
 40
0.0
  9
$THICKNESS
 40
0.0
  9
$LIMCHECK
 70
     0
  9
$CHAMFERA
 40
2.5
  9
$CHAMFERB
 40
2.5
  9
$CHAMFERC
 40
0.0
  9
$CHAMFERD
 40
0.0
  9
$SKPOLY
 70
     0
  9
$TDCREATE
 40
2450382.390390463
  9
$TDUCREATE
 40
2450382.348723796
  9
$TDUPDATE
 40
2455992.675111782
  9
$TDUUPDATE
 40
2455992.633445116
  9
$TDINDWG
 40
0.1010643403
  9
$TDUSRTIMER
 40
0.1010643403
  9
$USRTIMER
 70
     1
  9
$ANGBASE
 50
0.0
  9
$ANGDIR
 70
     0
  9
$PDMODE
 70
     0
  9
$PDSIZE
 40
0.0
  9
$PLINEWID
 40
0.0
  9
$SPLFRAME
 70
     0
  9
$SPLINETYPE
 70
     6
  9
$SPLINESEGS
 70
     8
  9
$HANDSEED
  5
E7A
  9
$SURFTAB1
 70
     6
  9
$SURFTAB2
 70
     6
  9
$SURFTYPE
 70
     6
  9
$SURFU
 70
     6
  9
$SURFV
 70
     6
  9
$UCSBASE
  2

  9
$UCSNAME
  2

  9
$UCSORG
 10
0.0
 20
0.0
 30
0.0
  9
$UCSXDIR
 10
1.0
 20
0.0
 30
0.0
  9
$UCSYDIR
 10
0.0
 20
1.0
 30
0.0
  9
$UCSORTHOREF
  2

  9
$UCSORTHOVIEW
 70
     0
  9
$UCSORGTOP
 10
0.0
 20
0.0
 30
0.0
  9
$UCSORGBOTTOM
 10
0.0
 20
0.0
 30
0.0
  9
$UCSORGLEFT
 10
0.0
 20
0.0
 30
0.0
  9
$UCSORGRIGHT
 10
0.0
 20
0.0
 30
0.0
  9
$UCSORGFRONT
 10
0.0
 20
0.0
 30
0.0
  9
$UCSORGBACK
 10
0.0
 20
0.0
 30
0.0
  9
$PUCSBASE
  2

  9
$PUCSNAME
  2

  9
$PUCSORG
 10
0.0
 20
0.0
 30
0.0
  9
$PUCSXDIR
 10
1.0
 20
0.0
 30
0.0
  9
$PUCSYDIR
 10
0.0
 20
1.0
 30
0.0
  9
$PUCSORTHOREF
  2

  9
$PUCSORTHOVIEW
 70
     0
  9
$PUCSORGTOP
 10
0.0
 20
0.0
 30
0.0
  9
$PUCSORGBOTTOM
 10
0.0
 20
0.0
 30
0.0
  9
$PUCSORGLEFT
 10
0.0
 20
0.0
 30
0.0
  9
$PUCSORGRIGHT
 10
0.0
 20
0.0
 30
0.0
  9
$PUCSORGFRONT
 10
0.0
 20
0.0
 30
0.0
  9
$PUCSORGBACK
 10
0.0
 20
0.0
 30
0.0
  9
$USERI1
 70
     0
  9
$USERI2
 70
     0
  9
$USERI3
 70
     0
  9
$USERI4
 70
     0
  9
$USERI5
 70
     0
  9
$USERR1
 40
0.0
  9
$USERR2
 40
0.0
  9
$USERR3
 40
0.0
  9
$USERR4
 40
0.0
  9
$USERR5
 40
0.0
  9
$WORLDVIEW
 70
     1
  9
$SHADEDGE
 70
     3
  9
$SHADEDIF
 70
    70
  9
$TILEMODE
 70
     1
  9
$MAXACTVP
 70
    16
  9
$PINSBASE
 10
0.0
 20
0.0
 30
0.0
  9
$PLIMCHECK
 70
     0
  9
$PEXTMIN
 10
1.000000000000000E+20
 20
1.000000000000000E+20
 30
1.000000000000000E+20
  9
$PEXTMAX
 10
-1.000000000000000E+20
 20
-1.000000000000000E+20
 30
-1.000000000000000E+20
  9
$PLIMMIN
 10
0.0
 20
0.0
  9
$PLIMMAX
 10
420.0
 20
297.0
  9
$UNITMODE
 70
     0
  9
$VISRETAIN
 70
     0
  9
$PLINEGEN
 70
     0
  9
$PSLTSCALE
 70
     0
  9
$TREEDEPTH
 70
  3020
  9
$CMLSTYLE
  2
STANDARD
  9
$CMLJUST
 70
     0
  9
$CMLSCALE
 40
1.0
  9
$PROXYGRAPHICS
 70
     1
  9
$MEASUREMENT
 70
     1
  9
$CELWEIGHT
370
    -1
  9
$ENDCAPS
280
     0
  9
$JOINSTYLE
280
     0
  9
$LWDISPLAY
290
     0
  9
$INSUNITS
 70
     4
  9
$HYPERLINKBASE
  1

  9
$STYLESHEET
  1
Zeich.ctb
  9
$XEDIT
290
     1
  9
$CEPSNTYPE
380
     0
  9
$PSTYLEMODE
290
     1
  9
$FINGERPRINTGUID
  2
{325BFBD5-B27C-480F-A6FD-52B59258B312}
  9
$VERSIONGUID
  2
{463EE284-B9AE-4CA7-AB6F-53C221F1C9D9}
  9
$EXTNAMES
290
     1
  9
$PSVPSCALE
 40
0.0
  9
$OLESTARTUP
290
     0
  9
$SORTENTS
280
   127
  9
$INDEXCTL
280
     0
  9
$HIDETEXT
280
     0
  9
$XCLIPFRAME
290
     0
  9
$HALOGAP
280
     0
  9
$OBSCOLOR
 70
   257
  9
$OBSLTYPE
280
     0
  9
$INTERSECTIONDISPLAY
280
     0
  9
$INTERSECTIONCOLOR
 70
   257
  9
$DIMASSOC
280
     1
  9
$PROJECTNAME
  1

  0
ENDSEC
  0
SECTION
  2
CLASSES
  0
CLASS
  1
ACMESTATEMGR
  2
AcMeStateMgr
  3
AcMeServices
 90
     1024
 91
        1
280
     0
281
     0
  0
CLASS
  1
ACMESCOPE
  2
AcMeScope
  3
AcMeServices
 90
     1024
 91
        1
280
     0
281
     0
  0
CLASS
  1
ACMECOMMANDHISTORY
  2
AcMeCommandHistory
  3
AcMeServices
 90
     1024
 91
        1
280
     0
281
     0
  0
CLASS
  1
ACRFINSADJUSTERMGR
  2
AcRfInsAdjusterMgr
  3
AcMeServices
 90
     1024
 91
        1
280
     0
281
     0
  0
CLASS
  1
ACMEDRAWINGMAN
  2
AcMeDrawingMan
  3
AcMeServices
 90
     1024
 91
        1
280
     0
281
     0
  0
CLASS
  1
AMATTR
  2
AcMeAttribute
  3
AcMeServices
 90
     1024
 91
        0
280
     0
281
     0
  0
CLASS
  1
ACMEBOMCOLUMN
  2
AcMeBOMColumn
  3
AcMeServices
 90
     1024
 91
        0
280
     0
281
     0
  0
CLASS
  1
ACMEBOMCONF
  2
AcMeBOMConf
  3
AcMeServices
 90
     1024
 91
        0
280
     0
281
     0
  0
CLASS
  1
ACMEBOMTABLE
  2
AcMeBOMTable
  3
AcMeServices
 90
     1024
 91
        0
280
     0
281
     0
  0
CLASS
  1
ACMEBOMENTRY
  2
AcMeBOMEntry
  3
AcMeServices
 90
     1024
 91
        0
280
     0
281
     0
  0
CLASS
  1
ACMEVIEW
  2
AcMeView
  3
AcMeServices
 90
     1024
 91
        0
280
     0
281
     0
  0
CLASS
  1
DICTIONARYVAR
  2
AcDbDictionaryVar
  3
ObjectDBX Classes
 90
        0
 91
       32
280
     0
281
     0
  0
CLASS
  1
LAYER_INDEX
  2
AcDbLayerIndex
  3
ObjectDBX Classes
 90
        0
 91
        0
280
     0
281
     0
  0
CLASS
  1
IDBUFFER
  2
AcDbIdBuffer
  3
ObjectDBX Classes
 90
        0
 91
        0
280
     0
281
     0
  0
CLASS
  1
ACDBDICTIONARYWDFLT
  2
AcDbDictionaryWithDefault
  3
ObjectDBX Classes
 90
        0
 91
        1
280
     0
281
     0
  0
CLASS
  1
ACME_DOCUMENT
  2
AcMeDbDoc
  3
AcMeServices
 90
     1024
 91
        2
280
     0
281
     0
  0
CLASS
  1
AMGSETTINGSOBJ
  2
AmgSettingsObj
  3
"AcadM|Product Description: AutoCAD Mechanical|Company: Autodesk, Inc."
 90
     1024
 91
        4
280
     0
281
     0
  0
CLASS
  1
ACIMSYSVARMAN
  2
AcImSysVarManager
  3
AcMeServices
 90
     1024
 91
        5
280
     0
281
     0
  0
CLASS
  1
ACIMINTSYSVAR
  2
AcImIntSysVar
  3
AcMeServices
 90
     1024
 91
       27
280
     0
281
     0
  0
CLASS
  1
ACDBENTITYCACHE
  2
AcMeEntityCache
  3
AcMeServices
 90
     1024
 91
        1
280
     0
281
     0
  0
CLASS
  1
GSMANAGER
  2
AcMeGSManager
  3
AcMeServices
 90
     1024
 91
        1
280
     0
281
     0
  0
CLASS
  1
AMDTINTERNALREACTOR
  2
AmdtInternalReactor
  3
AcMeServices
 90
     1024
 91
        6
280
     0
281
     0
  0
CLASS
  1
ACGREFMASTER
  2
AcGrefMaster
  3
AcAttribServices
 90
     1024
 91
        1
280
     0
281
     0
  0
CLASS
  1
AM_DRAWING_MGR
  2
AcDmDwgMgr
  3
AcMechDwgViewMgmt
 90
     1024
 91
        1
280
     0
281
     0
  0
CLASS
  1
AM_DWG_DOCUMENT
  2
AcDmDwgDocument
  3
AcMechDwgViewMgmt
 90
     1024
 91
        1
280
     0
281
     0
  0
CLASS
  1
AM_DWG_SHEET
  2
AcDmSheet
  3
AcMechDwgViewMgmt
 90
     1024
 91
        1
280
     0
281
     0
  0
CLASS
  1
AM_VIEWDIMPARMAP
  2
AcDmViewDimParMap
  3
AcMechDwgViewMgmt
 90
     1024
 91
        1
280
     0
281
     0
  0
CLASS
  1
ACIMREALSYSVAR
  2
AcImRealSysVar
  3
AcMeServices
 90
     1024
 91
        1
280
     0
281
     0
  0
CLASS
  1
AM_DWGMGR_NAME
  2
AcDmDwgMgrName
  3
AcMechDwgViewMgmt
 90
     1024
 91
        1
280
     0
281
     0
  0
CLASS
  1
ACME_DATABASE
  2
AcMeDbDatabase
  3
AcMeServices
 90
     1024
 91
        4
280
     0
281
     0
  0
CLASS
  1
ACGREFACADMASTER
  2
AcGrefacadMaster
  3
AcGrefServices
 90
     1024
 91
        1
280
     0
281
     0
  0
CLASS
  1
AMDTMENUSTATEMGR
  2
AmdtMenuStateMgr
  3
McadcomServices
 90
     1024
 91
        1
280
     0
281
     0
  0
CLASS
  1
AMDTMCOMMENUSTATE
  2
AmdtMcomMenuState
  3
McadcomServices
 90
     1024
 91
        1
280
     0
281
     0
  0
CLASS
  1
AMIMASTER
  2
AmiMaster
  3
AmiServices
 90
     1024
 91
        1
280
     0
281
     0
  0
CLASS
  1
MAPIAMMOUDLE
  2
MApiAmModule
  3
MApiAmServices
 90
     1024
 91
        1
280
     0
281
     0
  0
CLASS
  1
AMDTADMENUSTATE
  2
AmdtAdMenuState
  3
DesignerServices
 90
     1024
 91
        1
280
     0
281
     0
  0
CLASS
  1
ADAPPL
  2
AcAdAppl
  3
DesignerServices
 90
     1024
 91
        1
280
     0
281
     0
  0
CLASS
  1
DEPMGR
  2
AcAdDepMgr
  3
DesignerServices
 90
     1024
 91
        1
280
     0
281
     0
  0
CLASS
  1
PARAMMGR
  2
AcAdParamMgr
  3
DesignerServices
 90
     1024
 91
        1
280
     0
281
     0
  0
CLASS
  1
PARAMSCOPE
  2
AcAdParamScope
  3
DesignerServices
 90
     1024
 91
        1
280
     0
281
     0
  0
CLASS
  1
NAMEDAPPL
  2
AcAdNamedAppl
  3
DesignerServices
 90
     1024
 91
        1
280
     0
281
     0
  0
CLASS
  1
AMDTDMMENUSTATE
  2
AmdtDmMenuState
  3
AcMechDwgViewMgmt
 90
     1024
 91
        1
280
     0
281
     0
  0
CLASS
  1
AMDTAMMENUSTATE
  2
AmdtAmMenuState
  3
DesignerAssemblies
 90
     1024
 91
        1
280
     0
281
     0
  0
CLASS
  1
ACIMSTRSYSVAR
  2
AcImStrSysVar
  3
AcMeServices
 90
     1024
 91
        5
280
     0
281
     0
  0
CLASS
  1
ACAMPROJECT
  2
AcAmProject
  3
DesignerAssemblies
 90
     1024
 91
        1
280
     0
281
     0
  0
CLASS
  1
ACAMGRCOMPDEF
  2
AcAmGrCompDef
  3
DesignerAssemblies
 90
     1024
 91
        1
280
     0
281
     0
  0
CLASS
  1
ACCMCONTEXT
  2
AcCmContext
  3
DesignerAssemblies
 90
     1024
 91
        1
280
     0
281
     0
  0
CLASS
  1
ACAMCOMPDEF
  2
AcAmCompDef
  3
DesignerAssemblies
 90
     1024
 91
        1
280
     0
281
     0
  0
CLASS
  1
ACAMCOMPDEFMGR
  2
AcAmCompDefMgr
  3
DesignerAssemblies
 90
     1024
 91
        1
280
     0
281
     0
  0
CLASS
  1
AMCONTEXTMGR
  2
AcAmContextMgr
  3
DesignerAssemblies
 90
     1024
 91
        1
280
     0
281
     0
  0
CLASS
  1
ACAMCONTEXTMODELER
  2
AcAmContextModeler
  3
DesignerAssemblies
 90
     1024
 91
        1
280
     0
281
     0
  0
CLASS
  1
ACMDATADICTIONARY
  2
AcmDataDictionary
  3
"AcmSymBB|Product Description: AutoCAD Mechanical|Company: Autodesk, Inc."
 90
     1024
 91
        1
280
     0
281
     0
  0
CLASS
  1
CATALOGSTATE
  2
AcAmCatalogState
  3
DesignerAssemblies
 90
     1024
 91
        1
280
     0
281
     0
  0
CLASS
  1
ACAMGRCOMPDEFSET
  2
AcAmGrCompDefSet
  3
DesignerAssemblies
 90
     1024
 91
        1
280
     0
281
     0
  0
CLASS
  1
AMDTBROWSERDBTAB
  2
AmdtBrowserDbTab
  3
McadcomServices
 90
     1024
 91
        1
280
     0
281
     0
  0
CLASS
  1
CBROWSERAPPOBJECT
  2
CBrowserAppObject
  3
McadcomServices
 90
     1024
 91
        3
280
     0
281
     0
  0
CLASS
  1
DM_PLACEHOLDER
  2
AcDmSelsetPlaceholder
  3
AcMechDwgViewMgmt
 90
     1024
 91
        1
280
     0
281
     0
  0
CLASS
  1
ACMSTANDARDANSI
  2
AcmStandardANSI
  3
"Amdt_StdImp|Product Description: AutoCAD Mechanical|Company: Autodesk, Inc."
 90
     1024
 91
        1
280
     0
281
     0
  0
CLASS
  1
AMGOBJPROPCFG
  2
AmgObjPropCfg
  3
"AmgLay|Product Description: AutoCAD Mechanical|Company: Autodesk, Inc."
 90
     1025
 91
        1
280
     0
281
     0
  0
CLASS
  1
ACMSURFSTANDARDANSI
  2
AcmSurfTextStdANSI
  3
"Amdt_StdImp|Product Description: AutoCAD Mechanical|Company: Autodesk, Inc."
 90
     1024
 91
        1
280
     0
281
     0
  0
CLASS
  1
ACMFCFSTANDARDANSI
  2
AcmFCFStdANSI
  3
"Amdt_StdImp|Product Description: AutoCAD Mechanical|Company: Autodesk, Inc."
 90
     1024
 91
        1
280
     0
281
     0
  0
CLASS
  1
ACMWELDSTANDARDANSI
  2
AcmWeldingStdANSI
  3
"Amdt_StdImp|Product Description: AutoCAD Mechanical|Company: Autodesk, Inc."
 90
     1024
 91
        1
280
     0
281
     0
  0
CLASS
  1
ACMIDSTANDARDANSI
  2
AcmIdStdANSI
  3
"Amdt_StdImp|Product Description: AutoCAD Mechanical|Company: Autodesk, Inc."
 90
     1024
 91
        1
280
     0
281
     0
  0
CLASS
  1
ACMDATUMSTANDARDANSI
  2
AcmDatumStdANSI
  3
"Amdt_StdImp|Product Description: AutoCAD Mechanical|Company: Autodesk, Inc."
 90
     1024
 91
        1
280
     0
281
     0
  0
CLASS
  1
ACMBOMSTANDARDANSI
  2
AcmBOMStdANSI
  3
"Amdt_StdImp|Product Description: AutoCAD Mechanical|Company: Autodesk, Inc."
 90
     1024
 91
        1
280
     0
281
     0
  0
CLASS
  1
ACMDETAILSTANDARDANSI
  2
AmdtDetailSymStdANSI
  3
"Amdt_StdImp|Product Description: AutoCAD Mechanical|Company: Autodesk, Inc."
 90
     1024
 91
        1
280
     0
281
     0
  0
CLASS
  1
ACMSECTIONSTANDARDANSI
  2
AmdtSectionSymStdANSI
  3
"Amdt_StdImp|Product Description: AutoCAD Mechanical|Company: Autodesk, Inc."
 90
     1024
 91
        1
280
     0
281
     0
  0
CLASS
  1
ACMCENTERLINESTANDARDANSI
  2
AmdtCenterLineStdANSI
  3
"Amdt_StdImp|Product Description: AutoCAD Mechanical|Company: Autodesk, Inc."
 90
     1024
 91
        1
280
     0
281
     0
  0
CLASS
  1
ACMTHREADLINESTANDARDANSI
  2
AmdtThreadLineStdANSI
  3
"Amdt_StdImp|Product Description: AutoCAD Mechanical|Company: Autodesk, Inc."
 90
     1024
 91
        1
280
     0
281
     0
  0
CLASS
  1
ACMNOTESTANDARDANSI
  2
AmdtNoteStdANSI
  3
"Amdt_StdImp|Product Description: AutoCAD Mechanical|Company: Autodesk, Inc."
 90
     1024
 91
        1
280
     0
281
     0
  0
CLASS
  1
AMDTNOTETEMPLATEDB
  2
AmdtNoteTemplateDB
  3
AcmSymBB|Product Description: AutoCAD Mechanical|Company: Autodesk, Inc.
 90
     1024
 91
       10
280
     0
281
     0
  0
CLASS
  1
ACAMGLAYSTD
  2
AcAmgLayStd
  3
"AmgLay|Product Description: AutoCAD Mechanical|Company: Autodesk, Inc."
 90
     1024
 91
        2
280
     0
281
     0
  0
CLASS
  1
ACAMGDIMSTD
  2
AcAmgDimStd
  3
"AmgDim|Product Description: AutoCAD Mechanical|Company: Autodesk, Inc."
 90
     1024
 91
        2
280
     0
281
     0
  0
CLASS
  1
ACAMGHOLECHARTSTDANSI
  2
AcAmgHoleChartStdANSI
  3
AmgDim|Product Description: AutoCAD Mechanical|Company: Autodesk, Inc.
 90
     1024
 91
        1
280
     0
281
     0
  0
CLASS
  1
ACAMGTITLESTD
  2
AcAmgTitleStd
  3
"AmgTitle|Product Description: AutoCAD Mechanical|Company: Autodesk, Inc."
 90
     4095
 91
        2
280
     0
281
     0
  0
CLASS
  1
ACAMGFILTERDAT
  2
AcAmgFilterDat
  3
"AcadM|Product Description: AutoCAD Mechanical|Company: Autodesk, Inc."
 90
     1024
 91
        6
280
     0
281
     0
  0
CLASS
  1
TABLESTYLE
  2
AcDbTableStyle
  3
ObjectDBX Classes
 90
     4095
 91
        1
280
     0
281
     0
  0
CLASS
  1
ACMDATAENTRYBLOCK
  2
AcmDataEntryBlock
  3
AcmSymBB|Product Description: AutoCAD Mechanical|Company: Autodesk, Inc.
 90
     1024
 91
        1
280
     0
281
     0
  0
CLASS
  1
AC_AM_2D_XREF_MGR
  2
AcAmXrefMgr2d
  3
DesignerAssemblies
 90
     1024
 91
        1
280
     0
281
     0
  0
CLASS
  1
SORTENTSTABLE
  2
AcDbSortentsTable
  3
ObjectDBX Classes
 90
        0
 91
        3
280
     0
281
     0
  0
CLASS
  1
VAACXREFPANELOBJECT
  2
VaAcXREFPanelObject
  3
VAAC_ADDIN
 90
        0
 91
        0
280
     0
281
     0
  0
CLASS
  1
VAACIMAGEINVENTORY
  2
VaAcImageInventory
  3
VAAC_ADDIN
 90
        0
 91
        0
280
     0
281
     0
  0
CLASS
  1
MATERIAL
  2
AcDbMaterial
  3
ObjectDBX Classes
 90
     1153
 91
        3
280
     0
281
     0
  0
CLASS
  1
VISUALSTYLE
  2
AcDbVisualStyle
  3
ObjectDBX Classes
 90
     4095
 91
       16
280
     0
281
     0
  0
CLASS
  1
SCALE
  2
AcDbScale
  3
ObjectDBX Classes
 90
     1153
 91
       33
280
     0
281
     0
  0
CLASS
  1
MLEADERSTYLE
  2
AcDbMLeaderStyle
  3
ACDB_MLEADERSTYLE_CLASS
 90
     4095
 91
        1
280
     0
281
     0
  0
CLASS
  1
ACMTAPERSTANDARDANSI
  2
AcmTaperStdANSI
  3
"Amdt_StdImp|Product Description: AutoCAD Mechanical|Company: Autodesk, Inc."
 90
     1024
 91
        1
280
     0
281
     0
  0
CLASS
  1
ACMANOOTATIONVIEWSTANDARDANSI
  2
AmdtAnViewStdANSI
  3
"Amdt_StdImp|Product Description: AutoCAD Mechanical|Company: Autodesk, Inc."
 90
     1024
 91
        1
280
     0
281
     0
  0
CLASS
  1
ACMDIMBREAKPERSREACTOR
  2
AcmDimBreakPersReactor
  3
AmgDim|Product Description: AutoCAD Mechanical|Company: Autodesk, Inc.
 90
     4095
 91
        2
280
     0
281
     0
  0
CLASS
  1
AMDTNOTE
  2
AmdtNote
  3
"AcmSymBB|Product Description: AutoCAD Mechanical|Company: Autodesk, Inc."
 90
     4095
 91
        4
280
     0
281
     1
  0
CLASS
  1
ACDBCIRCARCRES
  2
AcDbCircArcRes
  3
AcGrefServices
 90
     1024
 91
        4
280
     0
281
     0
  0
CLASS
  1
ACMSTANDARDDIN
  2
AcmStandardDIN
  3
"Amdt_StdImp|Product Description: AutoCAD Mechanical|Company: Autodesk, Inc."
 90
     1024
 91
        1
280
     0
281
     0
  0
CLASS
  1
AMDTEDGESTANDARDDIN13715
  2
AmdtEdgeStdDIN13715
  3
"Amdt_StdImp|Product Description: AutoCAD Mechanical|Company: Autodesk, Inc."
 90
     1024
 91
        1
280
     0
281
     0
  0
CLASS
  1
ACMSURFSTANDARDDIN2002
  2
AcmSurfTextStdDIN2002
  3
"Amdt_StdImp|Product Description: AutoCAD Mechanical|Company: Autodesk, Inc."
 90
     1024
 91
        1
280
     0
281
     0
  0
CLASS
  1
ACMFCFSTANDARDDIN
  2
AcmFCFStdDIN
  3
"Amdt_StdImp|Product Description: AutoCAD Mechanical|Company: Autodesk, Inc."
 90
     1024
 91
        1
280
     0
281
     0
  0
CLASS
  1
ACMWELDSTANDARDDIN
  2
AcmWeldingStdDIN
  3
"Amdt_StdImp|Product Description: AutoCAD Mechanical|Company: Autodesk, Inc."
 90
     1024
 91
        1
280
     0
281
     0
  0
CLASS
  1
ACMIDSTANDARDDIN
  2
AcmIdStdDIN
  3
"Amdt_StdImp|Product Description: AutoCAD Mechanical|Company: Autodesk, Inc."
 90
     1024
 91
        1
280
     0
281
     0
  0
CLASS
  1
ACMDATUMSTANDARDDIN
  2
AcmDatumStdDIN
  3
"Amdt_StdImp|Product Description: AutoCAD Mechanical|Company: Autodesk, Inc."
 90
     1024
 91
        1
280
     0
281
     0
  0
CLASS
  1
ACMBOMSTANDARDDIN
  2
AcmBOMStdDIN
  3
"Amdt_StdImp|Product Description: AutoCAD Mechanical|Company: Autodesk, Inc."
 90
     1024
 91
        1
280
     0
281
     0
  0
CLASS
  1
ACMDETAILSTANDARDDIN
  2
AmdtDetailSymStdDIN
  3
"Amdt_StdImp|Product Description: AutoCAD Mechanical|Company: Autodesk, Inc."
 90
     1024
 91
        1
280
     0
281
     0
  0
CLASS
  1
ACMSECTIONSTANDARDDIN
  2
AmdtSectionSymStdDIN
  3
"Amdt_StdImp|Product Description: AutoCAD Mechanical|Company: Autodesk, Inc."
 90
     1024
 91
        1
280
     0
281
     0
  0
CLASS
  1
ACMCENTERLINESTANDARDDIN
  2
AmdtCenterLineStdDIN
  3
"Amdt_StdImp|Product Description: AutoCAD Mechanical|Company: Autodesk, Inc."
 90
     1024
 91
        1
280
     0
281
     0
  0
CLASS
  1
ACMTHREADLINESTANDARDDIN
  2
AmdtThreadLineStdDIN
  3
"Amdt_StdImp|Product Description: AutoCAD Mechanical|Company: Autodesk, Inc."
 90
     1024
 91
        1
280
     0
281
     0
  0
CLASS
  1
ACMNOTESTANDARDDIN
  2
AmdtNoteStdDIN
  3
"Amdt_StdImp|Product Description: AutoCAD Mechanical|Company: Autodesk, Inc."
 90
     1024
 91
        1
280
     0
281
     0
  0
CLASS
  1
ACMTAPERSTANDARDDIN
  2
AcmTaperStdDIN
  3
"Amdt_StdImp|Product Description: AutoCAD Mechanical|Company: Autodesk, Inc."
 90
     1024
 91
        1
280
     0
281
     0
  0
CLASS
  1
ACMANOOTATIONVIEWSTANDARDDIN
  2
AmdtAnViewStdDIN
  3
"Amdt_StdImp|Product Description: AutoCAD Mechanical|Company: Autodesk, Inc."
 90
     1024
 91
        1
280
     0
281
     0
  0
CLASS
  1
ACAMGHOLECHARTSTDDIN
  2
AcAmgHoleChartStdDIN
  3
AmgDim|Product Description: AutoCAD Mechanical|Company: Autodesk, Inc.
 90
     1024
 91
        1
280
     0
281
     0
  0
CLASS
  1
CAMSSTRUCTBTNSTATE
  2
StructBtnState
  3
DesignerAssemblies
 90
     1024
 91
        1
280
     0
281
     0
  0
CLASS
  1
CELLSTYLEMAP
  2
AcDbCellStyleMap
  3
ObjectDBX Classes
 90
     1152
 91
        8
280
     0
281
     0
  0
ENDSEC
  0
SECTION
  2
TABLES
  0
TABLE
  2
VPORT
  5
13
330
0
100
AcDbSymbolTable
 70
     1
  0
VPORT
  5
6AA
330
13
100
AcDbSymbolTableRecord
100
AcDbViewportTableRecord
  2
*Active
 70
     0
 10
0.0
 20
0.0
 11
1.0
 21
1.0
 12
130.0
 22
150.0
 13
0.0
 23
0.0
 14
2.5
 24
2.5
 15
10.0
 25
10.0
 16
0.0
 26
0.0
 36
1.0
 17
0.0
 27
0.0
 37
0.0
 40
300.0
 41
1.511511511511511
 42
50.0
 43
0.0
 44
0.0
 50
0.0
 51
0.0
 71
     0
 72
   100
 73
     1
 74
     0
 75
     0
 76
     0
 77
     0
 78
     0
281
     0
 65
     1
110
0.0
120
0.0
130
0.0
111
1.0
121
0.0
131
0.0
112
0.0
122
1.0
132
0.0
 79
     0
146
0.0
  0
ENDTAB
  0
TABLE
  2
LTYPE
  5
E
330
0
100
AcDbSymbolTable
 70
    52
  0
LTYPE
  5
F
330
E
100
AcDbSymbolTableRecord
100
AcDbLinetypeTableRecord
  2
BYBLOCK
 70
     0
  3

 72
    65
 73
     0
 40
0.0
  0
LTYPE
  5
10
330
E
100
AcDbSymbolTableRecord
100
AcDbLinetypeTableRecord
  2
BYLAYER
 70
     0
  3

 72
    65
 73
     0
 40
0.0
  0
LTYPE
  5
6
330
E
100
AcDbSymbolTableRecord
100
AcDbLinetypeTableRecord
  2
CONTINUOUS
 70
     0
  3
Solid line
 72
    65
 73
     0
 40
0.0
  0
LTYPE
  5
29
330
E
100
AcDbSymbolTableRecord
100
AcDbLinetypeTableRecord
  2
MITTE
 70
     0
  3
____ _ ____ _ ____ _ ____ _ ____ _ ____ _ ____ 
 72
    65
 73
     4
 40
2.0
 49
1.25
 74
     0
 49
-0.25
 74
     0
 49
0.25
 74
     0
 49
-0.25
 74
     0
  0
LTYPE
  5
81
330
E
100
AcDbSymbolTableRecord
100
AcDbLinetypeTableRecord
  2
HIDDEN
 70
     0
  3
Verdeckt
 72
    65
 73
     2
 40
0.375
 49
0.25
 74
     0
 49
-0.125
 74
     0
  0
LTYPE
  5
82
330
E
100
AcDbSymbolTableRecord
100
AcDbLinetypeTableRecord
  2
PHANTOM2
 70
     0
  3
Phantom (.5x) ___ _ _ ___ _ _ ___ _ _ ___ _ _
 72
    65
 73
     6
 40
1.25
 49
0.625
 74
     0
 49
-0.125
 74
     0
 49
0.125
 74
     0
 49
-0.125
 74
     0
 49
0.125
 74
     0
 49
-0.125
 74
     0
  0
LTYPE
  5
83
330
E
100
AcDbSymbolTableRecord
100
AcDbLinetypeTableRecord
  2
CENTER
 70
     0
  3
Mitte ____ _ ____ _ ____ _ ____ _ ____ _ ____
 72
    65
 73
     4
 40
2.0
 49
1.25
 74
     0
 49
-0.25
 74
     0
 49
0.25
 74
     0
 49
-0.25
 74
     0
  0
LTYPE
  5
CD
330
E
100
AcDbSymbolTableRecord
100
AcDbLinetypeTableRecord
  2
Amconstr
 70
     0
  3
_______________________
 72
    65
 73
     2
 40
9999.0
 49
9999.0
 74
     0
 49
0.0
 74
     0
  0
LTYPE
  5
D3
330
E
100
AcDbSymbolTableRecord
100
AcDbLinetypeTableRecord
  2
CENTER2
 70
     0
  3
Center (.5x) ___ _ ___ _ ___ _ ___ _ ___ _ ___
 72
    65
 73
     4
 40
1.125
 49
0.75
 74
     0
 49
-0.125
 74
     0
 49
0.125
 74
     0
 49
-0.125
 74
     0
  0
LTYPE
  5
D4
330
E
100
AcDbSymbolTableRecord
100
AcDbLinetypeTableRecord
  2
HIDDEN2
 70
     0
  3
Hidden (.5x) _ _ _ _ _ _ _ _ _ _ _ _ _ _ _ _ _
 72
    65
 73
     2
 40
0.1875
 49
0.125
 74
     0
 49
-0.0625
 74
     0
  0
LTYPE
  5
D5
330
E
100
AcDbSymbolTableRecord
100
AcDbLinetypeTableRecord
  2
Amzigzag2
 70
     0
  3
/\/-/\/-/\/-/\/-/\/-/\/
 72
    65
 73
     2
 40
0.4401
 49
0.0001
 74
     4
 75
   135
340
D1
 46
0.0016
 50
0.0
 44
0.0
 45
0.0
 49
-0.4400000000000001
 74
     0
  0
LTYPE
  5
E3
330
E
100
AcDbSymbolTableRecord
100
AcDbLinetypeTableRecord
  2
ACANSTGB
 70
     0
  3
__ . . __ . .
 72
    65
 73
     6
 40
0.35433070866
 49
0.15748031496
 74
     0
 49
-0.03937007874
 74
     0
 49
0.03937007874
 74
     0
 49
-0.03937007874
 74
     0
 49
0.03937007874
 74
     0
 49
-0.03937007874
 74
     0
  0
LTYPE
  5
E4
330
E
100
AcDbSymbolTableRecord
100
AcDbLinetypeTableRecord
  2
ACANSTGL
 70
     0
  3
_ _ _ _ _
 72
    65
 73
     2
 40
0.11811023622
 49
0.07874015748
 74
     0
 49
-0.03937007874
 74
     0
  0
LTYPE
  5
7CA
330
E
100
AcDbSymbolTableRecord
100
AcDbLinetypeTableRecord
  2
ACDINWELD
 70
     0
  3
_ _ _ _ _
 72
    65
 73
     2
 40
2.0
 49
2.0
 74
     0
 49
-1.0
 74
     0
  0
LTYPE
  5
7CB
330
E
100
AcDbSymbolTableRecord
100
AcDbLinetypeTableRecord
  2
ACDINTGB
 70
     0
  3
__ . . __ . .
 72
    65
 73
     6
 40
9.0
 49
4.0
 74
     0
 49
-1.0
 74
     0
 49
1.0
 74
     0
 49
-1.0
 74
     0
 49
1.0
 74
     0
 49
-1.0
 74
     0
  0
LTYPE
  5
7CC
330
E
100
AcDbSymbolTableRecord
100
AcDbLinetypeTableRecord
  2
ACDINTGL
 70
     0
  3
_ _ _ _ _
 72
    65
 73
     2
 40
3.0
 49
2.0
 74
     0
 49
-1.0
 74
     0
  0
LTYPE
  5
7CD
330
E
100
AcDbSymbolTableRecord
100
AcDbLinetypeTableRecord
  2
Amzigzag
 70
     0
  3
/\/-/\/-/\/-/\/-/\/-/\/
 72
    65
 73
     2
 40
11.0001
 49
0.0001
 74
     4
 75
   136
340
7D6
 46
0.04
 50
0.0
 44
0.0
 45
0.0
 49
-11.0
 74
     0
  0
LTYPE
  5
7CE
330
E
100
AcDbSymbolTableRecord
100
AcDbLinetypeTableRecord
  2
AM_DIN_F_W050
 70
     0
  3
__ __ __ __ __ __ __ __ __ __ __ __ __ __ __
 72
    65
 73
     2
 40
6.25
 49
4.75
 74
     0
 49
-1.5
 74
     0
  0
LTYPE
  5
7CF
330
E
100
AcDbSymbolTableRecord
100
AcDbLinetypeTableRecord
  2
AM_DIN_G_W050
 70
     0
  3
____ . ____ . ____ . ____ . ____ . ____ . ____
 72
    65
 73
     4
 40
13.75
 49
9.75
 74
     0
 49
-1.5
 74
     0
 49
1.0
 74
     0
 49
-1.5
 74
     0
  0
LTYPE
  5
7D0
330
E
100
AcDbSymbolTableRecord
100
AcDbLinetypeTableRecord
  2
AM_DIN_K_W050
 70
     0
  3
_____ . . _____ . . _____ . . ____ .. ____
 72
    65
 73
     6
 40
16.25
 49
9.75
 74
     0
 49
-1.5
 74
     0
 49
1.0
 74
     0
 49
-1.5
 74
     0
 49
1.0
 74
     0
 49
-1.5
 74
     0
  0
LTYPE
  5
7D1
330
E
100
AcDbSymbolTableRecord
100
AcDbLinetypeTableRecord
  2
AM_DIN_G_W050x2
 70
     0
  3
__ . __ . __ . __ . __ . __
 72
    65
 73
     4
 40
6.875
 49
4.75
 74
     0
 49
-0.875
 74
     0
 49
0.375
 74
     0
 49
-0.875
 74
     0
  0
LTYPE
  5
7D2
330
E
100
AcDbSymbolTableRecord
100
AcDbLinetypeTableRecord
  2
AM_DIN_F_W050x2
 70
     0
  3
 _ _ _ _ _ _ _ _ _ _ _ _
 72
    65
 73
     2
 40
3.125
 49
2.25
 74
     0
 49
-0.875
 74
     0
  0
ENDTAB
  0
TABLE
  2
LAYER
  5
B
102
{ACAD_XDICTIONARY
360
707
102
}
330
0
100
AcDbSymbolTable
 70
    11
  0
LAYER
  5
5
102
{ACAD_XDICTIONARY
360
B54
102
}
330
B
100
AcDbSymbolTableRecord
100
AcDbLayerTableRecord
  2
0
 70
     0
 62
     7
  6
CONTINUOUS
370
    -3
390
5D
  0
LAYER
  5
20
102
{ACAD_XDICTIONARY
360
B56
102
}
330
B
100
AcDbSymbolTableRecord
100
AcDbLayerTableRecord
  2
BEM
 70
     1
 62
     3
  6
CONTINUOUS
370
    -3
390
5D
  0
LAYER
  5
26
102
{ACAD_XDICTIONARY
360
B58
102
}
330
B
100
AcDbSymbolTableRecord
100
AcDbLayerTableRecord
  2
TEXT
 70
     0
 62
     2
  6
CONTINUOUS
370
    -3
390
5D
  0
LAYER
  5
28
102
{ACAD_XDICTIONARY
360
B5A
102
}
330
B
100
AcDbSymbolTableRecord
100
AcDbLayerTableRecord
  2
MITTE
 70
     0
 62
     4
  6
MITTE
370
    -3
390
5D
  0
LAYER
  5
24
102
{ACAD_XDICTIONARY
360
B5C
102
}
330
B
100
AcDbSymbolTableRecord
100
AcDbLayerTableRecord
  2
LINIE
 70
     0
 62
     4
  6
CONTINUOUS
370
    -3
390
5D
  0
LAYER
  5
1F2
330
B
100
AcDbSymbolTableRecord
100
AcDbLayerTableRecord
  2
Defpoints
 70
     0
 62
     7
  6
CONTINUOUS
290
     0
370
    -3
390
5D
  0
LAYER
  5
701
102
{ACAD_XDICTIONARY
360
702
102
}
330
B
100
AcDbSymbolTableRecord
100
AcDbLayerTableRecord
  2
A3XREF|TEXT
 70
    48
 62
     2
  6
Continuous
370
    -3
390
5D
  0
LAYER
  5
703
102
{ACAD_XDICTIONARY
360
704
102
}
330
B
100
AcDbSymbolTableRecord
100
AcDbLayerTableRecord
  2
A3XREF|LINIE
 70
    48
 62
     4
  6
Continuous
370
    -3
390
5D
  0
LAYER
  5
705
102
{ACAD_XDICTIONARY
360
706
102
}
330
B
100
AcDbSymbolTableRecord
100
AcDbLayerTableRecord
  2
A3XREF|RAHM
 70
    48
 62
   255
  6
Continuous
370
    -3
390
5D
  0
ENDTAB
  0
TABLE
  2
STYLE
  5
C
330
0
100
AcDbSymbolTable
 70
    18
  0
STYLE
  5
D
330
C
100
AcDbSymbolTableRecord
100
AcDbTextStyleTableRecord
  2
STANDARD
 70
     0
 40
0.0
 41
1.0
 50
0.0
 71
     0
 42
20.0
  3
romans.shx
  4

  0
STYLE
  5
1C
330
C
100
AcDbSymbolTableRecord
100
AcDbTextStyleTableRecord
  2
STYLE1
 70
     0
 40
0.0
 41
1.0
 50
0.0
 71
     0
 42
20.0
  3
ariblk.TTF
  4

1001
ACAD
1000
Arial Black
1071
       34
  0
STYLE
  5
D1
330
C
100
AcDbSymbolTableRecord
100
AcDbTextStyleTableRecord
  2

 70
     1
 40
0.0
 41
1.0
 50
0.0
 71
     0
 42
20.0
  3
ltypeshp.shx
  4

  0
STYLE
  5
D6
330
C
100
AcDbSymbolTableRecord
100
AcDbTextStyleTableRecord
  2
ACANSTS
 70
     0
 40
1.0
 41
1.0
 50
0.0
 71
     0
 42
20.0
  3
romans.shx
  4

  0
STYLE
  5
E2
330
C
100
AcDbSymbolTableRecord
100
AcDbTextStyleTableRecord
  2
ACANSGDT
 70
     0
 40
0.0
 41
1.0
 50
0.0
 71
     0
 42
20.0
  3
amgdtans.shx
  4

  0
STYLE
  5
709
330
C
100
AcDbSymbolTableRecord
100
AcDbTextStyleTableRecord
  2

 70
    49
 40
0.0
 41
1.0
 50
0.0
 71
     0
 42
2.0
  3
genltshp.shx
  4

  0
STYLE
  5
7D4
330
C
100
AcDbSymbolTableRecord
100
AcDbTextStyleTableRecord
  2
ACDINTS
 70
     0
 40
1.0
 41
1.0
 50
0.0
 71
     0
 42
20.0
  3
isocp.shx
  4

  0
STYLE
  5
7D5
330
C
100
AcDbSymbolTableRecord
100
AcDbTextStyleTableRecord
  2
ACDINGDT
 70
     0
 40
0.0
 41
1.0
 50
0.0
 71
     0
 42
20.0
  3
amgdt.shx
  4

  0
STYLE
  5
7D6
330
C
100
AcDbSymbolTableRecord
100
AcDbTextStyleTableRecord
  2

 70
     1
 40
0.0
 41
1.0
 50
0.0
 71
     0
 42
20.0
  3
genltshp.shx
  4

  0
ENDTAB
  0
TABLE
  2
VIEW
  5
11
330
0
100
AcDbSymbolTable
 70
     0
  0
ENDTAB
  0
TABLE
  2
UCS
  5
12
330
0
100
AcDbSymbolTable
 70
     0
  0
ENDTAB
  0
TABLE
  2
APPID
  5
15
330
0
100
AcDbSymbolTable
 70
    17
  0
APPID
  5
16
330
15
100
AcDbSymbolTableRecord
100
AcDbRegAppTableRecord
  2
ACAD
 70
     0
  0
APPID
  5
30
330
15
100
AcDbSymbolTableRecord
100
AcDbRegAppTableRecord
  2
MCAD_NO_VIS
 70
     0
  0
APPID
  5
6D
330
15
100
AcDbSymbolTableRecord
100
AcDbRegAppTableRecord
  2
ACAD_TEMP_GRAPHIC
 70
     0
  0
APPID
  5
98
330
15
100
AcDbSymbolTableRecord
100
AcDbRegAppTableRecord
  2
AD_DRAW
 70
     0
  0
APPID
  5
9B
330
15
100
AcDbSymbolTableRecord
100
AcDbRegAppTableRecord
  2
ACATTRIBSERVICES
 70
     0
  0
APPID
  5
B9
330
15
100
AcDbSymbolTableRecord
100
AcDbRegAppTableRecord
  2
DESIGNERASSEMBLIES
 70
     0
  0
APPID
  5
C1
330
15
100
AcDbSymbolTableRecord
100
AcDbRegAppTableRecord
  2
ACADM_DIM_EDIT
 70
     0
  0
APPID
  5
C2
330
15
100
AcDbSymbolTableRecord
100
AcDbRegAppTableRecord
  2
AMDT_DM_ADJ
 70
     0
  0
APPID
  5
589
330
15
100
AcDbSymbolTableRecord
100
AcDbRegAppTableRecord
  2
ACAD_PSEXT
 70
     0
  0
APPID
  5
6F9
330
15
100
AcDbSymbolTableRecord
100
AcDbRegAppTableRecord
  2
ACAD_MLEADERVER
 70
     0
  0
APPID
  5
70A
330
15
100
AcDbSymbolTableRecord
100
AcDbRegAppTableRecord
  2
DCO15
 70
     0
  0
APPID
  5
7DE
330
15
100
AcDbSymbolTableRecord
100
AcDbRegAppTableRecord
  2
GENIUS_GENDTOL_13
 70
     0
  0
APPID
  5
7DF
330
15
100
AcDbSymbolTableRecord
100
AcDbRegAppTableRecord
  2
ACAD_DSTYLE_DIMINSPECT
 70
     0
  0
APPID
  5
7E0
330
15
100
AcDbSymbolTableRecord
100
AcDbRegAppTableRecord
  2
AcAecLayerStandard
 70
     0
  0
APPID
  5
B7A
330
15
100
AcDbSymbolTableRecord
100
AcDbRegAppTableRecord
  2
AcadAnnoPO
 70
     0
  0
APPID
  5
E60
330
15
100
AcDbSymbolTableRecord
100
AcDbRegAppTableRecord
  2
ACAD_EXEMPT_FROM_CAD_STANDARDS
 70
     0
  0
APPID
  5
E73
330
15
100
AcDbSymbolTableRecord
100
AcDbRegAppTableRecord
  2
ACAD_DSTYLE_DIMJOGGED_JOGANGLE_SYMBOL
 70
     0
  0
ENDTAB
  0
TABLE
  2
DIMSTYLE
  5
17
330
0
100
AcDbSymbolTable
 70
    38
100
AcDbDimStyleTable
 71
     2
340
7D7
340
1E
  0
DIMSTYLE
105
1E
102
{ACAD_REACTORS
330
1F1
330
1FF
330
219
330
233
330
24D
330
276
330
4B6
330
59B
330
226
330
240
330
25C
330
269
330
20C
102
}
330
17
100
AcDbSymbolTableRecord
100
AcDbDimStyleTableRecord
  2
ISO-25
 70
     0
 41
3.5
 42
0.0
 43
7.0
 44
1.25
 73
     0
 74
     0
 77
     1
 78
     8
140
3.5
141
0.0
143
0.0394
144
0.5
145
1.0
147
1.5
172
     1
176
   256
177
   256
178
   256
284
     8
288
     1
340
D
  0
DIMSTYLE
105
EB
330
17
100
AcDbSymbolTableRecord
100
AcDbDimStyleTableRecord
  2
AM_ANSI
 70
     0
  4
mm
 41
0.1
 42
0.05
 43
0.5
 44
0.1
 47
0.1
 48
0.1
 78
     7
 79
     2
140
0.12
141
0.0
146
0.71
147
0.06
176
   256
177
   256
178
     2
274
     4
284
     7
340
D
371
    -1
372
    -1
  0
DIMSTYLE
105
EC
330
17
100
AcDbSymbolTableRecord
100
AcDbDimStyleTableRecord
  2
AM_ANSI$3
 70
     0
  4
mm
 41
0.1
 42
0.05
 43
0.5
 44
0.1
 47
0.1
 48
0.1
 78
     7
 79
     2
140
0.12
141
0.0
146
0.71
147
0.06
176
   256
177
   256
178
     2
274
     4
284
     7
288
     1
289
     0
340
D
371
    -1
372
    -1
  0
DIMSTYLE
105
ED
330
17
100
AcDbSymbolTableRecord
100
AcDbDimStyleTableRecord
  2
AM_ANSI$4
 70
     0
  4
mm
 41
0.1
 42
0.05
 43
0.5
 44
0.1
 47
0.1
 48
0.1
 78
     7
 79
     2
140
0.12
141
0.0
146
0.71
147
0.06
176
   256
177
   256
178
     2
274
     4
284
     7
288
     1
289
     0
340
D
371
    -1
372
    -1
  0
DIMSTYLE
105
EE
330
17
100
AcDbSymbolTableRecord
100
AcDbDimStyleTableRecord
  2
AM_ANSI$7
 70
     0
  4
mm
 41
0.1
 42
0.05
 43
0.5
 44
0.1
 47
0.1
 48
0.1
 78
     7
 79
     2
140
0.24
141
0.0
146
0.71
147
0.06
176
   256
177
   256
178
     2
274
     4
284
     7
340
D
371
    -1
372
    -1
  0
DIMSTYLE
105
EF
330
17
100
AcDbSymbolTableRecord
100
AcDbDimStyleTableRecord
  2
AM_ANSI$SF
 70
     0
  4
mm
 41
0.1
 42
0.05
 43
0.5
 44
0.1
 47
0.1
 48
0.1
 75
     1
 76
     1
 78
     7
 79
     2
140
0.12
141
0.0
146
0.71
147
0.06
176
   256
177
   256
178
     2
274
     4
284
     7
340
D
371
    -1
372
    -1
  0
DIMSTYLE
105
F4
330
17
100
AcDbSymbolTableRecord
100
AcDbDimStyleTableRecord
  2
AM_ANSI$SH
 70
     0
  4
mm
 41
0.1
 42
0.05
 43
0.5
 44
0.1
 47
0.1
 48
0.1
 75
     1
 76
     1
 78
     7
 79
     2
140
0.12
141
0.0
146
0.71
147
0.06
173
     1
176
   256
177
   256
178
     2
274
     4
284
     7
340
D
343
F0
371
    -1
372
    -1
  0
DIMSTYLE
105
2F0
330
17
100
AcDbSymbolTableRecord
100
AcDbDimStyleTableRecord
  2
STANDARD
 70
     0
 41
3.5
 42
0.0
 43
7.0
 44
1.25
 73
     0
 74
     0
 77
     1
 78
     8
140
3.5
141
0.0
147
1.5
172
     1
176
   256
177
   256
178
   256
288
     1
340
D
  0
DIMSTYLE
105
7D7
330
17
100
AcDbSymbolTableRecord
100
AcDbDimStyleTableRecord
  2
AM_DIN
 70
     0
  4
"
 41
2.5
 42
1.0
 43
10.0
 44
1.0
 47
0.1
 48
0.1
 73
     0
 74
     0
 77
     1
 78
     8
 79
     2
140
3.5
141
0.0
143
0.0393701
146
0.71
147
1.5
172
     1
176
   256
177
   256
178
     2
271
     2
272
     3
274
     4
283
     0
284
     8
340
D
371
    -1
372
    -1
1001
ACAD_DSTYLE_DIMJOGGED_JOGANGLE_SYMBOL
1070
   384
1040
1.570796326794896
  0
DIMSTYLE
105
7D8
330
17
100
AcDbSymbolTableRecord
100
AcDbDimStyleTableRecord
  2
AM_DIN$3
 70
     0
  4
"
 41
2.5
 42
1.0
 43
10.0
 44
1.0
 47
0.1
 48
0.1
 73
     0
 77
     1
 78
     8
 79
     2
140
3.5
141
0.0
143
0.0393701
146
0.71
147
1.5
176
   256
177
   256
178
     2
271
     2
272
     3
274
     4
283
     0
284
     8
288
     1
289
     0
340
D
371
    -1
372
    -1
1001
ACAD_DSTYLE_DIMJOGGED_JOGANGLE_SYMBOL
1070
   384
1040
1.570796326794896
  0
DIMSTYLE
105
7D9
330
17
100
AcDbSymbolTableRecord
100
AcDbDimStyleTableRecord
  2
AM_DIN$4
 70
     0
  4
"
 41
2.5
 42
1.0
 43
10.0
 44
1.0
 47
0.1
 48
0.1
 73
     0
 77
     1
 78
     8
 79
     2
140
3.5
141
0.0
143
0.0393701
146
0.71
147
1.5
176
   256
177
   256
178
     2
271
     2
272
     3
274
     4
283
     0
284
     8
288
     1
289
     0
340
D
371
    -1
372
    -1
1001
ACAD_DSTYLE_DIMJOGGED_JOGANGLE_SYMBOL
1070
   384
1040
1.570796326794896
  0
DIMSTYLE
105
7DA
330
17
100
AcDbSymbolTableRecord
100
AcDbDimStyleTableRecord
  2
AM_DIN$6
 70
     0
  4
"
 41
2.5
 42
1.0
 43
10.0
 44
1.0
 47
0.1
 48
0.1
 73
     0
 74
     0
 78
     8
 79
     2
140
3.5
141
0.0
143
0.0393701
146
0.71
147
1.5
172
     1
176
   256
177
   256
178
     2
271
     2
272
     3
274
     4
283
     0
284
     8
340
D
371
    -1
372
    -1
1001
ACAD_DSTYLE_DIMJOGGED_JOGANGLE_SYMBOL
1070
   384
1040
1.570796326794896
  0
DIMSTYLE
105
7DB
330
17
100
AcDbSymbolTableRecord
100
AcDbDimStyleTableRecord
  2
AM_DIN$7
 70
     0
  4
"
 41
2.5
 42
1.0
 43
10.0
 44
1.0
 47
0.1
 48
0.1
 73
     0
 74
     0
 77
     1
 78
     8
 79
     2
140
5.0
141
0.0
143
0.0393701
146
0.71
147
1.5
172
     1
176
   256
177
   256
178
     2
271
     2
272
     3
274
     4
283
     0
284
     8
340
D
371
    -1
372
    -1
1001
ACAD_DSTYLE_DIMJOGGED_JOGANGLE_SYMBOL
1070
   384
1040
1.570796326794896
  0
DIMSTYLE
105
7DC
330
17
100
AcDbSymbolTableRecord
100
AcDbDimStyleTableRecord
  2
AM_DIN$SF
 70
     0
  4
"
 41
2.5
 42
1.0
 43
10.0
 44
1.0
 47
0.1
 48
0.1
 73
     0
 74
     0
 75
     1
 76
     1
 77
     1
 78
     8
 79
     2
140
3.5
141
0.0
143
0.0393701
146
0.71
147
1.5
172
     1
176
   256
177
   256
178
     2
271
     2
272
     3
274
     4
283
     0
284
     8
340
D
371
    -1
372
    -1
1001
ACAD_DSTYLE_DIMJOGGED_JOGANGLE_SYMBOL
1070
   384
1040
1.570796326794896
  0
DIMSTYLE
105
7DD
330
17
100
AcDbSymbolTableRecord
100
AcDbDimStyleTableRecord
  2
AM_DIN$SH
 70
     0
  4
"
 41
2.5
 42
1.0
 43
10.0
 44
1.0
 47
0.1
 48
0.1
 73
     0
 74
     0
 75
     1
 76
     1
 77
     1
 78
     8
 79
     2
140
3.5
141
0.0
143
0.0393701
144
2.0
146
0.71
147
1.5
172
     1
173
     1
176
   256
177
   256
178
     2
271
     2
272
     3
274
     4
283
     0
284
     8
340
D
343
F0
371
    -1
372
    -1
1001
ACAD_DSTYLE_DIMJOGGED_JOGANGLE_SYMBOL
1070
   384
1040
1.570796326794896
  0
ENDTAB
  0
TABLE
  2
BLOCK_RECORD
  5
1
330
0
100
AcDbSymbolTable
 70
    50
  0
BLOCK_RECORD
  5
2
102
{ACAD_XDICTIONARY
360
3
102
}
330
1
100
AcDbSymbolTableRecord
100
AcDbBlockTableRecord
  2
*MODEL_SPACE
340
62
  0
BLOCK_RECORD
  5
8
330
1
100
AcDbSymbolTableRecord
100
AcDbBlockTableRecord
  2
*PAPER_SPACE
340
63
  0
BLOCK_RECORD
  5
F0
330
1
100
AcDbSymbolTableRecord
100
AcDbBlockTableRecord
  2
GENAXEH
340
0
  0
BLOCK_RECORD
  5
161
330
1
100
AcDbSymbolTableRecord
100
AcDbBlockTableRecord
  2
A3XREF
340
0
102
{BLKREFS
331
176
102
}
  0
BLOCK_RECORD
  5
1F3
330
1
100
AcDbSymbolTableRecord
100
AcDbBlockTableRecord
  2
*D4
340
0
  0
BLOCK_RECORD
  5
200
330
1
100
AcDbSymbolTableRecord
100
AcDbBlockTableRecord
  2
*D5
340
0
  0
BLOCK_RECORD
  5
20D
330
1
100
AcDbSymbolTableRecord
100
AcDbBlockTableRecord
  2
*D6
340
0
  0
BLOCK_RECORD
  5
21A
330
1
100
AcDbSymbolTableRecord
100
AcDbBlockTableRecord
  2
*D7
340
0
  0
BLOCK_RECORD
  5
227
330
1
100
AcDbSymbolTableRecord
100
AcDbBlockTableRecord
  2
*D8
340
0
  0
BLOCK_RECORD
  5
234
330
1
100
AcDbSymbolTableRecord
100
AcDbBlockTableRecord
  2
*D9
340
0
  0
BLOCK_RECORD
  5
241
330
1
100
AcDbSymbolTableRecord
100
AcDbBlockTableRecord
  2
*D10
340
0
  0
BLOCK_RECORD
  5
24E
330
1
100
AcDbSymbolTableRecord
100
AcDbBlockTableRecord
  2
*D11
340
0
  0
BLOCK_RECORD
  5
25D
330
1
100
AcDbSymbolTableRecord
100
AcDbBlockTableRecord
  2
*D12
340
0
  0
BLOCK_RECORD
  5
26A
330
1
100
AcDbSymbolTableRecord
100
AcDbBlockTableRecord
  2
*D13
340
0
  0
BLOCK_RECORD
  5
277
330
1
100
AcDbSymbolTableRecord
100
AcDbBlockTableRecord
  2
*D14
340
0
  0
BLOCK_RECORD
  5
4B7
330
1
100
AcDbSymbolTableRecord
100
AcDbBlockTableRecord
  2
*D15
340
0
  0
BLOCK_RECORD
  5
59C
330
1
100
AcDbSymbolTableRecord
100
AcDbBlockTableRecord
  2
*D16
340
0
  0
ENDTAB
  0
ENDSEC
  0
SECTION
  2
BLOCKS
  0
BLOCK
  5
4
330
2
100
AcDbEntity
  8
0
100
AcDbBlockBegin
  2
*MODEL_SPACE
 70
     0
 10
0.0
 20
0.0
 30
0.0
  3
*MODEL_SPACE
  1

  0
ENDBLK
  5
7
330
2
100
AcDbEntity
  8
0
100
AcDbBlockEnd
  0
BLOCK
  5
9
330
8
100
AcDbEntity
 67
     1
  8
0
100
AcDbBlockBegin
  2
*PAPER_SPACE
 70
     0
 10
0.0
 20
0.0
 30
0.0
  3
*PAPER_SPACE
  1

  0
ENDBLK
  5
A
330
8
100
AcDbEntity
 67
     1
  8
0
100
AcDbBlockEnd
  0
BLOCK
  5
F2
330
F0
100
AcDbEntity
  8
0
 48
10.0
100
AcDbBlockBegin
  2
GENAXEH
 70
     0
 10
0.0
 20
0.0
 30
0.0
  3
GENAXEH
  1

  0
LINE
  5
F1
330
F0
100
AcDbEntity
  8
0
100
AcDbLine
 10
-1.0
 20
0.0
 30
0.0
 11
1.0
 21
0.0
 31
0.0
  0
ENDBLK
  5
F3
330
F0
100
AcDbEntity
  8
0
 48
10.0
100
AcDbBlockEnd
  0
BLOCK
  5
162
330
161
100
AcDbEntity
  8
0
 48
10.0
100
AcDbBlockBegin
  2
A3XREF
 70
    36
 10
0.0
 20
0.0
 30
0.0
  3
A3XREF
  1
K:\NORM\A3XREF.dwg
  0
ENDBLK
  5
163
330
161
100
AcDbEntity
  8
0
 48
10.0
100
AcDbBlockEnd
  0
BLOCK
  5
1FD
330
1F3
100
AcDbEntity
  8
0
 48
10.0
100
AcDbBlockBegin
  2
*D4
 70
     1
 10
0.0
 20
0.0
 30
0.0
  3
*D4
  1

  0
LINE
  5
D60
330
1F3
100
AcDbEntity
  8
BEM
 48
10.0
370
    -2
100
AcDbLine
 10
28.24653289833879
 20
135.5412620320572
 30
0.0
 11
28.24653289833879
 21
155.3318032495709
 31
0.0
  0
LINE
  5
D61
330
1F3
100
AcDbEntity
  8
BEM
 48
10.0
370
    -2
100
AcDbLine
 10
82.24653289833879
 20
135.5412620320572
 30
0.0
 11
82.24653289833879
 21
155.3318032495709
 31
0.0
  0
LINE
  5
D62
330
1F3
100
AcDbEntity
  8
BEM
 48
10.0
370
    -2
100
AcDbLine
 10
31.74653289833879
 20
154.0818032495709
 30
0.0
 11
78.74653289833879
 21
154.0818032495709
 31
0.0
  0
SOLID
  5
D63
330
1F3
100
AcDbEntity
  8
BEM
 48
10.0
100
AcDbTrace
 10
31.74653289833879
 20
154.6651365829043
 30
0.0
 11
31.74653289833879
 21
153.4984699162376
 31
0.0
 12
28.24653289833879
 22
154.0818032495709
 32
0.0
 13
28.24653289833879
 23
154.0818032495709
 33
0.0
  0
SOLID
  5
D64
330
1F3
100
AcDbEntity
  8
BEM
 48
10.0
100
AcDbTrace
 10
78.74653289833879
 20
154.6651365829043
 30
0.0
 11
78.74653289833879
 21
153.4984699162376
 31
0.0
 12
82.24653289833879
 22
154.0818032495709
 32
0.0
 13
82.24653289833879
 23
154.0818032495709
 33
0.0
  0
MTEXT
  5
D65
330
1F3
100
AcDbEntity
  8
BEM
 48
10.0
100
AcDbMText
 10
55.24653289833878
 20
157.3318032495709
 30
0.0
 40
3.5
 41
0.0
 71
     5
 72
     1
  1
\A1;54
 73
     1
 44
1.0
  0
POINT
  5
D66
330
1F3
100
AcDbEntity
  8
Defpoints
 62
     0
 48
10.0
100
AcDbPoint
 10
28.24653289833879
 20
135.5412620320572
 30
0.0
  0
POINT
  5
D67
330
1F3
100
AcDbEntity
  8
Defpoints
 62
     0
 48
10.0
100
AcDbPoint
 10
82.24653289833879
 20
135.5412620320572
 30
0.0
  0
POINT
  5
D68
330
1F3
100
AcDbEntity
  8
Defpoints
 62
     0
 48
10.0
100
AcDbPoint
 10
82.24653289833879
 20
154.0818032495709
 30
0.0
  0
ENDBLK
  5
1FE
330
1F3
100
AcDbEntity
  8
0
 48
10.0
100
AcDbBlockEnd
  0
BLOCK
  5
20A
330
200
100
AcDbEntity
  8
0
 48
10.0
100
AcDbBlockBegin
  2
*D5
 70
     1
 10
0.0
 20
0.0
 30
0.0
  3
*D5
  1

  0
LINE
  5
D69
330
200
100
AcDbEntity
  8
BEM
 48
10.0
370
    -2
100
AcDbLine
 10
82.24653289833879
 20
135.5412620320572
 30
0.0
 11
107.4074268234099
 21
135.5412620320572
 31
0.0
  0
LINE
  5
D6A
330
200
100
AcDbEntity
  8
BEM
 48
10.0
370
    -2
100
AcDbLine
 10
82.24653289833879
 20
95.54126203205724
 30
0.0
 11
107.4074268234099
 21
95.54126203205722
 31
0.0
  0
LINE
  5
D6B
330
200
100
AcDbEntity
  8
BEM
 48
10.0
370
    -2
100
AcDbLine
 10
106.1574268234099
 20
132.0412620320572
 30
0.0
 11
106.1574268234099
 21
99.04126203205722
 31
0.0
  0
SOLID
  5
D6C
330
200
100
AcDbEntity
  8
BEM
 48
10.0
100
AcDbTrace
 10
105.5740934900766
 20
132.0412620320572
 30
0.0
 11
106.7407601567432
 21
132.0412620320572
 31
0.0
 12
106.1574268234099
 22
135.5412620320572
 32
0.0
 13
106.1574268234099
 23
135.5412620320572
 33
0.0
  0
SOLID
  5
D6D
330
200
100
AcDbEntity
  8
BEM
 48
10.0
100
AcDbTrace
 10
105.5740934900766
 20
99.04126203205722
 30
0.0
 11
106.7407601567432
 21
99.04126203205722
 31
0.0
 12
106.1574268234099
 22
95.54126203205722
 32
0.0
 13
106.1574268234099
 23
95.54126203205722
 33
0.0
  0
MTEXT
  5
D6E
330
200
100
AcDbEntity
  8
BEM
 48
10.0
100
AcDbMText
 10
102.9074268234098
 20
115.1619282235929
 30
0.0
 40
3.5
 41
0.0
 71
     5
 72
     1
  1
\A1;40
 11
0.0000000000000001
 21
1.0
 31
0.0
 73
     1
 44
1.0
  0
POINT
  5
D6F
330
200
100
AcDbEntity
  8
Defpoints
 62
     0
 48
10.0
100
AcDbPoint
 10
82.24653289833879
 20
135.5412620320572
 30
0.0
  0
POINT
  5
D70
330
200
100
AcDbEntity
  8
Defpoints
 62
     0
 48
10.0
100
AcDbPoint
 10
82.24653289833879
 20
95.54126203205724
 30
0.0
  0
POINT
  5
D71
330
200
100
AcDbEntity
  8
Defpoints
 62
     0
 48
10.0
100
AcDbPoint
 10
106.1574268234099
 20
95.54126203205722
 30
0.0
  0
ENDBLK
  5
20B
330
200
100
AcDbEntity
  8
0
 48
10.0
100
AcDbBlockEnd
  0
BLOCK
  5
217
330
20D
100
AcDbEntity
  8
0
 48
10.0
100
AcDbBlockBegin
  2
*D6
 70
     1
 10
0.0
 20
0.0
 30
0.0
  3
*D6
  1

  0
LINE
  5
D72
330
20D
100
AcDbEntity
  8
BEM
 48
10.0
370
    -2
100
AcDbLine
 10
25.78701944247774
 20
115.5412620320572
 30
0.0
 11
12.89588641291609
 21
115.5412620320572
 31
0.0
  0
LINE
  5
D73
330
20D
100
AcDbEntity
  8
BEM
 48
10.0
370
    -2
100
AcDbLine
 10
28.24653289833879
 20
95.54126203205724
 30
0.0
 11
12.89588641291608
 21
95.54126203205724
 31
0.0
  0
LINE
  5
D74
330
20D
100
AcDbEntity
  8
BEM
 48
10.0
370
    -2
100
AcDbLine
 10
14.14588641291609
 20
112.0412620320572
 30
0.0
 11
14.14588641291608
 21
99.04126203205724
 31
0.0
  0
SOLID
  5
D75
330
20D
100
AcDbEntity
  8
BEM
 48
10.0
100
AcDbTrace
 10
13.56255307958275
 20
112.0412620320572
 30
0.0
 11
14.72921974624942
 21
112.0412620320572
 31
0.0
 12
14.14588641291609
 22
115.5412620320572
 32
0.0
 13
14.14588641291609
 23
115.5412620320572
 33
0.0
  0
SOLID
  5
D76
330
20D
100
AcDbEntity
  8
BEM
 48
10.0
100
AcDbTrace
 10
13.56255307958275
 20
99.04126203205724
 30
0.0
 11
14.72921974624942
 21
99.04126203205724
 31
0.0
 12
14.14588641291608
 22
95.54126203205724
 32
0.0
 13
14.14588641291608
 23
95.54126203205724
 33
0.0
  0
MTEXT
  5
D77
330
20D
100
AcDbEntity
  8
BEM
 48
10.0
100
AcDbMText
 10
10.89588641291607
 20
105.4049226113984
 30
0.0
 40
3.5
 41
0.0
 71
     5
 72
     1
  1
\A1;20{}{\H0.71x;\C3;%%p0.05}
 11
0.0000000000000001
 21
1.0
 31
0.0
 73
     1
 44
1.0
  0
POINT
  5
D78
330
20D
100
AcDbEntity
  8
Defpoints
 62
     0
 48
10.0
100
AcDbPoint
 10
25.78701944247774
 20
115.5412620320572
 30
0.0
  0
POINT
  5
D79
330
20D
100
AcDbEntity
  8
Defpoints
 62
     0
 48
10.0
100
AcDbPoint
 10
28.24653289833879
 20
95.54126203205724
 30
0.0
  0
POINT
  5
D7A
330
20D
100
AcDbEntity
  8
Defpoints
 62
     0
 48
10.0
100
AcDbPoint
 10
14.14588641291608
 20
95.54126203205724
 30
0.0
  0
ENDBLK
  5
218
330
20D
100
AcDbEntity
  8
0
 48
10.0
100
AcDbBlockEnd
  0
BLOCK
  5
224
330
21A
100
AcDbEntity
  8
0
 48
10.0
100
AcDbBlockBegin
  2
*D7
 70
     1
 10
0.0
 20
0.0
 30
0.0
  3
*D7
  1

  0
LINE
  5
D7B
330
21A
100
AcDbEntity
  8
BEM
 48
10.0
370
    -2
100
AcDbLine
 10
131.965574083058
 20
135.5412620320571
 30
0.0
 11
131.965574083058
 21
155.1383951927638
 31
0.0
  0
LINE
  5
D7C
330
21A
100
AcDbEntity
  8
BEM
 48
10.0
370
    -2
100
AcDbLine
 10
191.9655740830581
 20
135.5412620320571
 30
0.0
 11
191.9655740830581
 21
155.1383951927638
 31
0.0
  0
LINE
  5
D7D
330
21A
100
AcDbEntity
  8
BEM
 48
10.0
370
    -2
100
AcDbLine
 10
135.4655740830581
 20
153.8883951927638
 30
0.0
 11
188.4655740830581
 21
153.8883951927638
 31
0.0
  0
SOLID
  5
D7E
330
21A
100
AcDbEntity
  8
BEM
 48
10.0
100
AcDbTrace
 10
135.4655740830581
 20
154.4717285260971
 30
0.0
 11
135.4655740830581
 21
153.3050618594305
 31
0.0
 12
131.965574083058
 22
153.8883951927638
 32
0.0
 13
131.965574083058
 23
153.8883951927638
 33
0.0
  0
SOLID
  5
D7F
330
21A
100
AcDbEntity
  8
BEM
 48
10.0
100
AcDbTrace
 10
188.4655740830581
 20
154.4717285260971
 30
0.0
 11
188.4655740830581
 21
153.3050618594305
 31
0.0
 12
191.9655740830581
 22
153.8883951927638
 32
0.0
 13
191.9655740830581
 23
153.8883951927638
 33
0.0
  0
MTEXT
  5
D80
330
21A
100
AcDbEntity
  8
BEM
 48
10.0
100
AcDbMText
 10
161.965574083058
 20
157.1383951927638
 30
0.0
 40
3.5
 41
0.0
 71
     5
 72
     1
  1
\A1;60
 73
     1
 44
1.0
  0
POINT
  5
D81
330
21A
100
AcDbEntity
  8
Defpoints
 62
     0
 48
10.0
100
AcDbPoint
 10
131.965574083058
 20
135.5412620320571
 30
0.0
  0
POINT
  5
D82
330
21A
100
AcDbEntity
  8
Defpoints
 62
     0
 48
10.0
100
AcDbPoint
 10
191.9655740830581
 20
135.5412620320571
 30
0.0
  0
POINT
  5
D83
330
21A
100
AcDbEntity
  8
Defpoints
 62
     0
 48
10.0
100
AcDbPoint
 10
191.9655740830581
 20
153.8883951927638
 30
0.0
  0
ENDBLK
  5
225
330
21A
100
AcDbEntity
  8
0
 48
10.0
100
AcDbBlockEnd
  0
BLOCK
  5
231
330
227
100
AcDbEntity
  8
0
 48
10.0
100
AcDbBlockBegin
  2
*D8
 70
     1
 10
0.0
 20
0.0
 30
0.0
  3
*D8
  1

  0
LINE
  5
DF9
330
227
100
AcDbEntity
  8
BEM
 48
10.0
370
    -2
100
AcDbLine
 10
191.9655740830581
 20
257.9103438081844
 30
0.0
 11
191.9655740830581
 21
273.9006292653523
 31
0.0
  0
LINE
  5
DFA
330
227
100
AcDbEntity
  8
BEM
 48
10.0
370
    -2
100
AcDbLine
 10
175.9655740830581
 20
254.4103438081844
 30
0.0
 11
175.9655740830581
 21
273.9006292653523
 31
0.0
  0
LINE
  5
DFB
330
227
100
AcDbEntity
  8
BEM
 48
10.0
370
    -2
100
AcDbLine
 10
188.4655740830581
 20
272.6506292653523
 30
0.0
 11
179.465574083058
 21
272.6506292653523
 31
0.0
  0
SOLID
  5
DFC
330
227
100
AcDbEntity
  8
BEM
 48
10.0
100
AcDbTrace
 10
188.4655740830581
 20
273.2339625986857
 30
0.0
 11
188.4655740830581
 21
272.067295932019
 31
0.0
 12
191.9655740830581
 22
272.6506292653523
 32
0.0
 13
191.9655740830581
 23
272.6506292653523
 33
0.0
  0
SOLID
  5
DFD
330
227
100
AcDbEntity
  8
BEM
 48
10.0
100
AcDbTrace
 10
179.465574083058
 20
273.2339625986857
 30
0.0
 11
179.465574083058
 21
272.067295932019
 31
0.0
 12
175.9655740830581
 22
272.6506292653523
 32
0.0
 13
175.9655740830581
 23
272.6506292653523
 33
0.0
  0
MTEXT
  5
DFE
330
227
100
AcDbEntity
  8
BEM
 48
10.0
100
AcDbMText
 10
183.5498346624736
 20
275.9006292653523
 30
0.0
 40
3.5
 41
0.0
 71
     5
 72
     1
  1
\A1;16{}{\H0.71x;\C3;%%p0.1}
 73
     1
 44
1.0
  0
POINT
  5
DFF
330
227
100
AcDbEntity
  8
Defpoints
 62
     0
 48
10.0
100
AcDbPoint
 10
191.9655740830581
 20
257.9103438081844
 30
0.0
  0
POINT
  5
E00
330
227
100
AcDbEntity
  8
Defpoints
 62
     0
 48
10.0
100
AcDbPoint
 10
175.9655740830581
 20
254.4103438081844
 30
0.0
  0
POINT
  5
E01
330
227
100
AcDbEntity
  8
Defpoints
 62
     0
 48
10.0
100
AcDbPoint
 10
175.9655740830581
 20
272.6506292653523
 30
0.0
  0
ENDBLK
  5
232
330
227
100
AcDbEntity
  8
0
 48
10.0
100
AcDbBlockEnd
  0
BLOCK
  5
23E
330
234
100
AcDbEntity
  8
0
 48
10.0
100
AcDbBlockBegin
  2
*D9
 70
     1
 10
0.0
 20
0.0
 30
0.0
  3
*D9
  1

  0
LINE
  5
E02
330
234
100
AcDbEntity
  8
BEM
 48
10.0
370
    -2
100
AcDbLine
 10
175.9655740830581
 20
254.4103438081844
 30
0.0
 11
175.9655740830581
 21
273.9006292653523
 31
0.0
  0
LINE
  5
E03
330
234
100
AcDbEntity
  8
BEM
 48
10.0
370
    -2
100
AcDbLine
 10
147.9655740830581
 20
254.4103438081844
 30
0.0
 11
147.9655740830581
 21
273.9006292653523
 31
0.0
  0
LINE
  5
E04
330
234
100
AcDbEntity
  8
BEM
 48
10.0
370
    -2
100
AcDbLine
 10
172.465574083058
 20
272.6506292653523
 30
0.0
 11
151.4655740830581
 21
272.6506292653523
 31
0.0
  0
SOLID
  5
E05
330
234
100
AcDbEntity
  8
BEM
 48
10.0
100
AcDbTrace
 10
172.465574083058
 20
273.2339625986857
 30
0.0
 11
172.465574083058
 21
272.067295932019
 31
0.0
 12
175.9655740830581
 22
272.6506292653523
 32
0.0
 13
175.9655740830581
 23
272.6506292653523
 33
0.0
  0
SOLID
  5
E06
330
234
100
AcDbEntity
  8
BEM
 48
10.0
100
AcDbTrace
 10
151.4655740830581
 20
273.2339625986857
 30
0.0
 11
151.4655740830581
 21
272.067295932019
 31
0.0
 12
147.9655740830581
 22
272.6506292653523
 32
0.0
 13
147.9655740830581
 23
272.6506292653523
 33
0.0
  0
MTEXT
  5
E07
330
234
100
AcDbEntity
  8
BEM
 48
10.0
100
AcDbMText
 10
161.965574083058
 20
275.9006292653523
 30
0.0
 40
3.5
 41
0.0
 71
     5
 72
     1
  1
\A1;28{}{\H0.71x;\C3;%%p0.05}
 73
     1
 44
1.0
  0
POINT
  5
E08
330
234
100
AcDbEntity
  8
Defpoints
 62
     0
 48
10.0
100
AcDbPoint
 10
175.9655740830581
 20
254.4103438081844
 30
0.0
  0
POINT
  5
E09
330
234
100
AcDbEntity
  8
Defpoints
 62
     0
 48
10.0
100
AcDbPoint
 10
147.9655740830581
 20
254.4103438081844
 30
0.0
  0
POINT
  5
E0A
330
234
100
AcDbEntity
  8
Defpoints
 62
     0
 48
10.0
100
AcDbPoint
 10
147.9655740830581
 20
272.6506292653523
 30
0.0
  0
ENDBLK
  5
23F
330
234
100
AcDbEntity
  8
0
 48
10.0
100
AcDbBlockEnd
  0
BLOCK
  5
24B
330
241
100
AcDbEntity
  8
0
 48
10.0
100
AcDbBlockBegin
  2
*D10
 70
     1
 10
0.0
 20
0.0
 30
0.0
  3
*D10
  1

  0
LINE
  5
E0B
330
241
100
AcDbEntity
  8
BEM
 48
10.0
370
    -2
100
AcDbLine
 10
179.465574083058
 20
250.9103438081844
 30
0.0
 11
224.3899614374539
 21
250.9103438081844
 31
0.0
  0
LINE
  5
E0C
330
241
100
AcDbEntity
  8
BEM
 48
10.0
370
    -2
100
AcDbLine
 10
179.465574083058
 20
210.9103438081844
 30
0.0
 11
224.3899614374539
 21
210.9103438081844
 31
0.0
  0
LINE
  5
E0D
330
241
100
AcDbEntity
  8
BEM
 48
10.0
370
    -2
100
AcDbLine
 10
223.1399614374538
 20
247.4103438081844
 30
0.0
 11
223.1399614374538
 21
214.4103438081844
 31
0.0
  0
SOLID
  5
E0E
330
241
100
AcDbEntity
  8
BEM
 48
10.0
100
AcDbTrace
 10
222.5566281041205
 20
247.4103438081844
 30
0.0
 11
223.7232947707872
 21
247.4103438081844
 31
0.0
 12
223.1399614374538
 22
250.9103438081844
 32
0.0
 13
223.1399614374538
 23
250.9103438081844
 33
0.0
  0
SOLID
  5
E0F
330
241
100
AcDbEntity
  8
BEM
 48
10.0
100
AcDbTrace
 10
222.5566281041205
 20
214.4103438081844
 30
0.0
 11
223.7232947707872
 21
214.4103438081844
 31
0.0
 12
223.1399614374538
 22
210.9103438081844
 32
0.0
 13
223.1399614374538
 23
210.9103438081844
 33
0.0
  0
MTEXT
  5
E10
330
241
100
AcDbEntity
  8
BEM
 48
10.0
100
AcDbMText
 10
219.8899614374538
 20
230.9103438081844
 30
0.0
 40
3.5
 41
0.0
 71
     5
 72
     1
  1
\A1;40{}{\H0.71x;\C3;%%p0.05}
 11
0.0000000000000001
 21
1.0
 31
0.0
 73
     1
 44
1.0
  0
POINT
  5
E11
330
241
100
AcDbEntity
  8
Defpoints
 62
     0
 48
10.0
100
AcDbPoint
 10
179.465574083058
 20
250.9103438081844
 30
0.0
  0
POINT
  5
E12
330
241
100
AcDbEntity
  8
Defpoints
 62
     0
 48
10.0
100
AcDbPoint
 10
179.465574083058
 20
210.9103438081844
 30
0.0
  0
POINT
  5
E13
330
241
100
AcDbEntity
  8
Defpoints
 62
     0
 48
10.0
100
AcDbPoint
 10
223.1399614374538
 20
210.9103438081844
 30
0.0
  0
ENDBLK
  5
24C
330
241
100
AcDbEntity
  8
0
 48
10.0
100
AcDbBlockEnd
  0
BLOCK
  5
25A
330
24E
100
AcDbEntity
  8
0
 48
10.0
100
AcDbBlockBegin
  2
*D11
 70
     1
 10
0.0
 20
0.0
 30
0.0
  3
*D11
  1

  0
LINE
  5
E14
330
24E
100
AcDbEntity
  8
BEM
 48
10.0
370
    -2
100
AcDbLine
 10
147.9655740830581
 20
253.4103438081844
 30
0.0
 11
108.6391890936771
 21
253.4103438081844
 31
0.0
  0
LINE
  5
E15
330
24E
100
AcDbEntity
  8
BEM
 48
10.0
370
    -2
100
AcDbLine
 10
147.9655740830581
 20
248.4103438081844
 30
0.0
 11
108.6391890936771
 21
248.4103438081844
 31
0.0
  0
LINE
  5
E16
330
24E
100
AcDbEntity
  8
BEM
 48
10.0
370
    -2
100
AcDbLine
 10
109.8891890936771
 20
256.9103438081844
 30
0.0
 11
109.8891890936771
 21
260.4103438081844
 31
0.0
  0
LINE
  5
E17
330
24E
100
AcDbEntity
  8
BEM
 48
10.0
370
    -2
100
AcDbLine
 10
109.8891890936771
 20
244.9103438081844
 30
0.0
 11
109.8891890936771
 21
232.2436771415177
 31
0.0
  0
LINE
  5
E18
330
24E
100
AcDbEntity
  8
BEM
 48
10.0
370
    -2
100
AcDbLine
 10
109.8891890936771
 20
253.4103438081844
 30
0.0
 11
109.8891890936771
 21
248.4103438081844
 31
0.0
  0
SOLID
  5
E19
330
24E
100
AcDbEntity
  8
BEM
 48
10.0
100
AcDbTrace
 10
109.3058557603438
 20
256.9103438081844
 30
0.0
 11
110.4725224270104
 21
256.9103438081844
 31
0.0
 12
109.8891890936771
 22
253.4103438081844
 32
0.0
 13
109.8891890936771
 23
253.4103438081844
 33
0.0
  0
SOLID
  5
E1A
330
24E
100
AcDbEntity
  8
BEM
 48
10.0
100
AcDbTrace
 10
109.3058557603438
 20
244.9103438081844
 30
0.0
 11
110.4725224270104
 21
244.9103438081844
 31
0.0
 12
109.8891890936771
 22
248.4103438081844
 32
0.0
 13
109.8891890936771
 23
248.4103438081844
 33
0.0
  0
MTEXT
  5
E1B
330
24E
100
AcDbEntity
  8
BEM
 48
10.0
100
AcDbMText
 10
106.6391890936771
 20
236.8270104748511
 30
0.0
 40
3.5
 41
0.0
 71
     5
 72
     1
  1
\A1;M5
 11
0.0000000000000001
 21
1.0
 31
0.0
 73
     1
 44
1.0
  0
POINT
  5
E1C
330
24E
100
AcDbEntity
  8
Defpoints
 62
     0
 48
10.0
100
AcDbPoint
 10
147.9655740830581
 20
253.4103438081844
 30
0.0
  0
POINT
  5
E1D
330
24E
100
AcDbEntity
  8
Defpoints
 62
     0
 48
10.0
100
AcDbPoint
 10
147.9655740830581
 20
248.4103438081844
 30
0.0
  0
POINT
  5
E1E
330
24E
100
AcDbEntity
  8
Defpoints
 62
     0
 48
10.0
100
AcDbPoint
 10
109.8891890936771
 20
248.4103438081844
 30
0.0
  0
ENDBLK
  5
25B
330
24E
100
AcDbEntity
  8
0
 48
10.0
100
AcDbBlockEnd
  0
BLOCK
  5
267
330
25D
100
AcDbEntity
  8
0
 48
10.0
100
AcDbBlockBegin
  2
*D12
 70
     1
 10
0.0
 20
0.0
 30
0.0
  3
*D12
  1

  0
LINE
  5
E1F
330
25D
100
AcDbEntity
  8
BEM
 48
10.0
370
    -2
100
AcDbLine
 10
158.4655740830581
 20
250.9103438081844
 30
0.0
 11
155.6347969096029
 21
250.9103438081844
 31
0.0
  0
LINE
  5
E20
330
25D
100
AcDbEntity
  8
BEM
 48
10.0
370
    -2
100
AcDbLine
 10
158.4655740830581
 20
210.9103438081844
 30
0.0
 11
155.6347969096029
 21
210.9103438081844
 31
0.0
  0
LINE
  5
E21
330
25D
100
AcDbEntity
  8
BEM
 48
10.0
370
    -2
100
AcDbLine
 10
156.884796909603
 20
247.4103438081844
 30
0.0
 11
156.884796909603
 21
214.4103438081844
 31
0.0
  0
SOLID
  5
E22
330
25D
100
AcDbEntity
  8
BEM
 48
10.0
100
AcDbTrace
 10
156.3014635762696
 20
247.4103438081844
 30
0.0
 11
157.4681302429363
 21
247.4103438081844
 31
0.0
 12
156.884796909603
 22
250.9103438081844
 32
0.0
 13
156.884796909603
 23
250.9103438081844
 33
0.0
  0
SOLID
  5
E23
330
25D
100
AcDbEntity
  8
BEM
 48
10.0
100
AcDbTrace
 10
156.3014635762696
 20
214.4103438081844
 30
0.0
 11
157.4681302429363
 21
214.4103438081844
 31
0.0
 12
156.884796909603
 22
210.9103438081844
 32
0.0
 13
156.884796909603
 23
210.9103438081844
 33
0.0
  0
MTEXT
  5
E24
330
25D
100
AcDbEntity
  8
BEM
 48
10.0
100
AcDbMText
 10
153.6347969096029
 20
230.9103438081844
 30
0.0
 40
3.5
 41
0.0
 71
     5
 72
     1
  1
\A1;40{}{\H0.71x;\C3;%%p0.01}
 11
0.0000000000000001
 21
1.0
 31
0.0
 73
     1
 44
1.0
  0
POINT
  5
E25
330
25D
100
AcDbEntity
  8
Defpoints
 62
     0
 48
10.0
100
AcDbPoint
 10
158.4655740830581
 20
250.9103438081844
 30
0.0
  0
POINT
  5
E26
330
25D
100
AcDbEntity
  8
Defpoints
 62
     0
 48
10.0
100
AcDbPoint
 10
158.4655740830581
 20
210.9103438081844
 30
0.0
  0
POINT
  5
E27
330
25D
100
AcDbEntity
  8
Defpoints
 62
     0
 48
10.0
100
AcDbPoint
 10
156.884796909603
 20
210.9103438081844
 30
0.0
  0
ENDBLK
  5
268
330
25D
100
AcDbEntity
  8
0
 48
10.0
100
AcDbBlockEnd
  0
BLOCK
  5
274
330
26A
100
AcDbEntity
  8
0
 48
10.0
100
AcDbBlockBegin
  2
*D13
 70
     1
 10
0.0
 20
0.0
 30
0.0
  3
*D13
  1

  0
LINE
  5
E3D
330
26A
100
AcDbEntity
  8
BEM
 48
10.0
370
    -2
100
AcDbLine
 10
161.965574083058
 20
207.4103438081844
 30
0.0
 11
161.965574083058
 21
197.0312507364151
 31
0.0
  0
LINE
  5
E3E
330
26A
100
AcDbEntity
  8
BEM
 48
10.0
370
    -2
100
AcDbLine
 10
175.9655740830581
 20
207.4103438081844
 30
0.0
 11
175.9655740830581
 21
176.022989215724
 31
0.0
  0
LINE
  5
E3F
330
26A
100
AcDbEntity
  8
BEM
 48
10.0
370
    -2
100
AcDbLine
 10
165.4655740830581
 20
177.272989215724
 30
0.0
 11
172.465574083058
 21
177.272989215724
 31
0.0
  0
LINE
  5
E40
330
26A
100
AcDbEntity
  8
BEM
 48
10.0
370
    -2
100
AcDbLine
 10
175.9655740830581
 20
177.272989215724
 30
0.0
 11
199.1372407497247
 21
177.272989215724
 31
0.0
  0
SOLID
  5
E41
330
26A
100
AcDbEntity
  8
BEM
 48
10.0
100
AcDbTrace
 10
165.4655740830581
 20
177.8563225490573
 30
0.0
 11
165.4655740830581
 21
176.6896558823906
 31
0.0
 12
161.965574083058
 22
177.272989215724
 32
0.0
 13
161.965574083058
 23
177.272989215724
 33
0.0
  0
SOLID
  5
E42
330
26A
100
AcDbEntity
  8
BEM
 48
10.0
100
AcDbTrace
 10
172.465574083058
 20
177.8563225490573
 30
0.0
 11
172.465574083058
 21
176.6896558823906
 31
0.0
 12
175.9655740830581
 22
177.272989215724
 32
0.0
 13
175.9655740830581
 23
177.272989215724
 33
0.0
  0
MTEXT
  5
E43
330
26A
100
AcDbEntity
  8
BEM
 48
10.0
100
AcDbMText
 10
189.3014074163914
 20
180.522989215724
 30
0.0
 40
3.5
 41
0.0
 71
     5
 72
     1
  1
\A1;14{}{\H0.71x;\C3;%%p0.05}
 73
     1
 44
1.0
  0
POINT
  5
E44
330
26A
100
AcDbEntity
  8
Defpoints
 62
     0
 48
10.0
100
AcDbPoint
 10
161.965574083058
 20
207.4103438081844
 30
0.0
  0
POINT
  5
E45
330
26A
100
AcDbEntity
  8
Defpoints
 62
     0
 48
10.0
100
AcDbPoint
 10
175.9655740830581
 20
207.4103438081844
 30
0.0
  0
POINT
  5
E46
330
26A
100
AcDbEntity
  8
Defpoints
 62
     0
 48
10.0
100
AcDbPoint
 10
175.9655740830581
 20
177.272989215724
 30
0.0
  0
LINE
  5
E47
330
26A
100
AcDbEntity
  8
BEM
 48
10.0
370
    -2
100
AcDbLine
 10
161.965574083058
 20
188.6612063523832
 30
0.0
 11
161.965574083058
 21
176.022989215724
 31
0.0
  0
ENDBLK
  5
275
330
26A
100
AcDbEntity
  8
0
 48
10.0
100
AcDbBlockEnd
  0
BLOCK
  5
283
330
277
100
AcDbEntity
  8
0
 48
10.0
100
AcDbBlockBegin
  2
*D14
 70
     1
 10
0.0
 20
0.0
 30
0.0
  3
*D14
  1

  0
LINE
  5
E32
330
277
100
AcDbEntity
  8
BEM
 48
10.0
370
    -2
100
AcDbLine
 10
159.4655740830581
 20
210.9103438081844
 30
0.0
 11
159.4655740830581
 21
189.8938095495899
 31
0.0
  0
LINE
  5
E33
330
277
100
AcDbEntity
  8
BEM
 48
10.0
370
    -2
100
AcDbLine
 10
164.4655740830581
 20
210.9103438081844
 30
0.0
 11
164.4655740830581
 21
189.8938095495899
 31
0.0
  0
LINE
  5
E34
330
277
100
AcDbEntity
  8
BEM
 48
10.0
370
    -2
100
AcDbLine
 10
167.9655740830581
 20
191.1438095495899
 30
0.0
 11
171.465574083058
 21
191.1438095495899
 31
0.0
  0
LINE
  5
E35
330
277
100
AcDbEntity
  8
BEM
 48
10.0
370
    -2
100
AcDbLine
 10
155.965574083058
 20
191.1438095495899
 30
0.0
 11
134.9155740830581
 21
191.1438095495899
 31
0.0
  0
LINE
  5
E36
330
277
100
AcDbEntity
  8
BEM
 48
10.0
370
    -2
100
AcDbLine
 10
164.4655740830581
 20
191.1438095495899
 30
0.0
 11
159.4655740830581
 21
191.1438095495899
 31
0.0
  0
SOLID
  5
E37
330
277
100
AcDbEntity
  8
BEM
 48
10.0
100
AcDbTrace
 10
167.9655740830581
 20
191.7271428829233
 30
0.0
 11
167.9655740830581
 21
190.5604762162566
 31
0.0
 12
164.4655740830581
 22
191.1438095495899
 32
0.0
 13
164.4655740830581
 23
191.1438095495899
 33
0.0
  0
SOLID
  5
E38
330
277
100
AcDbEntity
  8
BEM
 48
10.0
100
AcDbTrace
 10
155.965574083058
 20
191.7271428829233
 30
0.0
 11
155.965574083058
 21
190.5604762162566
 31
0.0
 12
159.4655740830581
 22
191.1438095495899
 32
0.0
 13
159.4655740830581
 23
191.1438095495899
 33
0.0
  0
MTEXT
  5
E39
330
277
100
AcDbEntity
  8
BEM
 48
10.0
100
AcDbMText
 10
142.9655740830581
 20
194.3938095495899
 30
0.0
 40
3.5
 41
0.0
 71
     5
 72
     1
  1
\A1;%%c5{}{\H0.71x;\C3; H7}
 73
     1
 44
1.0
  0
POINT
  5
E3A
330
277
100
AcDbEntity
  8
Defpoints
 62
     0
 48
10.0
100
AcDbPoint
 10
159.4655740830581
 20
210.9103438081844
 30
0.0
  0
POINT
  5
E3B
330
277
100
AcDbEntity
  8
Defpoints
 62
     0
 48
10.0
100
AcDbPoint
 10
164.4655740830581
 20
210.9103438081844
 30
0.0
  0
POINT
  5
E3C
330
277
100
AcDbEntity
  8
Defpoints
 62
     0
 48
10.0
100
AcDbPoint
 10
164.4655740830581
 20
191.1438095495899
 30
0.0
  0
ENDBLK
  5
284
330
277
100
AcDbEntity
  8
0
 48
10.0
100
AcDbBlockEnd
  0
BLOCK
  5
4C3
330
4B7
100
AcDbEntity
  8
0
 48
10.0
100
AcDbBlockBegin
  2
*D15
 70
     1
 10
0.0
 20
0.0
 30
0.0
  3
*D15
  1

  0
LINE
  5
DC8
330
4B7
100
AcDbEntity
  8
BEM
 48
10.0
370
    -2
100
AcDbLine
 10
82.24653289833879
 20
117.5412620320572
 30
0.0
 11
94.10536350247573
 21
117.5412620320572
 31
0.0
  0
LINE
  5
DC9
330
4B7
100
AcDbEntity
  8
BEM
 48
10.0
370
    -2
100
AcDbLine
 10
82.24653289833879
 20
113.5412620320572
 30
0.0
 11
94.10536350247573
 21
113.5412620320572
 31
0.0
  0
LINE
  5
DCA
330
4B7
100
AcDbEntity
  8
BEM
 48
10.0
370
    -2
100
AcDbLine
 10
92.85536350247573
 20
110.0412620320572
 30
0.0
 11
92.85536350247573
 21
106.5412620320572
 31
0.0
  0
LINE
  5
DCB
330
4B7
100
AcDbEntity
  8
BEM
 48
10.0
370
    -2
100
AcDbLine
 10
92.85536350247573
 20
121.0412620320572
 30
0.0
 11
92.85536350247573
 21
130.0412620320572
 31
0.0
  0
LINE
  5
DCC
330
4B7
100
AcDbEntity
  8
BEM
 48
10.0
370
    -2
100
AcDbLine
 10
92.85536350247573
 20
113.5412620320572
 30
0.0
 11
92.85536350247573
 21
117.5412620320572
 31
0.0
  0
SOLID
  5
DCD
330
4B7
100
AcDbEntity
  8
BEM
 48
10.0
100
AcDbTrace
 10
92.2720301691424
 20
110.0412620320572
 30
0.0
 11
93.43869683580905
 21
110.0412620320572
 31
0.0
 12
92.85536350247573
 22
113.5412620320572
 32
0.0
 13
92.85536350247573
 23
113.5412620320572
 33
0.0
  0
SOLID
  5
DCE
330
4B7
100
AcDbEntity
  8
BEM
 48
10.0
100
AcDbTrace
 10
92.2720301691424
 20
121.0412620320572
 30
0.0
 11
93.43869683580905
 21
121.0412620320572
 31
0.0
 12
92.85536350247573
 22
117.5412620320572
 32
0.0
 13
92.85536350247573
 23
117.5412620320572
 33
0.0
  0
MTEXT
  5
DCF
330
4B7
100
AcDbEntity
  8
BEM
 48
10.0
100
AcDbMText
 10
89.6053635024757
 20
127.2912620320572
 30
0.0
 40
3.5
 41
0.0
 71
     5
 72
     1
  1
\A1;4
 11
0.0000000000000001
 21
1.0
 31
0.0
 73
     1
 44
1.0
  0
POINT
  5
DD0
330
4B7
100
AcDbEntity
  8
Defpoints
 62
     0
 48
10.0
100
AcDbPoint
 10
82.24653289833879
 20
117.5412620320572
 30
0.0
  0
POINT
  5
DD1
330
4B7
100
AcDbEntity
  8
Defpoints
 62
     0
 48
10.0
100
AcDbPoint
 10
82.24653289833879
 20
113.5412620320572
 30
0.0
  0
POINT
  5
DD2
330
4B7
100
AcDbEntity
  8
Defpoints
 62
     0
 48
10.0
100
AcDbPoint
 10
92.85536350247573
 20
113.5412620320572
 30
0.0
  0
ENDBLK
  5
4C4
330
4B7
100
AcDbEntity
  8
0
 48
10.0
100
AcDbBlockEnd
  0
BLOCK
  5
5A5
330
59C
100
AcDbEntity
  8
0
 48
10.0
100
AcDbBlockBegin
  2
*D16
 70
     1
 10
0.0
 20
0.0
 30
0.0
  3
*D16
  1

  0
LINE
  5
DD3
330
59C
100
AcDbEntity
  8
BEM
 48
10.0
370
    -2
100
AcDbLine
 10
39.73049465908161
 20
71.10517492763197
 30
0.0
 11
48.98303599928242
 21
97.60335227100915
 31
0.0
  0
LINE
  5
DD4
330
59C
100
AcDbEntity
  8
BEM
 48
10.0
370
    -2
100
AcDbLine
 10
61.51002979739523
 20
133.4791717931055
 30
0.0
 11
62.66383185774774
 21
136.7835235911933
 31
0.0
  0
MTEXT
  5
DD5
102
{ACAD_XDICTIONARY
360
E78
102
}
330
59C
100
AcDbEntity
  8
BEM
 48
10.0
100
AcDbMText
 10
39.86534228078819
 20
81.3500725469365
 30
0.0
 40
3.5
 41
0.0
 71
     5
 72
     1
  1
\A1;\U+220531{}{\H0.71x;\C3; H8}
 11
0.3296577315292865
 21
0.9441005137393819
 31
0.0
 73
     1
 44
1.0
  0
LINE
  5
DD6
330
59C
100
AcDbEntity
  8
BEM
 48
10.0
370
    -2
100
AcDbLine
 10
60.35622773704273
 20
130.1748199950176
 30
0.0
 11
50.13683805963491
 21
100.9077040690969
 31
0.0
  0
SOLID
  5
DD7
330
59C
100
AcDbEntity
  8
BEM
 48
10.0
100
AcDbTrace
 10
60.95930449771393
 20
133.6714721364976
 30
0.0
 11
62.06075509707654
 21
133.2868714497134
 31
0.0
 12
60.35622773704273
 22
130.1748199950176
 32
0.0
 13
60.35622773704273
 23
130.1748199950176
 33
0.0
  0
SOLID
  5
DD8
330
59C
100
AcDbEntity
  8
BEM
 48
10.0
100
AcDbTrace
 10
48.43231069960111
 20
97.79565261440124
 30
0.0
 11
49.53376129896373
 21
97.41105192761708
 31
0.0
 12
50.13683805963491
 22
100.9077040690969
 32
0.0
 13
50.13683805963491
 23
100.9077040690969
 33
0.0
  0
POINT
  5
DD9
330
59C
100
AcDbEntity
  8
Defpoints
 62
     0
 48
10.0
100
AcDbPoint
 10
50.13683805963491
 20
100.9077040690969
 30
0.0
  0
POINT
  5
DDA
330
59C
100
AcDbEntity
  8
Defpoints
 62
     0
 48
10.0
100
AcDbPoint
 10
60.35622773704273
 20
130.1748199950176
 30
0.0
  0
ENDBLK
  5
5A6
330
59C
100
AcDbEntity
  8
0
 48
10.0
100
AcDbBlockEnd
  0
ENDSEC
  0
SECTION
  2
ENTITIES
  0
LINE
  5
177
330
2
100
AcDbEntity
  8
MITTE
 48
10.0
100
AcDbLine
 10
87.65750237682714
 20
138.3529394443632
 30
0.0
 11
87.65750237682714
 21
92.96975397992568
 31
0.0
  0
LINE
  5
178
330
2
100
AcDbEntity
  8
MITTE
 48
10.0
100
AcDbLine
 10
58.19798892096611
 20
115.5412620320572
 30
0.0
 11
116.3515798867887
 21
115.5412620320572
 31
0.0
  0
LINE
  5
17A
330
2
100
AcDbEntity
  8
0
 48
10.0
100
AcDbLine
 10
60.65750237682715
 20
135.5412620320572
 30
0.0
 11
60.65750237682715
 21
117.5412620320572
 31
0.0
  0
LINE
  5
17C
330
2
100
AcDbEntity
  8
0
 48
10.0
100
AcDbLine
 10
114.6575023768271
 20
135.5412620320572
 30
0.0
 11
114.6575023768271
 21
117.5412620320572
 31
0.0
  0
LINE
  5
17D
330
2
100
AcDbEntity
  8
0
 48
10.0
100
AcDbLine
 10
60.65750237682715
 20
95.54126203205724
 30
0.0
 11
114.6575023768271
 21
95.54126203205724
 31
0.0
  0
LINE
  5
17E
330
2
100
AcDbEntity
  8
0
 48
10.0
100
AcDbLine
 10
60.65750237682715
 20
135.5412620320572
 30
0.0
 11
114.6575023768271
 21
135.5412620320572
 31
0.0
  0
LINE
  5
17F
330
2
100
AcDbEntity
  8
0
 48
10.0
100
AcDbLine
 10
60.65750237682715
 20
113.5412620320572
 30
0.0
 11
72.28707622788775
 21
113.5412620320572
 31
0.0
  0
LINE
  5
180
330
2
100
AcDbEntity
  8
0
 48
10.0
100
AcDbLine
 10
60.65750237682715
 20
117.5412620320571
 30
0.0
 11
72.28707622788775
 21
117.5412620320571
 31
0.0
  0
LINE
  5
181
330
2
100
AcDbEntity
  8
0
 48
10.0
100
AcDbLine
 10
60.65750237682715
 20
113.5412620320572
 30
0.0
 11
60.65750237682715
 21
95.54126203205724
 31
0.0
  0
LINE
  5
183
330
2
100
AcDbEntity
  8
0
 48
10.0
100
AcDbLine
 10
114.6575023768271
 20
113.5412620320572
 30
0.0
 11
114.6575023768271
 21
95.54126203205724
 31
0.0
  0
LINE
  5
184
330
2
100
AcDbEntity
  8
0
 48
10.0
100
AcDbLine
 10
103.0279285257665
 20
113.5412620320572
 30
0.0
 11
114.6575023768271
 21
113.5412620320572
 31
0.0
  0
LINE
  5
185
330
2
100
AcDbEntity
  8
0
 48
10.0
100
AcDbLine
 10
103.0279285257665
 20
117.5412620320572
 30
0.0
 11
114.6575023768271
 21
117.5412620320572
 31
0.0
  0
LINE
  5
188
330
2
100
AcDbEntity
  8
MITTE
 48
10.0
100
AcDbLine
 10
67.65750237682715
 20
136.0181281469945
 30
0.0
 11
67.65750237682715
 21
94.67588536966488
 31
0.0
  0
LINE
  5
189
330
2
100
AcDbEntity
  8
MITTE
 48
10.0
100
AcDbLine
 10
107.6575023768271
 20
136.2709855089331
 30
0.0
 11
107.6575023768271
 21
94.4230273184749
 31
0.0
  0
LINE
  5
18A
330
2
100
AcDbEntity
  8
0
 48
10.0
100
AcDbLine
 10
64.65750237682716
 20
117.5412620320571
 30
0.0
 11
64.65750237682716
 21
113.5412620320572
 31
0.0
  0
LINE
  5
18B
330
2
100
AcDbEntity
  8
0
 48
10.0
100
AcDbLine
 10
70.65750237682715
 20
117.5412620320571
 30
0.0
 11
70.65750237682715
 21
113.5412620320572
 31
0.0
  0
LINE
  5
18C
330
2
100
AcDbEntity
  8
0
 48
10.0
100
AcDbLine
 10
104.6575023768271
 20
117.5412620320572
 30
0.0
 11
104.6575023768271
 21
113.5412620320572
 31
0.0
  0
LINE
  5
18D
330
2
100
AcDbEntity
  8
0
 48
10.0
100
AcDbLine
 10
110.6575023768271
 20
117.5412620320572
 30
0.0
 11
110.6575023768271
 21
113.5412620320572
 31
0.0
  0
LINE
  5
18E
330
2
100
AcDbEntity
  8
LINIE
 48
10.0
100
AcDbLine
 10
105.3075023768272
 20
117.5412620320572
 30
0.0
 11
105.3075023768272
 21
113.5412620320572
 31
0.0
  0
LINE
  5
18F
330
2
100
AcDbEntity
  8
LINIE
 48
10.0
100
AcDbLine
 10
110.0075023768271
 20
117.5412620320572
 30
0.0
 11
110.0075023768271
 21
113.5412620320572
 31
0.0
  0
LINE
  5
190
330
2
100
AcDbEntity
  8
LINIE
 48
10.0
100
AcDbLine
 10
70.00750237682715
 20
117.5412620320571
 30
0.0
 11
70.00750237682717
 21
113.5412620320572
 31
0.0
  0
LINE
  5
191
330
2
100
AcDbEntity
  8
LINIE
 48
10.0
100
AcDbLine
 10
65.30750237682713
 20
117.5412620320571
 30
0.0
 11
65.30750237682716
 21
113.5412620320572
 31
0.0
  0
LINE
  5
193
330
2
100
AcDbEntity
  8
0
 48
10.0
100
AcDbLine
 10
131.965574083058
 20
135.5412620320571
 30
0.0
 11
191.9655740830581
 21
135.5412620320572
 31
0.0
  0
LINE
  5
194
330
2
100
AcDbEntity
  8
0
 48
10.0
100
AcDbLine
 10
131.965574083058
 20
117.5412620320572
 30
0.0
 11
191.9655740830581
 21
117.5412620320572
 31
0.0
  0
LINE
  5
196
330
2
100
AcDbEntity
  8
0
 48
10.0
100
AcDbLine
 10
131.965574083058
 20
113.5412620320572
 30
0.0
 11
191.9655740830581
 21
113.5412620320572
 31
0.0
  0
LINE
  5
197
330
2
100
AcDbEntity
  8
0
 48
10.0
100
AcDbLine
 10
131.965574083058
 20
95.54126203205724
 30
0.0
 11
191.9655740830581
 21
95.54126203205724
 31
0.0
  0
LINE
  5
198
330
2
100
AcDbEntity
  8
0
 48
10.0
100
AcDbLine
 10
131.965574083058
 20
135.5412620320571
 30
0.0
 11
131.965574083058
 21
117.5412620320573
 31
0.0
  0
LINE
  5
199
330
2
100
AcDbEntity
  8
0
 48
10.0
100
AcDbLine
 10
191.9655740830581
 20
135.5412620320571
 30
0.0
 11
191.9655740830581
 21
117.5412620320572
 31
0.0
  0
LINE
  5
19A
330
2
100
AcDbEntity
  8
MITTE
 48
10.0
100
AcDbLine
 10
130.5381827446406
 20
115.5412620320572
 30
0.0
 11
197.4522805469519
 21
115.5412620320572
 31
0.0
  0
LINE
  5
19B
330
2
100
AcDbEntity
  8
0
 48
10.0
100
AcDbLine
 10
191.9655740830581
 20
113.5412620320572
 30
0.0
 11
191.9655740830581
 21
95.54126203205724
 31
0.0
  0
LINE
  5
19C
330
2
100
AcDbEntity
  8
0
 48
10.0
100
AcDbLine
 10
131.965574083058
 20
113.5412620320572
 30
0.0
 11
131.965574083058
 21
95.54126203205724
 31
0.0
  0
LINE
  5
1A0
330
2
100
AcDbEntity
  8
0
 48
10.0
100
AcDbLine
 10
141.965574083058
 20
117.5412620320573
 30
0.0
 11
141.965574083058
 21
113.5412620320572
 31
0.0
  0
LINE
  5
1A1
330
2
100
AcDbEntity
  8
LINIE
 48
10.0
100
AcDbLine
 10
141.3155740830581
 20
117.5412620320573
 30
0.0
 11
141.3155740830581
 21
113.5412620320572
 31
0.0
  0
LINE
  5
1A2
330
2
100
AcDbEntity
  8
0
 48
10.0
100
AcDbLine
 10
135.965574083058
 20
117.5412620320573
 30
0.0
 11
135.965574083058
 21
113.5412620320572
 31
0.0
  0
LINE
  5
1A3
330
2
100
AcDbEntity
  8
LINIE
 48
10.0
100
AcDbLine
 10
136.6155740830581
 20
117.5412620320573
 30
0.0
 11
136.6155740830581
 21
113.5412620320572
 31
0.0
  0
LINE
  5
1A4
330
2
100
AcDbEntity
  8
0
 48
10.0
100
AcDbLine
 10
187.965574083058
 20
117.5412620320572
 30
0.0
 11
187.965574083058
 21
113.5412620320572
 31
0.0
  0
LINE
  5
1A5
330
2
100
AcDbEntity
  8
LINIE
 48
10.0
100
AcDbLine
 10
187.3155740830581
 20
117.5412620320572
 30
0.0
 11
187.3155740830581
 21
113.5412620320572
 31
0.0
  0
LINE
  5
1A6
330
2
100
AcDbEntity
  8
0
 48
10.0
100
AcDbLine
 10
181.965574083058
 20
117.5412620320572
 30
0.0
 11
181.965574083058
 21
113.5412620320572
 31
0.0
  0
LINE
  5
1A7
330
2
100
AcDbEntity
  8
LINIE
 48
10.0
100
AcDbLine
 10
182.6155740830581
 20
117.5412620320572
 30
0.0
 11
182.6155740830581
 21
113.5412620320572
 31
0.0
  0
LINE
  5
1A8
330
2
100
AcDbEntity
  8
0
 48
10.0
100
AcDbLine
 10
131.965574083058
 20
27.6600910371601
 30
0.0
 11
131.965574083058
 21
81.6600910371601
 31
0.0
  0
LINE
  5
1A9
330
2
100
AcDbEntity
  8
0
 48
10.0
100
AcDbLine
 10
191.9655740830581
 20
81.6600910371601
 30
0.0
 11
191.9655740830581
 21
27.6600910371601
 31
0.0
  0
LINE
  5
1AA
330
2
100
AcDbEntity
  8
0
 48
10.0
100
AcDbLine
 10
131.965574083058
 20
27.6600910371601
 30
0.0
 11
191.9655740830581
 21
27.6600910371601
 31
0.0
  0
LINE
  5
1AB
330
2
100
AcDbEntity
  8
MITTE
 48
10.0
100
AcDbLine
 10
193.7355183226607
 20
54.6600910371601
 30
0.0
 11
130.3891403047878
 21
54.6600910371601
 31
0.0
  0
LINE
  5
1AC
330
2
100
AcDbEntity
  8
0
 48
10.0
100
AcDbLine
 10
131.965574083058
 20
81.6600910371601
 30
0.0
 11
191.9655740830581
 21
81.6600910371601
 31
0.0
  0
LINE
  5
1AF
330
2
100
AcDbEntity
  8
0
 48
10.0
100
AcDbLine
 10
131.965574083058
 20
151.4103441573041
 30
0.0
 11
131.965574083058
 21
205.4103441573042
 31
0.0
  0
LINE
  5
1B0
330
2
100
AcDbEntity
  8
0
 48
10.0
100
AcDbLine
 10
191.9655740830581
 20
205.4103441573042
 30
0.0
 11
191.9655740830581
 21
151.4103441573041
 31
0.0
  0
LINE
  5
1B1
330
2
100
AcDbEntity
  8
0
 48
10.0
100
AcDbLine
 10
131.965574083058
 20
151.4103441573041
 30
0.0
 11
191.9655740830581
 21
151.4103441573041
 31
0.0
  0
LINE
  5
1B2
330
2
100
AcDbEntity
  8
MITTE
 48
10.0
100
AcDbLine
 10
193.7355183226607
 20
178.4103441573041
 30
0.0
 11
128.1993912269492
 21
178.4103441573041
 31
0.0
  0
LINE
  5
1B3
330
2
100
AcDbEntity
  8
0
 48
10.0
100
AcDbLine
 10
131.965574083058
 20
205.4103441573042
 30
0.0
 11
191.9655740830581
 21
205.4103441573042
 31
0.0
  0
LINE
  5
1B5
330
2
100
AcDbEntity
  8
MITTE
 48
10.0
100
AcDbLine
 10
138.965574083058
 20
137.4786186168615
 30
0.0
 11
138.965574083058
 21
93.17217401707191
 31
0.0
  0
LINE
  5
1B6
330
2
100
AcDbEntity
  8
MITTE
 48
10.0
100
AcDbLine
 10
184.965574083058
 20
137.4786186168615
 30
0.0
 11
184.965574083058
 21
92.67988039496069
 31
0.0
  0
LINE
  5
1B7
330
2
100
AcDbEntity
  8
MITTE
 48
10.0
100
AcDbLine
 10
191.9655740830581
 20
74.6600910371601
 30
0.0
 11
177.9655740830581
 21
74.6600910371601
 31
0.0
  0
LINE
  5
1B8
330
2
100
AcDbEntity
  8
MITTE
 48
10.0
100
AcDbLine
 10
191.9655740830581
 20
34.6600910371601
 30
0.0
 11
177.9655740830581
 21
34.6600910371601
 31
0.0
  0
LINE
  5
1BB
330
2
100
AcDbEntity
  8
MITTE
 48
10.0
100
AcDbLine
 10
138.965574083058
 20
81.6600910371601
 30
0.0
 11
138.965574083058
 21
67.6600910371601
 31
0.0
  0
LINE
  5
1BD
330
2
100
AcDbEntity
  8
MITTE
 48
10.0
100
AcDbLine
 10
184.965574083058
 20
81.6600910371601
 30
0.0
 11
184.965574083058
 21
67.6600910371601
 31
0.0
  0
CIRCLE
  5
1BE
330
2
100
AcDbEntity
  8
0
 48
10.0
100
AcDbCircle
 10
138.965574083058
 20
74.6600910371601
 30
0.0
 40
5.5
  0
CIRCLE
  5
1BF
330
2
100
AcDbEntity
  8
0
 48
10.0
100
AcDbCircle
 10
184.965574083058
 20
74.6600910371601
 30
0.0
 40
5.5
  0
CIRCLE
  5
1C0
330
2
100
AcDbEntity
  8
0
 48
10.0
100
AcDbCircle
 10
138.965574083058
 20
34.6600910371601
 30
0.0
 40
5.5
  0
CIRCLE
  5
1C1
330
2
100
AcDbEntity
  8
0
 48
10.0
100
AcDbCircle
 10
184.965574083058
 20
34.6600910371601
 30
0.0
 40
5.5
  0
LINE
  5
1C7
330
2
100
AcDbEntity
  8
MITTE
 48
10.0
100
AcDbLine
 10
145.9655740830581
 20
74.6600910371601
 30
0.0
 11
131.965574083058
 21
74.6600910371601
 31
0.0
  0
LINE
  5
1C8
330
2
100
AcDbEntity
  8
MITTE
 48
10.0
100
AcDbLine
 10
184.965574083058
 20
41.66009103716009
 30
0.0
 11
184.965574083058
 21
27.6600910371601
 31
0.0
  0
LINE
  5
1C9
330
2
100
AcDbEntity
  8
MITTE
 48
10.0
100
AcDbLine
 10
138.965574083058
 20
41.66009103716009
 30
0.0
 11
138.965574083058
 21
27.6600910371601
 31
0.0
  0
LINE
  5
1CA
330
2
100
AcDbEntity
  8
MITTE
 48
10.0
100
AcDbLine
 10
145.9655740830581
 20
34.6600910371601
 30
0.0
 11
131.965574083058
 21
34.6600910371601
 31
0.0
  0
CIRCLE
  5
1CB
330
2
100
AcDbEntity
  8
0
 48
10.0
100
AcDbCircle
 10
184.965574083058
 20
74.6600910371601
 30
0.0
 40
5.0
  0
CIRCLE
  5
1CC
330
2
100
AcDbEntity
  8
0
 48
10.0
100
AcDbCircle
 10
138.965574083058
 20
74.6600910371601
 30
0.0
 40
5.0
  0
CIRCLE
  5
1CD
330
2
100
AcDbEntity
  8
0
 48
10.0
100
AcDbCircle
 10
138.965574083058
 20
34.6600910371601
 30
0.0
 40
5.0
  0
CIRCLE
  5
1CE
330
2
100
AcDbEntity
  8
0
 48
10.0
100
AcDbCircle
 10
184.965574083058
 20
34.6600910371601
 30
0.0
 40
5.0
  0
LWPOLYLINE
  5
1CF
330
2
100
AcDbEntity
  8
0
 48
10.0
100
AcDbPolyline
 90
        6
 70
     1
 43
0.0
 10
183.8108735446788
 20
76.6600910371601
 10
182.6561730062996
 20
74.6600910371601
 10
183.8108735446788
 20
72.6600910371601
 10
186.1202746214373
 20
72.6600910371601
 10
187.2749751598165
 20
74.6600910371601
 10
186.1202746214373
 20
76.6600910371601
  0
LWPOLYLINE
  5
1D0
330
2
100
AcDbEntity
  8
0
 48
10.0
100
AcDbPolyline
 90
        6
 70
     1
 43
0.0
 10
137.8108735446788
 20
76.6600910371601
 10
136.6561730062995
 20
74.6600910371601
 10
137.8108735446788
 20
72.6600910371601
 10
140.1202746214373
 20
72.6600910371601
 10
141.2749751598165
 20
74.6600910371601
 10
140.1202746214373
 20
76.6600910371601
  0
LWPOLYLINE
  5
1D1
330
2
100
AcDbEntity
  8
0
 48
10.0
100
AcDbPolyline
 90
        6
 70
     1
 43
0.0
 10
137.8108735446788
 20
36.6600910371601
 10
136.6561730062995
 20
34.6600910371601
 10
137.8108735446788
 20
32.6600910371601
 10
140.1202746214373
 20
32.6600910371601
 10
141.2749751598165
 20
34.6600910371601
 10
140.1202746214373
 20
36.6600910371601
  0
LWPOLYLINE
  5
1D2
330
2
100
AcDbEntity
  8
0
 48
10.0
100
AcDbPolyline
 90
        6
 70
     1
 43
0.0
 10
183.8108735446788
 20
36.6600910371601
 10
182.6561730062996
 20
34.6600910371601
 10
183.8108735446788
 20
32.6600910371601
 10
186.1202746214373
 20
32.6600910371601
 10
187.2749751598165
 20
34.6600910371601
 10
186.1202746214373
 20
36.6600910371601
  0
LINE
  5
1D3
330
2
100
AcDbEntity
  8
MITTE
 48
10.0
100
AcDbLine
 10
179.465574083058
 20
158.4103441573041
 30
0.0
 11
172.465574083058
 21
158.4103441573041
 31
0.0
  0
LINE
  5
1D4
330
2
100
AcDbEntity
  8
MITTE
 48
10.0
100
AcDbLine
 10
179.465574083058
 20
198.4103441573041
 30
0.0
 11
172.465574083058
 21
198.4103441573041
 31
0.0
  0
LINE
  5
1D5
330
2
100
AcDbEntity
  8
MITTE
 48
10.0
100
AcDbLine
 10
175.9655740830581
 20
201.9103441573042
 30
0.0
 11
175.9655740830581
 21
194.9103441573041
 31
0.0
  0
LINE
  5
1D6
330
2
100
AcDbEntity
  8
MITTE
 48
10.0
100
AcDbLine
 10
147.9655740830581
 20
201.9103441573042
 30
0.0
 11
147.9655740830581
 21
194.9103441573041
 31
0.0
  0
ARC
  5
1D7
330
2
100
AcDbEntity
  8
LINIE
 48
10.0
100
AcDbCircle
 10
175.9655740830581
 20
198.4103441573041
 30
0.0
 40
2.5
100
AcDbArc
 50
167.6048387530964
 51
112.6867466180112
  0
ARC
  5
1D9
330
2
100
AcDbEntity
  8
LINIE
 48
10.0
100
AcDbCircle
 10
147.9655740830581
 20
198.4103441573041
 30
0.0
 40
2.5
100
AcDbArc
 50
159.0843980973358
 51
115.4700923144397
  0
ARC
  5
1DA
330
2
100
AcDbEntity
  8
LINIE
 48
10.0
100
AcDbCircle
 10
147.9655740830581
 20
158.4103441573041
 30
0.0
 40
2.5
100
AcDbArc
 50
164.1591718432316
 51
114.1318279129945
  0
ARC
  5
1DB
330
2
100
AcDbEntity
  8
LINIE
 48
10.0
100
AcDbCircle
 10
175.9655740830581
 20
158.4103441573041
 30
0.0
 40
2.5
100
AcDbArc
 50
162.9963300133481
 51
108.5379085223757
  0
CIRCLE
  5
1DC
330
2
100
AcDbEntity
  8
0
 48
10.0
100
AcDbCircle
 10
175.9655740830581
 20
198.4103441573041
 30
0.0
 40
2.0
  0
CIRCLE
  5
1DD
330
2
100
AcDbEntity
  8
0
 48
10.0
100
AcDbCircle
 10
147.9655740830581
 20
198.4103441573041
 30
0.0
 40
2.0
  0
CIRCLE
  5
1DE
330
2
100
AcDbEntity
  8
0
 48
10.0
100
AcDbCircle
 10
147.9655740830581
 20
158.4103441573041
 30
0.0
 40
2.0
  0
CIRCLE
  5
1DF
330
2
100
AcDbEntity
  8
0
 48
10.0
100
AcDbCircle
 10
175.9655740830581
 20
158.4103441573041
 30
0.0
 40
2.0
  0
LINE
  5
1E0
330
2
100
AcDbEntity
  8
MITTE
 48
10.0
100
AcDbLine
 10
161.965574083058
 20
201.9103441573042
 30
0.0
 11
161.965574083058
 21
194.9103441573041
 31
0.0
  0
CIRCLE
  5
1E1
330
2
100
AcDbEntity
  8
0
 48
10.0
100
AcDbCircle
 10
161.965574083058
 20
198.4103441573041
 30
0.0
 40
2.5
  0
CIRCLE
  5
1E2
330
2
100
AcDbEntity
  8
0
 48
10.0
100
AcDbCircle
 10
161.965574083058
 20
158.4103441573041
 30
0.0
 40
2.5
  0
LINE
  5
1EA
330
2
100
AcDbEntity
  8
MITTE
 48
10.0
100
AcDbLine
 10
147.9655740830581
 20
161.9103441573041
 30
0.0
 11
147.9655740830581
 21
154.9103441573041
 31
0.0
  0
LINE
  5
1EB
330
2
100
AcDbEntity
  8
MITTE
 48
10.0
100
AcDbLine
 10
151.4655740830581
 20
198.4103441573041
 30
0.0
 11
144.465574083058
 21
198.4103441573041
 31
0.0
  0
LINE
  5
1EC
330
2
100
AcDbEntity
  8
MITTE
 48
10.0
100
AcDbLine
 10
161.965574083058
 20
161.9103441573041
 30
0.0
 11
161.965574083058
 21
154.9103441573041
 31
0.0
  0
LINE
  5
1ED
330
2
100
AcDbEntity
  8
MITTE
 48
10.0
100
AcDbLine
 10
165.4655740830581
 20
198.4103441573041
 30
0.0
 11
158.4655740830581
 21
198.4103441573041
 31
0.0
  0
LINE
  5
1EE
330
2
100
AcDbEntity
  8
MITTE
 48
10.0
100
AcDbLine
 10
175.9655740830581
 20
161.9103441573041
 30
0.0
 11
175.9655740830581
 21
154.9103441573041
 31
0.0
  0
LINE
  5
1EF
330
2
100
AcDbEntity
  8
MITTE
 48
10.0
100
AcDbLine
 10
165.4655740830581
 20
158.4103441573041
 30
0.0
 11
158.4655740830581
 21
158.4103441573041
 31
0.0
  0
LINE
  5
1F0
330
2
100
AcDbEntity
  8
MITTE
 48
10.0
100
AcDbLine
 10
151.4655740830581
 20
158.4103441573041
 30
0.0
 11
144.465574083058
 21
158.4103441573041
 31
0.0
  0
DIMENSION
  5
1F1
330
2
100
AcDbEntity
  8
BEM
 48
10.0
100
AcDbDimension
  2
*D4
 10
82.24653289833879
 20
154.0818032495709
 30
0.0
 11
55.24653289833878
 21
157.3318032495709
 31
0.0
 70
    32
 71
     5
 42
54.0
  3
ISO-25
100
AcDbAlignedDimension
 13
28.24653289833879
 23
135.5412620320572
 33
0.0
 14
82.24653289833879
 24
135.5412620320572
 34
0.0
100
AcDbRotatedDimension
1001
ACAD
1000
DSTYLE
1002
{
1070
   144
1040
1.0
1002
}
  0
DIMENSION
  5
1FF
330
2
100
AcDbEntity
  8
BEM
 48
10.0
100
AcDbDimension
  2
*D5
 10
106.1574268234099
 20
95.54126203205722
 30
0.0
 11
106.1574268234098
 21
115.1619282235929
 31
0.0
 70
   160
 71
     5
 42
39.99999999999999
  3
ISO-25
100
AcDbAlignedDimension
 13
82.24653289833879
 23
135.5412620320572
 33
0.0
 14
82.24653289833879
 24
95.54126203205724
 34
0.0
 50
90.0
100
AcDbRotatedDimension
1001
ACAD
1000
DSTYLE
1002
{
1070
   144
1040
1.0
1002
}
  0
DIMENSION
  5
20C
330
2
100
AcDbEntity
  8
BEM
 48
10.0
100
AcDbDimension
  2
*D6
 10
14.14588641291608
 20
95.54126203205724
 30
0.0
 11
14.14588641291607
 21
105.4049226113984
 31
0.0
 70
   160
  1
<>{}{\H0.71x;\C3;%%p0.05}
 71
     5
 42
19.99999999999997
  3
ISO-25
100
AcDbAlignedDimension
 13
25.78701944247774
 23
115.5412620320572
 33
0.0
 14
28.24653289833879
 24
95.54126203205724
 34
0.0
 50
90.0
100
AcDbRotatedDimension
1001
ACAD_DSTYLE_DIMINSPECT
1070
   396
1000
100%
1070
   395
1000

1070
   394
1070
    33
1070
   393
1070
     0
1001
ACAD
1000
DSTYLE
1002
{
1070
   286
1070
     0
1070
   284
1070
     8
1070
   274
1070
     2
1070
   272
1070
     4
1070
    47
1040
0.05
1070
    48
1040
0.05
1070
   144
1040
1.0
1002
}
1001
GENIUS_GENDTOL_13
1000
TolSmPm
1000

1000
{\H0.71x;$2%%p$P}
1040
20.0
  0
DIMENSION
  5
219
330
2
100
AcDbEntity
  8
BEM
 48
10.0
100
AcDbDimension
  2
*D7
 10
191.9655740830581
 20
153.8883951927638
 30
0.0
 11
161.965574083058
 21
157.1383951927638
 31
0.0
 70
    32
 71
     5
 42
60.0
  3
ISO-25
100
AcDbAlignedDimension
 13
131.965574083058
 23
135.5412620320571
 33
0.0
 14
191.9655740830581
 24
135.5412620320571
 34
0.0
100
AcDbRotatedDimension
1001
ACAD
1000
DSTYLE
1002
{
1070
   144
1040
1.0
1002
}
  0
DIMENSION
  5
226
330
2
100
AcDbEntity
  8
BEM
 48
10.0
100
AcDbDimension
  2
*D8
 10
175.9655740830581
 20
272.6506292653523
 30
0.0
 11
183.5498346624736
 21
272.6506292653523
 31
0.0
 70
   160
  1
<>{}{\H0.71x;\C3;%%p0.1}
 71
     5
 42
16.0
  3
ISO-25
100
AcDbAlignedDimension
 13
191.9655740830581
 23
257.9103438081844
 33
0.0
 14
175.9655740830581
 24
254.4103438081844
 34
0.0
100
AcDbRotatedDimension
1001
ACAD_DSTYLE_DIMINSPECT
1070
   396
1000
100%
1070
   395
1000

1070
   394
1070
    33
1070
   393
1070
     0
1001
ACAD
1000
DSTYLE
1002
{
1070
   286
1070
     0
1070
   284
1070
     8
1070
   274
1070
     2
1070
   272
1070
     4
1070
    47
1040
0.1
1070
    48
1040
0.1
1070
   144
1040
1.0
1002
}
1001
GENIUS_GENDTOL_13
1000
TolSmPm
1000

1000
{\H0.71x;$2%%p$P}
1040
16.0
  0
DIMENSION
  5
233
330
2
100
AcDbEntity
  8
BEM
 48
10.0
100
AcDbDimension
  2
*D9
 10
147.9655740830581
 20
272.6506292653523
 30
0.0
 11
161.965574083058
 21
275.9006292653523
 31
0.0
 70
    32
  1
<>{}{\H0.71x;\C3;%%p0.05}
 71
     5
 42
28.0
  3
ISO-25
100
AcDbAlignedDimension
 13
175.9655740830581
 23
254.4103438081844
 33
0.0
 14
147.9655740830581
 24
254.4103438081844
 34
0.0
100
AcDbRotatedDimension
1001
ACAD_DSTYLE_DIMINSPECT
1070
   396
1000
100%
1070
   395
1000

1070
   394
1070
    33
1070
   393
1070
     0
1001
ACAD
1000
DSTYLE
1002
{
1070
   286
1070
     0
1070
   284
1070
     8
1070
   274
1070
     2
1070
   272
1070
     4
1070
    47
1040
0.05
1070
    48
1040
0.05
1070
   144
1040
1.0
1002
}
1001
GENIUS_GENDTOL_13
1000
TolSmPm
1000

1000
{\H0.71x;$2%%p$P}
1040
28.0
  0
DIMENSION
  5
240
330
2
100
AcDbEntity
  8
BEM
 48
10.0
100
AcDbDimension
  2
*D10
 10
223.1399614374538
 20
210.9103438081844
 30
0.0
 11
219.8899614374538
 21
230.9103438081844
 31
0.0
 70
    32
  1
<>{}{\H0.71x;\C3;%%p0.05}
 71
     5
 42
40.0
  3
ISO-25
100
AcDbAlignedDimension
 13
179.465574083058
 23
250.9103438081844
 33
0.0
 14
179.465574083058
 24
210.9103438081844
 34
0.0
 50
90.0
100
AcDbRotatedDimension
1001
ACAD_DSTYLE_DIMINSPECT
1070
   396
1000
100%
1070
   395
1000

1070
   394
1070
    33
1070
   393
1070
     0
1001
ACAD
1000
DSTYLE
1002
{
1070
   286
1070
     0
1070
   284
1070
     8
1070
   274
1070
     2
1070
   272
1070
     4
1070
    47
1040
0.05
1070
    48
1040
0.05
1070
   144
1040
1.0
1002
}
1001
GENIUS_GENDTOL_13
1000
TolSmPm
1000

1000
{\H0.71x;$2%%p$P}
1040
40.0
  0
DIMENSION
  5
24D
330
2
100
AcDbEntity
  8
BEM
 48
10.0
100
AcDbDimension
  2
*D11
 10
109.8891890936771
 20
248.4103438081844
 30
0.0
 11
106.6391890936771
 21
236.8270104748511
 31
0.0
 70
    32
  1
M<>
 71
     5
 42
5.0
  3
ISO-25
100
AcDbAlignedDimension
 13
147.9655740830581
 23
253.4103438081844
 33
0.0
 14
147.9655740830581
 24
248.4103438081844
 34
0.0
 50
90.0
100
AcDbRotatedDimension
1001
ACAD
1000
DSTYLE
1002
{
1070
   144
1040
1.0
1002
}
  0
DIMENSION
  5
25C
330
2
100
AcDbEntity
  8
BEM
 48
10.0
100
AcDbDimension
  2
*D12
 10
156.884796909603
 20
210.9103438081844
 30
0.0
 11
153.6347969096029
 21
230.9103438081844
 31
0.0
 70
    32
  1
<>{}{\H0.71x;\C3;%%p0.01}
 71
     5
 42
40.0
  3
ISO-25
100
AcDbAlignedDimension
 13
158.4655740830581
 23
250.9103438081844
 33
0.0
 14
158.4655740830581
 24
210.9103438081844
 34
0.0
 50
90.0
100
AcDbRotatedDimension
1001
ACAD_DSTYLE_DIMINSPECT
1070
   396
1000
100%
1070
   395
1000

1070
   394
1070
    33
1070
   393
1070
     0
1001
ACAD
1000
DSTYLE
1002
{
1070
   286
1070
     0
1070
   284
1070
     8
1070
   274
1070
     2
1070
   272
1070
     4
1070
    47
1040
0.01
1070
    48
1040
0.01
1070
   144
1040
1.0
1002
}
1001
GENIUS_GENDTOL_13
1000
TolSmPm
1000

1000
{\H0.71x;$2%%p$P}
1040
40.0
  0
DIMENSION
  5
269
102
{ACAD_XDICTIONARY
360
DDB
102
}
102
{ACAD_REACTORS
330
DDC
102
}
330
2
100
AcDbEntity
  8
BEM
 48
10.0
100
AcDbDimension
  2
*D13
 10
175.9655740830581
 20
177.272989215724
 30
0.0
 11
189.3014074163914
 21
177.272989215724
 31
0.0
 70
   160
  1
<>{}{\H0.71x;\C3;%%p0.05}
 71
     5
 42
14.0
  3
ISO-25
100
AcDbAlignedDimension
 13
161.965574083058
 23
207.4103438081844
 33
0.0
 14
175.9655740830581
 24
207.4103438081844
 34
0.0
100
AcDbRotatedDimension
1001
ACAD_DSTYLE_DIMINSPECT
1070
   396
1000
100%
1070
   395
1000

1070
   394
1070
    33
1070
   393
1070
     0
1001
ACAD
1000
DSTYLE
1002
{
1070
   286
1070
     0
1070
   284
1070
     8
1070
   274
1070
     2
1070
   272
1070
     4
1070
    47
1040
0.05
1070
    48
1040
0.05
1070
   144
1040
1.0
1002
}
1001
GENIUS_GENDTOL_13
1000
TolSmPm
1000

1000
{\H0.71x;$2%%p$P}
1040
14.0
  0
DIMENSION
  5
276
330
2
100
AcDbEntity
  8
BEM
 48
10.0
100
AcDbDimension
  2
*D14
 10
164.4655740830581
 20
191.1438095495899
 30
0.0
 11
142.9655740830581
 21
191.1438095495899
 31
0.0
 70
   160
  1
%%c<>{}{\H0.71x;\C3; H7}
 71
     5
 42
5.0
  3
ISO-25
100
AcDbAlignedDimension
 13
159.4655740830581
 23
210.9103438081844
 33
0.0
 14
164.4655740830581
 24
210.9103438081844
 34
0.0
100
AcDbRotatedDimension
1001
ACAD_DSTYLE_DIMINSPECT
1070
   396
1000
100%
1070
   395
1000

1070
   394
1070
    33
1070
   393
1070
     0
1001
GENIUS_GENDTOL_13
1000
FitSmTxt
1000
H7
1000
{\H0.71x;$2 $T}
1040
5.0
1001
ACAD
1000
DSTYLE
1002
{
1070
   286
1070
     0
1070
   284
1070
     8
1070
   274
1070
     2
1070
   272
1070
     4
1070
    48
1040
0.0
1070
    47
1040
0.0
1070
   144
1040
1.0
1002
}
  0
DIMENSION
  5
4B6
330
2
100
AcDbEntity
  8
BEM
 48
10.0
100
AcDbDimension
  2
*D15
 10
92.85536350247573
 20
113.5412620320572
 30
0.0
 11
92.85536350247571
 21
127.2912620320572
 31
0.0
 70
   160
 71
     5
 42
4.0
  3
ISO-25
100
AcDbAlignedDimension
 13
82.24653289833879
 23
117.5412620320572
 33
0.0
 14
82.24653289833879
 24
113.5412620320572
 34
0.0
 50
90.0
100
AcDbRotatedDimension
1001
ACAD
1000
DSTYLE
1002
{
1070
   144
1040
1.0
1002
}
  0
TEXT
  5
4FB
330
2
100
AcDbEntity
  8
TEXT
100
AcDbText
 10
381.8725546314985
 20
65.95747165905024
 30
0.0
 40
3.5
  1

100
AcDbText
  0
TEXT
  5
4FC
330
2
100
AcDbEntity
  8
TEXT
100
AcDbText
 10
348.5921867209947
 20
56.08465571486515
 30
0.0
 40
3.5
  1

100
AcDbText
  0
TEXT
  5
591
330
2
100
AcDbEntity
  8
0
100
AcDbText
 10
153.1352556876719
 20
123.4379077353437
 30
0.0
 40
5.0
  1
%%C31
  7
STYLE1
100
AcDbText
  0
ARC
  5
599
330
2
100
AcDbEntity
  8
0
 48
10.0
100
AcDbCircle
 10
87.65750237682714
 20
115.5412620320572
 30
0.0
 40
15.5
100
AcDbArc
 50
7.413673801525486
 51
172.5863261984745
  0
ARC
  5
59A
330
2
100
AcDbEntity
  8
0
 48
10.0
100
AcDbCircle
 10
87.65750237682714
 20
115.5412620320572
 30
0.0
 40
15.5
100
AcDbArc
 50
187.4136738015254
 51
352.5863261984745
  0
DIMENSION
  5
59B
330
2
100
AcDbEntity
  8
BEM
 48
10.0
100
AcDbDimension
  2
*D16
 10
60.35622773704273
 20
130.1748199950176
 30
0.0
 11
42.93366895044118
 21
80.27868491946632
 31
0.0
 70
   163
  1
<>{}{\H0.71x;\C3; H8}
 71
     5
 42
30.99999999999983
  3
ISO-25
100
AcDbDiametricDimension
 15
50.13683805963491
 25
100.9077040690969
 35
0.0
 40
0.0
1001
ACAD_DSTYLE_DIMINSPECT
1070
   396
1000
100%
1070
   395
1000

1070
   394
1070
    33
1070
   393
1070
     0
1001
GENIUS_GENDTOL_13
1000
FitSmTxt
1000
H8
1000
{\H0.71x;$2 $T}
1040
31.0
1001
ACAD
1000
DSTYLE
1002
{
1070
   286
1070
     0
1070
   284
1070
     8
1070
   274
1070
     2
1070
   272
1070
     4
1070
    48
1040
0.0
1070
    47
1040
0.0
1070
   144
1040
1.0
1002
}
  0
MTEXT
  5
999
330
2
100
AcDbEntity
  8
BEM
 48
10.0
100
AcDbMText
 10
50.92306841985089
 20
57.62634140091629
 30
0.0
 40
5.0
 41
76.62068133002435
 71
     1
 72
     5
  1
{\fArial|b0|i0|c0|p34;4x Klemmschraube\P     clamping screw}
 73
     1
 44
1.0
1001
ACAD
1000
ACAD_MTEXT_DEFINED_HEIGHT_BEGIN
1070
    46
1040
22.62613756003259
1000
ACAD_MTEXT_DEFINED_HEIGHT_END
  0
ENDSEC
  0
SECTION
  2
OBJECTS
  0
DICTIONARY
  5
1B
330
0
100
AcDbDictionary
281
     1
  3
ACAD_2007HEADERVARS_RT
350
E6B
  3
ACAD_COLOR
350
5F
  3
ACAD_GROUP
350
19
  3
ACAD_LAYOUT
350
60
  3
ACAD_MATERIAL
350
5E
  3
ACAD_MLEADERSTYLE
350
6F7
  3
ACAD_MLINESTYLE
350
1A
  3
ACAD_PLOTSETTINGS
350
61
  3
ACAD_PLOTSTYLENAME
350
5C
  3
ACAD_SCALELIST
350
6D5
  3
ACAD_TABLESTYLE
350
141
  3
ACAD_VISUALSTYLE
350
6C4
  3
ACDB_RECOMPOSE_DATA
350
E6A
  3
ACDBVARIABLEDICTIONARY
350
4D
  3
AcmDictionary
350
BC
  3
AMG
350
68
  3
AMGSNAPSETTINGS
350
F9
  3
ASE_INDEX_DICTIONARY
350
B4B
  0
DICTIONARY
  5
707
330
B
100
AcDbDictionary
280
     1
281
     1
  3
ACAD_LAYERSTATES
360
708
  0
DICTIONARY
  5
B54
330
5
100
AcDbDictionary
280
     1
281
     1
  3
ADSK_XREC_LAYER_RECONCILED
360
B55
  0
DICTIONARY
  5
B56
330
20
100
AcDbDictionary
280
     1
281
     1
  3
ADSK_XREC_LAYER_RECONCILED
360
B57
  0
DICTIONARY
  5
B58
330
26
100
AcDbDictionary
280
     1
281
     1
  3
ADSK_XREC_LAYER_RECONCILED
360
B59
  0
DICTIONARY
  5
B5A
330
28
100
AcDbDictionary
280
     1
281
     1
  3
ADSK_XREC_LAYER_RECONCILED
360
B5B
  0
DICTIONARY
  5
B5C
330
24
100
AcDbDictionary
280
     1
281
     1
  3
ADSK_XREC_LAYER_RECONCILED
360
B5D
  0
DICTIONARY
  5
702
330
701
100
AcDbDictionary
280
     1
281
     1
  3
ADSK_XREC_LAYER_RECONCILED
360
B5E
  0
DICTIONARY
  5
704
330
703
100
AcDbDictionary
280
     1
281
     1
  3
ADSK_XREC_LAYER_RECONCILED
360
B5F
  0
DICTIONARY
  5
706
330
705
100
AcDbDictionary
280
     1
281
     1
  3
ADSK_XREC_LAYER_RECONCILED
360
B60
  0
DICTIONARY
  5
3
330
2
100
AcDbDictionary
280
     1
281
     1
  3
ACAD_SORTENTS
360
17B
  0
DICTIONARY
  5
E78
330
DD5
100
AcDbDictionary
280
     1
281
     1
  3
ACAD_MTEXT_2008_RT
360
E79
  0
DICTIONARY
  5
DDB
330
269
100
AcDbDictionary
280
     1
281
     1
  3
ACMDIMBREAKPERSREACTOR
360
DDC
  0
DICTIONARY
  5
E6B
102
{ACAD_REACTORS
330
1B
102
}
330
1B
100
AcDbDictionary
281
     1
  3
DIMJOGANG
350
E6C
  0
DICTIONARY
  5
5F
102
{ACAD_REACTORS
330
1B
102
}
330
1B
100
AcDbDictionary
281
     1
  0
DICTIONARY
  5
19
102
{ACAD_REACTORS
330
1B
102
}
330
1B
100
AcDbDictionary
281
     1
  0
DICTIONARY
  5
60
102
{ACAD_REACTORS
330
1B
102
}
330
1B
100
AcDbDictionary
281
     1
  3
Layout1
350
63
  3
Model
350
62
  0
DICTIONARY
  5
5E
102
{ACAD_REACTORS
330
1B
102
}
330
1B
100
AcDbDictionary
281
     1
  3
ByBlock
350
6B4
  3
ByLayer
350
6AC
  3
Global
350
6BC
  0
DICTIONARY
  5
6F7
102
{ACAD_REACTORS
330
1B
102
}
330
1B
100
AcDbDictionary
281
     1
  3
Standard
350
6F8
  0
DICTIONARY
  5
1A
102
{ACAD_REACTORS
330
1B
102
}
330
1B
100
AcDbDictionary
281
     1
  3
STANDARD
350
1D
  0
DICTIONARY
  5
61
102
{ACAD_REACTORS
330
1B
102
}
330
1B
100
AcDbDictionary
281
     1
  0
ACDBDICTIONARYWDFLT
  5
5C
102
{ACAD_REACTORS
330
1B
102
}
330
1B
100
AcDbDictionary
281
     1
  3
Normal
350
5D
100
AcDbDictionaryWithDefault
340
5D
  0
DICTIONARY
  5
6D5
102
{ACAD_REACTORS
330
1B
102
}
330
1B
100
AcDbDictionary
281
     1
  3
A0
350
6D6
  3
A1
350
6D7
  3
A2
350
6D8
  3
A3
350
6D9
  3
A4
350
6DA
  3
A5
350
6DB
  3
A6
350
6DC
  3
A7
350
6DD
  3
A8
350
6DE
  3
A9
350
6DF
  3
B0
350
6E0
  3
B1
350
6E1
  3
B2
350
6E2
  3
B3
350
6E3
  3
B4
350
6E4
  3
B5
350
6E5
  3
B6
350
6E6
  3
B7
350
6E7
  3
B8
350
6E8
  3
B9
350
6E9
  3
C0
350
6EA
  3
C1
350
6EB
  3
C2
350
6EC
  3
C3
350
6ED
  3
C4
350
6EE
  3
C5
350
6EF
  3
C6
350
6F0
  3
C7
350
6F1
  3
C8
350
6F2
  3
C9
350
6F3
  3
D0
350
6F4
  3
D1
350
6F5
  3
D2
350
6F6
  0
DICTIONARY
  5
141
102
{ACAD_REACTORS
330
1B
102
}
330
1B
100
AcDbDictionary
281
     1
  3
Standard
350
142
  0
DICTIONARY
  5
6C4
102
{ACAD_REACTORS
330
1B
102
}
330
1B
100
AcDbDictionary
281
     1
  3
2dWireframe
350
6CA
  3
3D Hidden
350
6CC
  3
3dWireframe
350
6CB
  3
Basic
350
6C9
  3
Brighten
350
6D0
  3
ColorChange
350
6D4
  3
Conceptual
350
6CD
  3
Dim
350
6CF
  3
Facepattern
350
6D3
  3
Flat
350
6C5
  3
FlatWithEdges
350
6C6
  3
Gouraud
350
6C7
  3
GouraudWithEdges
350
6C8
  3
Linepattern
350
6D2
  3
Realistic
350
6CE
  3
Thicken
350
6D1
  0
XRECORD
  5
E6A
102
{ACAD_REACTORS
330
1B
102
}
330
1B
100
AcDbXrecord
280
     1
 90
        1
330
142
  0
DICTIONARY
  5
4D
102
{ACAD_REACTORS
330
1B
102
}
330
1B
100
AcDbDictionary
281
     1
  3
CANNOSCALE
350
E67
  3
CMLEADERSTYLE
350
E66
  3
CTABLESTYLE
350
15F
  3
INDEXCTL
350
4E
  0
DICTIONARY
  5
BC
102
{ACAD_REACTORS
330
1B
102
}
330
1B
100
AcDbDictionary
281
     1
  3
AcmStdDictionary
350
C7
  3
AMDTSECTSYM_ARROWCOLOR
350
156
  0
DICTIONARY
  5
68
102
{ACAD_REACTORS
330
1B
102
}
330
1B
100
AcDbDictionary
281
     1
  0
DICTIONARY
  5
F9
102
{ACAD_REACTORS
330
1B
102
}
330
1B
100
AcDbDictionary
281
     1
  0
DICTIONARY
  5
B4B
102
{ACAD_REACTORS
330
1B
102
}
330
1B
100
AcDbDictionary
281
     1
  3
ASEBlockHierarchyIndexRecord
350
B4C
1001
DCO15
1040
1744369625.658
  0
DICTIONARY
  5
708
102
{ACAD_REACTORS
330
707
102
}
330
707
100
AcDbDictionary
281
     1
  0
XRECORD
  5
B55
102
{ACAD_REACTORS
330
B54
102
}
330
B54
100
AcDbXrecord
280
     1
290
     1
  0
XRECORD
  5
B57
102
{ACAD_REACTORS
330
B56
102
}
330
B56
100
AcDbXrecord
280
     1
290
     1
  0
XRECORD
  5
B59
102
{ACAD_REACTORS
330
B58
102
}
330
B58
100
AcDbXrecord
280
     1
290
     1
  0
XRECORD
  5
B5B
102
{ACAD_REACTORS
330
B5A
102
}
330
B5A
100
AcDbXrecord
280
     1
290
     1
  0
XRECORD
  5
B5D
102
{ACAD_REACTORS
330
B5C
102
}
330
B5C
100
AcDbXrecord
280
     1
290
     1
  0
XRECORD
  5
B5E
102
{ACAD_REACTORS
330
702
102
}
330
702
100
AcDbXrecord
280
     1
290
     1
  0
XRECORD
  5
B5F
102
{ACAD_REACTORS
330
704
102
}
330
704
100
AcDbXrecord
280
     1
290
     1
  0
XRECORD
  5
B60
102
{ACAD_REACTORS
330
706
102
}
330
706
100
AcDbXrecord
280
     1
290
     1
  0
SORTENTSTABLE
  5
17B
102
{ACAD_REACTORS
330
3
102
}
330
3
100
AcDbSortentsTable
330
2
331
1A5
  5
1A5
331
1DC
  5
1E6
331
233
  5
240
331
1B5
  5
1CE
331
1EC
  5
1BB
331
17E
  5
18E
331
999
  5
997
331
1BD
  5
1D2
331
18E
  5
17F
331
20C
  5
219
331
196
  5
197
331
1CD
  5
1DB
331
1D5
  5
1B5
331
1A6
  5
1A6
331
1DD
  5
1E7
331
177
  5
177
331
1B6
  5
1D1
331
1ED
  5
1C4
331
17F
  5
18C
331
1BE
  5
1D4
331
18F
  5
17D
331
197
  5
198
331
1CE
  5
1DC
331
1D6
  5
1BC
331
25C
  5
269
331
1A7
  5
1A7
331
1DE
  5
1E8
331
1AF
  5
1B3
331
1B7
  5
1B0
331
178
  5
189
331
1EE
  5
1B7
331
180
  5
18A
331
188
  5
180
331
1BF
  5
1D5
331
190
  5
182
331
1C7
  5
1B1
331
24D
  5
25C
331
198
  5
199
331
1CF
  5
1DD
331
1D7
  5
1E1
331
1A0
  5
1A0
331
1A8
  5
1A8
331
1DF
  5
1E9
331
226
  5
233
331
1B0
  5
1B4
331
1EF
  5
1CB
331
181
  5
188
331
1B8
  5
1AE
331
1FF
  5
20C
331
189
  5
17A
331
1C0
  5
1D6
331
1C8
  5
1D3
331
191
  5
184
331
199
  5
19B
331
1D0
  5
1DE
331
591
  5
591
331
599
  5
599
331
1A1
  5
1A1
331
1A9
  5
1A9
331
1E0
  5
1B8
331
1B1
  5
1BF
331
1F0
  5
1CC
331
17A
  5
187
331
276
  5
3CE
331
18A
  5
183
331
1C1
  5
1D7
331
1C9
  5
1D0
331
19A
  5
196
331
1D1
  5
1DF
331
4FB
  5
4B4
331
59A
  5
59A
331
1A2
  5
1A2
331
1D9
  5
1E2
331
1AA
  5
1AA
331
1E1
  5
1EA
331
1B2
  5
1C0
331
4B6
  5
4FF
331
1F1
  5
1FF
331
183
  5
186
331
18B
  5
181
331
240
  5
24D
331
1CA
  5
1AF
331
193
  5
193
331
19B
  5
19C
331
1D2
  5
1E0
331
4FC
  5
4B5
331
59B
  5
59B
331
219
  5
226
331
1A3
  5
1A3
331
1DA
  5
1E4
331
1AB
  5
1AB
331
1E2
  5
1F1
331
1B3
  5
1CD
331
1EA
  5
1BE
331
17C
  5
185
331
1BB
  5
1CF
331
184
  5
18D
331
18C
  5
17E
331
194
  5
194
331
1CB
  5
1D9
331
1D3
  5
1C6
331
19C
  5
19A
331
1A4
  5
1A4
331
1DB
  5
1E5
331
1AC
  5
1B2
331
269
  5
276
331
1EB
  5
1C5
331
17D
  5
18F
331
185
  5
18B
331
18D
  5
17C
331
1CC
  5
1DA
331
1D4
  5
1C3
  0
XRECORD
  5
E79
102
{ACAD_REACTORS
330
E78
102
}
330
E78
100
AcDbXrecord
280
     1
 40
37599.0
  1
\A1;\U+220531{}{\H0.71x;\C3; H8}
  0
XRECORD
  5
E6C
102
{ACAD_REACTORS
330
E6B
102
}
330
E6B
100
AcDbXrecord
280
     1
 40
1.570796326794896
  0
LAYOUT
  5
63
102
{ACAD_REACTORS
330
60
102
}
330
60
100
AcDbPlotSettings
  1

  2
HP LaserJet 5000 Series PCL6
  4

  6

 40
0.0
 41
0.0
 42
0.0
 43
0.0
 44
0.0
 45
0.0
 46
0.0
 47
0.0
 48
0.0
 49
0.0
140
0.0
141
0.0
142
1.0
143
1.0
 70
   688
 72
     0
 73
     0
 74
     5
  7
Zeich.ctb
 75
    16
147
1.0
 76
     0
 77
     2
 78
   300
148
0.0
149
0.0
100
AcDbLayout
  1
Layout1
 70
     0
 71
     1
 10
0.0
 20
0.0
 11
420.0
 21
297.0
 12
0.0
 22
0.0
 32
0.0
 14
1.000000000000000E+20
 24
1.000000000000000E+20
 34
1.000000000000000E+20
 15
-1.000000000000000E+20
 25
-1.000000000000000E+20
 35
-1.000000000000000E+20
146
0.0
 13
0.0
 23
0.0
 33
0.0
 16
1.0
 26
0.0
 36
0.0
 17
0.0
 27
1.0
 37
0.0
 76
     0
330
8
  0
LAYOUT
  5
62
102
{ACAD_REACTORS
330
60
102
}
330
60
100
AcDbPlotSettings
  1

  2
Müller CAD 2
  4
A4
  6

 40
6.805083274841308
 41
5.027085304260253
 42
6.805084228515625
 43
5.027069091796875
 44
209.9733276367187
 45
296.9683227539062
 46
0.0
 47
0.0
 48
5.0
 49
15.0
140
414.0
141
301.0
142
1.0
143
1.456485013817054
 70
 11952
 72
     1
 73
     1
 74
     4
  7
Zeich.ctb
 75
     0
147
0.6865844759907756
 76
     0
 77
     2
 78
   300
148
-5.0
149
-15.0
100
AcDbLayout
  1
Model
 70
     1
 71
     0
 10
0.0
 20
0.0
 11
12.0
 21
9.0
 12
0.0
 22
0.0
 32
0.0
 14
0.0
 24
0.0
 34
0.0
 15
0.0
 25
0.0
 35
0.0
146
0.0
 13
0.0
 23
0.0
 33
0.0
 16
1.0
 26
0.0
 36
0.0
 17
0.0
 27
1.0
 37
0.0
 76
     0
330
2
331
6AA
1001
ACAD_PSEXT
1000
Müller CAD 2
1000
HP LaserJet 5000 Series PCL
1000
CAD 2
1000
Laser A3
1070
     0
  0
MATERIAL
  5
6B4
102
{ACAD_XDICTIONARY
360
6B5
102
}
102
{ACAD_REACTORS
330
5E
102
}
330
5E
100
AcDbMaterial
  1
ByBlock
 72
     0
 43
0.0208333333333333
 43
0.0
 43
0.0
 43
0.0
 43
0.0
 43
0.0208333333333333
 43
0.0
 43
0.0
 43
0.0
 43
0.0
 43
1.0
 43
0.0
 43
0.0
 43
0.0
 43
0.0
 43
1.0
 77
     0
 47
0.0208333333333333
 47
0.0
 47
0.0
 47
0.0
 47
0.0
 47
0.0208333333333333
 47
0.0
 47
0.0
 47
0.0
 47
0.0
 47
1.0
 47
0.0
 47
0.0
 47
0.0
 47
0.0
 47
1.0
171
     0
 49
0.0208333333333333
 49
0.0
 49
0.0
 49
0.0
 49
0.0
 49
0.0208333333333333
 49
0.0
 49
0.0
 49
0.0
 49
0.0
 49
1.0
 49
0.0
 49
0.0
 49
0.0
 49
0.0
 49
1.0
175
     0
142
0.0208333333333333
142
0.0
142
0.0
142
0.0
142
0.0
142
0.0208333333333333
142
0.0
142
0.0
142
0.0
142
0.0
142
1.0
142
0.0
142
0.0
142
0.0
142
0.0
142
1.0
179
     0
144
0.0208333333333333
144
0.0
144
0.0
144
0.0
144
0.0
144
0.0208333333333333
144
0.0
144
0.0
144
0.0
144
0.0
144
1.0
144
0.0
144
0.0
144
0.0
144
0.0
144
1.0
147
0.0208333333333333
147
0.0
147
0.0
147
0.0
147
0.0
147
0.0208333333333333
147
0.0
147
0.0
147
0.0
147
0.0
147
1.0
147
0.0
147
0.0
147
0.0
147
0.0
147
1.0
  0
MATERIAL
  5
6AC
102
{ACAD_XDICTIONARY
360
6AD
102
}
102
{ACAD_REACTORS
330
5E
102
}
330
5E
100
AcDbMaterial
  1
ByLayer
 72
     0
 43
0.0208333333333333
 43
0.0
 43
0.0
 43
0.0
 43
0.0
 43
0.0208333333333333
 43
0.0
 43
0.0
 43
0.0
 43
0.0
 43
1.0
 43
0.0
 43
0.0
 43
0.0
 43
0.0
 43
1.0
 77
     0
 47
0.0208333333333333
 47
0.0
 47
0.0
 47
0.0
 47
0.0
 47
0.0208333333333333
 47
0.0
 47
0.0
 47
0.0
 47
0.0
 47
1.0
 47
0.0
 47
0.0
 47
0.0
 47
0.0
 47
1.0
171
     0
 49
0.0208333333333333
 49
0.0
 49
0.0
 49
0.0
 49
0.0
 49
0.0208333333333333
 49
0.0
 49
0.0
 49
0.0
 49
0.0
 49
1.0
 49
0.0
 49
0.0
 49
0.0
 49
0.0
 49
1.0
175
     0
142
0.0208333333333333
142
0.0
142
0.0
142
0.0
142
0.0
142
0.0208333333333333
142
0.0
142
0.0
142
0.0
142
0.0
142
1.0
142
0.0
142
0.0
142
0.0
142
0.0
142
1.0
179
     0
144
0.0208333333333333
144
0.0
144
0.0
144
0.0
144
0.0
144
0.0208333333333333
144
0.0
144
0.0
144
0.0
144
0.0
144
1.0
144
0.0
144
0.0
144
0.0
144
0.0
144
1.0
147
0.0208333333333333
147
0.0
147
0.0
147
0.0
147
0.0
147
0.0208333333333333
147
0.0
147
0.0
147
0.0
147
0.0
147
1.0
147
0.0
147
0.0
147
0.0
147
0.0
147
1.0
  0
MATERIAL
  5
6BC
102
{ACAD_XDICTIONARY
360
6BD
102
}
102
{ACAD_REACTORS
330
5E
102
}
330
5E
100
AcDbMaterial
  1
Global
 72
     0
 43
0.0208333333333333
 43
0.0
 43
0.0
 43
0.0
 43
0.0
 43
0.0208333333333333
 43
0.0
 43
0.0
 43
0.0
 43
0.0
 43
1.0
 43
0.0
 43
0.0
 43
0.0
 43
0.0
 43
1.0
 77
     0
 47
0.0208333333333333
 47
0.0
 47
0.0
 47
0.0
 47
0.0
 47
0.0208333333333333
 47
0.0
 47
0.0
 47
0.0
 47
0.0
 47
1.0
 47
0.0
 47
0.0
 47
0.0
 47
0.0
 47
1.0
171
     0
 49
0.0208333333333333
 49
0.0
 49
0.0
 49
0.0
 49
0.0
 49
0.0208333333333333
 49
0.0
 49
0.0
 49
0.0
 49
0.0
 49
1.0
 49
0.0
 49
0.0
 49
0.0
 49
0.0
 49
1.0
175
     0
142
0.0208333333333333
142
0.0
142
0.0
142
0.0
142
0.0
142
0.0208333333333333
142
0.0
142
0.0
142
0.0
142
0.0
142
1.0
142
0.0
142
0.0
142
0.0
142
0.0
142
1.0
179
     0
144
0.0208333333333333
144
0.0
144
0.0
144
0.0
144
0.0
144
0.0208333333333333
144
0.0
144
0.0
144
0.0
144
0.0
144
1.0
144
0.0
144
0.0
144
0.0
144
0.0
144
1.0
147
0.0208333333333333
147
0.0
147
0.0
147
0.0
147
0.0
147
0.0208333333333333
147
0.0
147
0.0
147
0.0
147
0.0
147
1.0
147
0.0
147
0.0
147
0.0
147
0.0
147
1.0
  0
MLEADERSTYLE
  5
6F8
102
{ACAD_REACTORS
330
6F7
102
}
330
6F7
100
AcDbMLeaderStyle
170
     2
171
     1
172
     0
 90
        2
 40
0.0
 41
0.0
173
     1
 91
-1056964608
340
F
 92
       -2
290
     1
 42
0.09
291
     1
 43
0.36
  3
Standard
 44
0.18
300

342
D
174
     1
178
     6
175
     1
176
     0
 93
-1056964608
 45
0.18
292
     0
297
     0
 46
0.18
 94
-1056964608
 47
1.0
 49
1.0
140
1.0
293
     1
141
0.0
294
     1
177
     0
142
1.0
295
     0
296
     0
143
0.125
1001
ACAD_MLEADERVER
1070
     2
  0
MLINESTYLE
  5
1D
102
{ACAD_REACTORS
330
1A
102
}
330
1A
100
AcDbMlineStyle
  2
STANDARD
 70
     0
  3

 62
     0
 51
90.0
 52
90.0
 71
     2
 49
0.5
 62
   256
  6
BYLAYER
 49
-0.5
 62
   256
  6
BYLAYER
  0
ACDBPLACEHOLDER
  5
5D
102
{ACAD_REACTORS
330
5C
102
}
330
5C
  0
SCALE
  5
6D6
102
{ACAD_REACTORS
330
6D5
102
}
330
6D5
100
AcDbScale
 70
     0
300
1:1
140
1.0
141
1.0
290
     1
  0
SCALE
  5
6D7
102
{ACAD_REACTORS
330
6D5
102
}
330
6D5
100
AcDbScale
 70
     0
300
1:2
140
1.0
141
2.0
290
     0
  0
SCALE
  5
6D8
102
{ACAD_REACTORS
330
6D5
102
}
330
6D5
100
AcDbScale
 70
     0
300
1:4
140
1.0
141
4.0
290
     0
  0
SCALE
  5
6D9
102
{ACAD_REACTORS
330
6D5
102
}
330
6D5
100
AcDbScale
 70
     0
300
1:5
140
1.0
141
5.0
290
     0
  0
SCALE
  5
6DA
102
{ACAD_REACTORS
330
6D5
102
}
330
6D5
100
AcDbScale
 70
     0
300
1:8
140
1.0
141
8.0
290
     0
  0
SCALE
  5
6DB
102
{ACAD_REACTORS
330
6D5
102
}
330
6D5
100
AcDbScale
 70
     0
300
1:10
140
1.0
141
10.0
290
     0
  0
SCALE
  5
6DC
102
{ACAD_REACTORS
330
6D5
102
}
330
6D5
100
AcDbScale
 70
     0
300
1:16
140
1.0
141
16.0
290
     0
  0
SCALE
  5
6DD
102
{ACAD_REACTORS
330
6D5
102
}
330
6D5
100
AcDbScale
 70
     0
300
1:20
140
1.0
141
20.0
290
     0
  0
SCALE
  5
6DE
102
{ACAD_REACTORS
330
6D5
102
}
330
6D5
100
AcDbScale
 70
     0
300
1:30
140
1.0
141
30.0
290
     0
  0
SCALE
  5
6DF
102
{ACAD_REACTORS
330
6D5
102
}
330
6D5
100
AcDbScale
 70
     0
300
1:40
140
1.0
141
40.0
290
     0
  0
SCALE
  5
6E0
102
{ACAD_REACTORS
330
6D5
102
}
330
6D5
100
AcDbScale
 70
     0
300
1:50
140
1.0
141
50.0
290
     0
  0
SCALE
  5
6E1
102
{ACAD_REACTORS
330
6D5
102
}
330
6D5
100
AcDbScale
 70
     0
300
1:100
140
1.0
141
100.0
290
     0
  0
SCALE
  5
6E2
102
{ACAD_REACTORS
330
6D5
102
}
330
6D5
100
AcDbScale
 70
     0
300
2:1
140
2.0
141
1.0
290
     0
  0
SCALE
  5
6E3
102
{ACAD_REACTORS
330
6D5
102
}
330
6D5
100
AcDbScale
 70
     0
300
4:1
140
4.0
141
1.0
290
     0
  0
SCALE
  5
6E4
102
{ACAD_REACTORS
330
6D5
102
}
330
6D5
100
AcDbScale
 70
     0
300
8:1
140
8.0
141
1.0
290
     0
  0
SCALE
  5
6E5
102
{ACAD_REACTORS
330
6D5
102
}
330
6D5
100
AcDbScale
 70
     0
300
10:1
140
10.0
141
1.0
290
     0
  0
SCALE
  5
6E6
102
{ACAD_REACTORS
330
6D5
102
}
330
6D5
100
AcDbScale
 70
     0
300
100:1
140
100.0
141
1.0
290
     0
  0
SCALE
  5
6E7
102
{ACAD_REACTORS
330
6D5
102
}
330
6D5
100
AcDbScale
 70
     0
300
1/128" = 1'-0"
140
0.0078125
141
12.0
290
     0
  0
SCALE
  5
6E8
102
{ACAD_REACTORS
330
6D5
102
}
330
6D5
100
AcDbScale
 70
     0
300
1/64" = 1'-0"
140
0.015625
141
12.0
290
     0
  0
SCALE
  5
6E9
102
{ACAD_REACTORS
330
6D5
102
}
330
6D5
100
AcDbScale
 70
     0
300
1/32" = 1'-0"
140
0.03125
141
12.0
290
     0
  0
SCALE
  5
6EA
102
{ACAD_REACTORS
330
6D5
102
}
330
6D5
100
AcDbScale
 70
     0
300
1/16" = 1'-0"
140
0.0625
141
12.0
290
     0
  0
SCALE
  5
6EB
102
{ACAD_REACTORS
330
6D5
102
}
330
6D5
100
AcDbScale
 70
     0
300
3/32" = 1'-0"
140
0.09375
141
12.0
290
     0
  0
SCALE
  5
6EC
102
{ACAD_REACTORS
330
6D5
102
}
330
6D5
100
AcDbScale
 70
     0
300
1/8" = 1'-0"
140
0.125
141
12.0
290
     0
  0
SCALE
  5
6ED
102
{ACAD_REACTORS
330
6D5
102
}
330
6D5
100
AcDbScale
 70
     0
300
3/16" = 1'-0"
140
0.1875
141
12.0
290
     0
  0
SCALE
  5
6EE
102
{ACAD_REACTORS
330
6D5
102
}
330
6D5
100
AcDbScale
 70
     0
300
1/4" = 1'-0"
140
0.25
141
12.0
290
     0
  0
SCALE
  5
6EF
102
{ACAD_REACTORS
330
6D5
102
}
330
6D5
100
AcDbScale
 70
     0
300
3/8" = 1'-0"
140
0.375
141
12.0
290
     0
  0
SCALE
  5
6F0
102
{ACAD_REACTORS
330
6D5
102
}
330
6D5
100
AcDbScale
 70
     0
300
1/2" = 1'-0"
140
0.5
141
12.0
290
     0
  0
SCALE
  5
6F1
102
{ACAD_REACTORS
330
6D5
102
}
330
6D5
100
AcDbScale
 70
     0
300
3/4" = 1'-0"
140
0.75
141
12.0
290
     0
  0
SCALE
  5
6F2
102
{ACAD_REACTORS
330
6D5
102
}
330
6D5
100
AcDbScale
 70
     0
300
1" = 1'-0"
140
1.0
141
12.0
290
     0
  0
SCALE
  5
6F3
102
{ACAD_REACTORS
330
6D5
102
}
330
6D5
100
AcDbScale
 70
     0
300
1-1/2" = 1'-0"
140
1.5
141
12.0
290
     0
  0
SCALE
  5
6F4
102
{ACAD_REACTORS
330
6D5
102
}
330
6D5
100
AcDbScale
 70
     0
300
3" = 1'-0"
140
3.0
141
12.0
290
     0
  0
SCALE
  5
6F5
102
{ACAD_REACTORS
330
6D5
102
}
330
6D5
100
AcDbScale
 70
     0
300
6" = 1'-0"
140
6.0
141
12.0
290
     0
  0
SCALE
  5
6F6
102
{ACAD_REACTORS
330
6D5
102
}
330
6D5
100
AcDbScale
 70
     0
300
1'-0" = 1'-0"
140
12.0
141
12.0
290
     0
  0
TABLESTYLE
  5
142
102
{ACAD_XDICTIONARY
360
E68
102
}
102
{ACAD_REACTORS
330
141
102
}
330
141
100
AcDbTableStyle
  3
Standard
 70
     0
 71
     0
 40
0.06
 41
0.06
280
     0
281
     0
  7
STANDARD
140
0.18
170
     2
 62
     0
 63
     7
283
     0
274
    -2
284
     1
 64
     0
275
    -2
285
     1
 65
     0
276
    -2
286
     1
 66
     0
277
    -2
287
     1
 67
     0
278
    -2
288
     1
 68
     0
279
    -2
289
     1
 69
     0
  7
STANDARD
140
0.25
170
     5
 62
     0
 63
     7
283
     0
274
    -2
284
     1
 64
     0
275
    -2
285
     1
 65
     0
276
    -2
286
     1
 66
     0
277
    -2
287
     1
 67
     0
278
    -2
288
     1
 68
     0
279
    -2
289
     1
 69
     0
  7
STANDARD
140
0.18
170
     5
 62
     0
 63
     7
283
     0
274
    -2
284
     1
 64
     0
275
    -2
285
     1
 65
     0
276
    -2
286
     1
 66
     0
277
    -2
287
     1
 67
     0
278
    -2
288
     1
 68
     0
279
    -2
289
     1
 69
     0
  0
VISUALSTYLE
  5
6CA
102
{ACAD_REACTORS
330
6C4
102
}
330
6C4
100
AcDbVisualStyle
  2
2dWireframe
 70
     4
 71
     0
 72
     2
 73
     0
 90
        0
 40
-0.6
 41
-30.0
 62
     5
 63
     7
421
 16777215
 74
     1
 91
        4
 64
     7
 65
   257
 75
     1
175
     1
 42
1.0
 92
        0
 66
   257
 43
1.0
 76
     1
 77
     6
 78
     2
 67
     7
 79
     5
170
     0
171
     0
290
     0
174
     0
 93
        1
 44
0.0
173
     0
291
     0
 45
0.0
1001
ACAD
1000
AcDbSavedByObjectVersion
1070
     0
  0
VISUALSTYLE
  5
6CC
102
{ACAD_REACTORS
330
6C4
102
}
330
6C4
100
AcDbVisualStyle
  2
3D Hidden
 70
     6
 71
     1
 72
     2
 73
     2
 90
        0
 40
-0.6
 41
-30.0
 62
     5
 63
     7
421
 16777215
 74
     2
 91
        2
 64
     7
 65
   257
 75
     2
175
     1
 42
40.0
 92
        0
 66
   257
 43
1.0
 76
     1
 77
     6
 78
     2
 67
     7
 79
     3
170
     0
171
     0
290
     0
174
     0
 93
        1
 44
0.0
173
     0
291
     0
 45
0.0
1001
ACAD
1000
AcDbSavedByObjectVersion
1070
     0
  0
VISUALSTYLE
  5
6CB
102
{ACAD_REACTORS
330
6C4
102
}
330
6C4
100
AcDbVisualStyle
  2
3dWireframe
 70
     5
 71
     0
 72
     2
 73
     0
 90
        0
 40
-0.6
 41
-30.0
 62
     5
 63
     7
421
 16777215
 74
     1
 91
        4
 64
     7
 65
   257
 75
     1
175
     1
 42
1.0
 92
        0
 66
   257
 43
1.0
 76
     1
 77
     6
 78
     2
 67
     7
 79
     5
170
     0
171
     0
290
     0
174
     0
 93
        1
 44
0.0
173
     0
291
     0
 45
0.0
1001
ACAD
1000
AcDbSavedByObjectVersion
1070
     0
  0
VISUALSTYLE
  5
6C9
102
{ACAD_REACTORS
330
6C4
102
}
330
6C4
100
AcDbVisualStyle
  2
Basic
 70
     7
 71
     1
 72
     0
 73
     1
 90
        0
 40
-0.6
 41
-30.0
 62
     5
 63
     7
421
 16777215
 74
     0
 91
        4
 64
     7
 65
   257
 75
     1
175
     1
 42
1.0
 92
        8
 66
     7
 43
1.0
 76
     1
 77
     6
 78
     2
 67
     7
 79
     5
170
     0
171
     0
290
     0
174
     0
 93
        1
 44
0.0
173
     0
291
     1
 45
0.0
1001
ACAD
1000
AcDbSavedByObjectVersion
1070
     0
  0
VISUALSTYLE
  5
6D0
102
{ACAD_REACTORS
330
6C4
102
}
330
6C4
100
AcDbVisualStyle
  2
Brighten
 70
    12
 71
     2
 72
     2
 73
     0
 90
        0
 40
-0.6
 41
-30.0
 62
     5
 63
     7
421
 16777215
 74
     1
 91
        4
 64
     7
 65
   257
 75
     1
175
     1
 42
1.0
 92
        8
 66
     7
 43
1.0
 76
     1
 77
     6
 78
     2
 67
     7
 79
     5
170
     0
171
     0
290
     0
174
     0
 93
        1
 44
50.0
173
     0
291
     1
 45
0.0
1001
ACAD
1000
AcDbSavedByObjectVersion
1070
     0
  0
VISUALSTYLE
  5
6D4
102
{ACAD_REACTORS
330
6C4
102
}
330
6C4
100
AcDbVisualStyle
  2
ColorChange
 70
    16
 71
     2
 72
     2
 73
     3
 90
        0
 40
-0.6
 41
-30.0
 62
     5
 63
     8
421
  8421504
 74
     1
 91
        4
 64
     7
 65
   257
 75
     1
175
     1
 42
1.0
 92
        8
 66
     8
424
  8421504
 43
1.0
 76
     1
 77
     6
 78
     2
 67
     7
 79
     5
170
     0
171
     0
290
     0
174
     0
 93
        1
 44
0.0
173
     0
291
     1
 45
0.0
1001
ACAD
1000
AcDbSavedByObjectVersion
1070
     0
  0
VISUALSTYLE
  5
6CD
102
{ACAD_REACTORS
330
6C4
102
}
330
6C4
100
AcDbVisualStyle
  2
Conceptual
 70
     9
 71
     3
 72
     2
 73
     0
 90
        0
 40
-0.6
 41
-30.0
 62
     5
 63
     7
421
 16777215
 74
     2
 91
        2
 64
     7
 65
   257
 75
     1
175
     1
 42
40.0
 92
        8
 66
     7
 43
1.0
 76
     1
 77
     6
 78
     2
 67
     7
 79
     3
170
     0
171
     0
290
     0
174
     0
 93
        1
 44
0.0
173
     0
291
     0
 45
0.0
1001
ACAD
1000
AcDbSavedByObjectVersion
1070
     0
  0
VISUALSTYLE
  5
6CF
102
{ACAD_REACTORS
330
6C4
102
}
330
6C4
100
AcDbVisualStyle
  2
Dim
 70
    11
 71
     2
 72
     2
 73
     0
 90
        0
 40
-0.6
 41
-30.0
 62
     5
 63
     7
421
 16777215
 74
     1
 91
        4
 64
     7
 65
   257
 75
     1
175
     1
 42
1.0
 92
        8
 66
     7
 43
1.0
 76
     1
 77
     6
 78
     2
 67
     7
 79
     5
170
     0
171
     0
290
     0
174
     0
 93
        1
 44
-50.0
173
     0
291
     1
 45
0.0
1001
ACAD
1000
AcDbSavedByObjectVersion
1070
     0
  0
VISUALSTYLE
  5
6D3
102
{ACAD_REACTORS
330
6C4
102
}
330
6C4
100
AcDbVisualStyle
  2
Facepattern
 70
    15
 71
     2
 72
     2
 73
     0
 90
        0
 40
-0.6
 41
-30.0
 62
     5
 63
     7
421
 16777215
 74
     1
 91
        4
 64
     7
 65
   257
 75
     1
175
     1
 42
1.0
 92
        8
 66
     7
 43
1.0
 76
     1
 77
     6
 78
     2
 67
     7
 79
     5
170
     0
171
     0
290
     0
174
     0
 93
        1
 44
0.0
173
     0
291
     1
 45
0.0
1001
ACAD
1000
AcDbSavedByObjectVersion
1070
     0
  0
VISUALSTYLE
  5
6C5
102
{ACAD_REACTORS
330
6C4
102
}
330
6C4
100
AcDbVisualStyle
  2
Flat
 70
     0
 71
     2
 72
     1
 73
     1
 90
        2
 40
-0.6
 41
30.0
 62
     5
 63
     7
421
 16777215
 74
     0
 91
        4
 64
     7
 65
   257
 75
     1
175
     1
 42
1.0
 92
        8
 66
     7
 43
1.0
 76
     1
 77
     6
 78
     2
 67
     7
 79
     5
170
     0
171
     0
290
     0
174
     0
 93
       13
 44
0.0
173
     0
291
     1
 45
0.0
1001
ACAD
1000
AcDbSavedByObjectVersion
1070
     0
  0
VISUALSTYLE
  5
6C6
102
{ACAD_REACTORS
330
6C4
102
}
330
6C4
100
AcDbVisualStyle
  2
FlatWithEdges
 70
     1
 71
     2
 72
     1
 73
     1
 90
        2
 40
-0.6
 41
30.0
 62
     5
 63
     7
421
 16777215
 74
     1
 91
        4
 64
     7
 65
   257
 75
     1
175
     1
 42
1.0
 92
        0
 66
   257
 43
1.0
 76
     1
 77
     6
 78
     2
 67
     7
 79
     5
170
     0
171
     0
290
     0
174
     0
 93
       13
 44
0.0
173
     0
291
     1
 45
0.0
1001
ACAD
1000
AcDbSavedByObjectVersion
1070
     0
  0
VISUALSTYLE
  5
6C7
102
{ACAD_REACTORS
330
6C4
102
}
330
6C4
100
AcDbVisualStyle
  2
Gouraud
 70
     2
 71
     2
 72
     2
 73
     1
 90
        2
 40
-0.6
 41
30.0
 62
     5
 63
     7
421
 16777215
 74
     0
 91
        4
 64
     7
 65
   257
 75
     1
175
     1
 42
1.0
 92
        0
 66
     7
 43
1.0
 76
     1
 77
     6
 78
     2
 67
     7
 79
     5
170
     0
171
     0
290
     0
174
     0
 93
       13
 44
0.0
173
     0
291
     1
 45
0.0
1001
ACAD
1000
AcDbSavedByObjectVersion
1070
     0
  0
VISUALSTYLE
  5
6C8
102
{ACAD_REACTORS
330
6C4
102
}
330
6C4
100
AcDbVisualStyle
  2
GouraudWithEdges
 70
     3
 71
     2
 72
     2
 73
     1
 90
        2
 40
-0.6
 41
30.0
 62
     5
 63
     7
421
 16777215
 74
     1
 91
        4
 64
     7
 65
   257
 75
     1
175
     1
 42
1.0
 92
        0
 66
   257
 43
1.0
 76
     1
 77
     6
 78
     2
 67
     7
 79
     5
170
     0
171
     0
290
     0
174
     0
 93
       13
 44
0.0
173
     0
291
     1
 45
0.0
1001
ACAD
1000
AcDbSavedByObjectVersion
1070
     0
  0
VISUALSTYLE
  5
6D2
102
{ACAD_REACTORS
330
6C4
102
}
330
6C4
100
AcDbVisualStyle
  2
Linepattern
 70
    14
 71
     2
 72
     2
 73
     0
 90
        0
 40
-0.6
 41
-30.0
 62
     5
 63
     7
421
 16777215
 74
     1
 91
        4
 64
     7
 65
   257
 75
     7
175
     7
 42
1.0
 92
        8
 66
     7
 43
1.0
 76
     1
 77
     6
 78
     2
 67
     7
 79
     5
170
     0
171
     0
290
     0
174
     0
 93
        1
 44
0.0
173
     0
291
     1
 45
0.0
1001
ACAD
1000
AcDbSavedByObjectVersion
1070
     0
  0
VISUALSTYLE
  5
6CE
102
{ACAD_REACTORS
330
6C4
102
}
330
6C4
100
AcDbVisualStyle
  2
Realistic
 70
     8
 71
     2
 72
     2
 73
     0
 90
        0
 40
-0.6
 41
-30.0
 62
     5
 63
     7
421
 16777215
 74
     1
 91
        0
 64
     7
 65
   257
 75
     1
175
     1
 42
1.0
 92
        8
 66
     8
424
  7895160
 43
1.0
 76
     1
 77
     6
 78
     2
 67
     7
 79
     5
170
     0
171
     0
290
     0
174
     0
 93
       13
 44
0.0
173
     0
291
     0
 45
0.0
1001
ACAD
1000
AcDbSavedByObjectVersion
1070
     0
  0
VISUALSTYLE
  5
6D1
102
{ACAD_REACTORS
330
6C4
102
}
330
6C4
100
AcDbVisualStyle
  2
Thicken
 70
    13
 71
     2
 72
     2
 73
     0
 90
        0
 40
-0.6
 41
-30.0
 62
     5
 63
     7
421
 16777215
 74
     1
 91
        4
 64
     7
 65
   257
 75
     1
175
     1
 42
1.0
 92
       12
 66
     7
 43
1.0
 76
     1
 77
     6
 78
     2
 67
     7
 79
     5
170
     0
171
     0
290
     0
174
     0
 93
        1
 44
0.0
173
     0
291
     1
 45
0.0
1001
ACAD
1000
AcDbSavedByObjectVersion
1070
     0
  0
DICTIONARYVAR
  5
E67
102
{ACAD_REACTORS
330
4D
102
}
330
4D
100
DictionaryVariables
280
     0
  1
1:1
  0
DICTIONARYVAR
  5
E66
102
{ACAD_REACTORS
330
4D
102
}
330
4D
100
DictionaryVariables
280
     0
  1
STANDARD
  0
DICTIONARYVAR
  5
15F
102
{ACAD_REACTORS
330
4D
102
}
330
4D
100
DictionaryVariables
280
     0
  1
STANDARD
  0
DICTIONARYVAR
  5
4E
102
{ACAD_REACTORS
330
4D
102
}
330
4D
100
DictionaryVariables
280
     0
  1
1
  0
DICTIONARY
  5
C7
102
{ACAD_REACTORS
330
BC
102
}
330
BC
100
AcDbDictionary
281
     1
  0
XRECORD
  5
156
102
{ACAD_REACTORS
330
BC
102
}
330
BC
100
AcDbXrecord
280
     1
 90
-1023410169
  0
XRECORD
  5
B4C
102
{ACAD_REACTORS
330
B4B
102
}
330
B4B
100
AcDbXrecord
280
     1
  0
DICTIONARY
  5
6B5
330
6B4
100
AcDbDictionary
280
     1
281
     1
  3
ACAD_XREC_ROUNDTRIP
360
E6F
  3
BUMPTILE
360
6B7
  3
DIFFUSETILE
360
6B6
  3
OPACITYTILE
360
6BA
  3
REFLECTIONTILE
360
6B9
  3
REFRACTIONTILE
360
6BB
  3
SPECULARTILE
360
6B8
  0
DICTIONARY
  5
6AD
330
6AC
100
AcDbDictionary
280
     1
281
     1
  3
ACAD_XREC_ROUNDTRIP
360
E6E
  3
BUMPTILE
360
6AF
  3
DIFFUSETILE
360
6AE
  3
OPACITYTILE
360
6B2
  3
REFLECTIONTILE
360
6B1
  3
REFRACTIONTILE
360
6B3
  3
SPECULARTILE
360
6B0
  0
DICTIONARY
  5
6BD
330
6BC
100
AcDbDictionary
280
     1
281
     1
  3
ACAD_XREC_ROUNDTRIP
360
E70
  3
BUMPTILE
360
6BF
  3
DIFFUSETILE
360
6BE
  3
OPACITYTILE
360
6C2
  3
REFLECTIONTILE
360
6C1
  3
REFRACTIONTILE
360
6C3
  3
SPECULARTILE
360
6C0
  0
DICTIONARY
  5
E68
330
142
100
AcDbDictionary
280
     1
281
     1
  3
ACAD_ROUNDTRIP_2008_TABLESTYLE_CELLSTYLEMAP
360
E69
  3
ACAD_XREC_ROUNDTRIP
360
E6D
  0
XRECORD
  5
E6F
102
{ACAD_REACTORS
330
6B5
102
}
330
6B5
100
AcDbXrecord
280
     1
102
MATERIAL
148
0.0
149
0.0
149
0.0
 93
        0
 94
      127
282
     0
 72
     0
 77
     0
171
     0
175
     0
179
     0
273
     0
  0
XRECORD
  5
6B7
102
{ACAD_REACTORS
330
6B5
102
}
330
6B5
100
AcDbXrecord
280
     1
270
     1
271
     1
  0
XRECORD
  5
6B6
102
{ACAD_REACTORS
330
6B5
102
}
330
6B5
100
AcDbXrecord
280
     1
270
     1
271
     1
  0
XRECORD
  5
6BA
102
{ACAD_REACTORS
330
6B5
102
}
330
6B5
100
AcDbXrecord
280
     1
270
     1
271
     1
  0
XRECORD
  5
6B9
102
{ACAD_REACTORS
330
6B5
102
}
330
6B5
100
AcDbXrecord
280
     1
270
     1
271
     1
  0
XRECORD
  5
6BB
102
{ACAD_REACTORS
330
6B5
102
}
330
6B5
100
AcDbXrecord
280
     1
270
     1
271
     1
  0
XRECORD
  5
6B8
102
{ACAD_REACTORS
330
6B5
102
}
330
6B5
100
AcDbXrecord
280
     1
270
     1
271
     1
  0
XRECORD
  5
E6E
102
{ACAD_REACTORS
330
6AD
102
}
330
6AD
100
AcDbXrecord
280
     1
102
MATERIAL
148
0.0
149
0.0
149
0.0
 93
        0
 94
      127
282
     0
 72
     0
 77
     0
171
     0
175
     0
179
     0
273
     0
  0
XRECORD
  5
6AF
102
{ACAD_REACTORS
330
6AD
102
}
330
6AD
100
AcDbXrecord
280
     1
270
     1
271
     1
  0
XRECORD
  5
6AE
102
{ACAD_REACTORS
330
6AD
102
}
330
6AD
100
AcDbXrecord
280
     1
270
     1
271
     1
  0
XRECORD
  5
6B2
102
{ACAD_REACTORS
330
6AD
102
}
330
6AD
100
AcDbXrecord
280
     1
270
     1
271
     1
  0
XRECORD
  5
6B1
102
{ACAD_REACTORS
330
6AD
102
}
330
6AD
100
AcDbXrecord
280
     1
270
     1
271
     1
  0
XRECORD
  5
6B3
102
{ACAD_REACTORS
330
6AD
102
}
330
6AD
100
AcDbXrecord
280
     1
270
     1
271
     1
  0
XRECORD
  5
6B0
102
{ACAD_REACTORS
330
6AD
102
}
330
6AD
100
AcDbXrecord
280
     1
270
     1
271
     1
  0
XRECORD
  5
E70
102
{ACAD_REACTORS
330
6BD
102
}
330
6BD
100
AcDbXrecord
280
     1
102
MATERIAL
148
0.0
149
0.0
149
0.0
 93
        0
 94
      127
282
     0
 72
     0
 77
     0
171
     0
175
     0
179
     0
273
     0
  0
XRECORD
  5
6BF
102
{ACAD_REACTORS
330
6BD
102
}
330
6BD
100
AcDbXrecord
280
     1
270
     1
271
     1
  0
XRECORD
  5
6BE
102
{ACAD_REACTORS
330
6BD
102
}
330
6BD
100
AcDbXrecord
280
     1
270
     1
271
     1
  0
XRECORD
  5
6C2
102
{ACAD_REACTORS
330
6BD
102
}
330
6BD
100
AcDbXrecord
280
     1
270
     1
271
     1
  0
XRECORD
  5
6C1
102
{ACAD_REACTORS
330
6BD
102
}
330
6BD
100
AcDbXrecord
280
     1
270
     1
271
     1
  0
XRECORD
  5
6C3
102
{ACAD_REACTORS
330
6BD
102
}
330
6BD
100
AcDbXrecord
280
     1
270
     1
271
     1
  0
XRECORD
  5
6C0
102
{ACAD_REACTORS
330
6BD
102
}
330
6BD
100
AcDbXrecord
280
     1
270
     1
271
     1
  0
CELLSTYLEMAP
  5
E69
102
{ACAD_REACTORS
330
E68
102
}
330
E68
100
AcDbCellStyleMap
 90
        3
300
CELLSTYLE
  1
TABLEFORMAT_BEGIN
 90
        5
170
     1
 91
        0
 92
    32768
 62
   257
 93
        1
300
CONTENTFORMAT
  1
CONTENTFORMAT_BEGIN
 90
        0
 91
        0
 92
        4
 93
        0
300

 40
0.0
140
1.0
 94
        5
 62
     0
340
D
144
0.25
309
CONTENTFORMAT_END
171
     0
 94
        6
 95
        1
302
GRIDFORMAT
  1
GRIDFORMAT_BEGIN
 90
        0
 91
        1
 62
     0
 92
       -2
340
0
 93
        0
 40
0.045
309
GRIDFORMAT_END
 95
        2
302
GRIDFORMAT
  1
GRIDFORMAT_BEGIN
 90
        0
 91
        1
 62
     0
 92
       -2
340
0
 93
        0
 40
0.045
309
GRIDFORMAT_END
 95
        4
302
GRIDFORMAT
  1
GRIDFORMAT_BEGIN
 90
        0
 91
        1
 62
     0
 92
       -2
340
0
 93
        0
 40
0.045
309
GRIDFORMAT_END
 95
        8
302
GRIDFORMAT
  1
GRIDFORMAT_BEGIN
 90
        0
 91
        1
 62
     0
 92
       -2
340
0
 93
        0
 40
0.045
309
GRIDFORMAT_END
 95
       16
302
GRIDFORMAT
  1
GRIDFORMAT_BEGIN
 90
        0
 91
        1
 62
     0
 92
       -2
340
0
 93
        0
 40
0.045
309
GRIDFORMAT_END
 95
       32
302
GRIDFORMAT
  1
GRIDFORMAT_BEGIN
 90
        0
 91
        1
 62
     0
 92
       -2
340
0
 93
        0
 40
0.045
309
GRIDFORMAT_END
309
TABLEFORMAT_END
  1
CELLSTYLE_BEGIN
 90
        1
 91
        1
300
_TITLE
309
CELLSTYLE_END
300
CELLSTYLE
  1
TABLEFORMAT_BEGIN
 90
        5
170
     1
 91
        0
 92
        0
 62
   257
 93
        1
300
CONTENTFORMAT
  1
CONTENTFORMAT_BEGIN
 90
        0
 91
        0
 92
        4
 93
        0
300

 40
0.0
140
1.0
 94
        5
 62
     0
340
D
144
0.18
309
CONTENTFORMAT_END
171
     0
 94
        6
 95
        1
302
GRIDFORMAT
  1
GRIDFORMAT_BEGIN
 90
        0
 91
        1
 62
     0
 92
       -2
340
0
 93
        0
 40
0.045
309
GRIDFORMAT_END
 95
        2
302
GRIDFORMAT
  1
GRIDFORMAT_BEGIN
 90
        0
 91
        1
 62
     0
 92
       -2
340
0
 93
        0
 40
0.045
309
GRIDFORMAT_END
 95
        4
302
GRIDFORMAT
  1
GRIDFORMAT_BEGIN
 90
        0
 91
        1
 62
     0
 92
       -2
340
0
 93
        0
 40
0.045
309
GRIDFORMAT_END
 95
        8
302
GRIDFORMAT
  1
GRIDFORMAT_BEGIN
 90
        0
 91
        1
 62
     0
 92
       -2
340
0
 93
        0
 40
0.045
309
GRIDFORMAT_END
 95
       16
302
GRIDFORMAT
  1
GRIDFORMAT_BEGIN
 90
        0
 91
        1
 62
     0
 92
       -2
340
0
 93
        0
 40
0.045
309
GRIDFORMAT_END
 95
       32
302
GRIDFORMAT
  1
GRIDFORMAT_BEGIN
 90
        0
 91
        1
 62
     0
 92
       -2
340
0
 93
        0
 40
0.045
309
GRIDFORMAT_END
309
TABLEFORMAT_END
  1
CELLSTYLE_BEGIN
 90
        2
 91
        1
300
_HEADER
309
CELLSTYLE_END
300
CELLSTYLE
  1
TABLEFORMAT_BEGIN
 90
        5
170
     1
 91
        0
 92
        0
 62
   257
 93
        1
300
CONTENTFORMAT
  1
CONTENTFORMAT_BEGIN
 90
        0
 91
        0
 92
        4
 93
        0
300

 40
0.0
140
1.0
 94
        2
 62
     0
340
D
144
0.18
309
CONTENTFORMAT_END
171
     0
 94
        6
 95
        1
302
GRIDFORMAT
  1
GRIDFORMAT_BEGIN
 90
        0
 91
        1
 62
     0
 92
       -2
340
0
 93
        0
 40
0.045
309
GRIDFORMAT_END
 95
        2
302
GRIDFORMAT
  1
GRIDFORMAT_BEGIN
 90
        0
 91
        1
 62
     0
 92
       -2
340
0
 93
        0
 40
0.045
309
GRIDFORMAT_END
 95
        4
302
GRIDFORMAT
  1
GRIDFORMAT_BEGIN
 90
        0
 91
        1
 62
     0
 92
       -2
340
0
 93
        0
 40
0.045
309
GRIDFORMAT_END
 95
        8
302
GRIDFORMAT
  1
GRIDFORMAT_BEGIN
 90
        0
 91
        1
 62
     0
 92
       -2
340
0
 93
        0
 40
0.045
309
GRIDFORMAT_END
 95
       16
302
GRIDFORMAT
  1
GRIDFORMAT_BEGIN
 90
        0
 91
        1
 62
     0
 92
       -2
340
0
 93
        0
 40
0.045
309
GRIDFORMAT_END
 95
       32
302
GRIDFORMAT
  1
GRIDFORMAT_BEGIN
 90
        0
 91
        1
 62
     0
 92
       -2
340
0
 93
        0
 40
0.045
309
GRIDFORMAT_END
309
TABLEFORMAT_END
  1
CELLSTYLE_BEGIN
 90
        3
 91
        2
300
_DATA
309
CELLSTYLE_END
  0
XRECORD
  5
E6D
102
{ACAD_REACTORS
330
E68
102
}
330
E68
100
AcDbXrecord
280
     1
102
ACAD_ROUNDTRIP_PRE2007_TABLESTYLE
 90
        4
 91
        0
  1

 92
        4
 93
        0
  2

 94
        4
 95
        0
  3

  0
ENDSEC
  0
EOF
