  0
SECTION
  2
HEADER
  9
$ACADVER
  1
AC1018
  9
$ACADMAINTVER
 70
   104
  9
$DWGCODEPAGE
  3
ANSI_1252
  9
$LASTSAVEDBY
  1
ibasyouni
  9
$INSBASE
 10
0.0
 20
0.0
 30
0.0
  9
$EXTMIN
 10
12.51561938890018
 20
15.18079776870786
 30
-0.0000000000000053
  9
$EXTMAX
 10
266.407306605593
 20
326.228697657636
 30
0.0000000000000099
  9
$LIMMIN
 10
0.0
 20
0.0
  9
$LIMMAX
 10
300.0
 20
350.0
  9
$ORTHOMODE
 70
     1
  9
$REGENMODE
 70
     1
  9
$FILLMODE
 70
     1
  9
$QTEXTMODE
 70
     0
  9
$MIRRTEXT
 70
     1
  9
$LTSCALE
 40
1.0
  9
$ATTMODE
 70
     1
  9
$TEXTSIZE
 40
20.0
  9
$TRACEWID
 40
1.0
  9
$TEXTSTYLE
  7
STANDARD
  9
$CLAYER
  8
0
  9
$CELTYPE
  6
BYLAYER
  9
$CECOLOR
 62
   256
  9
$CELTSCALE
 40
10.0
  9
$DISPSILH
 70
     0
  9
$DIMSCALE
 40
1.0
  9
$DIMASZ
 40
2.5
  9
$DIMEXO
 40
1.0
  9
$DIMDLI
 40
10.0
  9
$DIMRND
 40
0.0
  9
$DIMDLE
 40
0.0
  9
$DIMEXE
 40
1.0
  9
$DIMTP
 40
0.1
  9
$DIMTM
 40
0.1
  9
$DIMTXT
 40
3.5
  9
$DIMCEN
 40
0.0
  9
$DIMTSZ
 40
0.0
  9
$DIMTOL
 70
     0
  9
$DIMLIM
 70
     0
  9
$DIMTIH
 70
     0
  9
$DIMTOH
 70
     0
  9
$DIMSE1
 70
     0
  9
$DIMSE2
 70
     0
  9
$DIMTAD
 70
     1
  9
$DIMZIN
 70
     8
  9
$DIMBLK
  1

  9
$DIMASO
 70
     1
  9
$DIMSHO
 70
     1
  9
$DIMPOST
  1

  9
$DIMAPOST
  1
"
  9
$DIMALT
 70
     0
  9
$DIMALTD
 70
     2
  9
$DIMALTF
 40
0.0393701
  9
$DIMLFAC
 40
1.0
  9
$DIMTOFL
 70
     1
  9
$DIMTVP
 40
0.0
  9
$DIMTIX
 70
     0
  9
$DIMSOXD
 70
     0
  9
$DIMSAH
 70
     0
  9
$DIMBLK1
  1

  9
$DIMBLK2
  1

  9
$DIMSTYLE
  2
AM_DIN
  9
$DIMCLRD
 70
   256
  9
$DIMCLRE
 70
   256
  9
$DIMCLRT
 70
     2
  9
$DIMTFAC
 40
0.71
  9
$DIMGAP
 40
1.5
  9
$DIMJUST
 70
     0
  9
$DIMSD1
 70
     0
  9
$DIMSD2
 70
     0
  9
$DIMTOLJ
 70
     0
  9
$DIMTZIN
 70
     8
  9
$DIMALTZ
 70
     0
  9
$DIMALTTZ
 70
     0
  9
$DIMUPT
 70
     0
  9
$DIMDEC
 70
     2
  9
$DIMTDEC
 70
     3
  9
$DIMALTU
 70
     2
  9
$DIMALTTD
 70
     4
  9
$DIMTXSTY
  7
STANDARD
  9
$DIMAUNIT
 70
     0
  9
$DIMADEC
 70
     0
  9
$DIMALTRND
 40
0.0
  9
$DIMAZIN
 70
     2
  9
$DIMDSEP
 70
    46
  9
$DIMATFIT
 70
     3
  9
$DIMFRAC
 70
     0
  9
$DIMLDRBLK
  1

  9
$DIMLUNIT
 70
     2
  9
$DIMLWD
 70
    -1
  9
$DIMLWE
 70
    -1
  9
$DIMTMOVE
 70
     0
  9
$LUNITS
 70
     2
  9
$LUPREC
 70
     2
  9
$SKETCHINC
 40
1.0
  9
$FILLETRAD
 40
2.5
  9
$AUNITS
 70
     0
  9
$AUPREC
 70
     0
  9
$MENU
  1
.
  9
$ELEVATION
 40
0.0
  9
$PELEVATION
 40
0.0
  9
$THICKNESS
 40
0.0
  9
$LIMCHECK
 70
     0
  9
$CHAMFERA
 40
2.5
  9
$CHAMFERB
 40
2.5
  9
$CHAMFERC
 40
0.0
  9
$CHAMFERD
 40
0.0
  9
$SKPOLY
 70
     0
  9
$TDCREATE
 40
2450382.390390463
  9
$TDUCREATE
 40
2450382.348723796
  9
$TDUPDATE
 40
2455989.615837268
  9
$TDUUPDATE
 40
2455989.574170602
  9
$TDINDWG
 40
0.1966108796
  9
$TDUSRTIMER
 40
0.1966108796
  9
$USRTIMER
 70
     1
  9
$ANGBASE
 50
0.0
  9
$ANGDIR
 70
     0
  9
$PDMODE
 70
     0
  9
$PDSIZE
 40
0.0
  9
$PLINEWID
 40
0.0
  9
$SPLFRAME
 70
     0
  9
$SPLINETYPE
 70
     6
  9
$SPLINESEGS
 70
     8
  9
$HANDSEED
  5
FC3
  9
$SURFTAB1
 70
     6
  9
$SURFTAB2
 70
     6
  9
$SURFTYPE
 70
     6
  9
$SURFU
 70
     6
  9
$SURFV
 70
     6
  9
$UCSBASE
  2

  9
$UCSNAME
  2

  9
$UCSORG
 10
0.0
 20
0.0
 30
0.0
  9
$UCSXDIR
 10
1.0
 20
0.0
 30
0.0
  9
$UCSYDIR
 10
0.0
 20
1.0
 30
0.0
  9
$UCSORTHOREF
  2

  9
$UCSORTHOVIEW
 70
     0
  9
$UCSORGTOP
 10
0.0
 20
0.0
 30
0.0
  9
$UCSORGBOTTOM
 10
0.0
 20
0.0
 30
0.0
  9
$UCSORGLEFT
 10
0.0
 20
0.0
 30
0.0
  9
$UCSORGRIGHT
 10
0.0
 20
0.0
 30
0.0
  9
$UCSORGFRONT
 10
0.0
 20
0.0
 30
0.0
  9
$UCSORGBACK
 10
0.0
 20
0.0
 30
0.0
  9
$PUCSBASE
  2

  9
$PUCSNAME
  2

  9
$PUCSORG
 10
0.0
 20
0.0
 30
0.0
  9
$PUCSXDIR
 10
1.0
 20
0.0
 30
0.0
  9
$PUCSYDIR
 10
0.0
 20
1.0
 30
0.0
  9
$PUCSORTHOREF
  2

  9
$PUCSORTHOVIEW
 70
     0
  9
$PUCSORGTOP
 10
0.0
 20
0.0
 30
0.0
  9
$PUCSORGBOTTOM
 10
0.0
 20
0.0
 30
0.0
  9
$PUCSORGLEFT
 10
0.0
 20
0.0
 30
0.0
  9
$PUCSORGRIGHT
 10
0.0
 20
0.0
 30
0.0
  9
$PUCSORGFRONT
 10
0.0
 20
0.0
 30
0.0
  9
$PUCSORGBACK
 10
0.0
 20
0.0
 30
0.0
  9
$USERI1
 70
     0
  9
$USERI2
 70
     0
  9
$USERI3
 70
     0
  9
$USERI4
 70
     0
  9
$USERI5
 70
     0
  9
$USERR1
 40
0.0
  9
$USERR2
 40
0.0
  9
$USERR3
 40
0.0
  9
$USERR4
 40
0.0
  9
$USERR5
 40
0.0
  9
$WORLDVIEW
 70
     1
  9
$SHADEDGE
 70
     3
  9
$SHADEDIF
 70
    70
  9
$TILEMODE
 70
     1
  9
$MAXACTVP
 70
    16
  9
$PINSBASE
 10
0.0
 20
0.0
 30
0.0
  9
$PLIMCHECK
 70
     0
  9
$PEXTMIN
 10
1.000000000000000E+20
 20
1.000000000000000E+20
 30
1.000000000000000E+20
  9
$PEXTMAX
 10
-1.000000000000000E+20
 20
-1.000000000000000E+20
 30
-1.000000000000000E+20
  9
$PLIMMIN
 10
0.0
 20
0.0
  9
$PLIMMAX
 10
420.0
 20
297.0
  9
$UNITMODE
 70
     0
  9
$VISRETAIN
 70
     0
  9
$PLINEGEN
 70
     0
  9
$PSLTSCALE
 70
     0
  9
$TREEDEPTH
 70
  3020
  9
$CMLSTYLE
  2
STANDARD
  9
$CMLJUST
 70
     0
  9
$CMLSCALE
 40
1.0
  9
$PROXYGRAPHICS
 70
     1
  9
$MEASUREMENT
 70
     1
  9
$CELWEIGHT
370
    -1
  9
$ENDCAPS
280
     0
  9
$JOINSTYLE
280
     0
  9
$LWDISPLAY
290
     0
  9
$INSUNITS
 70
     4
  9
$HYPERLINKBASE
  1

  9
$STYLESHEET
  1
Zeich.ctb
  9
$XEDIT
290
     1
  9
$CEPSNTYPE
380
     0
  9
$PSTYLEMODE
290
     1
  9
$FINGERPRINTGUID
  2
{325BFBD5-B27C-480F-A6FD-52B59258B312}
  9
$VERSIONGUID
  2
{FE3FFC9D-3710-4E5D-8883-6898D918B8D7}
  9
$EXTNAMES
290
     1
  9
$PSVPSCALE
 40
0.0
  9
$OLESTARTUP
290
     0
  9
$SORTENTS
280
   127
  9
$INDEXCTL
280
     0
  9
$HIDETEXT
280
     0
  9
$XCLIPFRAME
290
     0
  9
$HALOGAP
280
     0
  9
$OBSCOLOR
 70
   257
  9
$OBSLTYPE
280
     0
  9
$INTERSECTIONDISPLAY
280
     0
  9
$INTERSECTIONCOLOR
 70
   257
  9
$DIMASSOC
280
     1
  9
$PROJECTNAME
  1

  0
ENDSEC
  0
SECTION
  2
CLASSES
  0
CLASS
  1
ACMESTATEMGR
  2
AcMeStateMgr
  3
AcMeServices
 90
     1024
 91
        1
280
     0
281
     0
  0
CLASS
  1
ACMESCOPE
  2
AcMeScope
  3
AcMeServices
 90
     1024
 91
        1
280
     0
281
     0
  0
CLASS
  1
ACMECOMMANDHISTORY
  2
AcMeCommandHistory
  3
AcMeServices
 90
     1024
 91
        1
280
     0
281
     0
  0
CLASS
  1
ACRFINSADJUSTERMGR
  2
AcRfInsAdjusterMgr
  3
AcMeServices
 90
     1024
 91
        1
280
     0
281
     0
  0
CLASS
  1
ACMEDRAWINGMAN
  2
AcMeDrawingMan
  3
AcMeServices
 90
     1024
 91
        1
280
     0
281
     0
  0
CLASS
  1
AMATTR
  2
AcMeAttribute
  3
AcMeServices
 90
     1024
 91
        0
280
     0
281
     0
  0
CLASS
  1
ACMEBOMCOLUMN
  2
AcMeBOMColumn
  3
AcMeServices
 90
     1024
 91
        0
280
     0
281
     0
  0
CLASS
  1
ACMEBOMCONF
  2
AcMeBOMConf
  3
AcMeServices
 90
     1024
 91
        0
280
     0
281
     0
  0
CLASS
  1
ACMEBOMTABLE
  2
AcMeBOMTable
  3
AcMeServices
 90
     1024
 91
        0
280
     0
281
     0
  0
CLASS
  1
ACMEBOMENTRY
  2
AcMeBOMEntry
  3
AcMeServices
 90
     1024
 91
        0
280
     0
281
     0
  0
CLASS
  1
ACMEVIEW
  2
AcMeView
  3
AcMeServices
 90
     1024
 91
        0
280
     0
281
     0
  0
CLASS
  1
DICTIONARYVAR
  2
AcDbDictionaryVar
  3
ObjectDBX Classes
 90
        0
 91
       32
280
     0
281
     0
  0
CLASS
  1
LAYER_INDEX
  2
AcDbLayerIndex
  3
ObjectDBX Classes
 90
        0
 91
        0
280
     0
281
     0
  0
CLASS
  1
IDBUFFER
  2
AcDbIdBuffer
  3
ObjectDBX Classes
 90
        0
 91
        0
280
     0
281
     0
  0
CLASS
  1
ACDBDICTIONARYWDFLT
  2
AcDbDictionaryWithDefault
  3
ObjectDBX Classes
 90
        0
 91
        1
280
     0
281
     0
  0
CLASS
  1
ACME_DOCUMENT
  2
AcMeDbDoc
  3
AcMeServices
 90
     1024
 91
        2
280
     0
281
     0
  0
CLASS
  1
AMGSETTINGSOBJ
  2
AmgSettingsObj
  3
"AcadM|Product Description: AutoCAD Mechanical|Company: Autodesk, Inc."
 90
     1024
 91
        4
280
     0
281
     0
  0
CLASS
  1
ACIMSYSVARMAN
  2
AcImSysVarManager
  3
AcMeServices
 90
     1024
 91
        5
280
     0
281
     0
  0
CLASS
  1
ACIMINTSYSVAR
  2
AcImIntSysVar
  3
AcMeServices
 90
     1024
 91
       27
280
     0
281
     0
  0
CLASS
  1
ACDBENTITYCACHE
  2
AcMeEntityCache
  3
AcMeServices
 90
     1024
 91
        1
280
     0
281
     0
  0
CLASS
  1
GSMANAGER
  2
AcMeGSManager
  3
AcMeServices
 90
     1024
 91
        1
280
     0
281
     0
  0
CLASS
  1
AMDTINTERNALREACTOR
  2
AmdtInternalReactor
  3
AcMeServices
 90
     1024
 91
        2
280
     0
281
     0
  0
CLASS
  1
ACGREFMASTER
  2
AcGrefMaster
  3
AcAttribServices
 90
     1024
 91
        1
280
     0
281
     0
  0
CLASS
  1
AM_DRAWING_MGR
  2
AcDmDwgMgr
  3
AcMechDwgViewMgmt
 90
     1024
 91
        1
280
     0
281
     0
  0
CLASS
  1
AM_DWG_DOCUMENT
  2
AcDmDwgDocument
  3
AcMechDwgViewMgmt
 90
     1024
 91
        1
280
     0
281
     0
  0
CLASS
  1
AM_DWG_SHEET
  2
AcDmSheet
  3
AcMechDwgViewMgmt
 90
     1024
 91
        1
280
     0
281
     0
  0
CLASS
  1
AM_VIEWDIMPARMAP
  2
AcDmViewDimParMap
  3
AcMechDwgViewMgmt
 90
     1024
 91
        1
280
     0
281
     0
  0
CLASS
  1
ACIMREALSYSVAR
  2
AcImRealSysVar
  3
AcMeServices
 90
     1024
 91
        1
280
     0
281
     0
  0
CLASS
  1
AM_DWGMGR_NAME
  2
AcDmDwgMgrName
  3
AcMechDwgViewMgmt
 90
     1024
 91
        1
280
     0
281
     0
  0
CLASS
  1
ACME_DATABASE
  2
AcMeDbDatabase
  3
AcMeServices
 90
     1024
 91
        3
280
     0
281
     0
  0
CLASS
  1
ACGREFACADMASTER
  2
AcGrefacadMaster
  3
AcGrefServices
 90
     1024
 91
        1
280
     0
281
     0
  0
CLASS
  1
AMDTMENUSTATEMGR
  2
AmdtMenuStateMgr
  3
McadcomServices
 90
     1024
 91
        1
280
     0
281
     0
  0
CLASS
  1
AMDTMCOMMENUSTATE
  2
AmdtMcomMenuState
  3
McadcomServices
 90
     1024
 91
        1
280
     0
281
     0
  0
CLASS
  1
AMIMASTER
  2
AmiMaster
  3
AmiServices
 90
     1024
 91
        1
280
     0
281
     0
  0
CLASS
  1
MAPIAMMOUDLE
  2
MApiAmModule
  3
MApiAmServices
 90
     1024
 91
        1
280
     0
281
     0
  0
CLASS
  1
AMDTADMENUSTATE
  2
AmdtAdMenuState
  3
DesignerServices
 90
     1024
 91
        1
280
     0
281
     0
  0
CLASS
  1
ADAPPL
  2
AcAdAppl
  3
DesignerServices
 90
     1024
 91
        1
280
     0
281
     0
  0
CLASS
  1
DEPMGR
  2
AcAdDepMgr
  3
DesignerServices
 90
     1024
 91
        1
280
     0
281
     0
  0
CLASS
  1
PARAMMGR
  2
AcAdParamMgr
  3
DesignerServices
 90
     1024
 91
        1
280
     0
281
     0
  0
CLASS
  1
PARAMSCOPE
  2
AcAdParamScope
  3
DesignerServices
 90
     1024
 91
        1
280
     0
281
     0
  0
CLASS
  1
NAMEDAPPL
  2
AcAdNamedAppl
  3
DesignerServices
 90
     1024
 91
        1
280
     0
281
     0
  0
CLASS
  1
AMDTDMMENUSTATE
  2
AmdtDmMenuState
  3
AcMechDwgViewMgmt
 90
     1024
 91
        1
280
     0
281
     0
  0
CLASS
  1
AMDTAMMENUSTATE
  2
AmdtAmMenuState
  3
DesignerAssemblies
 90
     1024
 91
        1
280
     0
281
     0
  0
CLASS
  1
ACIMSTRSYSVAR
  2
AcImStrSysVar
  3
AcMeServices
 90
     1024
 91
        5
280
     0
281
     0
  0
CLASS
  1
ACAMPROJECT
  2
AcAmProject
  3
DesignerAssemblies
 90
     1024
 91
        1
280
     0
281
     0
  0
CLASS
  1
ACAMGRCOMPDEF
  2
AcAmGrCompDef
  3
DesignerAssemblies
 90
     1024
 91
        1
280
     0
281
     0
  0
CLASS
  1
ACCMCONTEXT
  2
AcCmContext
  3
DesignerAssemblies
 90
     1024
 91
        1
280
     0
281
     0
  0
CLASS
  1
ACAMCOMPDEF
  2
AcAmCompDef
  3
DesignerAssemblies
 90
     1024
 91
        1
280
     0
281
     0
  0
CLASS
  1
ACAMCOMPDEFMGR
  2
AcAmCompDefMgr
  3
DesignerAssemblies
 90
     1024
 91
        1
280
     0
281
     0
  0
CLASS
  1
AMCONTEXTMGR
  2
AcAmContextMgr
  3
DesignerAssemblies
 90
     1024
 91
        1
280
     0
281
     0
  0
CLASS
  1
ACAMCONTEXTMODELER
  2
AcAmContextModeler
  3
DesignerAssemblies
 90
     1024
 91
        1
280
     0
281
     0
  0
CLASS
  1
ACMDATADICTIONARY
  2
AcmDataDictionary
  3
"AcmSymBB|Product Description: AutoCAD Mechanical|Company: Autodesk, Inc."
 90
     1024
 91
        1
280
     0
281
     0
  0
CLASS
  1
CATALOGSTATE
  2
AcAmCatalogState
  3
DesignerAssemblies
 90
     1024
 91
        1
280
     0
281
     0
  0
CLASS
  1
ACAMGRCOMPDEFSET
  2
AcAmGrCompDefSet
  3
DesignerAssemblies
 90
     1024
 91
        1
280
     0
281
     0
  0
CLASS
  1
AMDTBROWSERDBTAB
  2
AmdtBrowserDbTab
  3
McadcomServices
 90
     1024
 91
        1
280
     0
281
     0
  0
CLASS
  1
CBROWSERAPPOBJECT
  2
CBrowserAppObject
  3
McadcomServices
 90
     1024
 91
        3
280
     0
281
     0
  0
CLASS
  1
DM_PLACEHOLDER
  2
AcDmSelsetPlaceholder
  3
AcMechDwgViewMgmt
 90
     1024
 91
        1
280
     0
281
     0
  0
CLASS
  1
ACMSTANDARDANSI
  2
AcmStandardANSI
  3
"Amdt_StdImp|Product Description: AutoCAD Mechanical|Company: Autodesk, Inc."
 90
     1024
 91
        1
280
     0
281
     0
  0
CLASS
  1
AMGOBJPROPCFG
  2
AmgObjPropCfg
  3
"AmgLay|Product Description: AutoCAD Mechanical|Company: Autodesk, Inc."
 90
     1025
 91
        1
280
     0
281
     0
  0
CLASS
  1
ACMSURFSTANDARDANSI
  2
AcmSurfTextStdANSI
  3
"Amdt_StdImp|Product Description: AutoCAD Mechanical|Company: Autodesk, Inc."
 90
     1024
 91
        1
280
     0
281
     0
  0
CLASS
  1
ACMFCFSTANDARDANSI
  2
AcmFCFStdANSI
  3
"Amdt_StdImp|Product Description: AutoCAD Mechanical|Company: Autodesk, Inc."
 90
     1024
 91
        1
280
     0
281
     0
  0
CLASS
  1
ACMWELDSTANDARDANSI
  2
AcmWeldingStdANSI
  3
"Amdt_StdImp|Product Description: AutoCAD Mechanical|Company: Autodesk, Inc."
 90
     1024
 91
        1
280
     0
281
     0
  0
CLASS
  1
ACMIDSTANDARDANSI
  2
AcmIdStdANSI
  3
"Amdt_StdImp|Product Description: AutoCAD Mechanical|Company: Autodesk, Inc."
 90
     1024
 91
        1
280
     0
281
     0
  0
CLASS
  1
ACMDATUMSTANDARDANSI
  2
AcmDatumStdANSI
  3
"Amdt_StdImp|Product Description: AutoCAD Mechanical|Company: Autodesk, Inc."
 90
     1024
 91
        1
280
     0
281
     0
  0
CLASS
  1
ACMBOMSTANDARDANSI
  2
AcmBOMStdANSI
  3
"Amdt_StdImp|Product Description: AutoCAD Mechanical|Company: Autodesk, Inc."
 90
     1024
 91
        1
280
     0
281
     0
  0
CLASS
  1
ACMDETAILSTANDARDANSI
  2
AmdtDetailSymStdANSI
  3
"Amdt_StdImp|Product Description: AutoCAD Mechanical|Company: Autodesk, Inc."
 90
     1024
 91
        1
280
     0
281
     0
  0
CLASS
  1
ACMSECTIONSTANDARDANSI
  2
AmdtSectionSymStdANSI
  3
"Amdt_StdImp|Product Description: AutoCAD Mechanical|Company: Autodesk, Inc."
 90
     1024
 91
        1
280
     0
281
     0
  0
CLASS
  1
ACMCENTERLINESTANDARDANSI
  2
AmdtCenterLineStdANSI
  3
"Amdt_StdImp|Product Description: AutoCAD Mechanical|Company: Autodesk, Inc."
 90
     1024
 91
        1
280
     0
281
     0
  0
CLASS
  1
ACMTHREADLINESTANDARDANSI
  2
AmdtThreadLineStdANSI
  3
"Amdt_StdImp|Product Description: AutoCAD Mechanical|Company: Autodesk, Inc."
 90
     1024
 91
        1
280
     0
281
     0
  0
CLASS
  1
ACMNOTESTANDARDANSI
  2
AmdtNoteStdANSI
  3
"Amdt_StdImp|Product Description: AutoCAD Mechanical|Company: Autodesk, Inc."
 90
     1024
 91
        1
280
     0
281
     0
  0
CLASS
  1
AMDTNOTETEMPLATEDB
  2
AmdtNoteTemplateDB
  3
AcmSymBB|Product Description: AutoCAD Mechanical|Company: Autodesk, Inc.
 90
     1024
 91
       10
280
     0
281
     0
  0
CLASS
  1
ACAMGLAYSTD
  2
AcAmgLayStd
  3
"AmgLay|Product Description: AutoCAD Mechanical|Company: Autodesk, Inc."
 90
     1024
 91
        2
280
     0
281
     0
  0
CLASS
  1
ACAMGDIMSTD
  2
AcAmgDimStd
  3
"AmgDim|Product Description: AutoCAD Mechanical|Company: Autodesk, Inc."
 90
     1024
 91
        2
280
     0
281
     0
  0
CLASS
  1
ACAMGHOLECHARTSTDANSI
  2
AcAmgHoleChartStdANSI
  3
AmgDim|Product Description: AutoCAD Mechanical|Company: Autodesk, Inc.
 90
     1024
 91
        1
280
     0
281
     0
  0
CLASS
  1
ACAMGTITLESTD
  2
AcAmgTitleStd
  3
"AmgTitle|Product Description: AutoCAD Mechanical|Company: Autodesk, Inc."
 90
     4095
 91
        2
280
     0
281
     0
  0
CLASS
  1
ACAMGFILTERDAT
  2
AcAmgFilterDat
  3
"AcadM|Product Description: AutoCAD Mechanical|Company: Autodesk, Inc."
 90
     1024
 91
        6
280
     0
281
     0
  0
CLASS
  1
TABLESTYLE
  2
AcDbTableStyle
  3
ObjectDBX Classes
 90
     4095
 91
        1
280
     0
281
     0
  0
CLASS
  1
ACMDATAENTRYBLOCK
  2
AcmDataEntryBlock
  3
AcmSymBB|Product Description: AutoCAD Mechanical|Company: Autodesk, Inc.
 90
     1024
 91
        1
280
     0
281
     0
  0
CLASS
  1
AC_AM_2D_XREF_MGR
  2
AcAmXrefMgr2d
  3
DesignerAssemblies
 90
     1024
 91
        1
280
     0
281
     0
  0
CLASS
  1
SORTENTSTABLE
  2
AcDbSortentsTable
  3
ObjectDBX Classes
 90
        0
 91
        2
280
     0
281
     0
  0
CLASS
  1
VAACXREFPANELOBJECT
  2
VaAcXREFPanelObject
  3
VAAC_ADDIN
 90
        0
 91
        0
280
     0
281
     0
  0
CLASS
  1
VAACIMAGEINVENTORY
  2
VaAcImageInventory
  3
VAAC_ADDIN
 90
        0
 91
        0
280
     0
281
     0
  0
CLASS
  1
PLOTSETTINGS
  2
AcDbPlotSettings
  3
ObjectDBX Classes
 90
        0
 91
        1
280
     0
281
     0
  0
CLASS
  1
MATERIAL
  2
AcDbMaterial
  3
ObjectDBX Classes
 90
     1153
 91
        3
280
     0
281
     0
  0
CLASS
  1
VISUALSTYLE
  2
AcDbVisualStyle
  3
ObjectDBX Classes
 90
     4095
 91
       16
280
     0
281
     0
  0
CLASS
  1
SCALE
  2
AcDbScale
  3
ObjectDBX Classes
 90
     1153
 91
       33
280
     0
281
     0
  0
CLASS
  1
MLEADERSTYLE
  2
AcDbMLeaderStyle
  3
ACDB_MLEADERSTYLE_CLASS
 90
     4095
 91
        1
280
     0
281
     0
  0
CLASS
  1
ACMTAPERSTANDARDANSI
  2
AcmTaperStdANSI
  3
"Amdt_StdImp|Product Description: AutoCAD Mechanical|Company: Autodesk, Inc."
 90
     1024
 91
        1
280
     0
281
     0
  0
CLASS
  1
ACMANOOTATIONVIEWSTANDARDANSI
  2
AmdtAnViewStdANSI
  3
"Amdt_StdImp|Product Description: AutoCAD Mechanical|Company: Autodesk, Inc."
 90
     1024
 91
        1
280
     0
281
     0
  0
CLASS
  1
ACMDIMBREAKPERSREACTOR
  2
AcmDimBreakPersReactor
  3
AmgDim|Product Description: AutoCAD Mechanical|Company: Autodesk, Inc.
 90
     4095
 91
        2
280
     0
281
     0
  0
CLASS
  1
AMDTNOTE
  2
AmdtNote
  3
"AcmSymBB|Product Description: AutoCAD Mechanical|Company: Autodesk, Inc."
 90
     4095
 91
        3
280
     0
281
     1
  0
CLASS
  1
ACMSTANDARDDIN
  2
AcmStandardDIN
  3
"Amdt_StdImp|Product Description: AutoCAD Mechanical|Company: Autodesk, Inc."
 90
     1024
 91
        1
280
     0
281
     0
  0
CLASS
  1
AMDTEDGESTANDARDDIN13715
  2
AmdtEdgeStdDIN13715
  3
"Amdt_StdImp|Product Description: AutoCAD Mechanical|Company: Autodesk, Inc."
 90
     1024
 91
        1
280
     0
281
     0
  0
CLASS
  1
ACMSURFSTANDARDDIN2002
  2
AcmSurfTextStdDIN2002
  3
"Amdt_StdImp|Product Description: AutoCAD Mechanical|Company: Autodesk, Inc."
 90
     1024
 91
        1
280
     0
281
     0
  0
CLASS
  1
ACMFCFSTANDARDDIN
  2
AcmFCFStdDIN
  3
"Amdt_StdImp|Product Description: AutoCAD Mechanical|Company: Autodesk, Inc."
 90
     1024
 91
        1
280
     0
281
     0
  0
CLASS
  1
ACMWELDSTANDARDDIN
  2
AcmWeldingStdDIN
  3
"Amdt_StdImp|Product Description: AutoCAD Mechanical|Company: Autodesk, Inc."
 90
     1024
 91
        1
280
     0
281
     0
  0
CLASS
  1
ACMIDSTANDARDDIN
  2
AcmIdStdDIN
  3
"Amdt_StdImp|Product Description: AutoCAD Mechanical|Company: Autodesk, Inc."
 90
     1024
 91
        1
280
     0
281
     0
  0
CLASS
  1
ACMDATUMSTANDARDDIN
  2
AcmDatumStdDIN
  3
"Amdt_StdImp|Product Description: AutoCAD Mechanical|Company: Autodesk, Inc."
 90
     1024
 91
        1
280
     0
281
     0
  0
CLASS
  1
ACMBOMSTANDARDDIN
  2
AcmBOMStdDIN
  3
"Amdt_StdImp|Product Description: AutoCAD Mechanical|Company: Autodesk, Inc."
 90
     1024
 91
        1
280
     0
281
     0
  0
CLASS
  1
ACMDETAILSTANDARDDIN
  2
AmdtDetailSymStdDIN
  3
"Amdt_StdImp|Product Description: AutoCAD Mechanical|Company: Autodesk, Inc."
 90
     1024
 91
        1
280
     0
281
     0
  0
CLASS
  1
ACMSECTIONSTANDARDDIN
  2
AmdtSectionSymStdDIN
  3
"Amdt_StdImp|Product Description: AutoCAD Mechanical|Company: Autodesk, Inc."
 90
     1024
 91
        1
280
     0
281
     0
  0
CLASS
  1
ACMCENTERLINESTANDARDDIN
  2
AmdtCenterLineStdDIN
  3
"Amdt_StdImp|Product Description: AutoCAD Mechanical|Company: Autodesk, Inc."
 90
     1024
 91
        1
280
     0
281
     0
  0
CLASS
  1
ACMTHREADLINESTANDARDDIN
  2
AmdtThreadLineStdDIN
  3
"Amdt_StdImp|Product Description: AutoCAD Mechanical|Company: Autodesk, Inc."
 90
     1024
 91
        1
280
     0
281
     0
  0
CLASS
  1
ACMNOTESTANDARDDIN
  2
AmdtNoteStdDIN
  3
"Amdt_StdImp|Product Description: AutoCAD Mechanical|Company: Autodesk, Inc."
 90
     1024
 91
        1
280
     0
281
     0
  0
CLASS
  1
ACMTAPERSTANDARDDIN
  2
AcmTaperStdDIN
  3
"Amdt_StdImp|Product Description: AutoCAD Mechanical|Company: Autodesk, Inc."
 90
     1024
 91
        1
280
     0
281
     0
  0
CLASS
  1
ACMANOOTATIONVIEWSTANDARDDIN
  2
AmdtAnViewStdDIN
  3
"Amdt_StdImp|Product Description: AutoCAD Mechanical|Company: Autodesk, Inc."
 90
     1024
 91
        1
280
     0
281
     0
  0
CLASS
  1
ACAMGHOLECHARTSTDDIN
  2
AcAmgHoleChartStdDIN
  3
AmgDim|Product Description: AutoCAD Mechanical|Company: Autodesk, Inc.
 90
     1024
 91
        1
280
     0
281
     0
  0
CLASS
  1
CAMSSTRUCTBTNSTATE
  2
StructBtnState
  3
DesignerAssemblies
 90
     1024
 91
        1
280
     0
281
     0
  0
CLASS
  1
CELLSTYLEMAP
  2
AcDbCellStyleMap
  3
ObjectDBX Classes
 90
     1152
 91
        8
280
     0
281
     0
  0
ENDSEC
  0
SECTION
  2
TABLES
  0
TABLE
  2
VPORT
  5
13
330
0
100
AcDbSymbolTable
 70
     1
  0
VPORT
  5
750
330
13
100
AcDbSymbolTableRecord
100
AcDbViewportTableRecord
  2
*Active
 70
     0
 10
0.0
 20
0.0
 11
1.0
 21
1.0
 12
150.0
 22
175.0
 13
0.0
 23
0.0
 14
2.5
 24
2.5
 15
10.0
 25
10.0
 16
0.0
 26
0.0
 36
1.0
 17
0.0
 27
0.0
 37
0.0
 40
350.0
 41
1.511511511511511
 42
50.0
 43
0.0
 44
0.0
 50
0.0
 51
0.0
 71
     0
 72
   100
 73
     1
 74
     0
 75
     0
 76
     0
 77
     0
 78
     0
281
     0
 65
     1
110
0.0
120
0.0
130
0.0
111
1.0
121
0.0
131
0.0
112
0.0
122
1.0
132
0.0
 79
     0
146
0.0
  0
ENDTAB
  0
TABLE
  2
LTYPE
  5
E
330
0
100
AcDbSymbolTable
 70
    52
  0
LTYPE
  5
F
330
E
100
AcDbSymbolTableRecord
100
AcDbLinetypeTableRecord
  2
BYBLOCK
 70
     0
  3

 72
    65
 73
     0
 40
0.0
  0
LTYPE
  5
10
330
E
100
AcDbSymbolTableRecord
100
AcDbLinetypeTableRecord
  2
BYLAYER
 70
     0
  3

 72
    65
 73
     0
 40
0.0
  0
LTYPE
  5
6
330
E
100
AcDbSymbolTableRecord
100
AcDbLinetypeTableRecord
  2
CONTINUOUS
 70
     0
  3
Solid line
 72
    65
 73
     0
 40
0.0
  0
LTYPE
  5
29
330
E
100
AcDbSymbolTableRecord
100
AcDbLinetypeTableRecord
  2
MITTE
 70
     0
  3
____ _ ____ _ ____ _ ____ _ ____ _ ____ _ ____ 
 72
    65
 73
     4
 40
2.0
 49
1.25
 74
     0
 49
-0.25
 74
     0
 49
0.25
 74
     0
 49
-0.25
 74
     0
  0
LTYPE
  5
81
330
E
100
AcDbSymbolTableRecord
100
AcDbLinetypeTableRecord
  2
HIDDEN
 70
     0
  3
Verdeckt
 72
    65
 73
     2
 40
0.375
 49
0.25
 74
     0
 49
-0.125
 74
     0
  0
LTYPE
  5
82
330
E
100
AcDbSymbolTableRecord
100
AcDbLinetypeTableRecord
  2
PHANTOM2
 70
     0
  3
Phantom (.5x) ___ _ _ ___ _ _ ___ _ _ ___ _ _
 72
    65
 73
     6
 40
1.25
 49
0.625
 74
     0
 49
-0.125
 74
     0
 49
0.125
 74
     0
 49
-0.125
 74
     0
 49
0.125
 74
     0
 49
-0.125
 74
     0
  0
LTYPE
  5
83
330
E
100
AcDbSymbolTableRecord
100
AcDbLinetypeTableRecord
  2
CENTER
 70
     0
  3
Mitte ____ _ ____ _ ____ _ ____ _ ____ _ ____
 72
    65
 73
     4
 40
2.0
 49
1.25
 74
     0
 49
-0.25
 74
     0
 49
0.25
 74
     0
 49
-0.25
 74
     0
  0
LTYPE
  5
CD
330
E
100
AcDbSymbolTableRecord
100
AcDbLinetypeTableRecord
  2
Amconstr
 70
     0
  3
_______________________
 72
    65
 73
     2
 40
9999.0
 49
9999.0
 74
     0
 49
0.0
 74
     0
  0
LTYPE
  5
D3
330
E
100
AcDbSymbolTableRecord
100
AcDbLinetypeTableRecord
  2
CENTER2
 70
     0
  3
Center (.5x) ___ _ ___ _ ___ _ ___ _ ___ _ ___
 72
    65
 73
     4
 40
1.125
 49
0.75
 74
     0
 49
-0.125
 74
     0
 49
0.125
 74
     0
 49
-0.125
 74
     0
  0
LTYPE
  5
D4
330
E
100
AcDbSymbolTableRecord
100
AcDbLinetypeTableRecord
  2
HIDDEN2
 70
     0
  3
Hidden (.5x) _ _ _ _ _ _ _ _ _ _ _ _ _ _ _ _ _
 72
    65
 73
     2
 40
0.1875
 49
0.125
 74
     0
 49
-0.0625
 74
     0
  0
LTYPE
  5
D5
330
E
100
AcDbSymbolTableRecord
100
AcDbLinetypeTableRecord
  2
Amzigzag2
 70
     0
  3
/\/-/\/-/\/-/\/-/\/-/\/
 72
    65
 73
     2
 40
0.4401
 49
0.0001
 74
     4
 75
   135
340
D1
 46
0.0016
 50
0.0
 44
0.0
 45
0.0
 49
-0.4400000000000001
 74
     0
  0
LTYPE
  5
E3
330
E
100
AcDbSymbolTableRecord
100
AcDbLinetypeTableRecord
  2
ACANSTGB
 70
     0
  3
__ . . __ . .
 72
    65
 73
     6
 40
0.35433070866
 49
0.15748031496
 74
     0
 49
-0.03937007874
 74
     0
 49
0.03937007874
 74
     0
 49
-0.03937007874
 74
     0
 49
0.03937007874
 74
     0
 49
-0.03937007874
 74
     0
  0
LTYPE
  5
E4
330
E
100
AcDbSymbolTableRecord
100
AcDbLinetypeTableRecord
  2
ACANSTGL
 70
     0
  3
_ _ _ _ _
 72
    65
 73
     2
 40
0.11811023622
 49
0.07874015748
 74
     0
 49
-0.03937007874
 74
     0
  0
LTYPE
  5
86F
330
E
100
AcDbSymbolTableRecord
100
AcDbLinetypeTableRecord
  2
ACDINWELD
 70
     0
  3
_ _ _ _ _
 72
    65
 73
     2
 40
2.0
 49
2.0
 74
     0
 49
-1.0
 74
     0
  0
LTYPE
  5
870
330
E
100
AcDbSymbolTableRecord
100
AcDbLinetypeTableRecord
  2
ACDINTGB
 70
     0
  3
__ . . __ . .
 72
    65
 73
     6
 40
9.0
 49
4.0
 74
     0
 49
-1.0
 74
     0
 49
1.0
 74
     0
 49
-1.0
 74
     0
 49
1.0
 74
     0
 49
-1.0
 74
     0
  0
LTYPE
  5
871
330
E
100
AcDbSymbolTableRecord
100
AcDbLinetypeTableRecord
  2
ACDINTGL
 70
     0
  3
_ _ _ _ _
 72
    65
 73
     2
 40
3.0
 49
2.0
 74
     0
 49
-1.0
 74
     0
  0
LTYPE
  5
872
330
E
100
AcDbSymbolTableRecord
100
AcDbLinetypeTableRecord
  2
Amzigzag
 70
     0
  3
/\/-/\/-/\/-/\/-/\/-/\/
 72
    65
 73
     2
 40
11.0001
 49
0.0001
 74
     4
 75
   136
340
878
 46
0.04
 50
0.0
 44
0.0
 45
0.0
 49
-11.0
 74
     0
  0
LTYPE
  5
873
330
E
100
AcDbSymbolTableRecord
100
AcDbLinetypeTableRecord
  2
AM_DIN_F_W050
 70
     0
  3
__ __ __ __ __ __ __ __ __ __ __ __ __ __ __
 72
    65
 73
     2
 40
6.25
 49
4.75
 74
     0
 49
-1.5
 74
     0
  0
LTYPE
  5
874
330
E
100
AcDbSymbolTableRecord
100
AcDbLinetypeTableRecord
  2
AM_DIN_G_W050
 70
     0
  3
____ . ____ . ____ . ____ . ____ . ____ . ____
 72
    65
 73
     4
 40
13.75
 49
9.75
 74
     0
 49
-1.5
 74
     0
 49
1.0
 74
     0
 49
-1.5
 74
     0
  0
LTYPE
  5
875
330
E
100
AcDbSymbolTableRecord
100
AcDbLinetypeTableRecord
  2
AM_DIN_K_W050
 70
     0
  3
_____ . . _____ . . _____ . . ____ .. ____
 72
    65
 73
     6
 40
16.25
 49
9.75
 74
     0
 49
-1.5
 74
     0
 49
1.0
 74
     0
 49
-1.5
 74
     0
 49
1.0
 74
     0
 49
-1.5
 74
     0
  0
LTYPE
  5
876
330
E
100
AcDbSymbolTableRecord
100
AcDbLinetypeTableRecord
  2
AM_DIN_G_W050x2
 70
     0
  3
__ . __ . __ . __ . __ . __
 72
    65
 73
     4
 40
6.875
 49
4.75
 74
     0
 49
-0.875
 74
     0
 49
0.375
 74
     0
 49
-0.875
 74
     0
  0
LTYPE
  5
877
330
E
100
AcDbSymbolTableRecord
100
AcDbLinetypeTableRecord
  2
AM_DIN_F_W050x2
 70
     0
  3
 _ _ _ _ _ _ _ _ _ _ _ _
 72
    65
 73
     2
 40
3.125
 49
2.25
 74
     0
 49
-0.875
 74
     0
  0
ENDTAB
  0
TABLE
  2
LAYER
  5
B
102
{ACAD_XDICTIONARY
360
7AD
102
}
330
0
100
AcDbSymbolTable
 70
    10
  0
LAYER
  5
5
102
{ACAD_XDICTIONARY
360
BE5
102
}
330
B
100
AcDbSymbolTableRecord
100
AcDbLayerTableRecord
  2
0
 70
     0
 62
     7
  6
CONTINUOUS
370
    -3
390
5D
  0
LAYER
  5
20
102
{ACAD_XDICTIONARY
360
BE7
102
}
330
B
100
AcDbSymbolTableRecord
100
AcDbLayerTableRecord
  2
BEM
 70
     1
 62
     3
  6
CONTINUOUS
370
    -3
390
5D
  0
LAYER
  5
26
102
{ACAD_XDICTIONARY
360
BE9
102
}
330
B
100
AcDbSymbolTableRecord
100
AcDbLayerTableRecord
  2
TEXT
 70
     0
 62
     2
  6
CONTINUOUS
370
    -3
390
5D
  0
LAYER
  5
28
102
{ACAD_XDICTIONARY
360
BEB
102
}
330
B
100
AcDbSymbolTableRecord
100
AcDbLayerTableRecord
  2
MITTE
 70
     0
 62
     4
  6
MITTE
370
    -3
390
5D
  0
LAYER
  5
24
102
{ACAD_XDICTIONARY
360
BED
102
}
330
B
100
AcDbSymbolTableRecord
100
AcDbLayerTableRecord
  2
LINIE
 70
     0
 62
     4
  6
CONTINUOUS
370
    -3
390
5D
  0
LAYER
  5
1E1
330
B
100
AcDbSymbolTableRecord
100
AcDbLayerTableRecord
  2
Defpoints
 70
     0
 62
     7
  6
CONTINUOUS
290
     0
370
    -3
390
5D
  0
LAYER
  5
7A7
102
{ACAD_XDICTIONARY
360
7A8
102
}
330
B
100
AcDbSymbolTableRecord
100
AcDbLayerTableRecord
  2
A3XREF|TEXT
 70
    48
 62
     2
  6
Continuous
370
    -3
390
5D
  0
LAYER
  5
7A9
102
{ACAD_XDICTIONARY
360
7AA
102
}
330
B
100
AcDbSymbolTableRecord
100
AcDbLayerTableRecord
  2
A3XREF|LINIE
 70
    48
 62
     4
  6
Continuous
370
    -3
390
5D
  0
LAYER
  5
7AB
102
{ACAD_XDICTIONARY
360
7AC
102
}
330
B
100
AcDbSymbolTableRecord
100
AcDbLayerTableRecord
  2
A3XREF|RAHM
 70
    48
 62
   255
  6
Continuous
370
    -3
390
5D
  0
ENDTAB
  0
TABLE
  2
STYLE
  5
C
330
0
100
AcDbSymbolTable
 70
    18
  0
STYLE
  5
D
330
C
100
AcDbSymbolTableRecord
100
AcDbTextStyleTableRecord
  2
STANDARD
 70
     0
 40
0.0
 41
1.0
 50
0.0
 71
     0
 42
20.0
  3
romans.shx
  4

  0
STYLE
  5
1C
330
C
100
AcDbSymbolTableRecord
100
AcDbTextStyleTableRecord
  2
STYLE1
 70
     0
 40
0.0
 41
1.0
 50
0.0
 71
     0
 42
20.0
  3
ariblk.TTF
  4

1001
ACAD
1000
Arial Black
1071
 33554466
  0
STYLE
  5
D1
330
C
100
AcDbSymbolTableRecord
100
AcDbTextStyleTableRecord
  2

 70
     1
 40
0.0
 41
1.0
 50
0.0
 71
     0
 42
20.0
  3
ltypeshp.shx
  4

  0
STYLE
  5
D6
330
C
100
AcDbSymbolTableRecord
100
AcDbTextStyleTableRecord
  2
ACANSTS
 70
     0
 40
1.0
 41
1.0
 50
0.0
 71
     0
 42
20.0
  3
romans.shx
  4

  0
STYLE
  5
E2
330
C
100
AcDbSymbolTableRecord
100
AcDbTextStyleTableRecord
  2
ACANSGDT
 70
     0
 40
0.0
 41
1.0
 50
0.0
 71
     0
 42
20.0
  3
amgdtans.shx
  4

  0
STYLE
  5
7AF
330
C
100
AcDbSymbolTableRecord
100
AcDbTextStyleTableRecord
  2

 70
    49
 40
0.0
 41
1.0
 50
0.0
 71
     0
 42
2.0
  3
genltshp.shx
  4

  0
STYLE
  5
878
330
C
100
AcDbSymbolTableRecord
100
AcDbTextStyleTableRecord
  2

 70
     1
 40
0.0
 41
1.0
 50
0.0
 71
     0
 42
2.0
  3
genltshp.shx
  4

  0
STYLE
  5
879
330
C
100
AcDbSymbolTableRecord
100
AcDbTextStyleTableRecord
  2
ACDINTS
 70
     0
 40
1.0
 41
1.0
 50
0.0
 71
     0
 42
20.0
  3
isocp.shx
  4

  0
STYLE
  5
87A
330
C
100
AcDbSymbolTableRecord
100
AcDbTextStyleTableRecord
  2
ACDINGDT
 70
     0
 40
0.0
 41
1.0
 50
0.0
 71
     0
 42
20.0
  3
amgdt.shx
  4

  0
ENDTAB
  0
TABLE
  2
VIEW
  5
11
330
0
100
AcDbSymbolTable
 70
     0
  0
ENDTAB
  0
TABLE
  2
UCS
  5
12
330
0
100
AcDbSymbolTable
 70
     0
  0
ENDTAB
  0
TABLE
  2
APPID
  5
15
330
0
100
AcDbSymbolTable
 70
    17
  0
APPID
  5
16
330
15
100
AcDbSymbolTableRecord
100
AcDbRegAppTableRecord
  2
ACAD
 70
     0
  0
APPID
  5
30
330
15
100
AcDbSymbolTableRecord
100
AcDbRegAppTableRecord
  2
MCAD_NO_VIS
 70
     0
  0
APPID
  5
6D
330
15
100
AcDbSymbolTableRecord
100
AcDbRegAppTableRecord
  2
ACAD_TEMP_GRAPHIC
 70
     0
  0
APPID
  5
98
330
15
100
AcDbSymbolTableRecord
100
AcDbRegAppTableRecord
  2
AD_DRAW
 70
     0
  0
APPID
  5
9B
330
15
100
AcDbSymbolTableRecord
100
AcDbRegAppTableRecord
  2
ACATTRIBSERVICES
 70
     0
  0
APPID
  5
B9
330
15
100
AcDbSymbolTableRecord
100
AcDbRegAppTableRecord
  2
DESIGNERASSEMBLIES
 70
     0
  0
APPID
  5
C1
330
15
100
AcDbSymbolTableRecord
100
AcDbRegAppTableRecord
  2
ACADM_DIM_EDIT
 70
     0
  0
APPID
  5
C2
330
15
100
AcDbSymbolTableRecord
100
AcDbRegAppTableRecord
  2
AMDT_DM_ADJ
 70
     0
  0
APPID
  5
49B
330
15
100
AcDbSymbolTableRecord
100
AcDbRegAppTableRecord
  2
ACAD_PSEXT
 70
     0
  0
APPID
  5
79F
330
15
100
AcDbSymbolTableRecord
100
AcDbRegAppTableRecord
  2
ACAD_MLEADERVER
 70
     0
  0
APPID
  5
7B0
330
15
100
AcDbSymbolTableRecord
100
AcDbRegAppTableRecord
  2
DCO15
 70
     0
  0
APPID
  5
882
330
15
100
AcDbSymbolTableRecord
100
AcDbRegAppTableRecord
  2
ACAD_DSTYLE_DIMINSPECT
 70
     0
  0
APPID
  5
883
330
15
100
AcDbSymbolTableRecord
100
AcDbRegAppTableRecord
  2
GENIUS_GENDTOL_13
 70
     0
  0
APPID
  5
93C
330
15
100
AcDbSymbolTableRecord
100
AcDbRegAppTableRecord
  2
AcAecLayerStandard
 70
     0
  0
APPID
  5
C02
330
15
100
AcDbSymbolTableRecord
100
AcDbRegAppTableRecord
  2
AcadAnnoPO
 70
     0
  0
APPID
  5
FA0
330
15
100
AcDbSymbolTableRecord
100
AcDbRegAppTableRecord
  2
ACAD_EXEMPT_FROM_CAD_STANDARDS
 70
     0
  0
APPID
  5
FBC
330
15
100
AcDbSymbolTableRecord
100
AcDbRegAppTableRecord
  2
ACAD_DSTYLE_DIMJOGGED_JOGANGLE_SYMBOL
 70
     0
  0
ENDTAB
  0
TABLE
  2
DIMSTYLE
  5
17
330
0
100
AcDbSymbolTable
 70
    38
100
AcDbDimStyleTable
 71
     2
340
87B
340
1E
  0
DIMSTYLE
105
1E
102
{ACAD_REACTORS
330
20C
330
21A
330
234
330
24F
330
25C
330
297
330
2C2
330
269
330
2B3
330
2A6
330
289
330
227
330
61D
102
}
330
17
100
AcDbSymbolTableRecord
100
AcDbDimStyleTableRecord
  2
ISO-25
 70
     0
 41
3.5
 42
0.0
 43
7.0
 44
1.25
 73
     0
 74
     0
 77
     1
 78
     8
140
3.5
141
0.0
143
0.0394
144
0.5
145
1.0
147
1.5
172
     1
176
   256
177
   256
178
   256
284
     8
288
     1
340
D
  0
DIMSTYLE
105
EB
330
17
100
AcDbSymbolTableRecord
100
AcDbDimStyleTableRecord
  2
AM_ANSI
 70
     0
  4
mm
 41
0.1
 42
0.05
 43
0.5
 44
0.1
 47
0.1
 48
0.1
 78
     7
 79
     2
140
0.12
141
0.0
146
0.71
147
0.06
176
   256
177
   256
178
     2
274
     4
284
     7
340
D
371
    -1
372
    -1
  0
DIMSTYLE
105
EC
330
17
100
AcDbSymbolTableRecord
100
AcDbDimStyleTableRecord
  2
AM_ANSI$3
 70
     0
  4
mm
 41
0.1
 42
0.05
 43
0.5
 44
0.1
 47
0.1
 48
0.1
 78
     7
 79
     2
140
0.12
141
0.0
146
0.71
147
0.06
176
   256
177
   256
178
     2
274
     4
284
     7
288
     1
289
     0
340
D
371
    -1
372
    -1
  0
DIMSTYLE
105
ED
330
17
100
AcDbSymbolTableRecord
100
AcDbDimStyleTableRecord
  2
AM_ANSI$4
 70
     0
  4
mm
 41
0.1
 42
0.05
 43
0.5
 44
0.1
 47
0.1
 48
0.1
 78
     7
 79
     2
140
0.12
141
0.0
146
0.71
147
0.06
176
   256
177
   256
178
     2
274
     4
284
     7
288
     1
289
     0
340
D
371
    -1
372
    -1
  0
DIMSTYLE
105
EE
330
17
100
AcDbSymbolTableRecord
100
AcDbDimStyleTableRecord
  2
AM_ANSI$7
 70
     0
  4
mm
 41
0.1
 42
0.05
 43
0.5
 44
0.1
 47
0.1
 48
0.1
 78
     7
 79
     2
140
0.24
141
0.0
146
0.71
147
0.06
176
   256
177
   256
178
     2
274
     4
284
     7
340
D
371
    -1
372
    -1
  0
DIMSTYLE
105
EF
330
17
100
AcDbSymbolTableRecord
100
AcDbDimStyleTableRecord
  2
AM_ANSI$SF
 70
     0
  4
mm
 41
0.1
 42
0.05
 43
0.5
 44
0.1
 47
0.1
 48
0.1
 75
     1
 76
     1
 78
     7
 79
     2
140
0.12
141
0.0
146
0.71
147
0.06
176
   256
177
   256
178
     2
274
     4
284
     7
340
D
371
    -1
372
    -1
  0
DIMSTYLE
105
F4
330
17
100
AcDbSymbolTableRecord
100
AcDbDimStyleTableRecord
  2
AM_ANSI$SH
 70
     0
  4
mm
 41
0.1
 42
0.05
 43
0.5
 44
0.1
 47
0.1
 48
0.1
 75
     1
 76
     1
 78
     7
 79
     2
140
0.12
141
0.0
146
0.71
147
0.06
173
     1
176
   256
177
   256
178
     2
274
     4
284
     7
340
D
343
F0
371
    -1
372
    -1
  0
DIMSTYLE
105
38B
330
17
100
AcDbSymbolTableRecord
100
AcDbDimStyleTableRecord
  2
STANDARD
 70
     0
 41
3.5
 42
0.0
 43
7.0
 44
1.25
 73
     0
 74
     0
 77
     1
 78
     8
140
3.5
141
0.0
147
1.5
172
     1
176
   256
177
   256
178
   256
288
     1
340
D
  0
DIMSTYLE
105
87B
330
17
100
AcDbSymbolTableRecord
100
AcDbDimStyleTableRecord
  2
AM_DIN
 70
     0
  4
"
 41
2.5
 42
1.0
 43
10.0
 44
1.0
 47
0.1
 48
0.1
 73
     0
 74
     0
 77
     1
 78
     8
 79
     2
140
3.5
141
0.0
143
0.0393701
146
0.71
147
1.5
172
     1
176
   256
177
   256
178
     2
271
     2
272
     3
274
     4
283
     0
284
     8
340
D
371
    -1
372
    -1
1001
ACAD_DSTYLE_DIMJOGGED_JOGANGLE_SYMBOL
1070
   384
1040
1.570796326794896
  0
DIMSTYLE
105
87C
330
17
100
AcDbSymbolTableRecord
100
AcDbDimStyleTableRecord
  2
AM_DIN$3
 70
     0
  4
"
 41
2.5
 42
1.0
 43
10.0
 44
1.0
 47
0.1
 48
0.1
 73
     0
 77
     1
 78
     8
 79
     2
140
3.5
141
0.0
143
0.0393701
146
0.71
147
1.5
176
   256
177
   256
178
     2
271
     2
272
     3
274
     4
283
     0
284
     8
288
     1
289
     0
340
D
371
    -1
372
    -1
1001
ACAD_DSTYLE_DIMJOGGED_JOGANGLE_SYMBOL
1070
   384
1040
1.570796326794896
  0
DIMSTYLE
105
87D
330
17
100
AcDbSymbolTableRecord
100
AcDbDimStyleTableRecord
  2
AM_DIN$4
 70
     0
  4
"
 41
2.5
 42
1.0
 43
10.0
 44
1.0
 47
0.1
 48
0.1
 73
     0
 77
     1
 78
     8
 79
     2
140
3.5
141
0.0
143
0.0393701
146
0.71
147
1.5
176
   256
177
   256
178
     2
271
     2
272
     3
274
     4
283
     0
284
     8
288
     1
289
     0
340
D
371
    -1
372
    -1
1001
ACAD_DSTYLE_DIMJOGGED_JOGANGLE_SYMBOL
1070
   384
1040
1.570796326794896
  0
DIMSTYLE
105
87E
330
17
100
AcDbSymbolTableRecord
100
AcDbDimStyleTableRecord
  2
AM_DIN$6
 70
     0
  4
"
 41
2.5
 42
1.0
 43
10.0
 44
1.0
 47
0.1
 48
0.1
 73
     0
 74
     0
 78
     8
 79
     2
140
3.5
141
0.0
143
0.0393701
146
0.71
147
1.5
172
     1
176
   256
177
   256
178
     2
271
     2
272
     3
274
     4
283
     0
284
     8
340
D
371
    -1
372
    -1
1001
ACAD_DSTYLE_DIMJOGGED_JOGANGLE_SYMBOL
1070
   384
1040
1.570796326794896
  0
DIMSTYLE
105
87F
330
17
100
AcDbSymbolTableRecord
100
AcDbDimStyleTableRecord
  2
AM_DIN$7
 70
     0
  4
"
 41
2.5
 42
1.0
 43
10.0
 44
1.0
 47
0.1
 48
0.1
 73
     0
 74
     0
 77
     1
 78
     8
 79
     2
140
5.0
141
0.0
143
0.0393701
146
0.71
147
1.5
172
     1
176
   256
177
   256
178
     2
271
     2
272
     3
274
     4
283
     0
284
     8
340
D
371
    -1
372
    -1
1001
ACAD_DSTYLE_DIMJOGGED_JOGANGLE_SYMBOL
1070
   384
1040
1.570796326794896
  0
DIMSTYLE
105
880
330
17
100
AcDbSymbolTableRecord
100
AcDbDimStyleTableRecord
  2
AM_DIN$SF
 70
     0
  4
"
 41
2.5
 42
1.0
 43
10.0
 44
1.0
 47
0.1
 48
0.1
 73
     0
 74
     0
 75
     1
 76
     1
 77
     1
 78
     8
 79
     2
140
3.5
141
0.0
143
0.0393701
146
0.71
147
1.5
172
     1
176
   256
177
   256
178
     2
271
     2
272
     3
274
     4
283
     0
284
     8
340
D
371
    -1
372
    -1
1001
ACAD_DSTYLE_DIMJOGGED_JOGANGLE_SYMBOL
1070
   384
1040
1.570796326794896
  0
DIMSTYLE
105
881
330
17
100
AcDbSymbolTableRecord
100
AcDbDimStyleTableRecord
  2
AM_DIN$SH
 70
     0
  4
"
 41
2.5
 42
1.0
 43
10.0
 44
1.0
 47
0.1
 48
0.1
 73
     0
 74
     0
 75
     1
 76
     1
 77
     1
 78
     8
 79
     2
140
3.5
141
0.0
143
0.0393701
144
2.0
146
0.71
147
1.5
172
     1
173
     1
176
   256
177
   256
178
     2
271
     2
272
     3
274
     4
283
     0
284
     8
340
D
343
F0
371
    -1
372
    -1
1001
ACAD_DSTYLE_DIMJOGGED_JOGANGLE_SYMBOL
1070
   384
1040
1.570796326794896
  0
ENDTAB
  0
TABLE
  2
BLOCK_RECORD
  5
1
330
0
100
AcDbSymbolTable
 70
    50
  0
BLOCK_RECORD
  5
2
102
{ACAD_XDICTIONARY
360
3
102
}
330
1
100
AcDbSymbolTableRecord
100
AcDbBlockTableRecord
  2
*MODEL_SPACE
340
62
  0
BLOCK_RECORD
  5
8
330
1
100
AcDbSymbolTableRecord
100
AcDbBlockTableRecord
  2
*PAPER_SPACE
340
63
  0
BLOCK_RECORD
  5
F0
330
1
100
AcDbSymbolTableRecord
100
AcDbBlockTableRecord
  2
GENAXEH
340
0
  0
BLOCK_RECORD
  5
161
330
1
100
AcDbSymbolTableRecord
100
AcDbBlockTableRecord
  2
A3XREF
340
0
102
{BLKREFS
331
176
102
}
  0
BLOCK_RECORD
  5
20D
330
1
100
AcDbSymbolTableRecord
100
AcDbBlockTableRecord
  2
*D4
340
0
  0
BLOCK_RECORD
  5
21B
330
1
100
AcDbSymbolTableRecord
100
AcDbBlockTableRecord
  2
*D5
340
0
  0
BLOCK_RECORD
  5
228
330
1
100
AcDbSymbolTableRecord
100
AcDbBlockTableRecord
  2
*D6
340
0
  0
BLOCK_RECORD
  5
235
330
1
100
AcDbSymbolTableRecord
100
AcDbBlockTableRecord
  2
*D7
340
0
  0
BLOCK_RECORD
  5
250
330
1
100
AcDbSymbolTableRecord
100
AcDbBlockTableRecord
  2
*D8
340
0
  0
BLOCK_RECORD
  5
25D
330
1
100
AcDbSymbolTableRecord
100
AcDbBlockTableRecord
  2
*D9
340
0
  0
BLOCK_RECORD
  5
26A
330
1
100
AcDbSymbolTableRecord
100
AcDbBlockTableRecord
  2
*D10
340
0
  0
BLOCK_RECORD
  5
28A
330
1
100
AcDbSymbolTableRecord
100
AcDbBlockTableRecord
  2
*D11
340
0
  0
BLOCK_RECORD
  5
298
330
1
100
AcDbSymbolTableRecord
100
AcDbBlockTableRecord
  2
*D12
340
0
  0
BLOCK_RECORD
  5
2A7
330
1
100
AcDbSymbolTableRecord
100
AcDbBlockTableRecord
  2
*D13
340
0
  0
BLOCK_RECORD
  5
2B4
330
1
100
AcDbSymbolTableRecord
100
AcDbBlockTableRecord
  2
*D14
340
0
  0
BLOCK_RECORD
  5
2C3
330
1
100
AcDbSymbolTableRecord
100
AcDbBlockTableRecord
  2
*D15
340
0
  0
BLOCK_RECORD
  5
61E
330
1
100
AcDbSymbolTableRecord
100
AcDbBlockTableRecord
  2
*D16
340
0
  0
BLOCK_RECORD
  5
FA6
330
1
100
AcDbSymbolTableRecord
100
AcDbBlockTableRecord
  2
*S49
340
0
  0
ENDTAB
  0
ENDSEC
  0
SECTION
  2
BLOCKS
  0
BLOCK
  5
4
330
2
100
AcDbEntity
  8
0
100
AcDbBlockBegin
  2
*MODEL_SPACE
 70
     0
 10
0.0
 20
0.0
 30
0.0
  3
*MODEL_SPACE
  1

  0
ENDBLK
  5
7
330
2
100
AcDbEntity
  8
0
100
AcDbBlockEnd
  0
BLOCK
  5
9
330
8
100
AcDbEntity
 67
     1
  8
0
100
AcDbBlockBegin
  2
*PAPER_SPACE
 70
     0
 10
0.0
 20
0.0
 30
0.0
  3
*PAPER_SPACE
  1

  0
ENDBLK
  5
A
330
8
100
AcDbEntity
 67
     1
  8
0
100
AcDbBlockEnd
  0
BLOCK
  5
F2
330
F0
100
AcDbEntity
  8
0
 48
10.0
100
AcDbBlockBegin
  2
GENAXEH
 70
     0
 10
0.0
 20
0.0
 30
0.0
  3
GENAXEH
  1

  0
LINE
  5
F1
330
F0
100
AcDbEntity
  8
0
100
AcDbLine
 10
-1.0
 20
0.0
 30
0.0
 11
1.0
 21
0.0
 31
0.0
  0
ENDBLK
  5
F3
330
F0
100
AcDbEntity
  8
0
 48
10.0
100
AcDbBlockEnd
  0
BLOCK
  5
162
330
161
100
AcDbEntity
  8
0
 48
10.0
100
AcDbBlockBegin
  2
A3XREF
 70
    36
 10
0.0
 20
0.0
 30
0.0
  3
A3XREF
  1
K:\NORM\A3XREF.dwg
  0
ENDBLK
  5
163
330
161
100
AcDbEntity
  8
0
 48
10.0
100
AcDbBlockEnd
  0
BLOCK
  5
217
330
20D
100
AcDbEntity
  8
0
 48
10.0
100
AcDbBlockBegin
  2
*D4
 70
     1
 10
0.0
 20
0.0
 30
0.0
  3
*D4
  1

  0
LINE
  5
EE7
330
20D
100
AcDbEntity
  8
BEM
 48
10.0
370
    -2
100
AcDbLine
 10
103.8294760881972
 20
173.0616955253776
 30
0.0
 11
103.8294760881972
 21
190.1223549181435
 31
0.0
  0
LINE
  5
EE8
330
20D
100
AcDbEntity
  8
BEM
 48
10.0
370
    -2
100
AcDbLine
 10
37.8294760881972
 20
173.0616955253776
 30
0.0
 11
37.8294760881972
 21
190.1223549181435
 31
0.0
  0
LINE
  5
EE9
330
20D
100
AcDbEntity
  8
BEM
 48
10.0
370
    -2
100
AcDbLine
 10
100.3294760881972
 20
188.8723549181435
 30
0.0
 11
41.32947608819719
 21
188.8723549181435
 31
0.0
  0
SOLID
  5
EEA
330
20D
100
AcDbEntity
  8
BEM
 48
10.0
100
AcDbTrace
 10
100.3294760881972
 20
189.4556882514768
 30
0.0
 11
100.3294760881972
 21
188.2890215848101
 31
0.0
 12
103.8294760881972
 22
188.8723549181435
 32
0.0
 13
103.8294760881972
 23
188.8723549181435
 33
0.0
  0
SOLID
  5
EEB
330
20D
100
AcDbEntity
  8
BEM
 48
10.0
100
AcDbTrace
 10
41.32947608819719
 20
189.4556882514768
 30
0.0
 11
41.32947608819719
 21
188.2890215848101
 31
0.0
 12
37.8294760881972
 22
188.8723549181435
 32
0.0
 13
37.8294760881972
 23
188.8723549181435
 33
0.0
  0
MTEXT
  5
EEC
330
20D
100
AcDbEntity
  8
BEM
 48
10.0
100
AcDbMText
 10
70.82947608819721
 20
192.1223549181435
 30
0.0
 40
3.5
 41
0.0
 71
     5
 72
     1
  1
\A1;66
 73
     1
 44
1.0
  0
POINT
  5
EED
330
20D
100
AcDbEntity
  8
Defpoints
 62
     0
 48
10.0
100
AcDbPoint
 10
103.8294760881972
 20
173.0616955253776
 30
0.0
  0
POINT
  5
EEE
330
20D
100
AcDbEntity
  8
Defpoints
 62
     0
 48
10.0
100
AcDbPoint
 10
37.8294760881972
 20
173.0616955253776
 30
0.0
  0
POINT
  5
EEF
330
20D
100
AcDbEntity
  8
Defpoints
 62
     0
 48
10.0
100
AcDbPoint
 10
37.8294760881972
 20
188.8723549181435
 30
0.0
  0
ENDBLK
  5
218
330
20D
100
AcDbEntity
  8
0
 48
10.0
100
AcDbBlockEnd
  0
BLOCK
  5
225
330
21B
100
AcDbEntity
  8
0
 48
10.0
100
AcDbBlockBegin
  2
*D5
 70
     1
 10
0.0
 20
0.0
 30
0.0
  3
*D5
  1

  0
LINE
  5
EF0
330
21B
100
AcDbEntity
  8
BEM
 48
10.0
370
    -2
100
AcDbLine
 10
103.8294760881972
 20
173.0616955253776
 30
0.0
 11
143.9835996304426
 21
173.0616955253776
 31
0.0
  0
LINE
  5
EF1
330
21B
100
AcDbEntity
  8
BEM
 48
10.0
370
    -2
100
AcDbLine
 10
103.8294760881972
 20
117.0616955253777
 30
0.0
 11
143.9835996304426
 21
117.0616955253777
 31
0.0
  0
LINE
  5
EF2
330
21B
100
AcDbEntity
  8
BEM
 48
10.0
370
    -2
100
AcDbLine
 10
142.7335996304426
 20
169.5616955253776
 30
0.0
 11
142.7335996304426
 21
120.5616955253776
 31
0.0
  0
SOLID
  5
EF3
330
21B
100
AcDbEntity
  8
BEM
 48
10.0
100
AcDbTrace
 10
142.1502662971092
 20
169.5616955253776
 30
0.0
 11
143.3169329637759
 21
169.5616955253776
 31
0.0
 12
142.7335996304426
 22
173.0616955253776
 32
0.0
 13
142.7335996304426
 23
173.0616955253776
 33
0.0
  0
SOLID
  5
EF4
330
21B
100
AcDbEntity
  8
BEM
 48
10.0
100
AcDbTrace
 10
142.1502662971092
 20
120.5616955253776
 30
0.0
 11
143.3169329637759
 21
120.5616955253776
 31
0.0
 12
142.7335996304426
 22
117.0616955253777
 32
0.0
 13
142.7335996304426
 23
117.0616955253777
 33
0.0
  0
MTEXT
  5
EF5
330
21B
100
AcDbEntity
  8
BEM
 48
10.0
100
AcDbMText
 10
139.4835996304425
 20
145.0616955253776
 30
0.0
 40
3.5
 41
0.0
 71
     5
 72
     1
  1
\A1;56
 11
0.0000000000000001
 21
1.0
 31
0.0
 73
     1
 44
1.0
  0
POINT
  5
EF6
330
21B
100
AcDbEntity
  8
Defpoints
 62
     0
 48
10.0
100
AcDbPoint
 10
103.8294760881972
 20
173.0616955253776
 30
0.0
  0
POINT
  5
EF7
330
21B
100
AcDbEntity
  8
Defpoints
 62
     0
 48
10.0
100
AcDbPoint
 10
103.8294760881972
 20
117.0616955253777
 30
0.0
  0
POINT
  5
EF8
330
21B
100
AcDbEntity
  8
Defpoints
 62
     0
 48
10.0
100
AcDbPoint
 10
142.7335996304426
 20
117.0616955253777
 30
0.0
  0
ENDBLK
  5
226
330
21B
100
AcDbEntity
  8
0
 48
10.0
100
AcDbBlockEnd
  0
BLOCK
  5
232
330
228
100
AcDbEntity
  8
0
 48
10.0
100
AcDbBlockBegin
  2
*D6
 70
     1
 10
0.0
 20
0.0
 30
0.0
  3
*D6
  1

  0
LINE
  5
EF9
330
228
100
AcDbEntity
  8
BEM
 48
10.0
370
    -2
100
AcDbLine
 10
35.80878322000558
 20
145.0616955253777
 30
0.0
 11
16.32704190231678
 21
145.0616955253777
 31
0.0
  0
LINE
  5
EFA
330
228
100
AcDbEntity
  8
BEM
 48
10.0
370
    -2
100
AcDbLine
 10
37.82947608819721
 20
117.0616955253776
 30
0.0
 11
16.32704190231678
 21
117.0616955253776
 31
0.0
  0
LINE
  5
EFB
330
228
100
AcDbEntity
  8
BEM
 48
10.0
370
    -2
100
AcDbLine
 10
17.57704190231678
 20
141.5616955253777
 30
0.0
 11
17.57704190231678
 21
120.5616955253776
 31
0.0
  0
SOLID
  5
EFC
330
228
100
AcDbEntity
  8
BEM
 48
10.0
100
AcDbTrace
 10
16.99370856898345
 20
141.5616955253777
 30
0.0
 11
18.16037523565012
 21
141.5616955253777
 31
0.0
 12
17.57704190231678
 22
145.0616955253777
 32
0.0
 13
17.57704190231678
 23
145.0616955253777
 33
0.0
  0
SOLID
  5
EFD
330
228
100
AcDbEntity
  8
BEM
 48
10.0
100
AcDbTrace
 10
16.99370856898345
 20
120.5616955253776
 30
0.0
 11
18.16037523565011
 21
120.5616955253776
 31
0.0
 12
17.57704190231678
 22
117.0616955253776
 32
0.0
 13
17.57704190231678
 23
117.0616955253776
 33
0.0
  0
MTEXT
  5
EFE
330
228
100
AcDbEntity
  8
BEM
 48
10.0
100
AcDbMText
 10
14.32704190231676
 20
131.0616955253776
 30
0.0
 40
3.5
 41
0.0
 71
     5
 72
     1
  1
\A1;28{}{\H0.71x;\C3;%%p0.05}
 11
0.0000000000000001
 21
1.0
 31
0.0
 73
     1
 44
1.0
  0
POINT
  5
EFF
330
228
100
AcDbEntity
  8
Defpoints
 62
     0
 48
10.0
100
AcDbPoint
 10
35.80878322000558
 20
145.0616955253777
 30
0.0
  0
POINT
  5
F00
330
228
100
AcDbEntity
  8
Defpoints
 62
     0
 48
10.0
100
AcDbPoint
 10
37.82947608819721
 20
117.0616955253776
 30
0.0
  0
POINT
  5
F01
330
228
100
AcDbEntity
  8
Defpoints
 62
     0
 48
10.0
100
AcDbPoint
 10
17.57704190231678
 20
117.0616955253776
 30
0.0
  0
ENDBLK
  5
233
330
228
100
AcDbEntity
  8
0
 48
10.0
100
AcDbBlockEnd
  0
BLOCK
  5
241
330
235
100
AcDbEntity
  8
0
 48
10.0
100
AcDbBlockBegin
  2
*D7
 70
     1
 10
0.0
 20
0.0
 30
0.0
  3
*D7
  1

  0
LINE
  5
F02
330
235
100
AcDbEntity
  8
BEM
 48
10.0
370
    -2
100
AcDbLine
 10
103.8294760881972
 20
147.0616955253777
 30
0.0
 11
121.4096612647761
 21
147.0616955253777
 31
0.0
  0
LINE
  5
F03
330
235
100
AcDbEntity
  8
BEM
 48
10.0
370
    -2
100
AcDbLine
 10
103.8294760881972
 20
143.0616955253777
 30
0.0
 11
121.4096612647761
 21
143.0616955253777
 31
0.0
  0
LINE
  5
F04
330
235
100
AcDbEntity
  8
BEM
 48
10.0
370
    -2
100
AcDbLine
 10
120.1596612647761
 20
150.5616955253777
 30
0.0
 11
120.1596612647761
 21
154.0616955253777
 31
0.0
  0
LINE
  5
F05
330
235
100
AcDbEntity
  8
BEM
 48
10.0
370
    -2
100
AcDbLine
 10
120.1596612647761
 20
139.5616955253777
 30
0.0
 11
120.1596612647761
 21
130.5616955253777
 31
0.0
  0
LINE
  5
F06
330
235
100
AcDbEntity
  8
BEM
 48
10.0
370
    -2
100
AcDbLine
 10
120.1596612647761
 20
147.0616955253777
 30
0.0
 11
120.1596612647761
 21
143.0616955253777
 31
0.0
  0
SOLID
  5
F07
330
235
100
AcDbEntity
  8
BEM
 48
10.0
100
AcDbTrace
 10
119.5763279314428
 20
150.5616955253777
 30
0.0
 11
120.7429945981094
 21
150.5616955253777
 31
0.0
 12
120.1596612647761
 22
147.0616955253777
 32
0.0
 13
120.1596612647761
 23
147.0616955253777
 33
0.0
  0
SOLID
  5
F08
330
235
100
AcDbEntity
  8
BEM
 48
10.0
100
AcDbTrace
 10
119.5763279314428
 20
139.5616955253777
 30
0.0
 11
120.7429945981094
 21
139.5616955253777
 31
0.0
 12
120.1596612647761
 22
143.0616955253777
 32
0.0
 13
120.1596612647761
 23
143.0616955253777
 33
0.0
  0
MTEXT
  5
F09
330
235
100
AcDbEntity
  8
BEM
 48
10.0
100
AcDbMText
 10
116.9096612647761
 20
133.3116955253777
 30
0.0
 40
3.5
 41
0.0
 71
     5
 72
     1
  1
\A1;4
 11
0.0000000000000001
 21
1.0
 31
0.0
 73
     1
 44
1.0
  0
POINT
  5
F0A
330
235
100
AcDbEntity
  8
Defpoints
 62
     0
 48
10.0
100
AcDbPoint
 10
103.8294760881972
 20
147.0616955253777
 30
0.0
  0
POINT
  5
F0B
330
235
100
AcDbEntity
  8
Defpoints
 62
     0
 48
10.0
100
AcDbPoint
 10
103.8294760881972
 20
143.0616955253777
 30
0.0
  0
POINT
  5
F0C
330
235
100
AcDbEntity
  8
Defpoints
 62
     0
 48
10.0
100
AcDbPoint
 10
120.1596612647761
 20
143.0616955253777
 30
0.0
  0
ENDBLK
  5
242
330
235
100
AcDbEntity
  8
0
 48
10.0
100
AcDbBlockEnd
  0
BLOCK
  5
25A
330
250
100
AcDbEntity
  8
0
 48
10.0
100
AcDbBlockBegin
  2
*D8
 70
     1
 10
0.0
 20
0.0
 30
0.0
  3
*D8
  1

  0
LINE
  5
F0D
330
250
100
AcDbEntity
  8
BEM
 48
10.0
370
    -2
100
AcDbLine
 10
243.6013217393634
 20
173.0616955253776
 30
0.0
 11
243.6013217393634
 21
190.5301783100298
 31
0.0
  0
LINE
  5
F0E
330
250
100
AcDbEntity
  8
BEM
 48
10.0
370
    -2
100
AcDbLine
 10
183.6013217393633
 20
173.0616955253776
 30
0.0
 11
183.6013217393633
 21
190.5301783100298
 31
0.0
  0
LINE
  5
F0F
330
250
100
AcDbEntity
  8
BEM
 48
10.0
370
    -2
100
AcDbLine
 10
240.1013217393634
 20
189.2801783100298
 30
0.0
 11
187.1013217393633
 21
189.2801783100298
 31
0.0
  0
SOLID
  5
F10
330
250
100
AcDbEntity
  8
BEM
 48
10.0
100
AcDbTrace
 10
240.1013217393634
 20
189.8635116433631
 30
0.0
 11
240.1013217393634
 21
188.6968449766964
 31
0.0
 12
243.6013217393634
 22
189.2801783100298
 32
0.0
 13
243.6013217393634
 23
189.2801783100298
 33
0.0
  0
SOLID
  5
F11
330
250
100
AcDbEntity
  8
BEM
 48
10.0
100
AcDbTrace
 10
187.1013217393633
 20
189.8635116433631
 30
0.0
 11
187.1013217393633
 21
188.6968449766964
 31
0.0
 12
183.6013217393633
 22
189.2801783100298
 32
0.0
 13
183.6013217393633
 23
189.2801783100298
 33
0.0
  0
MTEXT
  5
F12
330
250
100
AcDbEntity
  8
BEM
 48
10.0
100
AcDbMText
 10
213.6013217393633
 20
192.5301783100298
 30
0.0
 40
3.5
 41
0.0
 71
     5
 72
     1
  1
\A1;60
 73
     1
 44
1.0
  0
POINT
  5
F13
330
250
100
AcDbEntity
  8
Defpoints
 62
     0
 48
10.0
100
AcDbPoint
 10
243.6013217393634
 20
173.0616955253776
 30
0.0
  0
POINT
  5
F14
330
250
100
AcDbEntity
  8
Defpoints
 62
     0
 48
10.0
100
AcDbPoint
 10
183.6013217393633
 20
173.0616955253776
 30
0.0
  0
POINT
  5
F15
330
250
100
AcDbEntity
  8
Defpoints
 62
     0
 48
10.0
100
AcDbPoint
 10
183.6013217393633
 20
189.2801783100298
 30
0.0
  0
ENDBLK
  5
25B
330
250
100
AcDbEntity
  8
0
 48
10.0
100
AcDbBlockEnd
  0
BLOCK
  5
267
330
25D
100
AcDbEntity
  8
0
 48
10.0
100
AcDbBlockBegin
  2
*D9
 70
     1
 10
0.0
 20
0.0
 30
0.0
  3
*D9
  1

  0
LINE
  5
F7D
330
25D
100
AcDbEntity
  8
BEM
 48
10.0
370
    -2
100
AcDbLine
 10
227.6013217393634
 20
305.4791932166447
 30
0.0
 11
227.6013217393634
 21
322.4503503645999
 31
0.0
  0
LINE
  5
F7E
330
25D
100
AcDbEntity
  8
BEM
 48
10.0
370
    -2
100
AcDbLine
 10
243.6013217393634
 20
308.4791932166447
 30
0.0
 11
243.6013217393634
 21
322.4503503645999
 31
0.0
  0
LINE
  5
F7F
330
25D
100
AcDbEntity
  8
BEM
 48
10.0
370
    -2
100
AcDbLine
 10
231.1013217393634
 20
321.2003503645999
 30
0.0
 11
240.1013217393634
 21
321.2003503645999
 31
0.0
  0
SOLID
  5
F80
330
25D
100
AcDbEntity
  8
BEM
 48
10.0
100
AcDbTrace
 10
231.1013217393634
 20
321.7836836979332
 30
0.0
 11
231.1013217393634
 21
320.6170170312666
 31
0.0
 12
227.6013217393634
 22
321.2003503645999
 32
0.0
 13
227.6013217393634
 23
321.2003503645999
 33
0.0
  0
SOLID
  5
F81
330
25D
100
AcDbEntity
  8
BEM
 48
10.0
100
AcDbTrace
 10
240.1013217393634
 20
321.7836836979332
 30
0.0
 11
240.1013217393634
 21
320.6170170312666
 31
0.0
 12
243.6013217393634
 22
321.2003503645999
 32
0.0
 13
243.6013217393634
 23
321.2003503645999
 33
0.0
  0
MTEXT
  5
F82
330
25D
100
AcDbEntity
  8
BEM
 48
10.0
100
AcDbMText
 10
234.6284861106883
 20
324.4503503645999
 30
0.0
 40
3.5
 41
0.0
 71
     5
 72
     1
  1
\A1;16{}{\H0.71x;\C3;%%p0.1}
 73
     1
 44
1.0
  0
POINT
  5
F83
330
25D
100
AcDbEntity
  8
Defpoints
 62
     0
 48
10.0
100
AcDbPoint
 10
227.6013217393634
 20
305.4791932166447
 30
0.0
  0
POINT
  5
F84
330
25D
100
AcDbEntity
  8
Defpoints
 62
     0
 48
10.0
100
AcDbPoint
 10
243.6013217393634
 20
308.4791932166447
 30
0.0
  0
POINT
  5
F85
330
25D
100
AcDbEntity
  8
Defpoints
 62
     0
 48
10.0
100
AcDbPoint
 10
243.6013217393634
 20
321.2003503645999
 30
0.0
  0
ENDBLK
  5
268
330
25D
100
AcDbEntity
  8
0
 48
10.0
100
AcDbBlockEnd
  0
BLOCK
  5
274
330
26A
100
AcDbEntity
  8
0
 48
10.0
100
AcDbBlockBegin
  2
*D10
 70
     1
 10
0.0
 20
0.0
 30
0.0
  3
*D10
  1

  0
LINE
  5
F74
330
26A
100
AcDbEntity
  8
BEM
 48
10.0
370
    -2
100
AcDbLine
 10
227.6013217393634
 20
305.4791932166447
 30
0.0
 11
227.6013217393634
 21
322.4503503645999
 31
0.0
  0
LINE
  5
F75
330
26A
100
AcDbEntity
  8
BEM
 48
10.0
370
    -2
100
AcDbLine
 10
199.6013217393633
 20
305.4791932166447
 30
0.0
 11
199.6013217393633
 21
322.4503503645999
 31
0.0
  0
LINE
  5
F76
330
26A
100
AcDbEntity
  8
BEM
 48
10.0
370
    -2
100
AcDbLine
 10
224.1013217393633
 20
321.2003503645999
 30
0.0
 11
203.1013217393633
 21
321.2003503645999
 31
0.0
  0
SOLID
  5
F77
330
26A
100
AcDbEntity
  8
BEM
 48
10.0
100
AcDbTrace
 10
224.1013217393633
 20
321.7836836979332
 30
0.0
 11
224.1013217393633
 21
320.6170170312666
 31
0.0
 12
227.6013217393634
 22
321.2003503645999
 32
0.0
 13
227.6013217393634
 23
321.2003503645999
 33
0.0
  0
SOLID
  5
F78
330
26A
100
AcDbEntity
  8
BEM
 48
10.0
100
AcDbTrace
 10
203.1013217393633
 20
321.7836836979332
 30
0.0
 11
203.1013217393633
 21
320.6170170312666
 31
0.0
 12
199.6013217393633
 22
321.2003503645999
 32
0.0
 13
199.6013217393633
 23
321.2003503645999
 33
0.0
  0
MTEXT
  5
F79
330
26A
100
AcDbEntity
  8
BEM
 48
10.0
100
AcDbMText
 10
213.6013217393633
 20
324.4503503645999
 30
0.0
 40
3.5
 41
0.0
 71
     5
 72
     1
  1
\A1;28{}{\H0.71x;\C3;%%p0.05}
 73
     1
 44
1.0
  0
POINT
  5
F7A
330
26A
100
AcDbEntity
  8
Defpoints
 62
     0
 48
10.0
100
AcDbPoint
 10
227.6013217393634
 20
305.4791932166447
 30
0.0
  0
POINT
  5
F7B
330
26A
100
AcDbEntity
  8
Defpoints
 62
     0
 48
10.0
100
AcDbPoint
 10
199.6013217393633
 20
305.4791932166447
 30
0.0
  0
POINT
  5
F7C
330
26A
100
AcDbEntity
  8
Defpoints
 62
     0
 48
10.0
100
AcDbPoint
 10
199.6013217393633
 20
321.2003503645999
 30
0.0
  0
ENDBLK
  5
275
330
26A
100
AcDbEntity
  8
0
 48
10.0
100
AcDbBlockEnd
  0
BLOCK
  5
295
330
28A
100
AcDbEntity
  8
0
 48
10.0
100
AcDbBlockBegin
  2
*D11
 70
     1
 10
0.0
 20
0.0
 30
0.0
  3
*D11
  1

  0
LINE
  5
F62
330
28A
100
AcDbEntity
  8
BEM
 48
10.0
370
    -2
100
AcDbLine
 10
213.6013217393633
 20
245.4791932166447
 30
0.0
 11
213.6013217393633
 21
233.2428591332261
 31
0.0
  0
LINE
  5
F63
330
28A
100
AcDbEntity
  8
BEM
 48
10.0
370
    -2
100
AcDbLine
 10
227.6013217393634
 20
245.4791932166447
 30
0.0
 11
227.6013217393634
 21
212.3404399120684
 31
0.0
  0
LINE
  5
F64
330
28A
100
AcDbEntity
  8
BEM
 48
10.0
370
    -2
100
AcDbLine
 10
217.1013217393634
 20
213.5904399120684
 30
0.0
 11
224.1013217393633
 21
213.5904399120684
 31
0.0
  0
LINE
  5
F65
330
28A
100
AcDbEntity
  8
BEM
 48
10.0
370
    -2
100
AcDbLine
 10
227.6013217393634
 20
213.5904399120684
 30
0.0
 11
250.77298840603
 21
213.5904399120684
 31
0.0
  0
SOLID
  5
F66
330
28A
100
AcDbEntity
  8
BEM
 48
10.0
100
AcDbTrace
 10
217.1013217393634
 20
214.1737732454017
 30
0.0
 11
217.1013217393634
 21
213.0071065787351
 31
0.0
 12
213.6013217393633
 22
213.5904399120684
 32
0.0
 13
213.6013217393633
 23
213.5904399120684
 33
0.0
  0
SOLID
  5
F67
330
28A
100
AcDbEntity
  8
BEM
 48
10.0
100
AcDbTrace
 10
224.1013217393633
 20
214.1737732454017
 30
0.0
 11
224.1013217393633
 21
213.0071065787351
 31
0.0
 12
227.6013217393634
 22
213.5904399120684
 32
0.0
 13
227.6013217393634
 23
213.5904399120684
 33
0.0
  0
MTEXT
  5
F68
330
28A
100
AcDbEntity
  8
BEM
 48
10.0
100
AcDbMText
 10
240.9371550726967
 20
216.8404399120684
 30
0.0
 40
3.5
 41
0.0
 71
     5
 72
     1
  1
\A1;14{}{\H0.71x;\C3;%%p0.05}
 73
     1
 44
1.0
  0
POINT
  5
F69
330
28A
100
AcDbEntity
  8
Defpoints
 62
     0
 48
10.0
100
AcDbPoint
 10
213.6013217393633
 20
245.4791932166447
 30
0.0
  0
POINT
  5
F6A
330
28A
100
AcDbEntity
  8
Defpoints
 62
     0
 48
10.0
100
AcDbPoint
 10
227.6013217393634
 20
245.4791932166447
 30
0.0
  0
POINT
  5
F6B
330
28A
100
AcDbEntity
  8
Defpoints
 62
     0
 48
10.0
100
AcDbPoint
 10
227.6013217393634
 20
213.5904399120684
 30
0.0
  0
LINE
  5
F6C
330
28A
100
AcDbEntity
  8
BEM
 48
10.0
370
    -2
100
AcDbLine
 10
213.6013217393633
 20
224.0917225008025
 30
0.0
 11
213.6013217393633
 21
212.3404399120684
 31
0.0
  0
ENDBLK
  5
296
330
28A
100
AcDbEntity
  8
0
 48
10.0
100
AcDbBlockEnd
  0
BLOCK
  5
2A4
330
298
100
AcDbEntity
  8
0
 48
10.0
100
AcDbBlockBegin
  2
*D12
 70
     1
 10
0.0
 20
0.0
 30
0.0
  3
*D12
  1

  0
LINE
  5
F32
330
298
100
AcDbEntity
  8
BEM
 48
10.0
370
    -2
100
AcDbLine
 10
211.1013217393634
 20
249.4791932166447
 30
0.0
 11
211.1013217393634
 21
225.2317449354341
 31
0.0
  0
LINE
  5
F33
330
298
100
AcDbEntity
  8
BEM
 48
10.0
370
    -2
100
AcDbLine
 10
216.1013217393634
 20
249.4791932166447
 30
0.0
 11
216.1013217393634
 21
225.2317449354341
 31
0.0
  0
LINE
  5
F34
330
298
100
AcDbEntity
  8
BEM
 48
10.0
370
    -2
100
AcDbLine
 10
219.6013217393633
 20
226.4817449354341
 30
0.0
 11
223.1013217393634
 21
226.4817449354341
 31
0.0
  0
LINE
  5
F35
330
298
100
AcDbEntity
  8
BEM
 48
10.0
370
    -2
100
AcDbLine
 10
207.6013217393633
 20
226.4817449354341
 30
0.0
 11
186.5513217393633
 21
226.4817449354341
 31
0.0
  0
LINE
  5
F36
330
298
100
AcDbEntity
  8
BEM
 48
10.0
370
    -2
100
AcDbLine
 10
216.1013217393634
 20
226.4817449354341
 30
0.0
 11
211.1013217393634
 21
226.4817449354341
 31
0.0
  0
SOLID
  5
F37
330
298
100
AcDbEntity
  8
BEM
 48
10.0
100
AcDbTrace
 10
219.6013217393633
 20
227.0650782687674
 30
0.0
 11
219.6013217393633
 21
225.8984116021008
 31
0.0
 12
216.1013217393634
 22
226.4817449354341
 32
0.0
 13
216.1013217393634
 23
226.4817449354341
 33
0.0
  0
SOLID
  5
F38
330
298
100
AcDbEntity
  8
BEM
 48
10.0
100
AcDbTrace
 10
207.6013217393633
 20
227.0650782687674
 30
0.0
 11
207.6013217393633
 21
225.8984116021008
 31
0.0
 12
211.1013217393634
 22
226.4817449354341
 32
0.0
 13
211.1013217393634
 23
226.4817449354341
 33
0.0
  0
MTEXT
  5
F39
330
298
100
AcDbEntity
  8
BEM
 48
10.0
100
AcDbMText
 10
194.6013217393633
 20
229.7317449354341
 30
0.0
 40
3.5
 41
0.0
 71
     5
 72
     1
  1
\A1;%%c5{}{\H0.71x;\C3; H7}
 73
     1
 44
1.0
  0
POINT
  5
F3A
330
298
100
AcDbEntity
  8
Defpoints
 62
     0
 48
10.0
100
AcDbPoint
 10
211.1013217393634
 20
249.4791932166447
 30
0.0
  0
POINT
  5
F3B
330
298
100
AcDbEntity
  8
Defpoints
 62
     0
 48
10.0
100
AcDbPoint
 10
216.1013217393634
 20
249.4791932166447
 30
0.0
  0
POINT
  5
F3C
330
298
100
AcDbEntity
  8
Defpoints
 62
     0
 48
10.0
100
AcDbPoint
 10
216.1013217393634
 20
226.4817449354341
 30
0.0
  0
ENDBLK
  5
2A5
330
298
100
AcDbEntity
  8
0
 48
10.0
100
AcDbBlockEnd
  0
BLOCK
  5
2B1
330
2A7
100
AcDbEntity
  8
0
 48
10.0
100
AcDbBlockBegin
  2
*D13
 70
     1
 10
0.0
 20
0.0
 30
0.0
  3
*D13
  1

  0
LINE
  5
F86
330
2A7
100
AcDbEntity
  8
BEM
 48
10.0
370
    -2
100
AcDbLine
 10
231.6013217393634
 20
301.4791932166447
 30
0.0
 11
266.40608203186
 21
301.4791932166447
 31
0.0
  0
LINE
  5
F87
330
2A7
100
AcDbEntity
  8
BEM
 48
10.0
370
    -2
100
AcDbLine
 10
231.6013217393634
 20
249.4791932166447
 30
0.0
 11
266.40608203186
 21
249.4791932166447
 31
0.0
  0
LINE
  5
F88
330
2A7
100
AcDbEntity
  8
BEM
 48
10.0
370
    -2
100
AcDbLine
 10
265.15608203186
 20
297.9791932166447
 30
0.0
 11
265.15608203186
 21
252.9791932166447
 31
0.0
  0
SOLID
  5
F89
330
2A7
100
AcDbEntity
  8
BEM
 48
10.0
100
AcDbTrace
 10
264.5727486985267
 20
297.9791932166447
 30
0.0
 11
265.7394153651933
 21
297.9791932166447
 31
0.0
 12
265.15608203186
 22
301.4791932166447
 32
0.0
 13
265.15608203186
 23
301.4791932166447
 33
0.0
  0
SOLID
  5
F8A
330
2A7
100
AcDbEntity
  8
BEM
 48
10.0
100
AcDbTrace
 10
264.5727486985267
 20
252.9791932166447
 30
0.0
 11
265.7394153651933
 21
252.9791932166447
 31
0.0
 12
265.15608203186
 22
249.4791932166447
 32
0.0
 13
265.15608203186
 23
249.4791932166447
 33
0.0
  0
MTEXT
  5
F8B
330
2A7
100
AcDbEntity
  8
BEM
 48
10.0
100
AcDbMText
 10
261.90608203186
 20
275.4791932166448
 30
0.0
 40
3.5
 41
0.0
 71
     5
 72
     1
  1
\A1;52{}{\H0.71x;\C3;%%p0.05}
 11
0.0000000000000001
 21
1.0
 31
0.0
 73
     1
 44
1.0
  0
POINT
  5
F8C
330
2A7
100
AcDbEntity
  8
Defpoints
 62
     0
 48
10.0
100
AcDbPoint
 10
231.6013217393634
 20
301.4791932166447
 30
0.0
  0
POINT
  5
F8D
330
2A7
100
AcDbEntity
  8
Defpoints
 62
     0
 48
10.0
100
AcDbPoint
 10
231.6013217393634
 20
249.4791932166447
 30
0.0
  0
POINT
  5
F8E
330
2A7
100
AcDbEntity
  8
Defpoints
 62
     0
 48
10.0
100
AcDbPoint
 10
265.15608203186
 20
249.4791932166447
 30
0.0
  0
ENDBLK
  5
2B2
330
2A7
100
AcDbEntity
  8
0
 48
10.0
100
AcDbBlockEnd
  0
BLOCK
  5
2BE
330
2B4
100
AcDbEntity
  8
0
 48
10.0
100
AcDbBlockBegin
  2
*D14
 70
     1
 10
0.0
 20
0.0
 30
0.0
  3
*D14
  1

  0
LINE
  5
F46
330
2B4
100
AcDbEntity
  8
BEM
 48
10.0
370
    -2
100
AcDbLine
 10
209.6013217393633
 20
301.4791932166447
 30
0.0
 11
207.4039935736635
 21
301.4791932166447
 31
0.0
  0
LINE
  5
F47
330
2B4
100
AcDbEntity
  8
BEM
 48
10.0
370
    -2
100
AcDbLine
 10
209.6013217393633
 20
249.4791932166447
 30
0.0
 11
207.4039935736635
 21
249.4791932166447
 31
0.0
  0
LINE
  5
F48
330
2B4
100
AcDbEntity
  8
BEM
 48
10.0
370
    -2
100
AcDbLine
 10
208.6539935736634
 20
297.9791932166447
 30
0.0
 11
208.6539935736634
 21
252.9791932166447
 31
0.0
  0
SOLID
  5
F49
330
2B4
100
AcDbEntity
  8
BEM
 48
10.0
100
AcDbTrace
 10
208.0706602403301
 20
297.9791932166447
 30
0.0
 11
209.2373269069968
 21
297.9791932166447
 31
0.0
 12
208.6539935736634
 22
301.4791932166447
 32
0.0
 13
208.6539935736634
 23
301.4791932166447
 33
0.0
  0
SOLID
  5
F4A
330
2B4
100
AcDbEntity
  8
BEM
 48
10.0
100
AcDbTrace
 10
208.0706602403301
 20
252.9791932166447
 30
0.0
 11
209.2373269069968
 21
252.9791932166447
 31
0.0
 12
208.6539935736634
 22
249.4791932166447
 32
0.0
 13
208.6539935736634
 23
249.4791932166447
 33
0.0
  0
MTEXT
  5
F4B
330
2B4
100
AcDbEntity
  8
BEM
 48
10.0
100
AcDbMText
 10
205.4039935736634
 20
275.4791932166448
 30
0.0
 40
3.5
 41
0.0
 71
     5
 72
     1
  1
\A1;52{}{\H0.71x;\C3;%%p0.01}
 11
0.0000000000000001
 21
1.0
 31
0.0
 73
     1
 44
1.0
  0
POINT
  5
F4C
330
2B4
100
AcDbEntity
  8
Defpoints
 62
     0
 48
10.0
100
AcDbPoint
 10
209.6013217393633
 20
301.4791932166447
 30
0.0
  0
POINT
  5
F4D
330
2B4
100
AcDbEntity
  8
Defpoints
 62
     0
 48
10.0
100
AcDbPoint
 10
209.6013217393633
 20
249.4791932166447
 30
0.0
  0
POINT
  5
F4E
330
2B4
100
AcDbEntity
  8
Defpoints
 62
     0
 48
10.0
100
AcDbPoint
 10
208.6539935736634
 20
249.4791932166447
 30
0.0
  0
ENDBLK
  5
2BF
330
2B4
100
AcDbEntity
  8
0
 48
10.0
100
AcDbBlockEnd
  0
BLOCK
  5
2CF
330
2C3
100
AcDbEntity
  8
0
 48
10.0
100
AcDbBlockBegin
  2
*D15
 70
     1
 10
0.0
 20
0.0
 30
0.0
  3
*D15
  1

  0
LINE
  5
F4F
330
2C3
100
AcDbEntity
  8
BEM
 48
10.0
370
    -2
100
AcDbLine
 10
199.6013217393633
 20
303.9791932166447
 30
0.0
 11
163.6738526270622
 21
303.9791932166447
 31
0.0
  0
LINE
  5
F50
330
2C3
100
AcDbEntity
  8
BEM
 48
10.0
370
    -2
100
AcDbLine
 10
199.6013217393633
 20
298.9791932166447
 30
0.0
 11
163.6738526270622
 21
298.9791932166447
 31
0.0
  0
LINE
  5
F51
330
2C3
100
AcDbEntity
  8
BEM
 48
10.0
370
    -2
100
AcDbLine
 10
164.9238526270622
 20
307.4791932166447
 30
0.0
 11
164.9238526270622
 21
310.9791932166447
 31
0.0
  0
LINE
  5
F52
330
2C3
100
AcDbEntity
  8
BEM
 48
10.0
370
    -2
100
AcDbLine
 10
164.9238526270622
 20
295.4791932166447
 30
0.0
 11
164.9238526270622
 21
282.812526549978
 31
0.0
  0
LINE
  5
F53
330
2C3
100
AcDbEntity
  8
BEM
 48
10.0
370
    -2
100
AcDbLine
 10
164.9238526270622
 20
303.9791932166447
 30
0.0
 11
164.9238526270622
 21
298.9791932166447
 31
0.0
  0
SOLID
  5
F54
330
2C3
100
AcDbEntity
  8
BEM
 48
10.0
100
AcDbTrace
 10
164.3405192937288
 20
307.4791932166447
 30
0.0
 11
165.5071859603955
 21
307.4791932166447
 31
0.0
 12
164.9238526270622
 22
303.9791932166447
 32
0.0
 13
164.9238526270622
 23
303.9791932166447
 33
0.0
  0
SOLID
  5
F55
330
2C3
100
AcDbEntity
  8
BEM
 48
10.0
100
AcDbTrace
 10
164.3405192937288
 20
295.4791932166447
 30
0.0
 11
165.5071859603955
 21
295.4791932166447
 31
0.0
 12
164.9238526270622
 22
298.9791932166447
 32
0.0
 13
164.9238526270622
 23
298.9791932166447
 33
0.0
  0
MTEXT
  5
F56
330
2C3
100
AcDbEntity
  8
BEM
 48
10.0
100
AcDbMText
 10
161.6738526270621
 20
287.3958598833115
 30
0.0
 40
3.5
 41
0.0
 71
     5
 72
     1
  1
\A1;M5
 11
0.0000000000000001
 21
1.0
 31
0.0
 73
     1
 44
1.0
  0
POINT
  5
F57
330
2C3
100
AcDbEntity
  8
Defpoints
 62
     0
 48
10.0
100
AcDbPoint
 10
199.6013217393633
 20
303.9791932166447
 30
0.0
  0
POINT
  5
F58
330
2C3
100
AcDbEntity
  8
Defpoints
 62
     0
 48
10.0
100
AcDbPoint
 10
199.6013217393633
 20
298.9791932166447
 30
0.0
  0
POINT
  5
F59
330
2C3
100
AcDbEntity
  8
Defpoints
 62
     0
 48
10.0
100
AcDbPoint
 10
164.9238526270622
 20
298.9791932166447
 30
0.0
  0
ENDBLK
  5
2D0
330
2C3
100
AcDbEntity
  8
0
 48
10.0
100
AcDbBlockEnd
  0
BLOCK
  5
627
330
61E
100
AcDbEntity
  8
0
 48
10.0
100
AcDbBlockBegin
  2
*D16
 70
     1
 10
0.0
 20
0.0
 30
0.0
  3
*D16
  1

  0
LINE
  5
F5A
330
61E
100
AcDbEntity
  8
BEM
 48
10.0
370
    -2
100
AcDbLine
 10
50.54040647921962
 20
86.86133242293584
 30
0.0
 11
63.42295806390997
 21
123.8156725856387
 31
0.0
  0
LINE
  5
F5B
330
61E
100
AcDbEntity
  8
BEM
 48
10.0
370
    -2
100
AcDbLine
 10
78.23599411248435
 20
166.3077184651162
 30
0.0
 11
79.38811913848457
 21
169.6126553668534
 31
0.0
  0
MTEXT
  5
F5C
102
{ACAD_XDICTIONARY
360
FC1
102
}
330
61E
100
AcDbEntity
  8
BEM
 48
10.0
100
AcDbMText
 10
51.31277619881637
 20
98.94997981256114
 30
0.0
 40
3.5
 41
0.0
 71
     5
 72
     1
  1
\A1;\U+220538{}{\H0.71x;\C3;+0.05}
 11
0.3291785788572091
 21
0.9442676862106148
 31
0.0
 73
     1
 44
1.0
  0
LINE
  5
F5D
330
61E
100
AcDbEntity
  8
BEM
 48
10.0
370
    -2
100
AcDbLine
 10
77.08386908648411
 20
163.0027815633791
 30
0.0
 11
64.57508308991021
 21
127.1206094873759
 31
0.0
  0
SOLID
  5
F5E
330
61E
100
AcDbEntity
  8
BEM
 48
10.0
100
AcDbTrace
 10
77.68517129552815
 20
166.499739302783
 30
0.0
 11
78.78681692944053
 21
166.1156976274495
 31
0.0
 12
77.08386908648411
 22
163.0027815633791
 32
0.0
 13
77.08386908648411
 23
163.0027815633791
 33
0.0
  0
SOLID
  5
F5F
330
61E
100
AcDbEntity
  8
BEM
 48
10.0
100
AcDbTrace
 10
62.87213524695379
 20
124.0076934233054
 30
0.0
 11
63.97378088086616
 21
123.623651747972
 31
0.0
 12
64.57508308991021
 22
127.1206094873759
 32
0.0
 13
64.57508308991021
 23
127.1206094873759
 33
0.0
  0
POINT
  5
F60
330
61E
100
AcDbEntity
  8
Defpoints
 62
     0
 48
10.0
100
AcDbPoint
 10
64.57508308991021
 20
127.1206094873759
 30
0.0
  0
POINT
  5
F61
330
61E
100
AcDbEntity
  8
Defpoints
 62
     0
 48
10.0
100
AcDbPoint
 10
77.08386908648411
 20
163.0027815633791
 30
0.0
  0
ENDBLK
  5
628
330
61E
100
AcDbEntity
  8
0
 48
10.0
100
AcDbBlockEnd
  0
BLOCK
  5
FAC
330
FA6
100
AcDbEntity
  8
0
 48
10.0
100
AcDbBlockBegin
  2
*S49
 70
     1
 10
0.0
 20
0.0
 30
0.0
  3
*S49
  1

  0
LINE
  5
FA7
330
FA6
100
AcDbEntity
  8
BEM
 62
     3
 48
10.0
100
AcDbLine
 10
105.1557687922184
 20
30.94571810324317
 30
0.0
 11
85.8771326969993
 21
30.94571810324317
 31
0.0
  0
LINE
  5
FA8
330
FA6
100
AcDbEntity
  8
BEM
 62
     3
 48
10.0
100
AcDbLine
 10
85.8771326969993
 20
30.94571810324317
 30
0.0
 11
145.9247521031518
 21
30.94571810324317
 31
0.0
  0
LINE
  5
FA9
330
FA6
100
AcDbEntity
  8
BEM
 62
     3
 48
10.0
100
AcDbLine
 10
145.9247521031518
 20
30.94571810324317
 30
0.0
 11
183.2014507857173
 21
69.32073397583372
 31
0.0
  0
TRACE
  5
FAA
330
FA6
100
AcDbEntity
  8
BEM
  6
Continuous
 62
     3
 48
10.0
100
AcDbTrace
 10
183.5319695888297
 20
68.99967482960561
 30
0.0
 11
182.8709319826048
 21
69.64179312206184
 31
0.0
 12
185.6401371269883
 22
71.83127354510929
 32
0.0
 13
185.6401371269883
 23
71.83127354510929
 33
0.0
  0
MTEXT
  5
FAB
330
FA6
100
AcDbEntity
  8
BEM
 62
     2
100
AcDbMText
 10
105.1557687922184
 20
32.69571810324317
 30
0.0
 40
3.5
 41
0.0
 71
     7
 72
     5
  1

  7
ACDINTS
 73
     1
 44
1.0
  0
ENDBLK
  5
FAD
330
FA6
100
AcDbEntity
  8
0
 48
10.0
100
AcDbBlockEnd
  0
ENDSEC
  0
SECTION
  2
ENTITIES
  0
LINE
  5
178
330
2
100
AcDbEntity
  8
MITTE
 48
5.0
100
AcDbLine
 10
120.896420339232
 20
175.3939282891621
 30
0.0
 11
120.896420339232
 21
115.143431133977
 31
0.0
  0
LINE
  5
179
330
2
100
AcDbEntity
  8
MITTE
 48
5.0
100
AcDbLine
 10
85.87572747104037
 20
145.0616955253777
 30
0.0
 11
155.7289405779254
 21
145.0616955253776
 31
0.0
  0
LINE
  5
17C
330
2
100
AcDbEntity
  8
0
 48
10.0
100
AcDbLine
 10
87.89642033923199
 20
173.0616955253776
 30
0.0
 11
153.896420339232
 21
173.0616955253776
 31
0.0
  0
LINE
  5
17E
330
2
100
AcDbEntity
  8
0
 48
10.0
100
AcDbLine
 10
87.89642033923199
 20
117.0616955253776
 30
0.0
 11
153.896420339232
 21
117.0616955253777
 31
0.0
  0
LINE
  5
17F
330
2
100
AcDbEntity
  8
0
 48
10.0
100
AcDbLine
 10
87.89642033923199
 20
173.0616955253776
 30
0.0
 11
87.89642033923199
 21
147.0616955253776
 31
0.0
  0
LINE
  5
180
330
2
100
AcDbEntity
  8
0
 48
10.0
100
AcDbLine
 10
153.896420339232
 20
173.0616955253776
 30
0.0
 11
153.896420339232
 21
147.0616955253776
 31
0.0
  0
LINE
  5
181
330
2
100
AcDbEntity
  8
0
 48
10.0
100
AcDbLine
 10
87.89642033923199
 20
147.0616955253776
 30
0.0
 11
102.0019767115408
 21
147.0616955253776
 31
0.0
  0
LINE
  5
182
330
2
100
AcDbEntity
  8
0
 48
10.0
100
AcDbLine
 10
87.89642033923199
 20
143.0616955253776
 30
0.0
 11
102.0019767115408
 21
143.0616955253777
 31
0.0
  0
LINE
  5
183
330
2
100
AcDbEntity
  8
0
 48
10.0
100
AcDbLine
 10
87.89642033923199
 20
143.0616955253776
 30
0.0
 11
87.89642033923199
 21
117.0616955253776
 31
0.0
  0
LINE
  5
184
330
2
100
AcDbEntity
  8
0
 48
10.0
100
AcDbLine
 10
139.7908639669232
 20
147.0616955253776
 30
0.0
 11
153.896420339232
 21
147.0616955253777
 31
0.0
  0
LINE
  5
185
330
2
100
AcDbEntity
  8
0
 48
10.0
100
AcDbLine
 10
139.7908639669232
 20
143.0616955253777
 30
0.0
 11
153.896420339232
 21
143.0616955253777
 31
0.0
  0
LINE
  5
187
330
2
100
AcDbEntity
  8
0
 48
10.0
100
AcDbLine
 10
153.896420339232
 20
143.0616955253776
 30
0.0
 11
153.896420339232
 21
117.0616955253777
 31
0.0
  0
LINE
  5
189
330
2
100
AcDbEntity
  8
MITTE
 48
5.0
100
AcDbLine
 10
94.896420339232
 20
174.4762265080666
 30
0.0
 11
94.896420339232
 21
114.606595973496
 31
0.0
  0
LINE
  5
18A
330
2
100
AcDbEntity
  8
MITTE
 48
5.0
100
AcDbLine
 10
146.896420339232
 20
174.3628725874043
 30
0.0
 11
146.896420339232
 21
114.946657735483
 31
0.0
  0
LINE
  5
190
330
2
100
AcDbEntity
  8
0
 48
10.0
100
AcDbLine
 10
91.89642033923201
 20
147.0616955253776
 30
0.0
 11
91.89642033923201
 21
143.0616955253776
 31
0.0
  0
LINE
  5
191
330
2
100
AcDbEntity
  8
0
 48
10.0
100
AcDbLine
 10
97.896420339232
 20
147.0616955253776
 30
0.0
 11
97.896420339232
 21
143.0616955253776
 31
0.0
  0
LINE
  5
192
330
2
100
AcDbEntity
  8
0
 48
10.0
100
AcDbLine
 10
143.896420339232
 20
147.0616955253776
 30
0.0
 11
143.896420339232
 21
143.0616955253777
 31
0.0
  0
LINE
  5
193
330
2
100
AcDbEntity
  8
0
 48
10.0
100
AcDbLine
 10
149.896420339232
 20
147.0616955253776
 30
0.0
 11
149.896420339232
 21
143.0616955253777
 31
0.0
  0
LINE
  5
195
330
2
100
AcDbEntity
  8
LINIE
 48
10.0
100
AcDbLine
 10
97.24642033923201
 20
147.0616955253776
 30
0.0
 11
97.24642033923201
 21
143.0616955253776
 31
0.0
  0
LINE
  5
196
330
2
100
AcDbEntity
  8
LINIE
 48
10.0
100
AcDbLine
 10
92.54642033923202
 20
147.0616955253776
 30
0.0
 11
92.54642033923202
 21
143.0616955253776
 31
0.0
  0
LINE
  5
197
330
2
100
AcDbEntity
  8
LINIE
 48
10.0
100
AcDbLine
 10
144.546420339232
 20
147.0616955253776
 30
0.0
 11
144.546420339232
 21
143.0616955253777
 31
0.0
  0
LINE
  5
198
330
2
100
AcDbEntity
  8
LINIE
 48
10.0
100
AcDbLine
 10
149.246420339232
 20
147.0616955253776
 30
0.0
 11
149.246420339232
 21
143.0616955253777
 31
0.0
  0
LINE
  5
199
330
2
100
AcDbEntity
  8
0
 48
10.0
100
AcDbLine
 10
183.6013217393633
 20
173.0616955253776
 30
0.0
 11
243.6013217393634
 21
173.0616955253776
 31
0.0
  0
LINE
  5
19A
330
2
100
AcDbEntity
  8
0
 48
10.0
100
AcDbLine
 10
183.6013217393633
 20
147.0616955253777
 30
0.0
 11
243.6013217393634
 21
147.0616955253777
 31
0.0
  0
LINE
  5
19B
330
2
100
AcDbEntity
  8
0
 48
10.0
100
AcDbLine
 10
183.6013217393633
 20
143.0616955253776
 30
0.0
 11
243.6013217393634
 21
143.0616955253776
 31
0.0
  0
LINE
  5
19C
330
2
100
AcDbEntity
  8
0
 48
10.0
100
AcDbLine
 10
183.6013217393633
 20
117.0616955253777
 30
0.0
 11
243.6013217393634
 21
117.0616955253777
 31
0.0
  0
LINE
  5
19D
330
2
100
AcDbEntity
  8
0
 48
10.0
100
AcDbLine
 10
183.6013217393633
 20
173.0616955253776
 30
0.0
 11
183.6013217393633
 21
147.0616955253777
 31
0.0
  0
LINE
  5
19E
330
2
100
AcDbEntity
  8
0
 48
10.0
100
AcDbLine
 10
243.6013217393634
 20
173.0616955253776
 30
0.0
 11
243.6013217393634
 21
147.0616955253777
 31
0.0
  0
LINE
  5
19F
330
2
100
AcDbEntity
  8
0
 48
10.0
100
AcDbLine
 10
183.6013217393633
 20
143.0616955253776
 30
0.0
 11
183.6013217393633
 21
117.0616955253777
 31
0.0
  0
LINE
  5
1A0
330
2
100
AcDbEntity
  8
0
 48
10.0
100
AcDbLine
 10
243.6013217393634
 20
143.0616955253776
 30
0.0
 11
243.6013217393634
 21
117.0616955253777
 31
0.0
  0
LINE
  5
1A2
330
2
100
AcDbEntity
  8
MITTE
 48
5.0
100
AcDbLine
 10
180.5686990882575
 20
145.0616955253776
 30
0.0
 11
245.9826122923416
 21
145.0616955253776
 31
0.0
  0
LINE
  5
1A6
330
2
100
AcDbEntity
  8
MITTE
 48
5.0
100
AcDbLine
 10
190.6013217393633
 20
174.3628725874043
 30
0.0
 11
190.6013217393633
 21
114.946657735483
 31
0.0
  0
LINE
  5
1A7
330
2
100
AcDbEntity
  8
0
 48
10.0
100
AcDbLine
 10
193.6013217393633
 20
147.0616955253777
 30
0.0
 11
193.6013217393633
 21
143.0616955253777
 31
0.0
  0
LINE
  5
1A8
330
2
100
AcDbEntity
  8
LINIE
 48
10.0
100
AcDbLine
 10
192.9513217393633
 20
147.0616955253777
 30
0.0
 11
192.9513217393633
 21
143.0616955253777
 31
0.0
  0
LINE
  5
1A9
330
2
100
AcDbEntity
  8
0
 48
10.0
100
AcDbLine
 10
187.6013217393633
 20
147.0616955253777
 30
0.0
 11
187.6013217393633
 21
143.0616955253777
 31
0.0
  0
LINE
  5
1AA
330
2
100
AcDbEntity
  8
LINIE
 48
10.0
100
AcDbLine
 10
188.2513217393633
 20
147.0616955253777
 30
0.0
 11
188.2513217393633
 21
143.0616955253777
 31
0.0
  0
LINE
  5
1AB
330
2
100
AcDbEntity
  8
MITTE
 48
5.0
100
AcDbLine
 10
236.6013217393633
 20
174.3628725874043
 30
0.0
 11
236.6013217393633
 21
114.946657735483
 31
0.0
  0
LINE
  5
1AC
330
2
100
AcDbEntity
  8
0
 48
10.0
100
AcDbLine
 10
239.6013217393634
 20
147.0616955253777
 30
0.0
 11
239.6013217393634
 21
143.0616955253777
 31
0.0
  0
LINE
  5
1AD
330
2
100
AcDbEntity
  8
LINIE
 48
10.0
100
AcDbLine
 10
238.9513217393634
 20
147.0616955253777
 30
0.0
 11
238.9513217393634
 21
143.0616955253777
 31
0.0
  0
LINE
  5
1AE
330
2
100
AcDbEntity
  8
0
 48
10.0
100
AcDbLine
 10
233.6013217393634
 20
147.0616955253777
 30
0.0
 11
233.6013217393634
 21
143.0616955253777
 31
0.0
  0
LINE
  5
1AF
330
2
100
AcDbEntity
  8
LINIE
 48
10.0
100
AcDbLine
 10
234.2513217393634
 20
147.0616955253777
 30
0.0
 11
234.2513217393634
 21
143.0616955253777
 31
0.0
  0
LINE
  5
1B0
330
2
100
AcDbEntity
  8
0
 48
10.0
100
AcDbLine
 10
183.6013217393633
 20
32.00543562276822
 30
0.0
 11
183.6013217393633
 21
98.00543562276823
 31
0.0
  0
LINE
  5
1B1
330
2
100
AcDbEntity
  8
0
 48
10.0
100
AcDbLine
 10
243.6013217393634
 20
98.00543562276823
 30
0.0
 11
243.6013217393634
 21
32.00543562276823
 31
0.0
  0
LINE
  5
1B3
330
2
100
AcDbEntity
  8
0
 48
10.0
100
AcDbLine
 10
183.6013217393633
 20
98.00543562276823
 30
0.0
 11
243.6013217393634
 21
98.00543562276823
 31
0.0
  0
LINE
  5
1B4
330
2
100
AcDbEntity
  8
MITTE
 48
5.0
100
AcDbLine
 10
247.2421985121609
 20
65.00543562276823
 30
0.0
 11
180.0877113858373
 21
65.00543562276823
 31
0.0
  0
LINE
  5
1B5
330
2
100
AcDbEntity
  8
0
 48
10.0
100
AcDbLine
 10
183.6013217393633
 20
32.00543562276823
 30
0.0
 11
243.6013217393634
 21
32.00543562276823
 31
0.0
  0
LINE
  5
1B8
330
2
100
AcDbEntity
  8
0
 48
10.0
100
AcDbLine
 10
183.6013217393633
 20
193.1291930739228
 30
0.0
 11
183.6013217393633
 21
259.1291930739228
 31
0.0
  0
LINE
  5
1B9
330
2
100
AcDbEntity
  8
0
 48
10.0
100
AcDbLine
 10
243.6013217393634
 20
259.1291930739228
 30
0.0
 11
243.6013217393634
 21
193.1291930739228
 31
0.0
  0
LINE
  5
1BA
330
2
100
AcDbEntity
  8
0
 48
10.0
100
AcDbLine
 10
183.6013217393633
 20
259.1291930739228
 30
0.0
 11
243.6013217393634
 21
259.1291930739228
 31
0.0
  0
LINE
  5
1BB
330
2
100
AcDbEntity
  8
MITTE
 48
5.0
100
AcDbLine
 10
247.2421985121609
 20
226.1291930739228
 30
0.0
 11
180.4603068771321
 21
226.1291930739228
 31
0.0
  0
LINE
  5
1BC
330
2
100
AcDbEntity
  8
0
 48
10.0
100
AcDbLine
 10
183.6013217393633
 20
193.1291930739228
 30
0.0
 11
243.6013217393634
 21
193.1291930739228
 31
0.0
  0
LINE
  5
1BD
330
2
100
AcDbEntity
  8
MITTE
 48
10.0
100
AcDbLine
 10
243.6013217393634
 20
91.00543562276824
 30
0.0
 11
229.6013217393634
 21
91.00543562276824
 31
0.0
  0
LINE
  5
1C0
330
2
100
AcDbEntity
  8
MITTE
 48
10.0
100
AcDbLine
 10
236.6013217393633
 20
84.00543562276823
 30
0.0
 11
236.6013217393633
 21
98.00543562276823
 31
0.0
  0
CIRCLE
  5
1C2
330
2
100
AcDbEntity
  8
0
 48
10.0
100
AcDbCircle
 10
236.6013217393633
 20
91.00543562276824
 30
0.0
 40
5.0
  0
CIRCLE
  5
1C3
330
2
100
AcDbEntity
  8
0
 48
10.0
100
AcDbCircle
 10
236.6013217393633
 20
91.00543562276824
 30
0.0
 40
5.5
  0
LWPOLYLINE
  5
1C9
330
2
100
AcDbEntity
  8
0
 48
10.0
100
AcDbPolyline
 90
        6
 70
     1
 43
0.0
 10
235.4466212009841
 20
93.00543562276823
 10
234.2919206626049
 20
91.00543562276824
 10
235.4466212009841
 20
89.00543562276823
 10
237.7560222777426
 20
89.00543562276823
 10
238.9107228161218
 20
91.00543562276824
 10
237.7560222777426
 20
93.00543562276823
  0
LINE
  5
1CA
330
2
100
AcDbEntity
  8
MITTE
 48
10.0
100
AcDbLine
 10
197.6013217393633
 20
91.00543562276824
 30
0.0
 11
183.6013217393633
 21
91.00543562276824
 31
0.0
  0
LINE
  5
1CB
330
2
100
AcDbEntity
  8
MITTE
 48
10.0
100
AcDbLine
 10
190.6013217393633
 20
84.00543562276823
 30
0.0
 11
190.6013217393633
 21
98.00543562276823
 31
0.0
  0
CIRCLE
  5
1CC
330
2
100
AcDbEntity
  8
0
 48
10.0
100
AcDbCircle
 10
190.6013217393633
 20
91.00543562276824
 30
0.0
 40
5.0
  0
CIRCLE
  5
1CD
330
2
100
AcDbEntity
  8
0
 48
10.0
100
AcDbCircle
 10
190.6013217393633
 20
91.00543562276824
 30
0.0
 40
5.5
  0
LWPOLYLINE
  5
1D0
330
2
100
AcDbEntity
  8
0
 48
10.0
100
AcDbPolyline
 90
        6
 70
     1
 43
0.0
 10
189.4466212009841
 20
93.00543562276823
 10
188.2919206626048
 20
91.00543562276824
 10
189.4466212009841
 20
89.00543562276823
 10
191.7560222777426
 20
89.00543562276823
 10
192.9107228161218
 20
91.00543562276824
 10
191.7560222777426
 20
93.00543562276823
  0
LINE
  5
1D1
330
2
100
AcDbEntity
  8
MITTE
 48
10.0
100
AcDbLine
 10
197.6013217393633
 20
39.00543562276823
 30
0.0
 11
183.6013217393633
 21
39.00543562276823
 31
0.0
  0
LINE
  5
1D2
330
2
100
AcDbEntity
  8
MITTE
 48
10.0
100
AcDbLine
 10
190.6013217393633
 20
32.00543562276823
 30
0.0
 11
190.6013217393633
 21
46.00543562276823
 31
0.0
  0
CIRCLE
  5
1D3
330
2
100
AcDbEntity
  8
0
 48
10.0
100
AcDbCircle
 10
190.6013217393633
 20
39.00543562276823
 30
0.0
 40
5.0
  0
CIRCLE
  5
1D4
330
2
100
AcDbEntity
  8
0
 48
10.0
100
AcDbCircle
 10
190.6013217393633
 20
39.00543562276823
 30
0.0
 40
5.5
  0
LWPOLYLINE
  5
1D7
330
2
100
AcDbEntity
  8
0
 48
10.0
100
AcDbPolyline
 90
        6
 70
     1
 43
0.0
 10
189.4466212009841
 20
41.00543562276823
 10
188.2919206626048
 20
39.00543562276823
 10
189.4466212009841
 20
37.00543562276823
 10
191.7560222777426
 20
37.00543562276823
 10
192.9107228161218
 20
39.00543562276823
 10
191.7560222777426
 20
41.00543562276823
  0
LINE
  5
1D8
330
2
100
AcDbEntity
  8
MITTE
 48
10.0
100
AcDbLine
 10
243.6013217393634
 20
39.00543562276823
 30
0.0
 11
229.6013217393634
 21
39.00543562276823
 31
0.0
  0
LINE
  5
1D9
330
2
100
AcDbEntity
  8
MITTE
 48
10.0
100
AcDbLine
 10
236.6013217393633
 20
32.00543562276823
 30
0.0
 11
236.6013217393633
 21
46.00543562276823
 31
0.0
  0
CIRCLE
  5
1DA
330
2
100
AcDbEntity
  8
0
 48
10.0
100
AcDbCircle
 10
236.6013217393633
 20
39.00543562276823
 30
0.0
 40
5.0
  0
CIRCLE
  5
1DB
330
2
100
AcDbEntity
  8
0
 48
10.0
100
AcDbCircle
 10
236.6013217393633
 20
39.00543562276823
 30
0.0
 40
5.5
  0
LWPOLYLINE
  5
1DE
330
2
100
AcDbEntity
  8
0
 48
10.0
100
AcDbPolyline
 90
        6
 70
     1
 43
0.0
 10
235.4466212009841
 20
41.00543562276823
 10
234.2919206626049
 20
39.00543562276823
 10
235.4466212009841
 20
37.00543562276823
 10
237.7560222777426
 20
37.00543562276823
 10
238.9107228161218
 20
39.00543562276823
 10
237.7560222777426
 20
41.00543562276823
  0
LINE
  5
1EE
330
2
100
AcDbEntity
  8
MITTE
 48
10.0
100
AcDbLine
 10
231.6013217393634
 20
252.1291930739228
 30
0.0
 11
223.6013217393634
 21
252.1291930739228
 31
0.0
  0
LINE
  5
1EF
330
2
100
AcDbEntity
  8
MITTE
 48
10.0
100
AcDbLine
 10
231.6013217393634
 20
200.1291930739228
 30
0.0
 11
223.6013217393634
 21
200.1291930739228
 31
0.0
  0
LINE
  5
1F0
330
2
100
AcDbEntity
  8
MITTE
 48
10.0
100
AcDbLine
 10
213.6013217393633
 20
256.1291930739228
 30
0.0
 11
213.6013217393633
 21
248.1291930739228
 31
0.0
  0
CIRCLE
  5
1F2
330
2
100
AcDbEntity
  8
0
 48
10.0
100
AcDbCircle
 10
213.6013217393633
 20
252.1291930739228
 30
0.0
 40
2.5
  0
CIRCLE
  5
1F3
330
2
100
AcDbEntity
  8
0
 48
10.0
100
AcDbCircle
 10
213.6013217393633
 20
200.1291930739228
 30
0.0
 40
2.5
  0
LINE
  5
1F4
330
2
100
AcDbEntity
  8
MITTE
 48
10.0
100
AcDbLine
 10
227.6013217393634
 20
256.1291930739228
 30
0.0
 11
227.6013217393634
 21
248.1291930739228
 31
0.0
  0
LINE
  5
1F5
330
2
100
AcDbEntity
  8
MITTE
 48
10.0
100
AcDbLine
 10
199.6013217393633
 20
256.1291930739228
 30
0.0
 11
199.6013217393633
 21
248.1291930739228
 31
0.0
  0
ARC
  5
1F6
330
2
100
AcDbEntity
  8
LINIE
 48
10.0
100
AcDbCircle
 10
227.6013217393634
 20
252.1291930739228
 30
0.0
 40
2.5
100
AcDbArc
 50
171.6634047776226
 51
112.2472119386731
  0
CIRCLE
  5
1F8
330
2
100
AcDbEntity
  8
0
 48
10.0
100
AcDbCircle
 10
227.6013217393634
 20
252.1291930739228
 30
0.0
 40
2.0
  0
ARC
  5
1F9
330
2
100
AcDbEntity
  8
LINIE
 48
10.0
100
AcDbCircle
 10
199.6013217393633
 20
252.1291930739228
 30
0.0
 40
2.5
100
AcDbArc
 50
167.784192782103
 51
108.9529870910443
  0
CIRCLE
  5
1FA
330
2
100
AcDbEntity
  8
0
 48
10.0
100
AcDbCircle
 10
199.6013217393633
 20
252.1291930739228
 30
0.0
 40
2.0
  0
ARC
  5
1FB
330
2
100
AcDbEntity
  8
LINIE
 48
10.0
100
AcDbCircle
 10
199.6013217393633
 20
200.1291930739228
 30
0.0
 40
2.5
100
AcDbArc
 50
168.1599359318109
 51
108.6507708249593
  0
CIRCLE
  5
1FC
330
2
100
AcDbEntity
  8
0
 48
10.0
100
AcDbCircle
 10
199.6013217393633
 20
200.1291930739228
 30
0.0
 40
2.0
  0
ARC
  5
1FD
330
2
100
AcDbEntity
  8
LINIE
 48
10.0
100
AcDbCircle
 10
227.6013217393634
 20
200.1291930739228
 30
0.0
 40
2.5
100
AcDbArc
 50
167.3540768310669
 51
112.9783023437658
  0
CIRCLE
  5
1FE
330
2
100
AcDbEntity
  8
0
 48
10.0
100
AcDbCircle
 10
227.6013217393634
 20
200.1291930739228
 30
0.0
 40
2.0
  0
LINE
  5
205
330
2
100
AcDbEntity
  8
MITTE
 48
10.0
100
AcDbLine
 10
217.6013217393633
 20
200.1291930739228
 30
0.0
 11
209.6013217393633
 21
200.1291930739228
 31
0.0
  0
LINE
  5
206
330
2
100
AcDbEntity
  8
MITTE
 48
10.0
100
AcDbLine
 10
203.6013217393633
 20
200.1291930739228
 30
0.0
 11
195.6013217393633
 21
200.1291930739228
 31
0.0
  0
LINE
  5
207
330
2
100
AcDbEntity
  8
MITTE
 48
10.0
100
AcDbLine
 10
199.6013217393633
 20
204.1291930739228
 30
0.0
 11
199.6013217393633
 21
196.1291930739228
 31
0.0
  0
LINE
  5
208
330
2
100
AcDbEntity
  8
MITTE
 48
10.0
100
AcDbLine
 10
203.6013217393633
 20
252.1291930739228
 30
0.0
 11
195.6013217393633
 21
252.1291930739228
 31
0.0
  0
LINE
  5
209
330
2
100
AcDbEntity
  8
MITTE
 48
10.0
100
AcDbLine
 10
213.6013217393633
 20
204.1291930739228
 30
0.0
 11
213.6013217393633
 21
196.1291930739228
 31
0.0
  0
LINE
  5
20A
330
2
100
AcDbEntity
  8
MITTE
 48
10.0
100
AcDbLine
 10
217.6013217393633
 20
252.1291930739228
 30
0.0
 11
209.6013217393633
 21
252.1291930739228
 31
0.0
  0
LINE
  5
20B
330
2
100
AcDbEntity
  8
MITTE
 48
10.0
100
AcDbLine
 10
227.6013217393634
 20
204.1291930739228
 30
0.0
 11
227.6013217393634
 21
196.1291930739228
 31
0.0
  0
DIMENSION
  5
20C
330
2
100
AcDbEntity
  8
BEM
 48
10.0
100
AcDbDimension
  2
*D4
 10
37.8294760881972
 20
188.8723549181435
 30
0.0
 11
70.82947608819721
 21
192.1223549181435
 31
0.0
 70
    32
 71
     5
 42
66.00000000000003
  3
ISO-25
100
AcDbAlignedDimension
 13
103.8294760881972
 23
173.0616955253776
 33
0.0
 14
37.8294760881972
 24
173.0616955253776
 34
0.0
100
AcDbRotatedDimension
1001
ACAD
1000
DSTYLE
1002
{
1070
   144
1040
1.0
1002
}
  0
DIMENSION
  5
21A
330
2
100
AcDbEntity
  8
BEM
 48
10.0
100
AcDbDimension
  2
*D5
 10
142.7335996304426
 20
117.0616955253777
 30
0.0
 11
139.4835996304425
 21
145.0616955253776
 31
0.0
 70
    32
 71
     5
 42
55.99999999999997
  3
ISO-25
100
AcDbAlignedDimension
 13
103.8294760881972
 23
173.0616955253776
 33
0.0
 14
103.8294760881972
 24
117.0616955253777
 34
0.0
 50
90.0
100
AcDbRotatedDimension
1001
ACAD
1000
DSTYLE
1002
{
1070
   144
1040
1.0
1002
}
  0
DIMENSION
  5
227
330
2
100
AcDbEntity
  8
BEM
 48
10.0
100
AcDbDimension
  2
*D6
 10
17.57704190231678
 20
117.0616955253776
 30
0.0
 11
14.32704190231676
 21
131.0616955253776
 31
0.0
 70
    32
  1
<>{}{\H0.71x;\C3;%%p0.05}
 71
     5
 42
28.00000000000004
  3
ISO-25
100
AcDbAlignedDimension
 13
35.80878322000558
 23
145.0616955253777
 33
0.0
 14
37.82947608819721
 24
117.0616955253776
 34
0.0
 50
90.0
100
AcDbRotatedDimension
1001
ACAD_DSTYLE_DIMINSPECT
1070
   396
1000
100%
1070
   395
1000

1070
   394
1070
    33
1070
   393
1070
     0
1001
ACAD
1000
DSTYLE
1002
{
1070
   286
1070
     0
1070
   284
1070
     8
1070
   274
1070
     2
1070
   272
1070
     4
1070
    47
1040
0.05
1070
    48
1040
0.05
1070
   144
1040
1.0
1002
}
1001
GENIUS_GENDTOL_13
1000
TolSmPm
1000

1000
{\H0.71x;$2%%p$P}
1040
28.0
  0
DIMENSION
  5
234
330
2
100
AcDbEntity
  8
BEM
 48
10.0
100
AcDbDimension
  2
*D7
 10
120.1596612647761
 20
143.0616955253777
 30
0.0
 11
116.9096612647761
 21
133.3116955253777
 31
0.0
 70
    32
 71
     5
 42
4.0
  3
ISO-25
100
AcDbAlignedDimension
 13
103.8294760881972
 23
147.0616955253777
 33
0.0
 14
103.8294760881972
 24
143.0616955253777
 34
0.0
 50
90.0
100
AcDbRotatedDimension
1001
ACAD
1000
DSTYLE
1002
{
1070
   144
1040
1.0
1002
}
  0
DIMENSION
  5
24F
330
2
100
AcDbEntity
  8
BEM
 48
10.0
100
AcDbDimension
  2
*D8
 10
183.6013217393633
 20
189.2801783100298
 30
0.0
 11
213.6013217393633
 21
192.5301783100298
 31
0.0
 70
    32
 71
     5
 42
60.0
  3
ISO-25
100
AcDbAlignedDimension
 13
243.6013217393634
 23
173.0616955253776
 33
0.0
 14
183.6013217393633
 24
173.0616955253776
 34
0.0
100
AcDbRotatedDimension
1001
ACAD
1000
DSTYLE
1002
{
1070
   144
1040
1.0
1002
}
  0
DIMENSION
  5
25C
330
2
100
AcDbEntity
  8
BEM
 48
10.0
100
AcDbDimension
  2
*D9
 10
243.6013217393634
 20
321.2003503645999
 30
0.0
 11
234.6284861106883
 21
321.2003503645999
 31
0.0
 70
   160
  1
<>{}{\H0.71x;\C3;%%p0.1}
 71
     5
 42
16.0
  3
ISO-25
100
AcDbAlignedDimension
 13
227.6013217393634
 23
305.4791932166447
 33
0.0
 14
243.6013217393634
 24
308.4791932166447
 34
0.0
100
AcDbRotatedDimension
1001
ACAD_DSTYLE_DIMINSPECT
1070
   396
1000
100%
1070
   395
1000

1070
   394
1070
    33
1070
   393
1070
     0
1001
ACAD
1000
DSTYLE
1002
{
1070
   286
1070
     0
1070
   284
1070
     8
1070
   274
1070
     2
1070
   272
1070
     4
1070
    47
1040
0.1
1070
    48
1040
0.1
1070
   144
1040
1.0
1002
}
1001
GENIUS_GENDTOL_13
1000
TolSmPm
1000

1000
{\H0.71x;$2%%p$P}
1040
16.0
  0
DIMENSION
  5
269
330
2
100
AcDbEntity
  8
BEM
 48
10.0
100
AcDbDimension
  2
*D10
 10
199.6013217393633
 20
321.2003503645999
 30
0.0
 11
213.6013217393633
 21
324.4503503645999
 31
0.0
 70
    32
  1
<>{}{\H0.71x;\C3;%%p0.05}
 71
     5
 42
28.0
  3
ISO-25
100
AcDbAlignedDimension
 13
227.6013217393634
 23
305.4791932166447
 33
0.0
 14
199.6013217393633
 24
305.4791932166447
 34
0.0
100
AcDbRotatedDimension
1001
ACAD_DSTYLE_DIMINSPECT
1070
   396
1000
100%
1070
   395
1000

1070
   394
1070
    33
1070
   393
1070
     0
1001
ACAD
1000
DSTYLE
1002
{
1070
   286
1070
     0
1070
   284
1070
     8
1070
   274
1070
     2
1070
   272
1070
     4
1070
    47
1040
0.05
1070
    48
1040
0.05
1070
   144
1040
1.0
1002
}
1001
GENIUS_GENDTOL_13
1000
TolSmPm
1000

1000
{\H0.71x;$2%%p$P}
1040
28.0
  0
DIMENSION
  5
289
102
{ACAD_XDICTIONARY
360
D18
102
}
102
{ACAD_REACTORS
330
D19
102
}
330
2
100
AcDbEntity
  8
BEM
 48
10.0
100
AcDbDimension
  2
*D11
 10
227.6013217393634
 20
213.5904399120684
 30
0.0
 11
240.9371550726967
 21
213.5904399120684
 31
0.0
 70
   160
  1
<>{}{\H0.71x;\C3;%%p0.05}
 71
     5
 42
14.0
  3
ISO-25
100
AcDbAlignedDimension
 13
213.6013217393633
 23
245.4791932166447
 33
0.0
 14
227.6013217393634
 24
245.4791932166447
 34
0.0
100
AcDbRotatedDimension
1001
ACAD_DSTYLE_DIMINSPECT
1070
   396
1000
100%
1070
   395
1000

1070
   394
1070
    33
1070
   393
1070
     0
1001
ACAD
1000
DSTYLE
1002
{
1070
   286
1070
     0
1070
   284
1070
     8
1070
   274
1070
     2
1070
   272
1070
     4
1070
    47
1040
0.05
1070
    48
1040
0.05
1070
   144
1040
1.0
1002
}
1001
GENIUS_GENDTOL_13
1000
TolSmPm
1000

1000
{\H0.71x;$2%%p$P}
1040
14.0
  0
DIMENSION
  5
297
330
2
100
AcDbEntity
  8
BEM
 48
10.0
100
AcDbDimension
  2
*D12
 10
216.1013217393634
 20
226.4817449354341
 30
0.0
 11
194.6013217393633
 21
226.4817449354341
 31
0.0
 70
   160
  1
%%c<>{}{\H0.71x;\C3; H7}
 71
     5
 42
5.0
  3
ISO-25
100
AcDbAlignedDimension
 13
211.1013217393634
 23
249.4791932166447
 33
0.0
 14
216.1013217393634
 24
249.4791932166447
 34
0.0
100
AcDbRotatedDimension
1001
ACAD_DSTYLE_DIMINSPECT
1070
   396
1000
100%
1070
   395
1000

1070
   394
1070
    33
1070
   393
1070
     0
1001
GENIUS_GENDTOL_13
1000
FitSmTxt
1000
H7
1000
{\H0.71x;$2 $T}
1040
5.0
1001
ACAD
1000
DSTYLE
1002
{
1070
   286
1070
     0
1070
   284
1070
     8
1070
   274
1070
     2
1070
   272
1070
     4
1070
    48
1040
0.0
1070
    47
1040
0.0
1070
   144
1040
1.0
1002
}
  0
DIMENSION
  5
2A6
330
2
100
AcDbEntity
  8
BEM
 48
10.0
100
AcDbDimension
  2
*D13
 10
265.15608203186
 20
249.4791932166447
 30
0.0
 11
261.90608203186
 21
275.4791932166448
 31
0.0
 70
    32
  1
<>{}{\H0.71x;\C3;%%p0.05}
 71
     5
 42
52.0
  3
ISO-25
100
AcDbAlignedDimension
 13
231.6013217393634
 23
301.4791932166447
 33
0.0
 14
231.6013217393634
 24
249.4791932166447
 34
0.0
 50
90.0
100
AcDbRotatedDimension
1001
ACAD_DSTYLE_DIMINSPECT
1070
   396
1000
100%
1070
   395
1000

1070
   394
1070
    33
1070
   393
1070
     0
1001
ACAD
1000
DSTYLE
1002
{
1070
   286
1070
     0
1070
   284
1070
     8
1070
   274
1070
     2
1070
   272
1070
     4
1070
    47
1040
0.05
1070
    48
1040
0.05
1070
   144
1040
1.0
1002
}
1001
GENIUS_GENDTOL_13
1000
TolSmPm
1000

1000
{\H0.71x;$2%%p$P}
1040
52.0
  0
DIMENSION
  5
2B3
330
2
100
AcDbEntity
  8
BEM
 48
10.0
100
AcDbDimension
  2
*D14
 10
208.6539935736634
 20
249.4791932166447
 30
0.0
 11
205.4039935736634
 21
275.4791932166448
 31
0.0
 70
    32
  1
<>{}{\H0.71x;\C3;%%p0.01}
 71
     5
 42
52.0
  3
ISO-25
100
AcDbAlignedDimension
 13
209.6013217393633
 23
301.4791932166447
 33
0.0
 14
209.6013217393633
 24
249.4791932166447
 34
0.0
 50
90.0
100
AcDbRotatedDimension
1001
ACAD_DSTYLE_DIMINSPECT
1070
   396
1000
100%
1070
   395
1000

1070
   394
1070
    33
1070
   393
1070
     0
1001
ACAD
1000
DSTYLE
1002
{
1070
   286
1070
     0
1070
   284
1070
     8
1070
   274
1070
     2
1070
   272
1070
     4
1070
    47
1040
0.01
1070
    48
1040
0.01
1070
   144
1040
1.0
1002
}
1001
GENIUS_GENDTOL_13
1000
TolSmPm
1000

1000
{\H0.71x;$2%%p$P}
1040
52.0
  0
DIMENSION
  5
2C2
330
2
100
AcDbEntity
  8
BEM
 48
10.0
100
AcDbDimension
  2
*D15
 10
164.9238526270622
 20
298.9791932166447
 30
0.0
 11
161.6738526270621
 21
287.3958598833115
 31
0.0
 70
    32
  1
M<>
 71
     5
 42
5.0
  3
ISO-25
100
AcDbAlignedDimension
 13
199.6013217393633
 23
303.9791932166447
 33
0.0
 14
199.6013217393633
 24
298.9791932166447
 34
0.0
 50
90.0
100
AcDbRotatedDimension
1001
ACAD
1000
DSTYLE
1002
{
1070
   144
1040
1.0
1002
}
  0
TEXT
  5
46D
330
2
100
AcDbEntity
  8
TEXT
100
AcDbText
 10
381.8725546314985
 20
65.95747165905024
 30
0.0
 40
3.5
  1

100
AcDbText
  0
TEXT
  5
46E
330
2
100
AcDbEntity
  8
TEXT
100
AcDbText
 10
348.5921867209947
 20
56.08465571486515
 30
0.0
 40
3.5
  1

100
AcDbText
  0
TEXT
  5
46F
330
2
100
AcDbEntity
  8
LINIE
100
AcDbText
 10
295.1650830602254
 20
45.62248334516732
 30
0.0
 40
2.5
  1

100
AcDbText
  0
TEXT
  5
470
330
2
100
AcDbEntity
  8
LINIE
100
AcDbText
 10
310.4031003657155
 20
45.95580140624962
 30
0.0
 40
2.5
  1

100
AcDbText
  0
TEXT
  5
4A3
330
2
100
AcDbEntity
  8
0
100
AcDbText
 10
203.6910455355544
 20
156.7018540221323
 30
0.0
 40
5.0
  1
%%C38
  7
STYLE1
100
AcDbText
  0
ARC
  5
61B
330
2
100
AcDbEntity
  8
0
 48
10.0
100
AcDbCircle
 10
120.896420339232
 20
145.0616955253776
 30
0.0
 40
19.0
100
AcDbArc
 50
186.0423284190543
 51
353.957671580946
  0
ARC
  5
61C
330
2
100
AcDbEntity
  8
0
 48
10.0
100
AcDbCircle
 10
120.896420339232
 20
145.0616955253776
 30
0.0
 40
19.0
100
AcDbArc
 50
6.042328419054285
 51
173.9576715809461
  0
DIMENSION
  5
61D
330
2
100
AcDbEntity
  8
BEM
 48
10.0
100
AcDbDimension
  2
*D16
 10
77.08386908648411
 20
163.0027815633791
 30
0.0
 11
54.38164617900087
 21
97.88014943127521
 31
0.0
 70
   163
  1
<>{}{\H0.71x;\C3;+0.05}
 71
     5
 42
37.99999999999983
  3
ISO-25
100
AcDbDiametricDimension
 15
64.57508308991021
 25
127.1206094873759
 35
0.0
 40
0.0
1001
ACAD_DSTYLE_DIMINSPECT
1070
   396
1000
100%
1070
   395
1000

1070
   394
1070
    33
1070
   393
1070
     0
1001
ACAD
1000
DSTYLE
1002
{
1070
   286
1070
     0
1070
   284
1070
     8
1070
   274
1070
     2
1070
   272
1070
     4
1070
    48
1040
0.0
1070
    47
1040
0.05
1070
   144
1040
1.0
1002
}
1001
GENIUS_GENDTOL_13
1000
TolSmPm
1000

1000
{\H0.71x;$2$+$P}
1040
38.0
  0
MTEXT
  5
BFB
330
2
100
AcDbEntity
  8
BEM
 48
10.0
100
AcDbMText
 10
85.99941108730348
 20
47.01240963726127
 30
0.0
 40
5.0
 41
76.62068133002435
 71
     1
 72
     5
  1
{\fArial|b0|i0|c0|p34;4x Klemmschraube\P     clamping screw}
 73
     1
 44
1.0
1001
ACAD
1000
ACAD_MTEXT_DEFINED_HEIGHT_BEGIN
1070
    46
1040
22.62613756003259
1000
ACAD_MTEXT_DEFINED_HEIGHT_END
  0
INSERT
  5
BFC
330
2
100
AcDbEntity
  8
BEM
 48
10.0
100
AcDbBlockReference
  2
*S49
 10
0.0
 20
0.0
 30
0.0
  0
ENDSEC
  0
SECTION
  2
OBJECTS
  0
DICTIONARY
  5
1B
330
0
100
AcDbDictionary
281
     1
  3
ACAD_2007HEADERVARS_RT
350
FB4
  3
ACAD_COLOR
350
5F
  3
ACAD_GROUP
350
19
  3
ACAD_LAYOUT
350
60
  3
ACAD_MATERIAL
350
5E
  3
ACAD_MLEADERSTYLE
350
79D
  3
ACAD_MLINESTYLE
350
1A
  3
ACAD_PLOTSETTINGS
350
61
  3
ACAD_PLOTSTYLENAME
350
5C
  3
ACAD_SCALELIST
350
77B
  3
ACAD_TABLESTYLE
350
141
  3
ACAD_VISUALSTYLE
350
76A
  3
ACDB_RECOMPOSE_DATA
350
FB3
  3
ACDBVARIABLEDICTIONARY
350
4D
  3
AcmDictionary
350
BC
  3
AMG
350
68
  3
AMGSNAPSETTINGS
350
F9
  3
ASE_INDEX_DICTIONARY
350
932
  0
DICTIONARY
  5
7AD
330
B
100
AcDbDictionary
280
     1
281
     1
  3
ACAD_LAYERSTATES
360
7AE
  0
DICTIONARY
  5
BE5
330
5
100
AcDbDictionary
280
     1
281
     1
  3
ADSK_XREC_LAYER_RECONCILED
360
BE6
  0
DICTIONARY
  5
BE7
330
20
100
AcDbDictionary
280
     1
281
     1
  3
ADSK_XREC_LAYER_RECONCILED
360
BE8
  0
DICTIONARY
  5
BE9
330
26
100
AcDbDictionary
280
     1
281
     1
  3
ADSK_XREC_LAYER_RECONCILED
360
BEA
  0
DICTIONARY
  5
BEB
330
28
100
AcDbDictionary
280
     1
281
     1
  3
ADSK_XREC_LAYER_RECONCILED
360
BEC
  0
DICTIONARY
  5
BED
330
24
100
AcDbDictionary
280
     1
281
     1
  3
ADSK_XREC_LAYER_RECONCILED
360
BEE
  0
DICTIONARY
  5
7A8
330
7A7
100
AcDbDictionary
280
     1
281
     1
  3
ADSK_XREC_LAYER_RECONCILED
360
BEF
  0
DICTIONARY
  5
7AA
330
7A9
100
AcDbDictionary
280
     1
281
     1
  3
ADSK_XREC_LAYER_RECONCILED
360
BF0
  0
DICTIONARY
  5
7AC
330
7AB
100
AcDbDictionary
280
     1
281
     1
  3
ADSK_XREC_LAYER_RECONCILED
360
BF1
  0
DICTIONARY
  5
3
330
2
100
AcDbDictionary
280
     1
281
     1
  3
ACAD_SORTENTS
360
17D
  0
DICTIONARY
  5
FC1
330
F5C
100
AcDbDictionary
280
     1
281
     1
  3
ACAD_MTEXT_2008_RT
360
FC2
  0
DICTIONARY
  5
D18
330
289
100
AcDbDictionary
280
     1
281
     1
  3
ACMDIMBREAKPERSREACTOR
360
D19
  0
DICTIONARY
  5
FB4
102
{ACAD_REACTORS
330
1B
102
}
330
1B
100
AcDbDictionary
281
     1
  3
DIMJOGANG
350
FB5
  0
DICTIONARY
  5
5F
102
{ACAD_REACTORS
330
1B
102
}
330
1B
100
AcDbDictionary
281
     1
  0
DICTIONARY
  5
19
102
{ACAD_REACTORS
330
1B
102
}
330
1B
100
AcDbDictionary
281
     1
  0
DICTIONARY
  5
60
102
{ACAD_REACTORS
330
1B
102
}
330
1B
100
AcDbDictionary
281
     1
  3
Layout1
350
63
  3
Model
350
62
  0
DICTIONARY
  5
5E
102
{ACAD_REACTORS
330
1B
102
}
330
1B
100
AcDbDictionary
281
     1
  3
ByBlock
350
75A
  3
ByLayer
350
752
  3
Global
350
762
  0
DICTIONARY
  5
79D
102
{ACAD_REACTORS
330
1B
102
}
330
1B
100
AcDbDictionary
281
     1
  3
Standard
350
79E
  0
DICTIONARY
  5
1A
102
{ACAD_REACTORS
330
1B
102
}
330
1B
100
AcDbDictionary
281
     1
  3
STANDARD
350
1D
  0
DICTIONARY
  5
61
102
{ACAD_REACTORS
330
1B
102
}
330
1B
100
AcDbDictionary
281
     1
  3
fax
350
723
  0
ACDBDICTIONARYWDFLT
  5
5C
102
{ACAD_REACTORS
330
1B
102
}
330
1B
100
AcDbDictionary
281
     1
  3
Normal
350
5D
100
AcDbDictionaryWithDefault
340
5D
  0
DICTIONARY
  5
77B
102
{ACAD_REACTORS
330
1B
102
}
330
1B
100
AcDbDictionary
281
     1
  3
A0
350
77C
  3
A1
350
77D
  3
A2
350
77E
  3
A3
350
77F
  3
A4
350
780
  3
A5
350
781
  3
A6
350
782
  3
A7
350
783
  3
A8
350
784
  3
A9
350
785
  3
B0
350
786
  3
B1
350
787
  3
B2
350
788
  3
B3
350
789
  3
B4
350
78A
  3
B5
350
78B
  3
B6
350
78C
  3
B7
350
78D
  3
B8
350
78E
  3
B9
350
78F
  3
C0
350
790
  3
C1
350
791
  3
C2
350
792
  3
C3
350
793
  3
C4
350
794
  3
C5
350
795
  3
C6
350
796
  3
C7
350
797
  3
C8
350
798
  3
C9
350
799
  3
D0
350
79A
  3
D1
350
79B
  3
D2
350
79C
  0
DICTIONARY
  5
141
102
{ACAD_REACTORS
330
1B
102
}
330
1B
100
AcDbDictionary
281
     1
  3
Standard
350
142
  0
DICTIONARY
  5
76A
102
{ACAD_REACTORS
330
1B
102
}
330
1B
100
AcDbDictionary
281
     1
  3
2dWireframe
350
770
  3
3D Hidden
350
772
  3
3dWireframe
350
771
  3
Basic
350
76F
  3
Brighten
350
776
  3
ColorChange
350
77A
  3
Conceptual
350
773
  3
Dim
350
775
  3
Facepattern
350
779
  3
Flat
350
76B
  3
FlatWithEdges
350
76C
  3
Gouraud
350
76D
  3
GouraudWithEdges
350
76E
  3
Linepattern
350
778
  3
Realistic
350
774
  3
Thicken
350
777
  0
XRECORD
  5
FB3
102
{ACAD_REACTORS
330
1B
102
}
330
1B
100
AcDbXrecord
280
     1
 90
        1
330
142
  0
DICTIONARY
  5
4D
102
{ACAD_REACTORS
330
1B
102
}
330
1B
100
AcDbDictionary
281
     1
  3
CANNOSCALE
350
FB0
  3
CMLEADERSTYLE
350
FAF
  3
CTABLESTYLE
350
15F
  3
INDEXCTL
350
4E
  0
DICTIONARY
  5
BC
102
{ACAD_REACTORS
330
1B
102
}
330
1B
100
AcDbDictionary
281
     1
  3
AcmStdDictionary
350
C7
  3
AMDTSECTSYM_ARROWCOLOR
350
156
  0
DICTIONARY
  5
68
102
{ACAD_REACTORS
330
1B
102
}
330
1B
100
AcDbDictionary
281
     1
  0
DICTIONARY
  5
F9
102
{ACAD_REACTORS
330
1B
102
}
330
1B
100
AcDbDictionary
281
     1
  0
DICTIONARY
  5
932
102
{ACAD_REACTORS
330
1B
102
}
330
1B
100
AcDbDictionary
281
     1
  3
ASEBlockHierarchyIndexRecord
350
933
1001
DCO15
1040
1744105304.34
  0
DICTIONARY
  5
7AE
102
{ACAD_REACTORS
330
7AD
102
}
330
7AD
100
AcDbDictionary
281
     1
  0
XRECORD
  5
BE6
102
{ACAD_REACTORS
330
BE5
102
}
330
BE5
100
AcDbXrecord
280
     1
290
     1
  0
XRECORD
  5
BE8
102
{ACAD_REACTORS
330
BE7
102
}
330
BE7
100
AcDbXrecord
280
     1
290
     1
  0
XRECORD
  5
BEA
102
{ACAD_REACTORS
330
BE9
102
}
330
BE9
100
AcDbXrecord
280
     1
290
     1
  0
XRECORD
  5
BEC
102
{ACAD_REACTORS
330
BEB
102
}
330
BEB
100
AcDbXrecord
280
     1
290
     1
  0
XRECORD
  5
BEE
102
{ACAD_REACTORS
330
BED
102
}
330
BED
100
AcDbXrecord
280
     1
290
     1
  0
XRECORD
  5
BEF
102
{ACAD_REACTORS
330
7A8
102
}
330
7A8
100
AcDbXrecord
280
     1
290
     1
  0
XRECORD
  5
BF0
102
{ACAD_REACTORS
330
7AA
102
}
330
7AA
100
AcDbXrecord
280
     1
290
     1
  0
XRECORD
  5
BF1
102
{ACAD_REACTORS
330
7AC
102
}
330
7AC
100
AcDbXrecord
280
     1
290
     1
  0
SORTENTSTABLE
  5
17D
102
{ACAD_REACTORS
330
3
102
}
330
3
100
AcDbSortentsTable
330
2
331
1AD
  5
1AD
331
1B5
  5
1BA
331
17E
  5
184
331
1F4
  5
1C3
331
1BD
  5
1B8
331
1FC
  5
204
331
20C
  5
21A
331
196
  5
192
331
1CD
  5
1EE
331
19E
  5
19F
331
46D
  5
56F
331
61B
  5
61B
331
1A6
  5
1A6
331
1AE
  5
1AE
331
2C2
  5
46A
331
17F
  5
17C
331
1F5
  5
1BF
331
234
  5
243
331
187
  5
17B
331
1FD
  5
205
331
205
  5
1CD
331
197
  5
198
331
19F
  5
19E
331
46E
  5
570
331
61C
  5
61C
331
25C
  5
269
331
1A7
  5
1A7
331
1DE
  5
1FC
331
2B3
  5
2C2
331
1AF
  5
1AF
331
1EE
  5
1D1
331
178
  5
178
331
1F6
  5
1FF
331
180
  5
179
331
1FE
  5
20C
331
190
  5
191
331
206
  5
1D0
331
198
  5
196
331
1D7
  5
1F5
331
46F
  5
571
331
61D
  5
61D
331
1A0
  5
1A0
331
1A8
  5
1A8
331
1B0
  5
1B0
331
1EF
  5
1CC
331
179
  5
17F
331
181
  5
182
331
1B8
  5
1BB
331
189
  5
189
331
1C0
  5
1D7
331
191
  5
18E
331
207
  5
1C1
331
1D0
  5
1EF
331
199
  5
199
331
470
  5
572
331
1D8
  5
1F6
331
1A9
  5
1A9
331
1B1
  5
1B1
331
227
  5
234
331
1F0
  5
1BD
331
182
  5
180
331
1B9
  5
1BC
331
1F8
  5
200
331
18A
  5
193
331
192
  5
197
331
1C9
  5
1DA
331
208
  5
1D3
331
1D1
  5
1F0
331
19A
  5
19A
331
24F
  5
25C
331
2A6
  5
2B3
331
1A2
  5
1A2
331
1D9
  5
1F8
331
1AA
  5
1AA
331
183
  5
17E
331
1BA
  5
1C9
331
1F9
  5
201
331
1C2
  5
1D8
331
297
  5
2A6
331
193
  5
195
331
1CA
  5
1DB
331
209
  5
1BE
331
1D2
  5
1F2
331
19B
  5
19B
331
1DA
  5
1F9
331
1AB
  5
1AB
331
1B3
  5
1B3
331
1F2
  5
1FD
331
17C
  5
185
331
184
  5
183
331
1BB
  5
1CA
331
1FA
  5
202
331
1C3
  5
1D9
331
1CB
  5
1DE
331
20A
  5
1D2
331
19C
  5
19C
331
1D3
  5
1F3
331
1DB
  5
1FA
331
21A
  5
227
331
1AC
  5
1AC
331
269
  5
289
331
1B4
  5
1B4
331
1F3
  5
1FE
331
4A3
  5
56E
331
289
  5
297
331
185
  5
181
331
1BC
  5
1D4
331
1FB
  5
203
331
195
  5
190
331
1CC
  5
1E0
331
20B
  5
1C4
331
19D
  5
19D
331
1D4
  5
1F4
  0
XRECORD
  5
FC2
102
{ACAD_REACTORS
330
FC1
102
}
330
FC1
100
AcDbXrecord
280
     1
 40
40514.0
  1
\A1;\U+220538{}{\H0.71x;\C3;+0.05}
  0
XRECORD
  5
FB5
102
{ACAD_REACTORS
330
FB4
102
}
330
FB4
100
AcDbXrecord
280
     1
 40
1.570796326794896
  0
LAYOUT
  5
63
102
{ACAD_REACTORS
330
60
102
}
330
60
100
AcDbPlotSettings
  1

  2
HP LaserJet 5000 Series PCL6
  4

  6

 40
0.0
 41
0.0
 42
0.0
 43
0.0
 44
0.0
 45
0.0
 46
0.0
 47
0.0
 48
0.0
 49
0.0
140
0.0
141
0.0
142
1.0
143
1.0
 70
   688
 72
     0
 73
     0
 74
     5
  7
Zeich.ctb
 75
    16
147
1.0
 76
     0
 77
     2
 78
   300
148
0.0
149
0.0
100
AcDbLayout
  1
Layout1
 70
     0
 71
     1
 10
0.0
 20
0.0
 11
420.0
 21
297.0
 12
0.0
 22
0.0
 32
0.0
 14
1.000000000000000E+20
 24
1.000000000000000E+20
 34
1.000000000000000E+20
 15
-1.000000000000000E+20
 25
-1.000000000000000E+20
 35
-1.000000000000000E+20
146
0.0
 13
0.0
 23
0.0
 33
0.0
 16
1.0
 26
0.0
 36
0.0
 17
0.0
 27
1.0
 37
0.0
 76
     0
330
8
  0
LAYOUT
  5
62
102
{ACAD_REACTORS
330
60
102
}
330
60
100
AcDbPlotSettings
  1

  2
Adobe PDF
  4
A4
  6

 40
3.174999952316284
 41
3.174999952316284
 42
3.175003051757812
 43
3.17498779296875
 44
209.8992462158203
 45
297.0424194335937
 46
0.0
 47
1.287910895038919
 48
5.0
 49
15.0
140
414.0
141
301.0
142
1.0
143
1.454346792227306
 70
 11956
 72
     1
 73
     1
 74
     1
  7
Zeich.ctb
 75
     0
147
0.68759391181282
 76
     0
 77
     2
 78
   300
148
0.0120249276565119
149
-9.98519975457475
100
AcDbLayout
  1
Model
 70
     1
 71
     0
 10
0.0
 20
0.0
 11
12.0
 21
9.0
 12
0.0
 22
0.0
 32
0.0
 14
0.0
 24
0.0
 34
0.0
 15
0.0
 25
0.0
 35
0.0
146
0.0
 13
0.0
 23
0.0
 33
0.0
 16
1.0
 26
0.0
 36
0.0
 17
0.0
 27
1.0
 37
0.0
 76
     0
330
2
331
750
1001
ACAD_PSEXT
1000
Adobe PDF
1000
Adobe PDF Converter
1000
Eigene Dateien
1000
Erstellt Adobe PDF
1070
     0
  0
MATERIAL
  5
75A
102
{ACAD_XDICTIONARY
360
75B
102
}
102
{ACAD_REACTORS
330
5E
102
}
330
5E
100
AcDbMaterial
  1
ByBlock
 72
     0
 43
0.0208333333333333
 43
0.0
 43
0.0
 43
0.0
 43
0.0
 43
0.0208333333333333
 43
0.0
 43
0.0
 43
0.0
 43
0.0
 43
1.0
 43
0.0
 43
0.0
 43
0.0
 43
0.0
 43
1.0
 77
     0
 47
0.0208333333333333
 47
0.0
 47
0.0
 47
0.0
 47
0.0
 47
0.0208333333333333
 47
0.0
 47
0.0
 47
0.0
 47
0.0
 47
1.0
 47
0.0
 47
0.0
 47
0.0
 47
0.0
 47
1.0
171
     0
 49
0.0208333333333333
 49
0.0
 49
0.0
 49
0.0
 49
0.0
 49
0.0208333333333333
 49
0.0
 49
0.0
 49
0.0
 49
0.0
 49
1.0
 49
0.0
 49
0.0
 49
0.0
 49
0.0
 49
1.0
175
     0
142
0.0208333333333333
142
0.0
142
0.0
142
0.0
142
0.0
142
0.0208333333333333
142
0.0
142
0.0
142
0.0
142
0.0
142
1.0
142
0.0
142
0.0
142
0.0
142
0.0
142
1.0
179
     0
144
0.0208333333333333
144
0.0
144
0.0
144
0.0
144
0.0
144
0.0208333333333333
144
0.0
144
0.0
144
0.0
144
0.0
144
1.0
144
0.0
144
0.0
144
0.0
144
0.0
144
1.0
147
0.0208333333333333
147
0.0
147
0.0
147
0.0
147
0.0
147
0.0208333333333333
147
0.0
147
0.0
147
0.0
147
0.0
147
1.0
147
0.0
147
0.0
147
0.0
147
0.0
147
1.0
  0
MATERIAL
  5
752
102
{ACAD_XDICTIONARY
360
753
102
}
102
{ACAD_REACTORS
330
5E
102
}
330
5E
100
AcDbMaterial
  1
ByLayer
 72
     0
 43
0.0208333333333333
 43
0.0
 43
0.0
 43
0.0
 43
0.0
 43
0.0208333333333333
 43
0.0
 43
0.0
 43
0.0
 43
0.0
 43
1.0
 43
0.0
 43
0.0
 43
0.0
 43
0.0
 43
1.0
 77
     0
 47
0.0208333333333333
 47
0.0
 47
0.0
 47
0.0
 47
0.0
 47
0.0208333333333333
 47
0.0
 47
0.0
 47
0.0
 47
0.0
 47
1.0
 47
0.0
 47
0.0
 47
0.0
 47
0.0
 47
1.0
171
     0
 49
0.0208333333333333
 49
0.0
 49
0.0
 49
0.0
 49
0.0
 49
0.0208333333333333
 49
0.0
 49
0.0
 49
0.0
 49
0.0
 49
1.0
 49
0.0
 49
0.0
 49
0.0
 49
0.0
 49
1.0
175
     0
142
0.0208333333333333
142
0.0
142
0.0
142
0.0
142
0.0
142
0.0208333333333333
142
0.0
142
0.0
142
0.0
142
0.0
142
1.0
142
0.0
142
0.0
142
0.0
142
0.0
142
1.0
179
     0
144
0.0208333333333333
144
0.0
144
0.0
144
0.0
144
0.0
144
0.0208333333333333
144
0.0
144
0.0
144
0.0
144
0.0
144
1.0
144
0.0
144
0.0
144
0.0
144
0.0
144
1.0
147
0.0208333333333333
147
0.0
147
0.0
147
0.0
147
0.0
147
0.0208333333333333
147
0.0
147
0.0
147
0.0
147
0.0
147
1.0
147
0.0
147
0.0
147
0.0
147
0.0
147
1.0
  0
MATERIAL
  5
762
102
{ACAD_XDICTIONARY
360
763
102
}
102
{ACAD_REACTORS
330
5E
102
}
330
5E
100
AcDbMaterial
  1
Global
 72
     0
 43
0.0208333333333333
 43
0.0
 43
0.0
 43
0.0
 43
0.0
 43
0.0208333333333333
 43
0.0
 43
0.0
 43
0.0
 43
0.0
 43
1.0
 43
0.0
 43
0.0
 43
0.0
 43
0.0
 43
1.0
 77
     0
 47
0.0208333333333333
 47
0.0
 47
0.0
 47
0.0
 47
0.0
 47
0.0208333333333333
 47
0.0
 47
0.0
 47
0.0
 47
0.0
 47
1.0
 47
0.0
 47
0.0
 47
0.0
 47
0.0
 47
1.0
171
     0
 49
0.0208333333333333
 49
0.0
 49
0.0
 49
0.0
 49
0.0
 49
0.0208333333333333
 49
0.0
 49
0.0
 49
0.0
 49
0.0
 49
1.0
 49
0.0
 49
0.0
 49
0.0
 49
0.0
 49
1.0
175
     0
142
0.0208333333333333
142
0.0
142
0.0
142
0.0
142
0.0
142
0.0208333333333333
142
0.0
142
0.0
142
0.0
142
0.0
142
1.0
142
0.0
142
0.0
142
0.0
142
0.0
142
1.0
179
     0
144
0.0208333333333333
144
0.0
144
0.0
144
0.0
144
0.0
144
0.0208333333333333
144
0.0
144
0.0
144
0.0
144
0.0
144
1.0
144
0.0
144
0.0
144
0.0
144
0.0
144
1.0
147
0.0208333333333333
147
0.0
147
0.0
147
0.0
147
0.0
147
0.0208333333333333
147
0.0
147
0.0
147
0.0
147
0.0
147
1.0
147
0.0
147
0.0
147
0.0
147
0.0
147
1.0
  0
MLEADERSTYLE
  5
79E
102
{ACAD_REACTORS
330
79D
102
}
330
79D
100
AcDbMLeaderStyle
170
     2
171
     1
172
     0
 90
        2
 40
0.0
 41
0.0
173
     1
 91
-1056964608
340
F
 92
       -2
290
     1
 42
0.09
291
     1
 43
0.36
  3
Standard
 44
0.18
300

342
D
174
     1
178
     6
175
     1
176
     0
 93
-1056964608
 45
0.18
292
     0
297
     0
 46
0.18
 94
-1056964608
 47
1.0
 49
1.0
140
1.0
293
     1
141
0.0
294
     1
177
     0
142
1.0
295
     0
296
     0
143
0.125
1001
ACAD_MLEADERVER
1070
     2
  0
MLINESTYLE
  5
1D
102
{ACAD_REACTORS
330
1A
102
}
330
1A
100
AcDbMlineStyle
  2
STANDARD
 70
     0
  3

 62
     0
 51
90.0
 52
90.0
 71
     2
 49
0.5
 62
   256
  6
BYLAYER
 49
-0.5
 62
   256
  6
BYLAYER
  0
PLOTSETTINGS
  5
723
102
{ACAD_REACTORS
330
61
102
}
330
61
100
AcDbPlotSettings
  1
fax
  2
FRITZfax Drucker
  4
User133
  6

 40
3.174999952316284
 41
3.174999952316284
 42
3.175003051757812
 43
3.17498779296875
 44
210.0
 45
297.0
 46
-0.0000000000000142
 47
1.197594620881773
 48
5.0
 49
15.0
140
414.0
141
301.0
142
1.0
143
1.453627268804826
 70
 11956
 72
     1
 73
     1
 74
     1
  7
Zeich.ctb
 75
     0
147
0.6879342603569901
 76
     0
 77
     2
 78
   300
148
0.0051555649091597
149
-9.98519975457475
1001
ACAD_PSEXT
1000
FRITZfax Drucker
1000
FRITZ!fax
1000
Konstruktion
1000
Fax CAD 1
1070
     0
  0
ACDBPLACEHOLDER
  5
5D
102
{ACAD_REACTORS
330
5C
102
}
330
5C
  0
SCALE
  5
77C
102
{ACAD_REACTORS
330
77B
102
}
330
77B
100
AcDbScale
 70
     0
300
1:1
140
1.0
141
1.0
290
     1
  0
SCALE
  5
77D
102
{ACAD_REACTORS
330
77B
102
}
330
77B
100
AcDbScale
 70
     0
300
1:2
140
1.0
141
2.0
290
     0
  0
SCALE
  5
77E
102
{ACAD_REACTORS
330
77B
102
}
330
77B
100
AcDbScale
 70
     0
300
1:4
140
1.0
141
4.0
290
     0
  0
SCALE
  5
77F
102
{ACAD_REACTORS
330
77B
102
}
330
77B
100
AcDbScale
 70
     0
300
1:5
140
1.0
141
5.0
290
     0
  0
SCALE
  5
780
102
{ACAD_REACTORS
330
77B
102
}
330
77B
100
AcDbScale
 70
     0
300
1:8
140
1.0
141
8.0
290
     0
  0
SCALE
  5
781
102
{ACAD_REACTORS
330
77B
102
}
330
77B
100
AcDbScale
 70
     0
300
1:10
140
1.0
141
10.0
290
     0
  0
SCALE
  5
782
102
{ACAD_REACTORS
330
77B
102
}
330
77B
100
AcDbScale
 70
     0
300
1:16
140
1.0
141
16.0
290
     0
  0
SCALE
  5
783
102
{ACAD_REACTORS
330
77B
102
}
330
77B
100
AcDbScale
 70
     0
300
1:20
140
1.0
141
20.0
290
     0
  0
SCALE
  5
784
102
{ACAD_REACTORS
330
77B
102
}
330
77B
100
AcDbScale
 70
     0
300
1:30
140
1.0
141
30.0
290
     0
  0
SCALE
  5
785
102
{ACAD_REACTORS
330
77B
102
}
330
77B
100
AcDbScale
 70
     0
300
1:40
140
1.0
141
40.0
290
     0
  0
SCALE
  5
786
102
{ACAD_REACTORS
330
77B
102
}
330
77B
100
AcDbScale
 70
     0
300
1:50
140
1.0
141
50.0
290
     0
  0
SCALE
  5
787
102
{ACAD_REACTORS
330
77B
102
}
330
77B
100
AcDbScale
 70
     0
300
1:100
140
1.0
141
100.0
290
     0
  0
SCALE
  5
788
102
{ACAD_REACTORS
330
77B
102
}
330
77B
100
AcDbScale
 70
     0
300
2:1
140
2.0
141
1.0
290
     0
  0
SCALE
  5
789
102
{ACAD_REACTORS
330
77B
102
}
330
77B
100
AcDbScale
 70
     0
300
4:1
140
4.0
141
1.0
290
     0
  0
SCALE
  5
78A
102
{ACAD_REACTORS
330
77B
102
}
330
77B
100
AcDbScale
 70
     0
300
8:1
140
8.0
141
1.0
290
     0
  0
SCALE
  5
78B
102
{ACAD_REACTORS
330
77B
102
}
330
77B
100
AcDbScale
 70
     0
300
10:1
140
10.0
141
1.0
290
     0
  0
SCALE
  5
78C
102
{ACAD_REACTORS
330
77B
102
}
330
77B
100
AcDbScale
 70
     0
300
100:1
140
100.0
141
1.0
290
     0
  0
SCALE
  5
78D
102
{ACAD_REACTORS
330
77B
102
}
330
77B
100
AcDbScale
 70
     0
300
1/128" = 1'-0"
140
0.0078125
141
12.0
290
     0
  0
SCALE
  5
78E
102
{ACAD_REACTORS
330
77B
102
}
330
77B
100
AcDbScale
 70
     0
300
1/64" = 1'-0"
140
0.015625
141
12.0
290
     0
  0
SCALE
  5
78F
102
{ACAD_REACTORS
330
77B
102
}
330
77B
100
AcDbScale
 70
     0
300
1/32" = 1'-0"
140
0.03125
141
12.0
290
     0
  0
SCALE
  5
790
102
{ACAD_REACTORS
330
77B
102
}
330
77B
100
AcDbScale
 70
     0
300
1/16" = 1'-0"
140
0.0625
141
12.0
290
     0
  0
SCALE
  5
791
102
{ACAD_REACTORS
330
77B
102
}
330
77B
100
AcDbScale
 70
     0
300
3/32" = 1'-0"
140
0.09375
141
12.0
290
     0
  0
SCALE
  5
792
102
{ACAD_REACTORS
330
77B
102
}
330
77B
100
AcDbScale
 70
     0
300
1/8" = 1'-0"
140
0.125
141
12.0
290
     0
  0
SCALE
  5
793
102
{ACAD_REACTORS
330
77B
102
}
330
77B
100
AcDbScale
 70
     0
300
3/16" = 1'-0"
140
0.1875
141
12.0
290
     0
  0
SCALE
  5
794
102
{ACAD_REACTORS
330
77B
102
}
330
77B
100
AcDbScale
 70
     0
300
1/4" = 1'-0"
140
0.25
141
12.0
290
     0
  0
SCALE
  5
795
102
{ACAD_REACTORS
330
77B
102
}
330
77B
100
AcDbScale
 70
     0
300
3/8" = 1'-0"
140
0.375
141
12.0
290
     0
  0
SCALE
  5
796
102
{ACAD_REACTORS
330
77B
102
}
330
77B
100
AcDbScale
 70
     0
300
1/2" = 1'-0"
140
0.5
141
12.0
290
     0
  0
SCALE
  5
797
102
{ACAD_REACTORS
330
77B
102
}
330
77B
100
AcDbScale
 70
     0
300
3/4" = 1'-0"
140
0.75
141
12.0
290
     0
  0
SCALE
  5
798
102
{ACAD_REACTORS
330
77B
102
}
330
77B
100
AcDbScale
 70
     0
300
1" = 1'-0"
140
1.0
141
12.0
290
     0
  0
SCALE
  5
799
102
{ACAD_REACTORS
330
77B
102
}
330
77B
100
AcDbScale
 70
     0
300
1-1/2" = 1'-0"
140
1.5
141
12.0
290
     0
  0
SCALE
  5
79A
102
{ACAD_REACTORS
330
77B
102
}
330
77B
100
AcDbScale
 70
     0
300
3" = 1'-0"
140
3.0
141
12.0
290
     0
  0
SCALE
  5
79B
102
{ACAD_REACTORS
330
77B
102
}
330
77B
100
AcDbScale
 70
     0
300
6" = 1'-0"
140
6.0
141
12.0
290
     0
  0
SCALE
  5
79C
102
{ACAD_REACTORS
330
77B
102
}
330
77B
100
AcDbScale
 70
     0
300
1'-0" = 1'-0"
140
12.0
141
12.0
290
     0
  0
TABLESTYLE
  5
142
102
{ACAD_XDICTIONARY
360
FB1
102
}
102
{ACAD_REACTORS
330
141
102
}
330
141
100
AcDbTableStyle
  3
Standard
 70
     0
 71
     0
 40
0.06
 41
0.06
280
     0
281
     0
  7
STANDARD
140
0.18
170
     2
 62
     0
 63
     7
283
     0
274
    -2
284
     1
 64
     0
275
    -2
285
     1
 65
     0
276
    -2
286
     1
 66
     0
277
    -2
287
     1
 67
     0
278
    -2
288
     1
 68
     0
279
    -2
289
     1
 69
     0
  7
STANDARD
140
0.25
170
     5
 62
     0
 63
     7
283
     0
274
    -2
284
     1
 64
     0
275
    -2
285
     1
 65
     0
276
    -2
286
     1
 66
     0
277
    -2
287
     1
 67
     0
278
    -2
288
     1
 68
     0
279
    -2
289
     1
 69
     0
  7
STANDARD
140
0.18
170
     5
 62
     0
 63
     7
283
     0
274
    -2
284
     1
 64
     0
275
    -2
285
     1
 65
     0
276
    -2
286
     1
 66
     0
277
    -2
287
     1
 67
     0
278
    -2
288
     1
 68
     0
279
    -2
289
     1
 69
     0
  0
VISUALSTYLE
  5
770
102
{ACAD_REACTORS
330
76A
102
}
330
76A
100
AcDbVisualStyle
  2
2dWireframe
 70
     4
 71
     0
 72
     2
 73
     0
 90
        0
 40
-0.6
 41
-30.0
 62
     5
 63
     7
421
 16777215
 74
     1
 91
        4
 64
     7
 65
   257
 75
     1
175
     1
 42
1.0
 92
        0
 66
   257
 43
1.0
 76
     1
 77
     6
 78
     2
 67
     7
 79
     5
170
     0
171
     0
290
     0
174
     0
 93
        1
 44
0.0
173
     0
291
     0
 45
0.0
1001
ACAD
1000
AcDbSavedByObjectVersion
1070
     0
  0
VISUALSTYLE
  5
772
102
{ACAD_REACTORS
330
76A
102
}
330
76A
100
AcDbVisualStyle
  2
3D Hidden
 70
     6
 71
     1
 72
     2
 73
     2
 90
        0
 40
-0.6
 41
-30.0
 62
     5
 63
     7
421
 16777215
 74
     2
 91
        2
 64
     7
 65
   257
 75
     2
175
     1
 42
40.0
 92
        0
 66
   257
 43
1.0
 76
     1
 77
     6
 78
     2
 67
     7
 79
     3
170
     0
171
     0
290
     0
174
     0
 93
        1
 44
0.0
173
     0
291
     0
 45
0.0
1001
ACAD
1000
AcDbSavedByObjectVersion
1070
     0
  0
VISUALSTYLE
  5
771
102
{ACAD_REACTORS
330
76A
102
}
330
76A
100
AcDbVisualStyle
  2
3dWireframe
 70
     5
 71
     0
 72
     2
 73
     0
 90
        0
 40
-0.6
 41
-30.0
 62
     5
 63
     7
421
 16777215
 74
     1
 91
        4
 64
     7
 65
   257
 75
     1
175
     1
 42
1.0
 92
        0
 66
   257
 43
1.0
 76
     1
 77
     6
 78
     2
 67
     7
 79
     5
170
     0
171
     0
290
     0
174
     0
 93
        1
 44
0.0
173
     0
291
     0
 45
0.0
1001
ACAD
1000
AcDbSavedByObjectVersion
1070
     0
  0
VISUALSTYLE
  5
76F
102
{ACAD_REACTORS
330
76A
102
}
330
76A
100
AcDbVisualStyle
  2
Basic
 70
     7
 71
     1
 72
     0
 73
     1
 90
        0
 40
-0.6
 41
-30.0
 62
     5
 63
     7
421
 16777215
 74
     0
 91
        4
 64
     7
 65
   257
 75
     1
175
     1
 42
1.0
 92
        8
 66
     7
 43
1.0
 76
     1
 77
     6
 78
     2
 67
     7
 79
     5
170
     0
171
     0
290
     0
174
     0
 93
        1
 44
0.0
173
     0
291
     1
 45
0.0
1001
ACAD
1000
AcDbSavedByObjectVersion
1070
     0
  0
VISUALSTYLE
  5
776
102
{ACAD_REACTORS
330
76A
102
}
330
76A
100
AcDbVisualStyle
  2
Brighten
 70
    12
 71
     2
 72
     2
 73
     0
 90
        0
 40
-0.6
 41
-30.0
 62
     5
 63
     7
421
 16777215
 74
     1
 91
        4
 64
     7
 65
   257
 75
     1
175
     1
 42
1.0
 92
        8
 66
     7
 43
1.0
 76
     1
 77
     6
 78
     2
 67
     7
 79
     5
170
     0
171
     0
290
     0
174
     0
 93
        1
 44
50.0
173
     0
291
     1
 45
0.0
1001
ACAD
1000
AcDbSavedByObjectVersion
1070
     0
  0
VISUALSTYLE
  5
77A
102
{ACAD_REACTORS
330
76A
102
}
330
76A
100
AcDbVisualStyle
  2
ColorChange
 70
    16
 71
     2
 72
     2
 73
     3
 90
        0
 40
-0.6
 41
-30.0
 62
     5
 63
     8
421
  8421504
 74
     1
 91
        4
 64
     7
 65
   257
 75
     1
175
     1
 42
1.0
 92
        8
 66
     8
424
  8421504
 43
1.0
 76
     1
 77
     6
 78
     2
 67
     7
 79
     5
170
     0
171
     0
290
     0
174
     0
 93
        1
 44
0.0
173
     0
291
     1
 45
0.0
1001
ACAD
1000
AcDbSavedByObjectVersion
1070
     0
  0
VISUALSTYLE
  5
773
102
{ACAD_REACTORS
330
76A
102
}
330
76A
100
AcDbVisualStyle
  2
Conceptual
 70
     9
 71
     3
 72
     2
 73
     0
 90
        0
 40
-0.6
 41
-30.0
 62
     5
 63
     7
421
 16777215
 74
     2
 91
        2
 64
     7
 65
   257
 75
     1
175
     1
 42
40.0
 92
        8
 66
     7
 43
1.0
 76
     1
 77
     6
 78
     2
 67
     7
 79
     3
170
     0
171
     0
290
     0
174
     0
 93
        1
 44
0.0
173
     0
291
     0
 45
0.0
1001
ACAD
1000
AcDbSavedByObjectVersion
1070
     0
  0
VISUALSTYLE
  5
775
102
{ACAD_REACTORS
330
76A
102
}
330
76A
100
AcDbVisualStyle
  2
Dim
 70
    11
 71
     2
 72
     2
 73
     0
 90
        0
 40
-0.6
 41
-30.0
 62
     5
 63
     7
421
 16777215
 74
     1
 91
        4
 64
     7
 65
   257
 75
     1
175
     1
 42
1.0
 92
        8
 66
     7
 43
1.0
 76
     1
 77
     6
 78
     2
 67
     7
 79
     5
170
     0
171
     0
290
     0
174
     0
 93
        1
 44
-50.0
173
     0
291
     1
 45
0.0
1001
ACAD
1000
AcDbSavedByObjectVersion
1070
     0
  0
VISUALSTYLE
  5
779
102
{ACAD_REACTORS
330
76A
102
}
330
76A
100
AcDbVisualStyle
  2
Facepattern
 70
    15
 71
     2
 72
     2
 73
     0
 90
        0
 40
-0.6
 41
-30.0
 62
     5
 63
     7
421
 16777215
 74
     1
 91
        4
 64
     7
 65
   257
 75
     1
175
     1
 42
1.0
 92
        8
 66
     7
 43
1.0
 76
     1
 77
     6
 78
     2
 67
     7
 79
     5
170
     0
171
     0
290
     0
174
     0
 93
        1
 44
0.0
173
     0
291
     1
 45
0.0
1001
ACAD
1000
AcDbSavedByObjectVersion
1070
     0
  0
VISUALSTYLE
  5
76B
102
{ACAD_REACTORS
330
76A
102
}
330
76A
100
AcDbVisualStyle
  2
Flat
 70
     0
 71
     2
 72
     1
 73
     1
 90
        2
 40
-0.6
 41
30.0
 62
     5
 63
     7
421
 16777215
 74
     0
 91
        4
 64
     7
 65
   257
 75
     1
175
     1
 42
1.0
 92
        8
 66
     7
 43
1.0
 76
     1
 77
     6
 78
     2
 67
     7
 79
     5
170
     0
171
     0
290
     0
174
     0
 93
       13
 44
0.0
173
     0
291
     1
 45
0.0
1001
ACAD
1000
AcDbSavedByObjectVersion
1070
     0
  0
VISUALSTYLE
  5
76C
102
{ACAD_REACTORS
330
76A
102
}
330
76A
100
AcDbVisualStyle
  2
FlatWithEdges
 70
     1
 71
     2
 72
     1
 73
     1
 90
        2
 40
-0.6
 41
30.0
 62
     5
 63
     7
421
 16777215
 74
     1
 91
        4
 64
     7
 65
   257
 75
     1
175
     1
 42
1.0
 92
        0
 66
   257
 43
1.0
 76
     1
 77
     6
 78
     2
 67
     7
 79
     5
170
     0
171
     0
290
     0
174
     0
 93
       13
 44
0.0
173
     0
291
     1
 45
0.0
1001
ACAD
1000
AcDbSavedByObjectVersion
1070
     0
  0
VISUALSTYLE
  5
76D
102
{ACAD_REACTORS
330
76A
102
}
330
76A
100
AcDbVisualStyle
  2
Gouraud
 70
     2
 71
     2
 72
     2
 73
     1
 90
        2
 40
-0.6
 41
30.0
 62
     5
 63
     7
421
 16777215
 74
     0
 91
        4
 64
     7
 65
   257
 75
     1
175
     1
 42
1.0
 92
        0
 66
     7
 43
1.0
 76
     1
 77
     6
 78
     2
 67
     7
 79
     5
170
     0
171
     0
290
     0
174
     0
 93
       13
 44
0.0
173
     0
291
     1
 45
0.0
1001
ACAD
1000
AcDbSavedByObjectVersion
1070
     0
  0
VISUALSTYLE
  5
76E
102
{ACAD_REACTORS
330
76A
102
}
330
76A
100
AcDbVisualStyle
  2
GouraudWithEdges
 70
     3
 71
     2
 72
     2
 73
     1
 90
        2
 40
-0.6
 41
30.0
 62
     5
 63
     7
421
 16777215
 74
     1
 91
        4
 64
     7
 65
   257
 75
     1
175
     1
 42
1.0
 92
        0
 66
   257
 43
1.0
 76
     1
 77
     6
 78
     2
 67
     7
 79
     5
170
     0
171
     0
290
     0
174
     0
 93
       13
 44
0.0
173
     0
291
     1
 45
0.0
1001
ACAD
1000
AcDbSavedByObjectVersion
1070
     0
  0
VISUALSTYLE
  5
778
102
{ACAD_REACTORS
330
76A
102
}
330
76A
100
AcDbVisualStyle
  2
Linepattern
 70
    14
 71
     2
 72
     2
 73
     0
 90
        0
 40
-0.6
 41
-30.0
 62
     5
 63
     7
421
 16777215
 74
     1
 91
        4
 64
     7
 65
   257
 75
     7
175
     7
 42
1.0
 92
        8
 66
     7
 43
1.0
 76
     1
 77
     6
 78
     2
 67
     7
 79
     5
170
     0
171
     0
290
     0
174
     0
 93
        1
 44
0.0
173
     0
291
     1
 45
0.0
1001
ACAD
1000
AcDbSavedByObjectVersion
1070
     0
  0
VISUALSTYLE
  5
774
102
{ACAD_REACTORS
330
76A
102
}
330
76A
100
AcDbVisualStyle
  2
Realistic
 70
     8
 71
     2
 72
     2
 73
     0
 90
        0
 40
-0.6
 41
-30.0
 62
     5
 63
     7
421
 16777215
 74
     1
 91
        0
 64
     7
 65
   257
 75
     1
175
     1
 42
1.0
 92
        8
 66
     8
424
  7895160
 43
1.0
 76
     1
 77
     6
 78
     2
 67
     7
 79
     5
170
     0
171
     0
290
     0
174
     0
 93
       13
 44
0.0
173
     0
291
     0
 45
0.0
1001
ACAD
1000
AcDbSavedByObjectVersion
1070
     0
  0
VISUALSTYLE
  5
777
102
{ACAD_REACTORS
330
76A
102
}
330
76A
100
AcDbVisualStyle
  2
Thicken
 70
    13
 71
     2
 72
     2
 73
     0
 90
        0
 40
-0.6
 41
-30.0
 62
     5
 63
     7
421
 16777215
 74
     1
 91
        4
 64
     7
 65
   257
 75
     1
175
     1
 42
1.0
 92
       12
 66
     7
 43
1.0
 76
     1
 77
     6
 78
     2
 67
     7
 79
     5
170
     0
171
     0
290
     0
174
     0
 93
        1
 44
0.0
173
     0
291
     1
 45
0.0
1001
ACAD
1000
AcDbSavedByObjectVersion
1070
     0
  0
DICTIONARYVAR
  5
FB0
102
{ACAD_REACTORS
330
4D
102
}
330
4D
100
DictionaryVariables
280
     0
  1
1:1
  0
DICTIONARYVAR
  5
FAF
102
{ACAD_REACTORS
330
4D
102
}
330
4D
100
DictionaryVariables
280
     0
  1
STANDARD
  0
DICTIONARYVAR
  5
15F
102
{ACAD_REACTORS
330
4D
102
}
330
4D
100
DictionaryVariables
280
     0
  1
STANDARD
  0
DICTIONARYVAR
  5
4E
102
{ACAD_REACTORS
330
4D
102
}
330
4D
100
DictionaryVariables
280
     0
  1
1
  0
DICTIONARY
  5
C7
102
{ACAD_REACTORS
330
BC
102
}
330
BC
100
AcDbDictionary
281
     1
  0
XRECORD
  5
156
102
{ACAD_REACTORS
330
BC
102
}
330
BC
100
AcDbXrecord
280
     1
 90
-1023410169
  0
XRECORD
  5
933
102
{ACAD_REACTORS
330
932
102
}
330
932
100
AcDbXrecord
280
     1
330
FAE
  0
DICTIONARY
  5
75B
330
75A
100
AcDbDictionary
280
     1
281
     1
  3
ACAD_XREC_ROUNDTRIP
360
FB8
  3
BUMPTILE
360
75D
  3
DIFFUSETILE
360
75C
  3
OPACITYTILE
360
760
  3
REFLECTIONTILE
360
75F
  3
REFRACTIONTILE
360
761
  3
SPECULARTILE
360
75E
  0
DICTIONARY
  5
753
330
752
100
AcDbDictionary
280
     1
281
     1
  3
ACAD_XREC_ROUNDTRIP
360
FB7
  3
BUMPTILE
360
755
  3
DIFFUSETILE
360
754
  3
OPACITYTILE
360
758
  3
REFLECTIONTILE
360
757
  3
REFRACTIONTILE
360
759
  3
SPECULARTILE
360
756
  0
DICTIONARY
  5
763
330
762
100
AcDbDictionary
280
     1
281
     1
  3
ACAD_XREC_ROUNDTRIP
360
FB9
  3
BUMPTILE
360
765
  3
DIFFUSETILE
360
764
  3
OPACITYTILE
360
768
  3
REFLECTIONTILE
360
767
  3
REFRACTIONTILE
360
769
  3
SPECULARTILE
360
766
  0
DICTIONARY
  5
FB1
330
142
100
AcDbDictionary
280
     1
281
     1
  3
ACAD_ROUNDTRIP_2008_TABLESTYLE_CELLSTYLEMAP
360
FB2
  3
ACAD_XREC_ROUNDTRIP
360
FB6
  0
XRECORD
  5
FB8
102
{ACAD_REACTORS
330
75B
102
}
330
75B
100
AcDbXrecord
280
     1
102
MATERIAL
148
0.0
149
0.0
149
0.0
 93
        0
 94
      127
282
     0
 72
     0
 77
     0
171
     0
175
     0
179
     0
273
     0
  0
XRECORD
  5
75D
102
{ACAD_REACTORS
330
75B
102
}
330
75B
100
AcDbXrecord
280
     1
270
     1
271
     1
  0
XRECORD
  5
75C
102
{ACAD_REACTORS
330
75B
102
}
330
75B
100
AcDbXrecord
280
     1
270
     1
271
     1
  0
XRECORD
  5
760
102
{ACAD_REACTORS
330
75B
102
}
330
75B
100
AcDbXrecord
280
     1
270
     1
271
     1
  0
XRECORD
  5
75F
102
{ACAD_REACTORS
330
75B
102
}
330
75B
100
AcDbXrecord
280
     1
270
     1
271
     1
  0
XRECORD
  5
761
102
{ACAD_REACTORS
330
75B
102
}
330
75B
100
AcDbXrecord
280
     1
270
     1
271
     1
  0
XRECORD
  5
75E
102
{ACAD_REACTORS
330
75B
102
}
330
75B
100
AcDbXrecord
280
     1
270
     1
271
     1
  0
XRECORD
  5
FB7
102
{ACAD_REACTORS
330
753
102
}
330
753
100
AcDbXrecord
280
     1
102
MATERIAL
148
0.0
149
0.0
149
0.0
 93
        0
 94
      127
282
     0
 72
     0
 77
     0
171
     0
175
     0
179
     0
273
     0
  0
XRECORD
  5
755
102
{ACAD_REACTORS
330
753
102
}
330
753
100
AcDbXrecord
280
     1
270
     1
271
     1
  0
XRECORD
  5
754
102
{ACAD_REACTORS
330
753
102
}
330
753
100
AcDbXrecord
280
     1
270
     1
271
     1
  0
XRECORD
  5
758
102
{ACAD_REACTORS
330
753
102
}
330
753
100
AcDbXrecord
280
     1
270
     1
271
     1
  0
XRECORD
  5
757
102
{ACAD_REACTORS
330
753
102
}
330
753
100
AcDbXrecord
280
     1
270
     1
271
     1
  0
XRECORD
  5
759
102
{ACAD_REACTORS
330
753
102
}
330
753
100
AcDbXrecord
280
     1
270
     1
271
     1
  0
XRECORD
  5
756
102
{ACAD_REACTORS
330
753
102
}
330
753
100
AcDbXrecord
280
     1
270
     1
271
     1
  0
XRECORD
  5
FB9
102
{ACAD_REACTORS
330
763
102
}
330
763
100
AcDbXrecord
280
     1
102
MATERIAL
148
0.0
149
0.0
149
0.0
 93
        0
 94
      127
282
     0
 72
     0
 77
     0
171
     0
175
     0
179
     0
273
     0
  0
XRECORD
  5
765
102
{ACAD_REACTORS
330
763
102
}
330
763
100
AcDbXrecord
280
     1
270
     1
271
     1
  0
XRECORD
  5
764
102
{ACAD_REACTORS
330
763
102
}
330
763
100
AcDbXrecord
280
     1
270
     1
271
     1
  0
XRECORD
  5
768
102
{ACAD_REACTORS
330
763
102
}
330
763
100
AcDbXrecord
280
     1
270
     1
271
     1
  0
XRECORD
  5
767
102
{ACAD_REACTORS
330
763
102
}
330
763
100
AcDbXrecord
280
     1
270
     1
271
     1
  0
XRECORD
  5
769
102
{ACAD_REACTORS
330
763
102
}
330
763
100
AcDbXrecord
280
     1
270
     1
271
     1
  0
XRECORD
  5
766
102
{ACAD_REACTORS
330
763
102
}
330
763
100
AcDbXrecord
280
     1
270
     1
271
     1
  0
CELLSTYLEMAP
  5
FB2
102
{ACAD_REACTORS
330
FB1
102
}
330
FB1
100
AcDbCellStyleMap
 90
        3
300
CELLSTYLE
  1
TABLEFORMAT_BEGIN
 90
        5
170
     1
 91
        0
 92
    32768
 62
   257
 93
        1
300
CONTENTFORMAT
  1
CONTENTFORMAT_BEGIN
 90
        0
 91
        0
 92
        4
 93
        0
300

 40
0.0
140
1.0
 94
        5
 62
     0
340
D
144
0.25
309
CONTENTFORMAT_END
171
     0
 94
        6
 95
        1
302
GRIDFORMAT
  1
GRIDFORMAT_BEGIN
 90
        0
 91
        1
 62
     0
 92
       -2
340
0
 93
        0
 40
0.045
309
GRIDFORMAT_END
 95
        2
302
GRIDFORMAT
  1
GRIDFORMAT_BEGIN
 90
        0
 91
        1
 62
     0
 92
       -2
340
0
 93
        0
 40
0.045
309
GRIDFORMAT_END
 95
        4
302
GRIDFORMAT
  1
GRIDFORMAT_BEGIN
 90
        0
 91
        1
 62
     0
 92
       -2
340
0
 93
        0
 40
0.045
309
GRIDFORMAT_END
 95
        8
302
GRIDFORMAT
  1
GRIDFORMAT_BEGIN
 90
        0
 91
        1
 62
     0
 92
       -2
340
0
 93
        0
 40
0.045
309
GRIDFORMAT_END
 95
       16
302
GRIDFORMAT
  1
GRIDFORMAT_BEGIN
 90
        0
 91
        1
 62
     0
 92
       -2
340
0
 93
        0
 40
0.045
309
GRIDFORMAT_END
 95
       32
302
GRIDFORMAT
  1
GRIDFORMAT_BEGIN
 90
        0
 91
        1
 62
     0
 92
       -2
340
0
 93
        0
 40
0.045
309
GRIDFORMAT_END
309
TABLEFORMAT_END
  1
CELLSTYLE_BEGIN
 90
        1
 91
        1
300
_TITLE
309
CELLSTYLE_END
300
CELLSTYLE
  1
TABLEFORMAT_BEGIN
 90
        5
170
     1
 91
        0
 92
        0
 62
   257
 93
        1
300
CONTENTFORMAT
  1
CONTENTFORMAT_BEGIN
 90
        0
 91
        0
 92
        4
 93
        0
300

 40
0.0
140
1.0
 94
        5
 62
     0
340
D
144
0.18
309
CONTENTFORMAT_END
171
     0
 94
        6
 95
        1
302
GRIDFORMAT
  1
GRIDFORMAT_BEGIN
 90
        0
 91
        1
 62
     0
 92
       -2
340
0
 93
        0
 40
0.045
309
GRIDFORMAT_END
 95
        2
302
GRIDFORMAT
  1
GRIDFORMAT_BEGIN
 90
        0
 91
        1
 62
     0
 92
       -2
340
0
 93
        0
 40
0.045
309
GRIDFORMAT_END
 95
        4
302
GRIDFORMAT
  1
GRIDFORMAT_BEGIN
 90
        0
 91
        1
 62
     0
 92
       -2
340
0
 93
        0
 40
0.045
309
GRIDFORMAT_END
 95
        8
302
GRIDFORMAT
  1
GRIDFORMAT_BEGIN
 90
        0
 91
        1
 62
     0
 92
       -2
340
0
 93
        0
 40
0.045
309
GRIDFORMAT_END
 95
       16
302
GRIDFORMAT
  1
GRIDFORMAT_BEGIN
 90
        0
 91
        1
 62
     0
 92
       -2
340
0
 93
        0
 40
0.045
309
GRIDFORMAT_END
 95
       32
302
GRIDFORMAT
  1
GRIDFORMAT_BEGIN
 90
        0
 91
        1
 62
     0
 92
       -2
340
0
 93
        0
 40
0.045
309
GRIDFORMAT_END
309
TABLEFORMAT_END
  1
CELLSTYLE_BEGIN
 90
        2
 91
        1
300
_HEADER
309
CELLSTYLE_END
300
CELLSTYLE
  1
TABLEFORMAT_BEGIN
 90
        5
170
     1
 91
        0
 92
        0
 62
   257
 93
        1
300
CONTENTFORMAT
  1
CONTENTFORMAT_BEGIN
 90
        0
 91
        0
 92
        4
 93
        0
300

 40
0.0
140
1.0
 94
        2
 62
     0
340
D
144
0.18
309
CONTENTFORMAT_END
171
     0
 94
        6
 95
        1
302
GRIDFORMAT
  1
GRIDFORMAT_BEGIN
 90
        0
 91
        1
 62
     0
 92
       -2
340
0
 93
        0
 40
0.045
309
GRIDFORMAT_END
 95
        2
302
GRIDFORMAT
  1
GRIDFORMAT_BEGIN
 90
        0
 91
        1
 62
     0
 92
       -2
340
0
 93
        0
 40
0.045
309
GRIDFORMAT_END
 95
        4
302
GRIDFORMAT
  1
GRIDFORMAT_BEGIN
 90
        0
 91
        1
 62
     0
 92
       -2
340
0
 93
        0
 40
0.045
309
GRIDFORMAT_END
 95
        8
302
GRIDFORMAT
  1
GRIDFORMAT_BEGIN
 90
        0
 91
        1
 62
     0
 92
       -2
340
0
 93
        0
 40
0.045
309
GRIDFORMAT_END
 95
       16
302
GRIDFORMAT
  1
GRIDFORMAT_BEGIN
 90
        0
 91
        1
 62
     0
 92
       -2
340
0
 93
        0
 40
0.045
309
GRIDFORMAT_END
 95
       32
302
GRIDFORMAT
  1
GRIDFORMAT_BEGIN
 90
        0
 91
        1
 62
     0
 92
       -2
340
0
 93
        0
 40
0.045
309
GRIDFORMAT_END
309
TABLEFORMAT_END
  1
CELLSTYLE_BEGIN
 90
        3
 91
        2
300
_DATA
309
CELLSTYLE_END
  0
XRECORD
  5
FB6
102
{ACAD_REACTORS
330
FB1
102
}
330
FB1
100
AcDbXrecord
280
     1
102
ACAD_ROUNDTRIP_PRE2007_TABLESTYLE
 90
        4
 91
        0
  1

 92
        4
 93
        0
  2

 94
        4
 95
        0
  3

  0
ENDSEC
  0
EOF
