  0
SECTION
  2
HEADER
  9
$ACADVER
  1
AC1018
  9
$ACADMAINTVER
 70
   104
  9
$DWGCODEPAGE
  3
ANSI_1252
  9
$LASTSAVEDBY
  1
ibasyouni
  9
$INSBASE
 10
0.0
 20
0.0
 30
0.0
  9
$EXTMIN
 10
13.81357623714484
 20
22.0608439309076
 30
-0.0015258207003583
  9
$EXTMAX
 10
250.4290088562975
 20
333.9607147939005
 30
0.0000000349246037
  9
$LIMMIN
 10
0.0
 20
0.0
  9
$LIMMAX
 10
280.0
 20
360.0
  9
$ORTHOMODE
 70
     1
  9
$REGENMODE
 70
     1
  9
$FILLMODE
 70
     1
  9
$QTEXTMODE
 70
     0
  9
$MIRRTEXT
 70
     1
  9
$LTSCALE
 40
1.0
  9
$ATTMODE
 70
     1
  9
$TEXTSIZE
 40
20.0
  9
$TRACEWID
 40
1.0
  9
$TEXTSTYLE
  7
STANDARD
  9
$CLAYER
  8
0
  9
$CELTYPE
  6
BYLAYER
  9
$CECOLOR
 62
   256
  9
$CELTSCALE
 40
10.0
  9
$DISPSILH
 70
     0
  9
$DIMSCALE
 40
1.0
  9
$DIMASZ
 40
2.5
  9
$DIMEXO
 40
1.0
  9
$DIMDLI
 40
10.0
  9
$DIMRND
 40
0.0
  9
$DIMDLE
 40
0.0
  9
$DIMEXE
 40
1.0
  9
$DIMTP
 40
0.1
  9
$DIMTM
 40
0.1
  9
$DIMTXT
 40
3.5
  9
$DIMCEN
 40
0.0
  9
$DIMTSZ
 40
0.0
  9
$DIMTOL
 70
     0
  9
$DIMLIM
 70
     0
  9
$DIMTIH
 70
     0
  9
$DIMTOH
 70
     0
  9
$DIMSE1
 70
     0
  9
$DIMSE2
 70
     0
  9
$DIMTAD
 70
     1
  9
$DIMZIN
 70
     8
  9
$DIMBLK
  1

  9
$DIMASO
 70
     1
  9
$DIMSHO
 70
     1
  9
$DIMPOST
  1

  9
$DIMAPOST
  1
"
  9
$DIMALT
 70
     0
  9
$DIMALTD
 70
     2
  9
$DIMALTF
 40
0.0393701
  9
$DIMLFAC
 40
1.0
  9
$DIMTOFL
 70
     1
  9
$DIMTVP
 40
0.0
  9
$DIMTIX
 70
     0
  9
$DIMSOXD
 70
     0
  9
$DIMSAH
 70
     0
  9
$DIMBLK1
  1

  9
$DIMBLK2
  1

  9
$DIMSTYLE
  2
AM_DIN
  9
$DIMCLRD
 70
   256
  9
$DIMCLRE
 70
   256
  9
$DIMCLRT
 70
     2
  9
$DIMTFAC
 40
0.71
  9
$DIMGAP
 40
1.5
  9
$DIMJUST
 70
     0
  9
$DIMSD1
 70
     0
  9
$DIMSD2
 70
     0
  9
$DIMTOLJ
 70
     0
  9
$DIMTZIN
 70
     8
  9
$DIMALTZ
 70
     0
  9
$DIMALTTZ
 70
     0
  9
$DIMUPT
 70
     0
  9
$DIMDEC
 70
     2
  9
$DIMTDEC
 70
     3
  9
$DIMALTU
 70
     2
  9
$DIMALTTD
 70
     4
  9
$DIMTXSTY
  7
STANDARD
  9
$DIMAUNIT
 70
     0
  9
$DIMADEC
 70
     0
  9
$DIMALTRND
 40
0.0
  9
$DIMAZIN
 70
     2
  9
$DIMDSEP
 70
    46
  9
$DIMATFIT
 70
     3
  9
$DIMFRAC
 70
     0
  9
$DIMLDRBLK
  1

  9
$DIMLUNIT
 70
     2
  9
$DIMLWD
 70
    -1
  9
$DIMLWE
 70
    -1
  9
$DIMTMOVE
 70
     0
  9
$LUNITS
 70
     2
  9
$LUPREC
 70
     2
  9
$SKETCHINC
 40
1.0
  9
$FILLETRAD
 40
2.5
  9
$AUNITS
 70
     0
  9
$AUPREC
 70
     0
  9
$MENU
  1
.
  9
$ELEVATION
 40
0.0
  9
$PELEVATION
 40
0.0
  9
$THICKNESS
 40
0.0
  9
$LIMCHECK
 70
     0
  9
$CHAMFERA
 40
2.5
  9
$CHAMFERB
 40
2.5
  9
$CHAMFERC
 40
0.0
  9
$CHAMFERD
 40
0.0
  9
$SKPOLY
 70
     0
  9
$TDCREATE
 40
2450382.390390463
  9
$TDUCREATE
 40
2450382.348723796
  9
$TDUPDATE
 40
2455992.556905556
  9
$TDUUPDATE
 40
2455992.515238889
  9
$TDINDWG
 40
0.2348949074
  9
$TDUSRTIMER
 40
0.2348949074
  9
$USRTIMER
 70
     1
  9
$ANGBASE
 50
0.0
  9
$ANGDIR
 70
     0
  9
$PDMODE
 70
     0
  9
$PDSIZE
 40
0.0
  9
$PLINEWID
 40
0.0
  9
$SPLFRAME
 70
     0
  9
$SPLINETYPE
 70
     6
  9
$SPLINESEGS
 70
     8
  9
$HANDSEED
  5
17B0
  9
$SURFTAB1
 70
     6
  9
$SURFTAB2
 70
     6
  9
$SURFTYPE
 70
     6
  9
$SURFU
 70
     6
  9
$SURFV
 70
     6
  9
$UCSBASE
  2

  9
$UCSNAME
  2

  9
$UCSORG
 10
0.0
 20
0.0
 30
0.0
  9
$UCSXDIR
 10
1.0
 20
0.0
 30
0.0
  9
$UCSYDIR
 10
0.0
 20
1.0
 30
0.0
  9
$UCSORTHOREF
  2

  9
$UCSORTHOVIEW
 70
     0
  9
$UCSORGTOP
 10
0.0
 20
0.0
 30
0.0
  9
$UCSORGBOTTOM
 10
0.0
 20
0.0
 30
0.0
  9
$UCSORGLEFT
 10
0.0
 20
0.0
 30
0.0
  9
$UCSORGRIGHT
 10
0.0
 20
0.0
 30
0.0
  9
$UCSORGFRONT
 10
0.0
 20
0.0
 30
0.0
  9
$UCSORGBACK
 10
0.0
 20
0.0
 30
0.0
  9
$PUCSBASE
  2

  9
$PUCSNAME
  2

  9
$PUCSORG
 10
0.0
 20
0.0
 30
0.0
  9
$PUCSXDIR
 10
1.0
 20
0.0
 30
0.0
  9
$PUCSYDIR
 10
0.0
 20
1.0
 30
0.0
  9
$PUCSORTHOREF
  2

  9
$PUCSORTHOVIEW
 70
     0
  9
$PUCSORGTOP
 10
0.0
 20
0.0
 30
0.0
  9
$PUCSORGBOTTOM
 10
0.0
 20
0.0
 30
0.0
  9
$PUCSORGLEFT
 10
0.0
 20
0.0
 30
0.0
  9
$PUCSORGRIGHT
 10
0.0
 20
0.0
 30
0.0
  9
$PUCSORGFRONT
 10
0.0
 20
0.0
 30
0.0
  9
$PUCSORGBACK
 10
0.0
 20
0.0
 30
0.0
  9
$USERI1
 70
     0
  9
$USERI2
 70
     0
  9
$USERI3
 70
     0
  9
$USERI4
 70
     0
  9
$USERI5
 70
     0
  9
$USERR1
 40
0.0
  9
$USERR2
 40
0.0
  9
$USERR3
 40
0.0
  9
$USERR4
 40
0.0
  9
$USERR5
 40
0.0
  9
$WORLDVIEW
 70
     1
  9
$SHADEDGE
 70
     3
  9
$SHADEDIF
 70
    70
  9
$TILEMODE
 70
     1
  9
$MAXACTVP
 70
    16
  9
$PINSBASE
 10
0.0
 20
0.0
 30
0.0
  9
$PLIMCHECK
 70
     0
  9
$PEXTMIN
 10
1.000000000000000E+20
 20
1.000000000000000E+20
 30
1.000000000000000E+20
  9
$PEXTMAX
 10
-1.000000000000000E+20
 20
-1.000000000000000E+20
 30
-1.000000000000000E+20
  9
$PLIMMIN
 10
0.0
 20
0.0
  9
$PLIMMAX
 10
420.0
 20
297.0
  9
$UNITMODE
 70
     0
  9
$VISRETAIN
 70
     0
  9
$PLINEGEN
 70
     0
  9
$PSLTSCALE
 70
     0
  9
$TREEDEPTH
 70
  3020
  9
$CMLSTYLE
  2
STANDARD
  9
$CMLJUST
 70
     0
  9
$CMLSCALE
 40
1.0
  9
$PROXYGRAPHICS
 70
     1
  9
$MEASUREMENT
 70
     1
  9
$CELWEIGHT
370
    -1
  9
$ENDCAPS
280
     0
  9
$JOINSTYLE
280
     0
  9
$LWDISPLAY
290
     0
  9
$INSUNITS
 70
     4
  9
$HYPERLINKBASE
  1

  9
$STYLESHEET
  1
Zeich.ctb
  9
$XEDIT
290
     1
  9
$CEPSNTYPE
380
     0
  9
$PSTYLEMODE
290
     1
  9
$FINGERPRINTGUID
  2
{325BFBD5-B27C-480F-A6FD-52B59258B312}
  9
$VERSIONGUID
  2
{B3BA42C0-0930-4222-9BC8-542D5E4D027C}
  9
$EXTNAMES
290
     1
  9
$PSVPSCALE
 40
0.0
  9
$OLESTARTUP
290
     0
  9
$SORTENTS
280
   127
  9
$INDEXCTL
280
     0
  9
$HIDETEXT
280
     0
  9
$XCLIPFRAME
290
     0
  9
$HALOGAP
280
     0
  9
$OBSCOLOR
 70
   257
  9
$OBSLTYPE
280
     0
  9
$INTERSECTIONDISPLAY
280
     0
  9
$INTERSECTIONCOLOR
 70
   257
  9
$DIMASSOC
280
     1
  9
$PROJECTNAME
  1

  0
ENDSEC
  0
SECTION
  2
CLASSES
  0
CLASS
  1
ACMESTATEMGR
  2
AcMeStateMgr
  3
AcMeServices
 90
     1024
 91
        1
280
     0
281
     0
  0
CLASS
  1
ACMESCOPE
  2
AcMeScope
  3
AcMeServices
 90
     1024
 91
        1
280
     0
281
     0
  0
CLASS
  1
ACMECOMMANDHISTORY
  2
AcMeCommandHistory
  3
AcMeServices
 90
     1024
 91
        1
280
     0
281
     0
  0
CLASS
  1
ACRFINSADJUSTERMGR
  2
AcRfInsAdjusterMgr
  3
AcMeServices
 90
     1024
 91
        1
280
     0
281
     0
  0
CLASS
  1
ACMEDRAWINGMAN
  2
AcMeDrawingMan
  3
AcMeServices
 90
     1024
 91
        1
280
     0
281
     0
  0
CLASS
  1
AMATTR
  2
AcMeAttribute
  3
AcMeServices
 90
     1024
 91
        0
280
     0
281
     0
  0
CLASS
  1
ACMEBOMCOLUMN
  2
AcMeBOMColumn
  3
AcMeServices
 90
     1024
 91
        0
280
     0
281
     0
  0
CLASS
  1
ACMEBOMCONF
  2
AcMeBOMConf
  3
AcMeServices
 90
     1024
 91
        0
280
     0
281
     0
  0
CLASS
  1
ACMEBOMTABLE
  2
AcMeBOMTable
  3
AcMeServices
 90
     1024
 91
        0
280
     0
281
     0
  0
CLASS
  1
ACMEBOMENTRY
  2
AcMeBOMEntry
  3
AcMeServices
 90
     1024
 91
        0
280
     0
281
     0
  0
CLASS
  1
ACMEVIEW
  2
AcMeView
  3
AcMeServices
 90
     1024
 91
        0
280
     0
281
     0
  0
CLASS
  1
DICTIONARYVAR
  2
AcDbDictionaryVar
  3
ObjectDBX Classes
 90
        0
 91
        6
280
     0
281
     0
  0
CLASS
  1
LAYER_INDEX
  2
AcDbLayerIndex
  3
ObjectDBX Classes
 90
        0
 91
        0
280
     0
281
     0
  0
CLASS
  1
IDBUFFER
  2
AcDbIdBuffer
  3
ObjectDBX Classes
 90
        0
 91
        0
280
     0
281
     0
  0
CLASS
  1
ACDBDICTIONARYWDFLT
  2
AcDbDictionaryWithDefault
  3
ObjectDBX Classes
 90
        0
 91
        1
280
     0
281
     0
  0
CLASS
  1
ACME_DOCUMENT
  2
AcMeDbDoc
  3
AcMeServices
 90
     1024
 91
        2
280
     0
281
     0
  0
CLASS
  1
AMGSETTINGSOBJ
  2
AmgSettingsObj
  3
"AcadM|Product Description: AutoCAD Mechanical|Company: Autodesk, Inc."
 90
     1024
 91
        4
280
     0
281
     0
  0
CLASS
  1
ACIMSYSVARMAN
  2
AcImSysVarManager
  3
AcMeServices
 90
     1024
 91
        5
280
     0
281
     0
  0
CLASS
  1
ACIMINTSYSVAR
  2
AcImIntSysVar
  3
AcMeServices
 90
     1024
 91
       29
280
     0
281
     0
  0
CLASS
  1
ACDBENTITYCACHE
  2
AcMeEntityCache
  3
AcMeServices
 90
     1024
 91
        1
280
     0
281
     0
  0
CLASS
  1
GSMANAGER
  2
AcMeGSManager
  3
AcMeServices
 90
     1024
 91
        1
280
     0
281
     0
  0
CLASS
  1
AMDTINTERNALREACTOR
  2
AmdtInternalReactor
  3
AcMeServices
 90
     1024
 91
        7
280
     0
281
     0
  0
CLASS
  1
ACGREFMASTER
  2
AcGrefMaster
  3
AcAttribServices
 90
     1024
 91
        1
280
     0
281
     0
  0
CLASS
  1
AM_DRAWING_MGR
  2
AcDmDwgMgr
  3
AcMechDwgViewMgmt
 90
     1024
 91
        1
280
     0
281
     0
  0
CLASS
  1
AM_DWG_DOCUMENT
  2
AcDmDwgDocument
  3
AcMechDwgViewMgmt
 90
     1024
 91
        1
280
     0
281
     0
  0
CLASS
  1
AM_DWG_SHEET
  2
AcDmSheet
  3
AcMechDwgViewMgmt
 90
     1024
 91
        1
280
     0
281
     0
  0
CLASS
  1
AM_VIEWDIMPARMAP
  2
AcDmViewDimParMap
  3
AcMechDwgViewMgmt
 90
     1024
 91
        1
280
     0
281
     0
  0
CLASS
  1
ACIMREALSYSVAR
  2
AcImRealSysVar
  3
AcMeServices
 90
     1024
 91
        1
280
     0
281
     0
  0
CLASS
  1
AM_DWGMGR_NAME
  2
AcDmDwgMgrName
  3
AcMechDwgViewMgmt
 90
     1024
 91
        1
280
     0
281
     0
  0
CLASS
  1
ACME_DATABASE
  2
AcMeDbDatabase
  3
AcMeServices
 90
     1024
 91
        2
280
     0
281
     0
  0
CLASS
  1
ACGREFACADMASTER
  2
AcGrefacadMaster
  3
AcGrefServices
 90
     1024
 91
        1
280
     0
281
     0
  0
CLASS
  1
AMDTMENUSTATEMGR
  2
AmdtMenuStateMgr
  3
McadcomServices
 90
     1024
 91
        1
280
     0
281
     0
  0
CLASS
  1
AMDTMCOMMENUSTATE
  2
AmdtMcomMenuState
  3
McadcomServices
 90
     1024
 91
        1
280
     0
281
     0
  0
CLASS
  1
AMIMASTER
  2
AmiMaster
  3
AmiServices
 90
     1024
 91
        1
280
     0
281
     0
  0
CLASS
  1
MAPIAMMOUDLE
  2
MApiAmModule
  3
MApiAmServices
 90
     1024
 91
        1
280
     0
281
     0
  0
CLASS
  1
AMDTADMENUSTATE
  2
AmdtAdMenuState
  3
DesignerServices
 90
     1024
 91
        1
280
     0
281
     0
  0
CLASS
  1
ADAPPL
  2
AcAdAppl
  3
DesignerServices
 90
     1024
 91
        1
280
     0
281
     0
  0
CLASS
  1
DEPMGR
  2
AcAdDepMgr
  3
DesignerServices
 90
     1024
 91
        1
280
     0
281
     0
  0
CLASS
  1
PARAMMGR
  2
AcAdParamMgr
  3
DesignerServices
 90
     1024
 91
        1
280
     0
281
     0
  0
CLASS
  1
PARAMSCOPE
  2
AcAdParamScope
  3
DesignerServices
 90
     1024
 91
        1
280
     0
281
     0
  0
CLASS
  1
NAMEDAPPL
  2
AcAdNamedAppl
  3
DesignerServices
 90
     1024
 91
        1
280
     0
281
     0
  0
CLASS
  1
AMDTDMMENUSTATE
  2
AmdtDmMenuState
  3
AcMechDwgViewMgmt
 90
     1024
 91
        1
280
     0
281
     0
  0
CLASS
  1
AMDTAMMENUSTATE
  2
AmdtAmMenuState
  3
DesignerAssemblies
 90
     1024
 91
        1
280
     0
281
     0
  0
CLASS
  1
ACIMSTRSYSVAR
  2
AcImStrSysVar
  3
AcMeServices
 90
     1024
 91
        5
280
     0
281
     0
  0
CLASS
  1
ACAMPROJECT
  2
AcAmProject
  3
DesignerAssemblies
 90
     1024
 91
        1
280
     0
281
     0
  0
CLASS
  1
ACAMGRCOMPDEF
  2
AcAmGrCompDef
  3
DesignerAssemblies
 90
     1024
 91
        1
280
     0
281
     0
  0
CLASS
  1
ACCMCONTEXT
  2
AcCmContext
  3
DesignerAssemblies
 90
     1024
 91
        1
280
     0
281
     0
  0
CLASS
  1
ACAMCOMPDEF
  2
AcAmCompDef
  3
DesignerAssemblies
 90
     1024
 91
        1
280
     0
281
     0
  0
CLASS
  1
ACAMCOMPDEFMGR
  2
AcAmCompDefMgr
  3
DesignerAssemblies
 90
     1024
 91
        1
280
     0
281
     0
  0
CLASS
  1
AMCONTEXTMGR
  2
AcAmContextMgr
  3
DesignerAssemblies
 90
     1024
 91
        1
280
     0
281
     0
  0
CLASS
  1
ACAMCONTEXTMODELER
  2
AcAmContextModeler
  3
DesignerAssemblies
 90
     1024
 91
        1
280
     0
281
     0
  0
CLASS
  1
ACMDATADICTIONARY
  2
AcmDataDictionary
  3
"AcmSymBB|Product Description: AutoCAD Mechanical|Company: Autodesk, Inc."
 90
     1024
 91
        1
280
     0
281
     0
  0
CLASS
  1
CATALOGSTATE
  2
AcAmCatalogState
  3
DesignerAssemblies
 90
     1024
 91
        1
280
     0
281
     0
  0
CLASS
  1
ACAMGRCOMPDEFSET
  2
AcAmGrCompDefSet
  3
DesignerAssemblies
 90
     1024
 91
        1
280
     0
281
     0
  0
CLASS
  1
AMDTBROWSERDBTAB
  2
AmdtBrowserDbTab
  3
McadcomServices
 90
     1024
 91
        1
280
     0
281
     0
  0
CLASS
  1
CBROWSERAPPOBJECT
  2
CBrowserAppObject
  3
McadcomServices
 90
     1024
 91
        3
280
     0
281
     0
  0
CLASS
  1
DM_PLACEHOLDER
  2
AcDmSelsetPlaceholder
  3
AcMechDwgViewMgmt
 90
     1024
 91
        1
280
     0
281
     0
  0
CLASS
  1
ACMSTANDARDANSI
  2
AcmStandardANSI
  3
"Amdt_StdImp|Product Description: AutoCAD Mechanical|Company: Autodesk, Inc."
 90
     1024
 91
        1
280
     0
281
     0
  0
CLASS
  1
AMGOBJPROPCFG
  2
AmgObjPropCfg
  3
"AmgLay|Product Description: AutoCAD Mechanical|Company: Autodesk, Inc."
 90
     1025
 91
        1
280
     0
281
     0
  0
CLASS
  1
ACMSURFSTANDARDANSI
  2
AcmSurfTextStdANSI
  3
"Amdt_StdImp|Product Description: AutoCAD Mechanical|Company: Autodesk, Inc."
 90
     1024
 91
        1
280
     0
281
     0
  0
CLASS
  1
ACMFCFSTANDARDANSI
  2
AcmFCFStdANSI
  3
"Amdt_StdImp|Product Description: AutoCAD Mechanical|Company: Autodesk, Inc."
 90
     1024
 91
        1
280
     0
281
     0
  0
CLASS
  1
ACMWELDSTANDARDANSI
  2
AcmWeldingStdANSI
  3
"Amdt_StdImp|Product Description: AutoCAD Mechanical|Company: Autodesk, Inc."
 90
     1024
 91
        1
280
     0
281
     0
  0
CLASS
  1
ACMIDSTANDARDANSI
  2
AcmIdStdANSI
  3
"Amdt_StdImp|Product Description: AutoCAD Mechanical|Company: Autodesk, Inc."
 90
     1024
 91
        1
280
     0
281
     0
  0
CLASS
  1
ACMDATUMSTANDARDANSI
  2
AcmDatumStdANSI
  3
"Amdt_StdImp|Product Description: AutoCAD Mechanical|Company: Autodesk, Inc."
 90
     1024
 91
        1
280
     0
281
     0
  0
CLASS
  1
ACMBOMSTANDARDANSI
  2
AcmBOMStdANSI
  3
"Amdt_StdImp|Product Description: AutoCAD Mechanical|Company: Autodesk, Inc."
 90
     1024
 91
        1
280
     0
281
     0
  0
CLASS
  1
ACMDETAILSTANDARDANSI
  2
AmdtDetailSymStdANSI
  3
"Amdt_StdImp|Product Description: AutoCAD Mechanical|Company: Autodesk, Inc."
 90
     1024
 91
        1
280
     0
281
     0
  0
CLASS
  1
ACMSECTIONSTANDARDANSI
  2
AmdtSectionSymStdANSI
  3
"Amdt_StdImp|Product Description: AutoCAD Mechanical|Company: Autodesk, Inc."
 90
     1024
 91
        1
280
     0
281
     0
  0
CLASS
  1
ACMCENTERLINESTANDARDANSI
  2
AmdtCenterLineStdANSI
  3
"Amdt_StdImp|Product Description: AutoCAD Mechanical|Company: Autodesk, Inc."
 90
     1024
 91
        1
280
     0
281
     0
  0
CLASS
  1
ACMTHREADLINESTANDARDANSI
  2
AmdtThreadLineStdANSI
  3
"Amdt_StdImp|Product Description: AutoCAD Mechanical|Company: Autodesk, Inc."
 90
     1024
 91
        1
280
     0
281
     0
  0
CLASS
  1
ACMNOTESTANDARDANSI
  2
AmdtNoteStdANSI
  3
"Amdt_StdImp|Product Description: AutoCAD Mechanical|Company: Autodesk, Inc."
 90
     1024
 91
        1
280
     0
281
     0
  0
CLASS
  1
AMDTNOTETEMPLATEDB
  2
AmdtNoteTemplateDB
  3
AcmSymBB|Product Description: AutoCAD Mechanical|Company: Autodesk, Inc.
 90
     1024
 91
       10
280
     0
281
     0
  0
CLASS
  1
ACAMGLAYSTD
  2
AcAmgLayStd
  3
"AmgLay|Product Description: AutoCAD Mechanical|Company: Autodesk, Inc."
 90
     1024
 91
        2
280
     0
281
     0
  0
CLASS
  1
ACAMGDIMSTD
  2
AcAmgDimStd
  3
"AmgDim|Product Description: AutoCAD Mechanical|Company: Autodesk, Inc."
 90
     1024
 91
        2
280
     0
281
     0
  0
CLASS
  1
ACAMGHOLECHARTSTDANSI
  2
AcAmgHoleChartStdANSI
  3
AmgDim|Product Description: AutoCAD Mechanical|Company: Autodesk, Inc.
 90
     1024
 91
        1
280
     0
281
     0
  0
CLASS
  1
ACAMGTITLESTD
  2
AcAmgTitleStd
  3
"AmgTitle|Product Description: AutoCAD Mechanical|Company: Autodesk, Inc."
 90
     4095
 91
        2
280
     0
281
     0
  0
CLASS
  1
ACAMGFILTERDAT
  2
AcAmgFilterDat
  3
"AcadM|Product Description: AutoCAD Mechanical|Company: Autodesk, Inc."
 90
     1024
 91
        6
280
     0
281
     0
  0
CLASS
  1
TABLESTYLE
  2
AcDbTableStyle
  3
ObjectDBX Classes
 90
     4095
 91
        1
280
     0
281
     0
  0
CLASS
  1
ACMDATAENTRYBLOCK
  2
AcmDataEntryBlock
  3
AcmSymBB|Product Description: AutoCAD Mechanical|Company: Autodesk, Inc.
 90
     1024
 91
        0
280
     0
281
     0
  0
CLASS
  1
AC_AM_2D_XREF_MGR
  2
AcAmXrefMgr2d
  3
DesignerAssemblies
 90
     1024
 91
        0
280
     0
281
     0
  0
CLASS
  1
SORTENTSTABLE
  2
AcDbSortentsTable
  3
ObjectDBX Classes
 90
        0
 91
        3
280
     0
281
     0
  0
CLASS
  1
VAACXREFPANELOBJECT
  2
VaAcXREFPanelObject
  3
VAAC_ADDIN
 90
        0
 91
        0
280
     0
281
     0
  0
CLASS
  1
VAACIMAGEINVENTORY
  2
VaAcImageInventory
  3
VAAC_ADDIN
 90
        0
 91
        0
280
     0
281
     0
  0
CLASS
  1
MATERIAL
  2
AcDbMaterial
  3
ObjectDBX Classes
 90
     1153
 91
        3
280
     0
281
     0
  0
CLASS
  1
VISUALSTYLE
  2
AcDbVisualStyle
  3
ObjectDBX Classes
 90
     4095
 91
       16
280
     0
281
     0
  0
CLASS
  1
ACMTAPERSTANDARDANSI
  2
AcmTaperStdANSI
  3
"Amdt_StdImp|Product Description: AutoCAD Mechanical|Company: Autodesk, Inc."
 90
     1024
 91
        1
280
     0
281
     0
  0
CLASS
  1
CAMSSTRUCTBTNSTATE
  2
StructBtnState
  3
DesignerAssemblies
 90
     1024
 91
        1
280
     0
281
     0
  0
CLASS
  1
SCALE
  2
AcDbScale
  3
ObjectDBX Classes
 90
     1153
 91
       33
280
     0
281
     0
  0
CLASS
  1
MLEADERSTYLE
  2
AcDbMLeaderStyle
  3
ACDB_MLEADERSTYLE_CLASS
 90
     4095
 91
        1
280
     0
281
     0
  0
CLASS
  1
ACMANOOTATIONVIEWSTANDARDANSI
  2
AmdtAnViewStdANSI
  3
"Amdt_StdImp|Product Description: AutoCAD Mechanical|Company: Autodesk, Inc."
 90
     1024
 91
        1
280
     0
281
     0
  0
CLASS
  1
CELLSTYLEMAP
  2
AcDbCellStyleMap
  3
ObjectDBX Classes
 90
     1152
 91
       12
280
     0
281
     0
  0
CLASS
  1
ACMDIMBREAKPERSREACTOR
  2
AcmDimBreakPersReactor
  3
AmgDim|Product Description: AutoCAD Mechanical|Company: Autodesk, Inc.
 90
     4095
 91
        2
280
     0
281
     0
  0
CLASS
  1
AMDTNOTE
  2
AmdtNote
  3
"AcmSymBB|Product Description: AutoCAD Mechanical|Company: Autodesk, Inc."
 90
     4095
 91
        7
280
     0
281
     1
  0
CLASS
  1
ACDBCIRCARCRES
  2
AcDbCircArcRes
  3
AcGrefServices
 90
     1024
 91
        5
280
     0
281
     0
  0
CLASS
  1
ACMSTANDARDDIN
  2
AcmStandardDIN
  3
"Amdt_StdImp|Product Description: AutoCAD Mechanical|Company: Autodesk, Inc."
 90
     1024
 91
        1
280
     0
281
     0
  0
CLASS
  1
AMDTEDGESTANDARDDIN13715
  2
AmdtEdgeStdDIN13715
  3
"Amdt_StdImp|Product Description: AutoCAD Mechanical|Company: Autodesk, Inc."
 90
     1024
 91
        1
280
     0
281
     0
  0
CLASS
  1
ACMSURFSTANDARDDIN2002
  2
AcmSurfTextStdDIN2002
  3
"Amdt_StdImp|Product Description: AutoCAD Mechanical|Company: Autodesk, Inc."
 90
     1024
 91
        1
280
     0
281
     0
  0
CLASS
  1
ACMFCFSTANDARDDIN
  2
AcmFCFStdDIN
  3
"Amdt_StdImp|Product Description: AutoCAD Mechanical|Company: Autodesk, Inc."
 90
     1024
 91
        1
280
     0
281
     0
  0
CLASS
  1
ACMWELDSTANDARDDIN
  2
AcmWeldingStdDIN
  3
"Amdt_StdImp|Product Description: AutoCAD Mechanical|Company: Autodesk, Inc."
 90
     1024
 91
        1
280
     0
281
     0
  0
CLASS
  1
ACMIDSTANDARDDIN
  2
AcmIdStdDIN
  3
"Amdt_StdImp|Product Description: AutoCAD Mechanical|Company: Autodesk, Inc."
 90
     1024
 91
        1
280
     0
281
     0
  0
CLASS
  1
ACMDATUMSTANDARDDIN
  2
AcmDatumStdDIN
  3
"Amdt_StdImp|Product Description: AutoCAD Mechanical|Company: Autodesk, Inc."
 90
     1024
 91
        1
280
     0
281
     0
  0
CLASS
  1
ACMBOMSTANDARDDIN
  2
AcmBOMStdDIN
  3
"Amdt_StdImp|Product Description: AutoCAD Mechanical|Company: Autodesk, Inc."
 90
     1024
 91
        1
280
     0
281
     0
  0
CLASS
  1
ACMDETAILSTANDARDDIN
  2
AmdtDetailSymStdDIN
  3
"Amdt_StdImp|Product Description: AutoCAD Mechanical|Company: Autodesk, Inc."
 90
     1024
 91
        1
280
     0
281
     0
  0
CLASS
  1
ACMSECTIONSTANDARDDIN
  2
AmdtSectionSymStdDIN
  3
"Amdt_StdImp|Product Description: AutoCAD Mechanical|Company: Autodesk, Inc."
 90
     1024
 91
        1
280
     0
281
     0
  0
CLASS
  1
ACMCENTERLINESTANDARDDIN
  2
AmdtCenterLineStdDIN
  3
"Amdt_StdImp|Product Description: AutoCAD Mechanical|Company: Autodesk, Inc."
 90
     1024
 91
        1
280
     0
281
     0
  0
CLASS
  1
ACMTHREADLINESTANDARDDIN
  2
AmdtThreadLineStdDIN
  3
"Amdt_StdImp|Product Description: AutoCAD Mechanical|Company: Autodesk, Inc."
 90
     1024
 91
        1
280
     0
281
     0
  0
CLASS
  1
ACMNOTESTANDARDDIN
  2
AmdtNoteStdDIN
  3
"Amdt_StdImp|Product Description: AutoCAD Mechanical|Company: Autodesk, Inc."
 90
     1024
 91
        1
280
     0
281
     0
  0
CLASS
  1
ACMTAPERSTANDARDDIN
  2
AcmTaperStdDIN
  3
"Amdt_StdImp|Product Description: AutoCAD Mechanical|Company: Autodesk, Inc."
 90
     1024
 91
        1
280
     0
281
     0
  0
CLASS
  1
ACMANOOTATIONVIEWSTANDARDDIN
  2
AmdtAnViewStdDIN
  3
"Amdt_StdImp|Product Description: AutoCAD Mechanical|Company: Autodesk, Inc."
 90
     1024
 91
        1
280
     0
281
     0
  0
CLASS
  1
ACAMGHOLECHARTSTDDIN
  2
AcAmgHoleChartStdDIN
  3
AmgDim|Product Description: AutoCAD Mechanical|Company: Autodesk, Inc.
 90
     1024
 91
        1
280
     0
281
     0
  0
CLASS
  1
AMDTFORMULAUPDATEDISPATCHER
  2
AmdtFormulaUpdateDispatcher
  3
AcMeServices
 90
     1024
 91
        3
280
     0
281
     0
  0
ENDSEC
  0
SECTION
  2
TABLES
  0
TABLE
  2
VPORT
  5
13
330
0
100
AcDbSymbolTable
 70
     1
  0
VPORT
  5
7F2
330
13
100
AcDbSymbolTableRecord
100
AcDbViewportTableRecord
  2
*Active
 70
     0
 10
0.0
 20
0.0
 11
1.0
 21
1.0
 12
140.0
 22
180.0
 13
0.0
 23
0.0
 14
2.5
 24
2.5
 15
10.0
 25
10.0
 16
0.0
 26
0.0
 36
1.0
 17
0.0
 27
0.0
 37
0.0
 40
360.0
 41
1.511511511511511
 42
50.0
 43
0.0
 44
0.0
 50
0.0
 51
0.0
 71
     0
 72
   100
 73
     1
 74
     0
 75
     0
 76
     0
 77
     0
 78
     0
281
     0
 65
     1
110
0.0
120
0.0
130
0.0
111
1.0
121
0.0
131
0.0
112
0.0
122
1.0
132
0.0
 79
     0
146
0.0
  0
ENDTAB
  0
TABLE
  2
LTYPE
  5
E
330
0
100
AcDbSymbolTable
 70
    26
  0
LTYPE
  5
F
330
E
100
AcDbSymbolTableRecord
100
AcDbLinetypeTableRecord
  2
BYBLOCK
 70
     0
  3

 72
    65
 73
     0
 40
0.0
  0
LTYPE
  5
10
330
E
100
AcDbSymbolTableRecord
100
AcDbLinetypeTableRecord
  2
BYLAYER
 70
     0
  3

 72
    65
 73
     0
 40
0.0
  0
LTYPE
  5
6
330
E
100
AcDbSymbolTableRecord
100
AcDbLinetypeTableRecord
  2
CONTINUOUS
 70
     0
  3
Solid line
 72
    65
 73
     0
 40
0.0
  0
LTYPE
  5
29
330
E
100
AcDbSymbolTableRecord
100
AcDbLinetypeTableRecord
  2
MITTE
 70
     0
  3
____ _ ____ _ ____ _ ____ _ ____ _ ____ _ ____ 
 72
    65
 73
     4
 40
2.0
 49
1.25
 74
     0
 49
-0.25
 74
     0
 49
0.25
 74
     0
 49
-0.25
 74
     0
  0
LTYPE
  5
81
330
E
100
AcDbSymbolTableRecord
100
AcDbLinetypeTableRecord
  2
HIDDEN
 70
     0
  3
Verdeckt
 72
    65
 73
     2
 40
0.375
 49
0.25
 74
     0
 49
-0.125
 74
     0
  0
LTYPE
  5
82
330
E
100
AcDbSymbolTableRecord
100
AcDbLinetypeTableRecord
  2
PHANTOM2
 70
     0
  3
Phantom (.5x) ___ _ _ ___ _ _ ___ _ _ ___ _ _
 72
    65
 73
     6
 40
1.25
 49
0.625
 74
     0
 49
-0.125
 74
     0
 49
0.125
 74
     0
 49
-0.125
 74
     0
 49
0.125
 74
     0
 49
-0.125
 74
     0
  0
LTYPE
  5
83
330
E
100
AcDbSymbolTableRecord
100
AcDbLinetypeTableRecord
  2
CENTER
 70
     0
  3
Mitte ____ _ ____ _ ____ _ ____ _ ____ _ ____
 72
    65
 73
     4
 40
2.0
 49
1.25
 74
     0
 49
-0.25
 74
     0
 49
0.25
 74
     0
 49
-0.25
 74
     0
  0
LTYPE
  5
CD
330
E
100
AcDbSymbolTableRecord
100
AcDbLinetypeTableRecord
  2
Amconstr
 70
     0
  3
_______________________
 72
    65
 73
     2
 40
9999.0
 49
9999.0
 74
     0
 49
0.0
 74
     0
  0
LTYPE
  5
D3
330
E
100
AcDbSymbolTableRecord
100
AcDbLinetypeTableRecord
  2
CENTER2
 70
     0
  3
Center (.5x) ___ _ ___ _ ___ _ ___ _ ___ _ ___
 72
    65
 73
     4
 40
1.125
 49
0.75
 74
     0
 49
-0.125
 74
     0
 49
0.125
 74
     0
 49
-0.125
 74
     0
  0
LTYPE
  5
D4
330
E
100
AcDbSymbolTableRecord
100
AcDbLinetypeTableRecord
  2
HIDDEN2
 70
     0
  3
Hidden (.5x) _ _ _ _ _ _ _ _ _ _ _ _ _ _ _ _ _
 72
    65
 73
     2
 40
0.1875
 49
0.125
 74
     0
 49
-0.0625
 74
     0
  0
LTYPE
  5
D5
330
E
100
AcDbSymbolTableRecord
100
AcDbLinetypeTableRecord
  2
Amzigzag2
 70
     0
  3
/\/-/\/-/\/-/\/-/\/-/\/
 72
    65
 73
     2
 40
0.4401
 49
0.0001
 74
     4
 75
   135
340
D1
 46
0.0016
 50
0.0
 44
0.0
 45
0.0
 49
-0.4400000000000001
 74
     0
  0
LTYPE
  5
E3
330
E
100
AcDbSymbolTableRecord
100
AcDbLinetypeTableRecord
  2
ACANSTGB
 70
     0
  3
__ . . __ . .
 72
    65
 73
     6
 40
0.35433070866
 49
0.15748031496
 74
     0
 49
-0.03937007874
 74
     0
 49
0.03937007874
 74
     0
 49
-0.03937007874
 74
     0
 49
0.03937007874
 74
     0
 49
-0.03937007874
 74
     0
  0
LTYPE
  5
E4
330
E
100
AcDbSymbolTableRecord
100
AcDbLinetypeTableRecord
  2
ACANSTGL
 70
     0
  3
_ _ _ _ _
 72
    65
 73
     2
 40
0.11811023622
 49
0.07874015748
 74
     0
 49
-0.03937007874
 74
     0
  0
LTYPE
  5
BF6
330
E
100
AcDbSymbolTableRecord
100
AcDbLinetypeTableRecord
  2
ACDINWELD
 70
     0
  3
_ _ _ _ _
 72
    65
 73
     2
 40
2.0
 49
2.0
 74
     0
 49
-1.0
 74
     0
  0
LTYPE
  5
BF7
330
E
100
AcDbSymbolTableRecord
100
AcDbLinetypeTableRecord
  2
ACDINTGB
 70
     0
  3
__ . . __ . .
 72
    65
 73
     6
 40
9.0
 49
4.0
 74
     0
 49
-1.0
 74
     0
 49
1.0
 74
     0
 49
-1.0
 74
     0
 49
1.0
 74
     0
 49
-1.0
 74
     0
  0
LTYPE
  5
BF8
330
E
100
AcDbSymbolTableRecord
100
AcDbLinetypeTableRecord
  2
ACDINTGL
 70
     0
  3
_ _ _ _ _
 72
    65
 73
     2
 40
3.0
 49
2.0
 74
     0
 49
-1.0
 74
     0
  0
LTYPE
  5
BF9
330
E
100
AcDbSymbolTableRecord
100
AcDbLinetypeTableRecord
  2
Amzigzag
 70
     0
  3
/\/-/\/-/\/-/\/-/\/-/\/
 72
    65
 73
     2
 40
11.0001
 49
0.0001
 74
     4
 75
   136
340
C01
 46
0.04
 50
0.0
 44
0.0
 45
0.0
 49
-11.0
 74
     0
  0
LTYPE
  5
BFA
330
E
100
AcDbSymbolTableRecord
100
AcDbLinetypeTableRecord
  2
AM_DIN_F_W050
 70
     0
  3
__ __ __ __ __ __ __ __ __ __ __ __ __ __ __
 72
    65
 73
     2
 40
6.25
 49
4.75
 74
     0
 49
-1.5
 74
     0
  0
LTYPE
  5
BFB
330
E
100
AcDbSymbolTableRecord
100
AcDbLinetypeTableRecord
  2
AM_DIN_G_W050
 70
     0
  3
____ . ____ . ____ . ____ . ____ . ____ . ____
 72
    65
 73
     4
 40
13.75
 49
9.75
 74
     0
 49
-1.5
 74
     0
 49
1.0
 74
     0
 49
-1.5
 74
     0
  0
LTYPE
  5
BFC
330
E
100
AcDbSymbolTableRecord
100
AcDbLinetypeTableRecord
  2
AM_DIN_K_W050
 70
     0
  3
_____ . . _____ . . _____ . . ____ .. ____
 72
    65
 73
     6
 40
16.25
 49
9.75
 74
     0
 49
-1.5
 74
     0
 49
1.0
 74
     0
 49
-1.5
 74
     0
 49
1.0
 74
     0
 49
-1.5
 74
     0
  0
LTYPE
  5
BFD
330
E
100
AcDbSymbolTableRecord
100
AcDbLinetypeTableRecord
  2
AM_DIN_G_W050x2
 70
     0
  3
__ . __ . __ . __ . __ . __
 72
    65
 73
     4
 40
6.875
 49
4.75
 74
     0
 49
-0.875
 74
     0
 49
0.375
 74
     0
 49
-0.875
 74
     0
  0
LTYPE
  5
BFE
330
E
100
AcDbSymbolTableRecord
100
AcDbLinetypeTableRecord
  2
AM_DIN_F_W050x2
 70
     0
  3
 _ _ _ _ _ _ _ _ _ _ _ _
 72
    65
 73
     2
 40
3.125
 49
2.25
 74
     0
 49
-0.875
 74
     0
  0
ENDTAB
  0
TABLE
  2
LAYER
  5
B
102
{ACAD_XDICTIONARY
360
12AE
102
}
330
0
100
AcDbSymbolTable
 70
     9
  0
LAYER
  5
5
102
{ACAD_XDICTIONARY
360
AE7
102
}
330
B
100
AcDbSymbolTableRecord
100
AcDbLayerTableRecord
  2
0
 70
     0
 62
     7
  6
CONTINUOUS
370
    -3
390
5D
  0
LAYER
  5
20
102
{ACAD_XDICTIONARY
360
AE9
102
}
330
B
100
AcDbSymbolTableRecord
100
AcDbLayerTableRecord
  2
BEM
 70
     1
 62
     3
  6
CONTINUOUS
370
    -3
390
5D
  0
LAYER
  5
26
102
{ACAD_XDICTIONARY
360
AEB
102
}
330
B
100
AcDbSymbolTableRecord
100
AcDbLayerTableRecord
  2
TEXT
 70
     0
 62
     2
  6
CONTINUOUS
370
    -3
390
5D
  0
LAYER
  5
28
102
{ACAD_XDICTIONARY
360
AED
102
}
330
B
100
AcDbSymbolTableRecord
100
AcDbLayerTableRecord
  2
MITTE
 70
     0
 62
     4
  6
MITTE
370
    -3
390
5D
  0
LAYER
  5
24
102
{ACAD_XDICTIONARY
360
AEF
102
}
330
B
100
AcDbSymbolTableRecord
100
AcDbLayerTableRecord
  2
LINIE
 70
     0
 62
     4
  6
CONTINUOUS
370
    -3
390
5D
  0
LAYER
  5
1E1
330
B
100
AcDbSymbolTableRecord
100
AcDbLayerTableRecord
  2
Defpoints
 70
     0
 62
     7
  6
CONTINUOUS
290
     0
370
    -3
390
5D
  0
ENDTAB
  0
TABLE
  2
STYLE
  5
C
330
0
100
AcDbSymbolTable
 70
    11
  0
STYLE
  5
D
330
C
100
AcDbSymbolTableRecord
100
AcDbTextStyleTableRecord
  2
STANDARD
 70
     0
 40
0.0
 41
1.0
 50
0.0
 71
     0
 42
20.0
  3
romans.shx
  4

  0
STYLE
  5
1C
330
C
100
AcDbSymbolTableRecord
100
AcDbTextStyleTableRecord
  2
STYLE1
 70
     0
 40
0.0
 41
1.0
 50
0.0
 71
     0
 42
20.0
  3
ariblk.TTF
  4

1001
ACAD
1000
Arial Black
1071
 33554466
  0
STYLE
  5
D1
330
C
100
AcDbSymbolTableRecord
100
AcDbTextStyleTableRecord
  2

 70
     1
 40
0.0
 41
1.0
 50
0.0
 71
     0
 42
20.0
  3
ltypeshp.shx
  4

  0
STYLE
  5
D6
330
C
100
AcDbSymbolTableRecord
100
AcDbTextStyleTableRecord
  2
ACANSTS
 70
     0
 40
1.0
 41
1.0
 50
0.0
 71
     0
 42
20.0
  3
romans.shx
  4

  0
STYLE
  5
E2
330
C
100
AcDbSymbolTableRecord
100
AcDbTextStyleTableRecord
  2
ACANSGDT
 70
     0
 40
0.0
 41
1.0
 50
0.0
 71
     0
 42
20.0
  3
amgdtans.shx
  4

  0
STYLE
  5
BFF
330
C
100
AcDbSymbolTableRecord
100
AcDbTextStyleTableRecord
  2
ACDINTS
 70
     0
 40
1.0
 41
1.0
 50
0.0
 71
     0
 42
20.0
  3
isocp.shx
  4

  0
STYLE
  5
C00
330
C
100
AcDbSymbolTableRecord
100
AcDbTextStyleTableRecord
  2
ACDINGDT
 70
     0
 40
0.0
 41
1.0
 50
0.0
 71
     0
 42
20.0
  3
amgdt.shx
  4

  0
STYLE
  5
C01
330
C
100
AcDbSymbolTableRecord
100
AcDbTextStyleTableRecord
  2

 70
     1
 40
0.0
 41
1.0
 50
0.0
 71
     0
 42
20.0
  3
genltshp.shx
  4

  0
ENDTAB
  0
TABLE
  2
VIEW
  5
11
330
0
100
AcDbSymbolTable
 70
     0
  0
ENDTAB
  0
TABLE
  2
UCS
  5
12
330
0
100
AcDbSymbolTable
 70
     0
  0
ENDTAB
  0
TABLE
  2
APPID
  5
15
330
0
100
AcDbSymbolTable
 70
    17
  0
APPID
  5
16
330
15
100
AcDbSymbolTableRecord
100
AcDbRegAppTableRecord
  2
ACAD
 70
     0
  0
APPID
  5
30
330
15
100
AcDbSymbolTableRecord
100
AcDbRegAppTableRecord
  2
MCAD_NO_VIS
 70
     0
  0
APPID
  5
6D
330
15
100
AcDbSymbolTableRecord
100
AcDbRegAppTableRecord
  2
ACAD_TEMP_GRAPHIC
 70
     0
  0
APPID
  5
98
330
15
100
AcDbSymbolTableRecord
100
AcDbRegAppTableRecord
  2
AD_DRAW
 70
     0
  0
APPID
  5
9B
330
15
100
AcDbSymbolTableRecord
100
AcDbRegAppTableRecord
  2
ACATTRIBSERVICES
 70
     0
  0
APPID
  5
B9
330
15
100
AcDbSymbolTableRecord
100
AcDbRegAppTableRecord
  2
DESIGNERASSEMBLIES
 70
     0
  0
APPID
  5
C1
330
15
100
AcDbSymbolTableRecord
100
AcDbRegAppTableRecord
  2
ACADM_DIM_EDIT
 70
     0
  0
APPID
  5
C2
330
15
100
AcDbSymbolTableRecord
100
AcDbRegAppTableRecord
  2
AMDT_DM_ADJ
 70
     0
  0
APPID
  5
49B
330
15
100
AcDbSymbolTableRecord
100
AcDbRegAppTableRecord
  2
ACAD_PSEXT
 70
     0
  0
APPID
  5
945
330
15
100
AcDbSymbolTableRecord
100
AcDbRegAppTableRecord
  2
ACAD_MLEADERVER
 70
     0
  0
APPID
  5
AF5
330
15
100
AcDbSymbolTableRecord
100
AcDbRegAppTableRecord
  2
DCO15
 70
     0
  0
APPID
  5
C09
330
15
100
AcDbSymbolTableRecord
100
AcDbRegAppTableRecord
  2
GENIUS_GENDTOL_13
 70
     0
  0
APPID
  5
C0A
330
15
100
AcDbSymbolTableRecord
100
AcDbRegAppTableRecord
  2
ACAD_DSTYLE_DIMINSPECT
 70
     0
  0
APPID
  5
D06
330
15
100
AcDbSymbolTableRecord
100
AcDbRegAppTableRecord
  2
AcAecLayerStandard
 70
     0
  0
APPID
  5
1012
330
15
100
AcDbSymbolTableRecord
100
AcDbRegAppTableRecord
  2
AcadAnnoPO
 70
     0
  0
APPID
  5
173F
330
15
100
AcDbSymbolTableRecord
100
AcDbRegAppTableRecord
  2
ACAD_EXEMPT_FROM_CAD_STANDARDS
 70
     0
  0
APPID
  5
17A3
330
15
100
AcDbSymbolTableRecord
100
AcDbRegAppTableRecord
  2
ACAD_DSTYLE_DIMJOGGED_JOGANGLE_SYMBOL
 70
     0
  0
ENDTAB
  0
TABLE
  2
DIMSTYLE
  5
17
330
0
100
AcDbSymbolTable
 70
    18
100
AcDbDimStyleTable
 71
     2
340
C02
340
1E
  0
DIMSTYLE
105
1E
102
{ACAD_REACTORS
330
20C
330
21A
330
234
330
24F
330
297
330
2C2
330
269
330
25C
330
2B3
330
2A6
330
289
330
227
330
243
102
}
330
17
100
AcDbSymbolTableRecord
100
AcDbDimStyleTableRecord
  2
ISO-25
 70
     0
 41
3.5
 42
0.0
 43
7.0
 44
1.25
 73
     0
 74
     0
 77
     1
 78
     8
140
3.5
141
0.0
143
0.0394
144
0.5
145
1.0
147
1.5
172
     1
176
   256
177
   256
178
   256
284
     8
288
     1
340
D
  0
DIMSTYLE
105
EB
330
17
100
AcDbSymbolTableRecord
100
AcDbDimStyleTableRecord
  2
AM_ANSI
 70
     0
  4
mm
 41
0.1
 42
0.05
 43
0.5
 44
0.1
 47
0.1
 48
0.1
 78
     7
 79
     2
140
0.12
141
0.0
146
0.71
147
0.06
176
   256
177
   256
178
     2
274
     4
284
     7
340
D
371
    -1
372
    -1
  0
DIMSTYLE
105
EC
330
17
100
AcDbSymbolTableRecord
100
AcDbDimStyleTableRecord
  2
AM_ANSI$3
 70
     0
  4
mm
 41
0.1
 42
0.05
 43
0.5
 44
0.1
 47
0.1
 48
0.1
 78
     7
 79
     2
140
0.12
141
0.0
146
0.71
147
0.06
176
   256
177
   256
178
     2
274
     4
284
     7
288
     1
289
     0
340
D
371
    -1
372
    -1
  0
DIMSTYLE
105
ED
330
17
100
AcDbSymbolTableRecord
100
AcDbDimStyleTableRecord
  2
AM_ANSI$4
 70
     0
  4
mm
 41
0.1
 42
0.05
 43
0.5
 44
0.1
 47
0.1
 48
0.1
 78
     7
 79
     2
140
0.12
141
0.0
146
0.71
147
0.06
176
   256
177
   256
178
     2
274
     4
284
     7
288
     1
289
     0
340
D
371
    -1
372
    -1
  0
DIMSTYLE
105
EE
330
17
100
AcDbSymbolTableRecord
100
AcDbDimStyleTableRecord
  2
AM_ANSI$7
 70
     0
  4
mm
 41
0.1
 42
0.05
 43
0.5
 44
0.1
 47
0.1
 48
0.1
 78
     7
 79
     2
140
0.24
141
0.0
146
0.71
147
0.06
176
   256
177
   256
178
     2
274
     4
284
     7
340
D
371
    -1
372
    -1
  0
DIMSTYLE
105
EF
330
17
100
AcDbSymbolTableRecord
100
AcDbDimStyleTableRecord
  2
AM_ANSI$SF
 70
     0
  4
mm
 41
0.1
 42
0.05
 43
0.5
 44
0.1
 47
0.1
 48
0.1
 75
     1
 76
     1
 78
     7
 79
     2
140
0.12
141
0.0
146
0.71
147
0.06
176
   256
177
   256
178
     2
274
     4
284
     7
340
D
371
    -1
372
    -1
  0
DIMSTYLE
105
F4
330
17
100
AcDbSymbolTableRecord
100
AcDbDimStyleTableRecord
  2
AM_ANSI$SH
 70
     0
  4
mm
 41
0.1
 42
0.05
 43
0.5
 44
0.1
 47
0.1
 48
0.1
 75
     1
 76
     1
 78
     7
 79
     2
140
0.12
141
0.0
146
0.71
147
0.06
173
     1
176
   256
177
   256
178
     2
274
     4
284
     7
340
D
343
F0
371
    -1
372
    -1
  0
DIMSTYLE
105
38B
330
17
100
AcDbSymbolTableRecord
100
AcDbDimStyleTableRecord
  2
STANDARD
 70
     0
 41
3.5
 42
0.0
 43
7.0
 44
1.25
 73
     0
 74
     0
 77
     1
 78
     8
140
3.5
141
0.0
147
1.5
172
     1
176
   256
177
   256
178
   256
288
     1
340
D
  0
DIMSTYLE
105
C02
330
17
100
AcDbSymbolTableRecord
100
AcDbDimStyleTableRecord
  2
AM_DIN
 70
     0
  4
"
 41
2.5
 42
1.0
 43
10.0
 44
1.0
 47
0.1
 48
0.1
 73
     0
 74
     0
 77
     1
 78
     8
 79
     2
140
3.5
141
0.0
143
0.0393701
146
0.71
147
1.5
172
     1
176
   256
177
   256
178
     2
271
     2
272
     3
274
     4
283
     0
284
     8
340
D
371
    -1
372
    -1
1001
ACAD_DSTYLE_DIMJOGGED_JOGANGLE_SYMBOL
1070
   384
1040
1.570796326794896
  0
DIMSTYLE
105
C03
330
17
100
AcDbSymbolTableRecord
100
AcDbDimStyleTableRecord
  2
AM_DIN$3
 70
     0
  4
"
 41
2.5
 42
1.0
 43
10.0
 44
1.0
 47
0.1
 48
0.1
 73
     0
 77
     1
 78
     8
 79
     2
140
3.5
141
0.0
143
0.0393701
146
0.71
147
1.5
176
   256
177
   256
178
     2
271
     2
272
     3
274
     4
283
     0
284
     8
288
     1
289
     0
340
D
371
    -1
372
    -1
1001
ACAD_DSTYLE_DIMJOGGED_JOGANGLE_SYMBOL
1070
   384
1040
1.570796326794896
  0
DIMSTYLE
105
C04
330
17
100
AcDbSymbolTableRecord
100
AcDbDimStyleTableRecord
  2
AM_DIN$4
 70
     0
  4
"
 41
2.5
 42
1.0
 43
10.0
 44
1.0
 47
0.1
 48
0.1
 73
     0
 77
     1
 78
     8
 79
     2
140
3.5
141
0.0
143
0.0393701
146
0.71
147
1.5
176
   256
177
   256
178
     2
271
     2
272
     3
274
     4
283
     0
284
     8
288
     1
289
     0
340
D
371
    -1
372
    -1
1001
ACAD_DSTYLE_DIMJOGGED_JOGANGLE_SYMBOL
1070
   384
1040
1.570796326794896
  0
DIMSTYLE
105
C05
330
17
100
AcDbSymbolTableRecord
100
AcDbDimStyleTableRecord
  2
AM_DIN$6
 70
     0
  4
"
 41
2.5
 42
1.0
 43
10.0
 44
1.0
 47
0.1
 48
0.1
 73
     0
 74
     0
 78
     8
 79
     2
140
3.5
141
0.0
143
0.0393701
146
0.71
147
1.5
172
     1
176
   256
177
   256
178
     2
271
     2
272
     3
274
     4
283
     0
284
     8
340
D
371
    -1
372
    -1
1001
ACAD_DSTYLE_DIMJOGGED_JOGANGLE_SYMBOL
1070
   384
1040
1.570796326794896
  0
DIMSTYLE
105
C06
330
17
100
AcDbSymbolTableRecord
100
AcDbDimStyleTableRecord
  2
AM_DIN$7
 70
     0
  4
"
 41
2.5
 42
1.0
 43
10.0
 44
1.0
 47
0.1
 48
0.1
 73
     0
 74
     0
 77
     1
 78
     8
 79
     2
140
5.0
141
0.0
143
0.0393701
146
0.71
147
1.5
172
     1
176
   256
177
   256
178
     2
271
     2
272
     3
274
     4
283
     0
284
     8
340
D
371
    -1
372
    -1
1001
ACAD_DSTYLE_DIMJOGGED_JOGANGLE_SYMBOL
1070
   384
1040
1.570796326794896
  0
DIMSTYLE
105
C07
330
17
100
AcDbSymbolTableRecord
100
AcDbDimStyleTableRecord
  2
AM_DIN$SF
 70
     0
  4
"
 41
2.5
 42
1.0
 43
10.0
 44
1.0
 47
0.1
 48
0.1
 73
     0
 74
     0
 75
     1
 76
     1
 77
     1
 78
     8
 79
     2
140
3.5
141
0.0
143
0.0393701
146
0.71
147
1.5
172
     1
176
   256
177
   256
178
     2
271
     2
272
     3
274
     4
283
     0
284
     8
340
D
371
    -1
372
    -1
1001
ACAD_DSTYLE_DIMJOGGED_JOGANGLE_SYMBOL
1070
   384
1040
1.570796326794896
  0
DIMSTYLE
105
C08
330
17
100
AcDbSymbolTableRecord
100
AcDbDimStyleTableRecord
  2
AM_DIN$SH
 70
     0
  4
"
 41
2.5
 42
1.0
 43
10.0
 44
1.0
 47
0.1
 48
0.1
 73
     0
 74
     0
 75
     1
 76
     1
 77
     1
 78
     8
 79
     2
140
3.5
141
0.0
143
0.0393701
144
2.0
146
0.71
147
1.5
172
     1
173
     1
176
   256
177
   256
178
     2
271
     2
272
     3
274
     4
283
     0
284
     8
340
D
343
F0
371
    -1
372
    -1
1001
ACAD_DSTYLE_DIMJOGGED_JOGANGLE_SYMBOL
1070
   384
1040
1.570796326794896
  0
ENDTAB
  0
TABLE
  2
BLOCK_RECORD
  5
1
330
0
100
AcDbSymbolTable
 70
    76
  0
BLOCK_RECORD
  5
2
102
{ACAD_XDICTIONARY
360
3
102
}
330
1
100
AcDbSymbolTableRecord
100
AcDbBlockTableRecord
  2
*MODEL_SPACE
340
62
  0
BLOCK_RECORD
  5
8
330
1
100
AcDbSymbolTableRecord
100
AcDbBlockTableRecord
  2
*PAPER_SPACE
340
63
  0
BLOCK_RECORD
  5
F0
330
1
100
AcDbSymbolTableRecord
100
AcDbBlockTableRecord
  2
GENAXEH
340
0
  0
BLOCK_RECORD
  5
20D
330
1
100
AcDbSymbolTableRecord
100
AcDbBlockTableRecord
  2
*D2
340
0
  0
BLOCK_RECORD
  5
21B
330
1
100
AcDbSymbolTableRecord
100
AcDbBlockTableRecord
  2
*D3
340
0
  0
BLOCK_RECORD
  5
228
330
1
100
AcDbSymbolTableRecord
100
AcDbBlockTableRecord
  2
*D4
340
0
  0
BLOCK_RECORD
  5
235
330
1
100
AcDbSymbolTableRecord
100
AcDbBlockTableRecord
  2
*D5
340
0
  0
BLOCK_RECORD
  5
244
330
1
100
AcDbSymbolTableRecord
100
AcDbBlockTableRecord
  2
*D6
340
0
  0
BLOCK_RECORD
  5
250
330
1
100
AcDbSymbolTableRecord
100
AcDbBlockTableRecord
  2
*D7
340
0
  0
BLOCK_RECORD
  5
25D
330
1
100
AcDbSymbolTableRecord
100
AcDbBlockTableRecord
  2
*D8
340
0
  0
BLOCK_RECORD
  5
26A
330
1
100
AcDbSymbolTableRecord
100
AcDbBlockTableRecord
  2
*D9
340
0
  0
BLOCK_RECORD
  5
28A
330
1
100
AcDbSymbolTableRecord
100
AcDbBlockTableRecord
  2
*D10
340
0
  0
BLOCK_RECORD
  5
298
330
1
100
AcDbSymbolTableRecord
100
AcDbBlockTableRecord
  2
*D11
340
0
  0
BLOCK_RECORD
  5
2A7
330
1
100
AcDbSymbolTableRecord
100
AcDbBlockTableRecord
  2
*D12
340
0
  0
BLOCK_RECORD
  5
2B4
330
1
100
AcDbSymbolTableRecord
100
AcDbBlockTableRecord
  2
*D13
340
0
  0
BLOCK_RECORD
  5
2C3
330
1
100
AcDbSymbolTableRecord
100
AcDbBlockTableRecord
  2
*D14
340
0
  0
ENDTAB
  0
ENDSEC
  0
SECTION
  2
BLOCKS
  0
BLOCK
  5
4
330
2
100
AcDbEntity
  8
0
100
AcDbBlockBegin
  2
*MODEL_SPACE
 70
     0
 10
0.0
 20
0.0
 30
0.0
  3
*MODEL_SPACE
  1

  0
ENDBLK
  5
7
330
2
100
AcDbEntity
  8
0
100
AcDbBlockEnd
  0
BLOCK
  5
9
330
8
100
AcDbEntity
 67
     1
  8
0
100
AcDbBlockBegin
  2
*PAPER_SPACE
 70
     0
 10
0.0
 20
0.0
 30
0.0
  3
*PAPER_SPACE
  1

  0
ENDBLK
  5
A
330
8
100
AcDbEntity
 67
     1
  8
0
100
AcDbBlockEnd
  0
BLOCK
  5
F2
330
F0
100
AcDbEntity
  8
0
 48
10.0
100
AcDbBlockBegin
  2
GENAXEH
 70
     0
 10
0.0
 20
0.0
 30
0.0
  3
GENAXEH
  1

  0
LINE
  5
F1
330
F0
100
AcDbEntity
  8
0
100
AcDbLine
 10
-1.0
 20
0.0
 30
0.0
 11
1.0
 21
0.0
 31
0.0
  0
ENDBLK
  5
F3
330
F0
100
AcDbEntity
  8
0
 48
10.0
100
AcDbBlockEnd
  0
BLOCK
  5
217
330
20D
100
AcDbEntity
  8
0
 48
10.0
100
AcDbBlockBegin
  2
*D2
 70
     1
 10
0.0
 20
0.0
 30
0.0
  3
*D2
  1

  0
LINE
  5
177C
330
20D
100
AcDbEntity
  8
BEM
 48
10.0
370
    -2
100
AcDbLine
 10
105.0983936537541
 20
177.7310733111101
 30
0.0
 11
105.0983936537541
 21
194.2448132018637
 31
0.0
  0
LINE
  5
177D
330
20D
100
AcDbEntity
  8
BEM
 48
10.0
370
    -2
100
AcDbLine
 10
39.09839365375407
 20
177.7310733111101
 30
0.0
 11
39.09839365375407
 21
194.2448132018637
 31
0.0
  0
LINE
  5
177E
330
20D
100
AcDbEntity
  8
BEM
 48
10.0
370
    -2
100
AcDbLine
 10
101.5983936537541
 20
192.9948132018637
 30
0.0
 11
42.59839365375407
 21
192.9948132018637
 31
0.0
  0
SOLID
  5
177F
330
20D
100
AcDbEntity
  8
BEM
 48
10.0
100
AcDbTrace
 10
101.5983936537541
 20
193.5781465351971
 30
0.0
 11
101.5983936537541
 21
192.4114798685304
 31
0.0
 12
105.0983936537541
 22
192.9948132018637
 32
0.0
 13
105.0983936537541
 23
192.9948132018637
 33
0.0
  0
SOLID
  5
1780
330
20D
100
AcDbEntity
  8
BEM
 48
10.0
100
AcDbTrace
 10
42.59839365375407
 20
193.5781465351971
 30
0.0
 11
42.59839365375407
 21
192.4114798685304
 31
0.0
 12
39.09839365375407
 22
192.9948132018637
 32
0.0
 13
39.09839365375407
 23
192.9948132018637
 33
0.0
  0
MTEXT
  5
1781
330
20D
100
AcDbEntity
  8
BEM
 48
10.0
100
AcDbMText
 10
72.09839365375408
 20
196.2448132018637
 30
0.0
 40
3.5
 41
0.0
 71
     5
 72
     1
  1
\A1;66
 73
     1
 44
1.0
  0
POINT
  5
1782
330
20D
100
AcDbEntity
  8
Defpoints
 62
     0
 48
10.0
100
AcDbPoint
 10
105.0983936537541
 20
177.7310733111101
 30
0.0
  0
POINT
  5
1783
330
20D
100
AcDbEntity
  8
Defpoints
 62
     0
 48
10.0
100
AcDbPoint
 10
39.09839365375407
 20
177.7310733111101
 30
0.0
  0
POINT
  5
1784
330
20D
100
AcDbEntity
  8
Defpoints
 62
     0
 48
10.0
100
AcDbPoint
 10
39.09839365375407
 20
192.9948132018637
 30
0.0
  0
ENDBLK
  5
218
330
20D
100
AcDbEntity
  8
0
 48
10.0
100
AcDbBlockEnd
  0
BLOCK
  5
225
330
21B
100
AcDbEntity
  8
0
 48
10.0
100
AcDbBlockBegin
  2
*D3
 70
     1
 10
0.0
 20
0.0
 30
0.0
  3
*D3
  1

  0
LINE
  5
1773
330
21B
100
AcDbEntity
  8
BEM
 48
10.0
370
    -2
100
AcDbLine
 10
105.0983936537541
 20
177.7310733111101
 30
0.0
 11
133.8904515175716
 21
177.7310733111101
 31
0.0
  0
LINE
  5
1774
330
21B
100
AcDbEntity
  8
BEM
 48
10.0
370
    -2
100
AcDbLine
 10
105.0983936537541
 20
121.7310733111102
 30
0.0
 11
133.8904515175716
 21
121.7310733111102
 31
0.0
  0
LINE
  5
1775
330
21B
100
AcDbEntity
  8
BEM
 48
10.0
370
    -2
100
AcDbLine
 10
132.6404515175716
 20
174.2310733111102
 30
0.0
 11
132.6404515175716
 21
125.2310733111102
 31
0.0
  0
SOLID
  5
1776
330
21B
100
AcDbEntity
  8
BEM
 48
10.0
100
AcDbTrace
 10
132.0571181842383
 20
174.2310733111102
 30
0.0
 11
133.223784850905
 21
174.2310733111102
 31
0.0
 12
132.6404515175716
 22
177.7310733111101
 32
0.0
 13
132.6404515175716
 23
177.7310733111101
 33
0.0
  0
SOLID
  5
1777
330
21B
100
AcDbEntity
  8
BEM
 48
10.0
100
AcDbTrace
 10
132.0571181842383
 20
125.2310733111102
 30
0.0
 11
133.223784850905
 21
125.2310733111102
 31
0.0
 12
132.6404515175716
 22
121.7310733111102
 32
0.0
 13
132.6404515175716
 23
121.7310733111102
 33
0.0
  0
MTEXT
  5
1778
330
21B
100
AcDbEntity
  8
BEM
 48
10.0
100
AcDbMText
 10
129.3904515175716
 20
149.7310733111102
 30
0.0
 40
3.5
 41
0.0
 71
     5
 72
     1
  1
\A1;56
 11
0.0000000000000001
 21
1.0
 31
0.0
 73
     1
 44
1.0
  0
POINT
  5
1779
330
21B
100
AcDbEntity
  8
Defpoints
 62
     0
 48
10.0
100
AcDbPoint
 10
105.0983936537541
 20
177.7310733111101
 30
0.0
  0
POINT
  5
177A
330
21B
100
AcDbEntity
  8
Defpoints
 62
     0
 48
10.0
100
AcDbPoint
 10
105.0983936537541
 20
121.7310733111102
 30
0.0
  0
POINT
  5
177B
330
21B
100
AcDbEntity
  8
Defpoints
 62
     0
 48
10.0
100
AcDbPoint
 10
132.6404515175716
 20
121.7310733111102
 30
0.0
  0
ENDBLK
  5
226
330
21B
100
AcDbEntity
  8
0
 48
10.0
100
AcDbBlockEnd
  0
BLOCK
  5
232
330
228
100
AcDbEntity
  8
0
 48
10.0
100
AcDbBlockBegin
  2
*D4
 70
     1
 10
0.0
 20
0.0
 30
0.0
  3
*D4
  1

  0
LINE
  5
176A
330
228
100
AcDbEntity
  8
BEM
 48
10.0
370
    -2
100
AcDbLine
 10
37.07770078556246
 20
149.7310733111102
 30
0.0
 11
17.59595946787366
 21
149.7310733111102
 31
0.0
  0
LINE
  5
176B
330
228
100
AcDbEntity
  8
BEM
 48
10.0
370
    -2
100
AcDbLine
 10
39.09839365375409
 20
121.7310733111101
 30
0.0
 11
17.59595946787365
 21
121.7310733111102
 31
0.0
  0
LINE
  5
176C
330
228
100
AcDbEntity
  8
BEM
 48
10.0
370
    -2
100
AcDbLine
 10
18.84595946787366
 20
146.2310733111102
 30
0.0
 11
18.84595946787365
 21
125.2310733111102
 31
0.0
  0
SOLID
  5
176D
330
228
100
AcDbEntity
  8
BEM
 48
10.0
100
AcDbTrace
 10
18.26262613454033
 20
146.2310733111102
 30
0.0
 11
19.42929280120699
 21
146.2310733111102
 31
0.0
 12
18.84595946787366
 22
149.7310733111102
 32
0.0
 13
18.84595946787366
 23
149.7310733111102
 33
0.0
  0
SOLID
  5
176E
330
228
100
AcDbEntity
  8
BEM
 48
10.0
100
AcDbTrace
 10
18.26262613454032
 20
125.2310733111102
 30
0.0
 11
19.42929280120699
 21
125.2310733111102
 31
0.0
 12
18.84595946787365
 22
121.7310733111102
 32
0.0
 13
18.84595946787365
 23
121.7310733111102
 33
0.0
  0
MTEXT
  5
176F
330
228
100
AcDbEntity
  8
BEM
 48
10.0
100
AcDbMText
 10
15.59595946787363
 20
135.7310733111102
 30
0.0
 40
3.5
 41
0.0
 71
     5
 72
     1
  1
\A1;28{}{\H0.71x;\C3;%%p0.05}
 11
0.0000000000000001
 21
1.0
 31
0.0
 73
     1
 44
1.0
  0
POINT
  5
1770
330
228
100
AcDbEntity
  8
Defpoints
 62
     0
 48
10.0
100
AcDbPoint
 10
37.07770078556246
 20
149.7310733111102
 30
0.0
  0
POINT
  5
1771
330
228
100
AcDbEntity
  8
Defpoints
 62
     0
 48
10.0
100
AcDbPoint
 10
39.09839365375409
 20
121.7310733111101
 30
0.0
  0
POINT
  5
1772
330
228
100
AcDbEntity
  8
Defpoints
 62
     0
 48
10.0
100
AcDbPoint
 10
18.84595946787365
 20
121.7310733111102
 30
0.0
  0
ENDBLK
  5
233
330
228
100
AcDbEntity
  8
0
 48
10.0
100
AcDbBlockEnd
  0
BLOCK
  5
241
330
235
100
AcDbEntity
  8
0
 48
10.0
100
AcDbBlockBegin
  2
*D5
 70
     1
 10
0.0
 20
0.0
 30
0.0
  3
*D5
  1

  0
LINE
  5
16A4
330
235
100
AcDbEntity
  8
BEM
 48
10.0
370
    -2
100
AcDbLine
 10
105.0983936537541
 20
151.7310733111102
 30
0.0
 11
118.6206982308947
 21
151.7310733111102
 31
0.0
  0
LINE
  5
16A5
330
235
100
AcDbEntity
  8
BEM
 48
10.0
370
    -2
100
AcDbLine
 10
105.0983936537541
 20
147.7310733111102
 30
0.0
 11
118.6206982308947
 21
147.7310733111102
 31
0.0
  0
LINE
  5
16A6
330
235
100
AcDbEntity
  8
BEM
 48
10.0
370
    -2
100
AcDbLine
 10
117.3706982308947
 20
155.2310733111102
 30
0.0
 11
117.3706982308947
 21
158.7310733111102
 31
0.0
  0
LINE
  5
16A7
330
235
100
AcDbEntity
  8
BEM
 48
10.0
370
    -2
100
AcDbLine
 10
117.3706982308947
 20
144.2310733111102
 30
0.0
 11
117.3706982308947
 21
135.2310733111102
 31
0.0
  0
LINE
  5
16A8
330
235
100
AcDbEntity
  8
BEM
 48
10.0
370
    -2
100
AcDbLine
 10
117.3706982308947
 20
151.7310733111102
 30
0.0
 11
117.3706982308947
 21
147.7310733111102
 31
0.0
  0
SOLID
  5
16A9
330
235
100
AcDbEntity
  8
BEM
 48
10.0
100
AcDbTrace
 10
116.7873648975614
 20
155.2310733111102
 30
0.0
 11
117.9540315642281
 21
155.2310733111102
 31
0.0
 12
117.3706982308947
 22
151.7310733111102
 32
0.0
 13
117.3706982308947
 23
151.7310733111102
 33
0.0
  0
SOLID
  5
16AA
330
235
100
AcDbEntity
  8
BEM
 48
10.0
100
AcDbTrace
 10
116.7873648975614
 20
144.2310733111102
 30
0.0
 11
117.9540315642281
 21
144.2310733111102
 31
0.0
 12
117.3706982308947
 22
147.7310733111102
 32
0.0
 13
117.3706982308947
 23
147.7310733111102
 33
0.0
  0
MTEXT
  5
16AB
330
235
100
AcDbEntity
  8
BEM
 48
10.0
100
AcDbMText
 10
114.1206982308947
 20
137.9810733111102
 30
0.0
 40
3.5
 41
0.0
 71
     5
 72
     1
  1
\A1;4
 11
0.0000000000000001
 21
1.0
 31
0.0
 73
     1
 44
1.0
  0
POINT
  5
16AC
330
235
100
AcDbEntity
  8
Defpoints
 62
     0
 48
10.0
100
AcDbPoint
 10
105.0983936537541
 20
151.7310733111102
 30
0.0
  0
POINT
  5
16AD
330
235
100
AcDbEntity
  8
Defpoints
 62
     0
 48
10.0
100
AcDbPoint
 10
105.0983936537541
 20
147.7310733111102
 30
0.0
  0
POINT
  5
16AE
330
235
100
AcDbEntity
  8
Defpoints
 62
     0
 48
10.0
100
AcDbPoint
 10
117.3706982308947
 20
147.7310733111102
 30
0.0
  0
ENDBLK
  5
242
330
235
100
AcDbEntity
  8
0
 48
10.0
100
AcDbBlockEnd
  0
BLOCK
  5
24D
330
244
100
AcDbEntity
  8
0
 48
10.0
100
AcDbBlockBegin
  2
*D6
 70
     1
 10
0.0
 20
0.0
 30
0.0
  3
*D6
  1

  0
LINE
  5
16AF
330
244
100
AcDbEntity
  8
BEM
 48
10.0
370
    -2
100
AcDbLine
 10
50.71712210564557
 20
86.37971416279901
 30
0.0
 11
64.34370037396281
 21
126.7544061869085
 31
0.0
  0
LINE
  5
16B0
330
244
100
AcDbEntity
  8
BEM
 48
10.0
370
    -2
100
AcDbLine
 10
79.85308693354531
 20
172.7077404353115
 30
0.0
 11
80.97232101516466
 21
176.0239604326189
 31
0.0
  0
MTEXT
  5
16B1
102
{ACAD_XDICTIONARY
360
17AE
102
}
330
244
100
AcDbEntity
  8
BEM
 48
10.0
100
AcDbMText
 10
51.33975260638417
 20
101.1239754290452
 30
0.0
 40
3.5
 41
0.0
 71
     5
 72
     1
  1
\A1;\U+220541.5{}{\A0;{\H1.5x;}{\A2;\H0.71x;\C3;+0.05}}
 11
0.3197811661769585
 21
0.9474914278021223
 31
0.0
 73
     1
 44
1.0
  0
LINE
  5
16B2
330
244
100
AcDbEntity
  8
BEM
 48
10.0
370
    -2
100
AcDbLine
 10
78.73385285192594
 20
169.391520438004
 30
0.0
 11
65.46293445558217
 21
130.0706261842159
 31
0.0
  0
SOLID
  5
16B3
330
244
100
AcDbEntity
  8
BEM
 48
10.0
100
AcDbTrace
 10
79.30038360066074
 20
172.8942794489147
 30
0.0
 11
80.40579026642987
 21
172.5212014217083
 31
0.0
 12
78.73385285192594
 22
169.391520438004
 32
0.0
 13
78.73385285192594
 23
169.391520438004
 33
0.0
  0
SOLID
  5
16B4
330
244
100
AcDbEntity
  8
BEM
 48
10.0
100
AcDbTrace
 10
63.79099704107824
 20
126.9409452005117
 30
0.0
 11
64.89640370684739
 21
126.5678671733053
 31
0.0
 12
65.46293445558217
 22
130.0706261842159
 32
0.0
 13
65.46293445558217
 23
130.0706261842159
 33
0.0
  0
POINT
  5
16B5
330
244
100
AcDbEntity
  8
Defpoints
 62
     0
 48
10.0
100
AcDbPoint
 10
65.46293445558217
 20
130.0706261842159
 30
0.0
  0
POINT
  5
16B6
330
244
100
AcDbEntity
  8
Defpoints
 62
     0
 48
10.0
100
AcDbPoint
 10
78.73385285192594
 20
169.391520438004
 30
0.0
  0
ENDBLK
  5
24E
330
244
100
AcDbEntity
  8
0
 48
10.0
100
AcDbBlockEnd
  0
BLOCK
  5
25A
330
250
100
AcDbEntity
  8
0
 48
10.0
100
AcDbBlockBegin
  2
*D7
 70
     1
 10
0.0
 20
0.0
 30
0.0
  3
*D7
  1

  0
LINE
  5
1785
330
250
100
AcDbEntity
  8
BEM
 48
10.0
370
    -2
100
AcDbLine
 10
225.7227924073697
 20
177.7310733111101
 30
0.0
 11
225.7227924073697
 21
194.65263659375
 31
0.0
  0
LINE
  5
1786
330
250
100
AcDbEntity
  8
BEM
 48
10.0
370
    -2
100
AcDbLine
 10
165.7227924073697
 20
177.7310733111101
 30
0.0
 11
165.7227924073697
 21
194.65263659375
 31
0.0
  0
LINE
  5
1787
330
250
100
AcDbEntity
  8
BEM
 48
10.0
370
    -2
100
AcDbLine
 10
222.2227924073698
 20
193.40263659375
 30
0.0
 11
169.2227924073697
 21
193.40263659375
 31
0.0
  0
SOLID
  5
1788
330
250
100
AcDbEntity
  8
BEM
 48
10.0
100
AcDbTrace
 10
222.2227924073698
 20
193.9859699270833
 30
0.0
 11
222.2227924073698
 21
192.8193032604166
 31
0.0
 12
225.7227924073697
 22
193.40263659375
 32
0.0
 13
225.7227924073697
 23
193.40263659375
 33
0.0
  0
SOLID
  5
1789
330
250
100
AcDbEntity
  8
BEM
 48
10.0
100
AcDbTrace
 10
169.2227924073697
 20
193.9859699270833
 30
0.0
 11
169.2227924073697
 21
192.8193032604166
 31
0.0
 12
165.7227924073697
 22
193.40263659375
 32
0.0
 13
165.7227924073697
 23
193.40263659375
 33
0.0
  0
MTEXT
  5
178A
330
250
100
AcDbEntity
  8
BEM
 48
10.0
100
AcDbMText
 10
195.7227924073697
 20
196.65263659375
 30
0.0
 40
3.5
 41
0.0
 71
     5
 72
     1
  1
\A1;60
 73
     1
 44
1.0
  0
POINT
  5
178B
330
250
100
AcDbEntity
  8
Defpoints
 62
     0
 48
10.0
100
AcDbPoint
 10
225.7227924073697
 20
177.7310733111101
 30
0.0
  0
POINT
  5
178C
330
250
100
AcDbEntity
  8
Defpoints
 62
     0
 48
10.0
100
AcDbPoint
 10
165.7227924073697
 20
177.7310733111101
 30
0.0
  0
POINT
  5
178D
330
250
100
AcDbEntity
  8
Defpoints
 62
     0
 48
10.0
100
AcDbPoint
 10
165.7227924073697
 20
193.40263659375
 30
0.0
  0
ENDBLK
  5
25B
330
250
100
AcDbEntity
  8
0
 48
10.0
100
AcDbBlockEnd
  0
BLOCK
  5
267
330
25D
100
AcDbEntity
  8
0
 48
10.0
100
AcDbBlockBegin
  2
*D8
 70
     1
 10
0.0
 20
0.0
 30
0.0
  3
*D8
  1

  0
LINE
  5
174E
330
25D
100
AcDbEntity
  8
BEM
 48
10.0
370
    -2
100
AcDbLine
 10
209.7227924073698
 20
306.583904693993
 30
0.0
 11
209.7227924073698
 21
330.2050631405136
 31
0.0
  0
LINE
  5
174F
330
25D
100
AcDbEntity
  8
BEM
 48
10.0
370
    -2
100
AcDbLine
 10
225.7227924073697
 20
309.5839046939929
 30
0.0
 11
225.7227924073697
 21
330.2050631405136
 31
0.0
  0
LINE
  5
1750
330
25D
100
AcDbEntity
  8
BEM
 48
10.0
370
    -2
100
AcDbLine
 10
213.2227924073697
 20
328.9550631405136
 30
0.0
 11
222.2227924073698
 21
328.9550631405136
 31
0.0
  0
LINE
  5
1751
330
25D
100
AcDbEntity
  8
BEM
 48
10.0
370
    -2
100
AcDbLine
 10
225.7227924073697
 20
328.9550631405136
 30
0.0
 11
245.8177924073698
 21
328.9550631405136
 31
0.0
  0
SOLID
  5
1752
330
25D
100
AcDbEntity
  8
BEM
 48
10.0
100
AcDbTrace
 10
213.2227924073697
 20
329.538396473847
 30
0.0
 11
213.2227924073697
 21
328.3717298071803
 31
0.0
 12
209.7227924073698
 22
328.9550631405136
 32
0.0
 13
209.7227924073698
 23
328.9550631405136
 33
0.0
  0
SOLID
  5
1753
330
25D
100
AcDbEntity
  8
BEM
 48
10.0
100
AcDbTrace
 10
222.2227924073698
 20
329.538396473847
 30
0.0
 11
222.2227924073698
 21
328.3717298071803
 31
0.0
 12
225.7227924073697
 22
328.9550631405136
 32
0.0
 13
225.7227924073697
 23
328.9550631405136
 33
0.0
  0
MTEXT
  5
1754
330
25D
100
AcDbEntity
  8
BEM
 48
10.0
100
AcDbMText
 10
237.5202924073698
 20
332.2050631405137
 30
0.0
 40
3.5
 41
0.0
 71
     5
 72
     1
  1
\A1;16{}{\H0.71x;\C3;%%p0.1}
 73
     1
 44
1.0
  0
POINT
  5
1755
330
25D
100
AcDbEntity
  8
Defpoints
 62
     0
 48
10.0
100
AcDbPoint
 10
209.7227924073698
 20
306.583904693993
 30
0.0
  0
POINT
  5
1756
330
25D
100
AcDbEntity
  8
Defpoints
 62
     0
 48
10.0
100
AcDbPoint
 10
225.7227924073697
 20
309.5839046939929
 30
0.0
  0
POINT
  5
1757
330
25D
100
AcDbEntity
  8
Defpoints
 62
     0
 48
10.0
100
AcDbPoint
 10
225.7227924073697
 20
328.9550631405136
 30
0.0
  0
ENDBLK
  5
268
330
25D
100
AcDbEntity
  8
0
 48
10.0
100
AcDbBlockEnd
  0
BLOCK
  5
274
330
26A
100
AcDbEntity
  8
0
 48
10.0
100
AcDbBlockBegin
  2
*D9
 70
     1
 10
0.0
 20
0.0
 30
0.0
  3
*D9
  1

  0
LINE
  5
1745
330
26A
100
AcDbEntity
  8
BEM
 48
10.0
370
    -2
100
AcDbLine
 10
209.7227924073698
 20
306.583904693993
 30
0.0
 11
209.7227924073698
 21
330.2050631405136
 31
0.0
  0
LINE
  5
1746
330
26A
100
AcDbEntity
  8
BEM
 48
10.0
370
    -2
100
AcDbLine
 10
181.7227924073697
 20
306.583904693993
 30
0.0
 11
181.7227924073697
 21
330.2050631405136
 31
0.0
  0
LINE
  5
1747
330
26A
100
AcDbEntity
  8
BEM
 48
10.0
370
    -2
100
AcDbLine
 10
206.2227924073698
 20
328.9550631405136
 30
0.0
 11
185.2227924073697
 21
328.9550631405136
 31
0.0
  0
SOLID
  5
1748
330
26A
100
AcDbEntity
  8
BEM
 48
10.0
100
AcDbTrace
 10
206.2227924073698
 20
329.538396473847
 30
0.0
 11
206.2227924073698
 21
328.3717298071803
 31
0.0
 12
209.7227924073698
 22
328.9550631405136
 32
0.0
 13
209.7227924073698
 23
328.9550631405136
 33
0.0
  0
SOLID
  5
1749
330
26A
100
AcDbEntity
  8
BEM
 48
10.0
100
AcDbTrace
 10
185.2227924073697
 20
329.538396473847
 30
0.0
 11
185.2227924073697
 21
328.3717298071803
 31
0.0
 12
181.7227924073697
 22
328.9550631405136
 32
0.0
 13
181.7227924073697
 23
328.9550631405136
 33
0.0
  0
MTEXT
  5
174A
330
26A
100
AcDbEntity
  8
BEM
 48
10.0
100
AcDbMText
 10
195.7227924073697
 20
332.2050631405137
 30
0.0
 40
3.5
 41
0.0
 71
     5
 72
     1
  1
\A1;28{}{\H0.71x;\C3;%%p0.05}
 73
     1
 44
1.0
  0
POINT
  5
174B
330
26A
100
AcDbEntity
  8
Defpoints
 62
     0
 48
10.0
100
AcDbPoint
 10
209.7227924073698
 20
306.583904693993
 30
0.0
  0
POINT
  5
174C
330
26A
100
AcDbEntity
  8
Defpoints
 62
     0
 48
10.0
100
AcDbPoint
 10
181.7227924073697
 20
306.583904693993
 30
0.0
  0
POINT
  5
174D
330
26A
100
AcDbEntity
  8
Defpoints
 62
     0
 48
10.0
100
AcDbPoint
 10
181.7227924073697
 20
328.9550631405136
 30
0.0
  0
ENDBLK
  5
275
330
26A
100
AcDbEntity
  8
0
 48
10.0
100
AcDbBlockEnd
  0
BLOCK
  5
295
330
28A
100
AcDbEntity
  8
0
 48
10.0
100
AcDbBlockBegin
  2
*D10
 70
     1
 10
0.0
 20
0.0
 30
0.0
  3
*D10
  1

  0
LINE
  5
1712
330
28A
100
AcDbEntity
  8
BEM
 48
10.0
370
    -2
100
AcDbLine
 10
195.7227924073697
 20
246.583904693993
 30
0.0
 11
195.7227924073697
 21
233.3861531772004
 31
0.0
  0
LINE
  5
1713
330
28A
100
AcDbEntity
  8
BEM
 48
10.0
370
    -2
100
AcDbLine
 10
209.7227924073698
 20
246.583904693993
 30
0.0
 11
209.7227924073698
 21
213.4451513894167
 31
0.0
  0
LINE
  5
1714
330
28A
100
AcDbEntity
  8
BEM
 48
10.0
370
    -2
100
AcDbLine
 10
199.2227924073697
 20
214.6951513894166
 30
0.0
 11
206.2227924073698
 21
214.6951513894166
 31
0.0
  0
LINE
  5
1715
330
28A
100
AcDbEntity
  8
BEM
 48
10.0
370
    -2
100
AcDbLine
 10
209.7227924073698
 20
214.6951513894166
 30
0.0
 11
232.8944590740364
 21
214.6951513894166
 31
0.0
  0
SOLID
  5
1716
330
28A
100
AcDbEntity
  8
BEM
 48
10.0
100
AcDbTrace
 10
199.2227924073697
 20
215.27848472275
 30
0.0
 11
199.2227924073697
 21
214.1118180560833
 31
0.0
 12
195.7227924073697
 22
214.6951513894166
 32
0.0
 13
195.7227924073697
 23
214.6951513894166
 33
0.0
  0
SOLID
  5
1717
330
28A
100
AcDbEntity
  8
BEM
 48
10.0
100
AcDbTrace
 10
206.2227924073698
 20
215.27848472275
 30
0.0
 11
206.2227924073698
 21
214.1118180560833
 31
0.0
 12
209.7227924073698
 22
214.6951513894166
 32
0.0
 13
209.7227924073698
 23
214.6951513894166
 33
0.0
  0
MTEXT
  5
1718
330
28A
100
AcDbEntity
  8
BEM
 48
10.0
100
AcDbMText
 10
223.0586257407031
 20
217.9451513894167
 30
0.0
 40
3.5
 41
0.0
 71
     5
 72
     1
  1
\A1;14{}{\H0.71x;\C3;%%p0.05}
 73
     1
 44
1.0
  0
POINT
  5
1719
330
28A
100
AcDbEntity
  8
Defpoints
 62
     0
 48
10.0
100
AcDbPoint
 10
195.7227924073697
 20
246.583904693993
 30
0.0
  0
POINT
  5
171A
330
28A
100
AcDbEntity
  8
Defpoints
 62
     0
 48
10.0
100
AcDbPoint
 10
209.7227924073698
 20
246.583904693993
 30
0.0
  0
POINT
  5
171B
330
28A
100
AcDbEntity
  8
Defpoints
 62
     0
 48
10.0
100
AcDbPoint
 10
209.7227924073698
 20
214.6951513894166
 30
0.0
  0
LINE
  5
171C
330
28A
100
AcDbEntity
  8
BEM
 48
10.0
370
    -2
100
AcDbLine
 10
195.7227924073697
 20
224.9344496711428
 30
0.0
 11
195.7227924073697
 21
213.4451513894167
 31
0.0
  0
ENDBLK
  5
296
330
28A
100
AcDbEntity
  8
0
 48
10.0
100
AcDbBlockEnd
  0
BLOCK
  5
2A4
330
298
100
AcDbEntity
  8
0
 48
10.0
100
AcDbBlockBegin
  2
*D11
 70
     1
 10
0.0
 20
0.0
 30
0.0
  3
*D11
  1

  0
LINE
  5
16DD
330
298
100
AcDbEntity
  8
BEM
 48
10.0
370
    -2
100
AcDbLine
 10
193.2227924073697
 20
250.583904693993
 30
0.0
 11
193.2227924073697
 21
226.3364564127824
 31
0.0
  0
LINE
  5
16DE
330
298
100
AcDbEntity
  8
BEM
 48
10.0
370
    -2
100
AcDbLine
 10
198.2227924073697
 20
250.583904693993
 30
0.0
 11
198.2227924073697
 21
226.3364564127824
 31
0.0
  0
LINE
  5
16DF
330
298
100
AcDbEntity
  8
BEM
 48
10.0
370
    -2
100
AcDbLine
 10
201.7227924073698
 20
227.5864564127823
 30
0.0
 11
205.2227924073697
 21
227.5864564127823
 31
0.0
  0
LINE
  5
16E0
330
298
100
AcDbEntity
  8
BEM
 48
10.0
370
    -2
100
AcDbLine
 10
189.7227924073697
 20
227.5864564127823
 30
0.0
 11
168.6727924073697
 21
227.5864564127823
 31
0.0
  0
LINE
  5
16E1
330
298
100
AcDbEntity
  8
BEM
 48
10.0
370
    -2
100
AcDbLine
 10
198.2227924073697
 20
227.5864564127823
 30
0.0
 11
193.2227924073697
 21
227.5864564127823
 31
0.0
  0
SOLID
  5
16E2
330
298
100
AcDbEntity
  8
BEM
 48
10.0
100
AcDbTrace
 10
201.7227924073698
 20
228.1697897461157
 30
0.0
 11
201.7227924073698
 21
227.003123079449
 31
0.0
 12
198.2227924073697
 22
227.5864564127823
 32
0.0
 13
198.2227924073697
 23
227.5864564127823
 33
0.0
  0
SOLID
  5
16E3
330
298
100
AcDbEntity
  8
BEM
 48
10.0
100
AcDbTrace
 10
189.7227924073697
 20
228.1697897461157
 30
0.0
 11
189.7227924073697
 21
227.003123079449
 31
0.0
 12
193.2227924073697
 22
227.5864564127823
 32
0.0
 13
193.2227924073697
 23
227.5864564127823
 33
0.0
  0
MTEXT
  5
16E4
330
298
100
AcDbEntity
  8
BEM
 48
10.0
100
AcDbMText
 10
176.7227924073697
 20
230.8364564127824
 30
0.0
 40
3.5
 41
0.0
 71
     5
 72
     1
  1
\A1;%%c5{}{\H0.71x;\C3; H7}
 73
     1
 44
1.0
  0
POINT
  5
16E5
330
298
100
AcDbEntity
  8
Defpoints
 62
     0
 48
10.0
100
AcDbPoint
 10
193.2227924073697
 20
250.583904693993
 30
0.0
  0
POINT
  5
16E6
330
298
100
AcDbEntity
  8
Defpoints
 62
     0
 48
10.0
100
AcDbPoint
 10
198.2227924073697
 20
250.583904693993
 30
0.0
  0
POINT
  5
16E7
330
298
100
AcDbEntity
  8
Defpoints
 62
     0
 48
10.0
100
AcDbPoint
 10
198.2227924073697
 20
227.5864564127823
 30
0.0
  0
ENDBLK
  5
2A5
330
298
100
AcDbEntity
  8
0
 48
10.0
100
AcDbBlockEnd
  0
BLOCK
  5
2B1
330
2A7
100
AcDbEntity
  8
0
 48
10.0
100
AcDbBlockBegin
  2
*D12
 70
     1
 10
0.0
 20
0.0
 30
0.0
  3
*D12
  1

  0
LINE
  5
1761
330
2A7
100
AcDbEntity
  8
BEM
 48
10.0
370
    -2
100
AcDbLine
 10
213.7227924073698
 20
302.583904693993
 30
0.0
 11
250.4231421249351
 21
302.583904693993
 31
0.0
  0
LINE
  5
1762
330
2A7
100
AcDbEntity
  8
BEM
 48
10.0
370
    -2
100
AcDbLine
 10
213.7227924073698
 20
250.583904693993
 30
0.0
 11
250.4231421249351
 21
250.583904693993
 31
0.0
  0
LINE
  5
1763
330
2A7
100
AcDbEntity
  8
BEM
 48
10.0
370
    -2
100
AcDbLine
 10
249.1731421249351
 20
299.083904693993
 30
0.0
 11
249.1731421249351
 21
254.083904693993
 31
0.0
  0
SOLID
  5
1764
330
2A7
100
AcDbEntity
  8
BEM
 48
10.0
100
AcDbTrace
 10
248.5898087916018
 20
299.083904693993
 30
0.0
 11
249.7564754582684
 21
299.083904693993
 31
0.0
 12
249.1731421249351
 22
302.583904693993
 32
0.0
 13
249.1731421249351
 23
302.583904693993
 33
0.0
  0
SOLID
  5
1765
330
2A7
100
AcDbEntity
  8
BEM
 48
10.0
100
AcDbTrace
 10
248.5898087916018
 20
254.083904693993
 30
0.0
 11
249.7564754582684
 21
254.083904693993
 31
0.0
 12
249.1731421249351
 22
250.583904693993
 32
0.0
 13
249.1731421249351
 23
250.583904693993
 33
0.0
  0
MTEXT
  5
1766
330
2A7
100
AcDbEntity
  8
BEM
 48
10.0
100
AcDbMText
 10
245.9231421249351
 20
276.583904693993
 30
0.0
 40
3.5
 41
0.0
 71
     5
 72
     1
  1
\A1;52{}{\H0.71x;\C3;%%p0.05}
 11
0.0000000000000001
 21
1.0
 31
0.0
 73
     1
 44
1.0
  0
POINT
  5
1767
330
2A7
100
AcDbEntity
  8
Defpoints
 62
     0
 48
10.0
100
AcDbPoint
 10
213.7227924073698
 20
302.583904693993
 30
0.0
  0
POINT
  5
1768
330
2A7
100
AcDbEntity
  8
Defpoints
 62
     0
 48
10.0
100
AcDbPoint
 10
213.7227924073698
 20
250.583904693993
 30
0.0
  0
POINT
  5
1769
330
2A7
100
AcDbEntity
  8
Defpoints
 62
     0
 48
10.0
100
AcDbPoint
 10
249.1731421249351
 20
250.583904693993
 30
0.0
  0
ENDBLK
  5
2B2
330
2A7
100
AcDbEntity
  8
0
 48
10.0
100
AcDbBlockEnd
  0
BLOCK
  5
2BE
330
2B4
100
AcDbEntity
  8
0
 48
10.0
100
AcDbBlockBegin
  2
*D13
 70
     1
 10
0.0
 20
0.0
 30
0.0
  3
*D13
  1

  0
LINE
  5
1758
330
2B4
100
AcDbEntity
  8
BEM
 48
10.0
370
    -2
100
AcDbLine
 10
191.7227924073697
 20
302.583904693993
 30
0.0
 11
189.5254642416698
 21
302.583904693993
 31
0.0
  0
LINE
  5
1759
330
2B4
100
AcDbEntity
  8
BEM
 48
10.0
370
    -2
100
AcDbLine
 10
191.7227924073697
 20
250.583904693993
 30
0.0
 11
189.5254642416698
 21
250.583904693993
 31
0.0
  0
LINE
  5
175A
330
2B4
100
AcDbEntity
  8
BEM
 48
10.0
370
    -2
100
AcDbLine
 10
190.7754642416698
 20
299.083904693993
 30
0.0
 11
190.7754642416698
 21
254.083904693993
 31
0.0
  0
SOLID
  5
175B
330
2B4
100
AcDbEntity
  8
BEM
 48
10.0
100
AcDbTrace
 10
190.1921309083365
 20
299.083904693993
 30
0.0
 11
191.3587975750032
 21
299.083904693993
 31
0.0
 12
190.7754642416698
 22
302.583904693993
 32
0.0
 13
190.7754642416698
 23
302.583904693993
 33
0.0
  0
SOLID
  5
175C
330
2B4
100
AcDbEntity
  8
BEM
 48
10.0
100
AcDbTrace
 10
190.1921309083365
 20
254.083904693993
 30
0.0
 11
191.3587975750032
 21
254.083904693993
 31
0.0
 12
190.7754642416698
 22
250.583904693993
 32
0.0
 13
190.7754642416698
 23
250.583904693993
 33
0.0
  0
MTEXT
  5
175D
330
2B4
100
AcDbEntity
  8
BEM
 48
10.0
100
AcDbMText
 10
187.5254642416698
 20
276.583904693993
 30
0.0
 40
3.5
 41
0.0
 71
     5
 72
     1
  1
\A1;52{}{\H0.71x;\C3;%%p0.01}
 11
0.0000000000000001
 21
1.0
 31
0.0
 73
     1
 44
1.0
  0
POINT
  5
175E
330
2B4
100
AcDbEntity
  8
Defpoints
 62
     0
 48
10.0
100
AcDbPoint
 10
191.7227924073697
 20
302.583904693993
 30
0.0
  0
POINT
  5
175F
330
2B4
100
AcDbEntity
  8
Defpoints
 62
     0
 48
10.0
100
AcDbPoint
 10
191.7227924073697
 20
250.583904693993
 30
0.0
  0
POINT
  5
1760
330
2B4
100
AcDbEntity
  8
Defpoints
 62
     0
 48
10.0
100
AcDbPoint
 10
190.7754642416698
 20
250.583904693993
 30
0.0
  0
ENDBLK
  5
2BF
330
2B4
100
AcDbEntity
  8
0
 48
10.0
100
AcDbBlockEnd
  0
BLOCK
  5
2CF
330
2C3
100
AcDbEntity
  8
0
 48
10.0
100
AcDbBlockBegin
  2
*D14
 70
     1
 10
0.0
 20
0.0
 30
0.0
  3
*D14
  1

  0
LINE
  5
171D
330
2C3
100
AcDbEntity
  8
BEM
 48
10.0
370
    -2
100
AcDbLine
 10
181.7227924073697
 20
305.083904693993
 30
0.0
 11
139.8374157331773
 21
305.083904693993
 31
0.0
  0
LINE
  5
171E
330
2C3
100
AcDbEntity
  8
BEM
 48
10.0
370
    -2
100
AcDbLine
 10
181.7227924073697
 20
300.083904693993
 30
0.0
 11
139.8374157331773
 21
300.083904693993
 31
0.0
  0
LINE
  5
171F
330
2C3
100
AcDbEntity
  8
BEM
 48
10.0
370
    -2
100
AcDbLine
 10
141.0874157331773
 20
308.583904693993
 30
0.0
 11
141.0874157331773
 21
312.083904693993
 31
0.0
  0
LINE
  5
1720
330
2C3
100
AcDbEntity
  8
BEM
 48
10.0
370
    -2
100
AcDbLine
 10
141.0874157331773
 20
296.583904693993
 30
0.0
 11
141.0874157331773
 21
283.9172380273263
 31
0.0
  0
LINE
  5
1721
330
2C3
100
AcDbEntity
  8
BEM
 48
10.0
370
    -2
100
AcDbLine
 10
141.0874157331773
 20
305.083904693993
 30
0.0
 11
141.0874157331773
 21
300.083904693993
 31
0.0
  0
SOLID
  5
1722
330
2C3
100
AcDbEntity
  8
BEM
 48
10.0
100
AcDbTrace
 10
140.5040823998439
 20
308.583904693993
 30
0.0
 11
141.6707490665106
 21
308.583904693993
 31
0.0
 12
141.0874157331773
 22
305.083904693993
 32
0.0
 13
141.0874157331773
 23
305.083904693993
 33
0.0
  0
SOLID
  5
1723
330
2C3
100
AcDbEntity
  8
BEM
 48
10.0
100
AcDbTrace
 10
140.5040823998439
 20
296.583904693993
 30
0.0
 11
141.6707490665106
 21
296.583904693993
 31
0.0
 12
141.0874157331773
 22
300.083904693993
 32
0.0
 13
141.0874157331773
 23
300.083904693993
 33
0.0
  0
MTEXT
  5
1724
330
2C3
100
AcDbEntity
  8
BEM
 48
10.0
100
AcDbMText
 10
137.8374157331773
 20
288.5005713606597
 30
0.0
 40
3.5
 41
0.0
 71
     5
 72
     1
  1
\A1;M5
 11
0.0000000000000001
 21
1.0
 31
0.0
 73
     1
 44
1.0
  0
POINT
  5
1725
330
2C3
100
AcDbEntity
  8
Defpoints
 62
     0
 48
10.0
100
AcDbPoint
 10
181.7227924073697
 20
305.083904693993
 30
0.0
  0
POINT
  5
1726
330
2C3
100
AcDbEntity
  8
Defpoints
 62
     0
 48
10.0
100
AcDbPoint
 10
181.7227924073697
 20
300.083904693993
 30
0.0
  0
POINT
  5
1727
330
2C3
100
AcDbEntity
  8
Defpoints
 62
     0
 48
10.0
100
AcDbPoint
 10
141.0874157331773
 20
300.083904693993
 30
0.0
  0
ENDBLK
  5
2D0
330
2C3
100
AcDbEntity
  8
0
 48
10.0
100
AcDbBlockEnd
  0
ENDSEC
  0
SECTION
  2
ENTITIES
  0
LINE
  5
178
330
2
100
AcDbEntity
  8
MITTE
 48
10.0
100
AcDbLine
 10
110.9915546672177
 20
180.0633060748946
 30
0.0
 11
110.9915546672177
 21
119.8128089197096
 31
0.0
  0
LINE
  5
179
330
2
100
AcDbEntity
  8
MITTE
 48
10.0
100
AcDbLine
 10
75.97086179902612
 20
149.7310733111102
 30
0.0
 11
145.8240749059112
 21
149.7310733111102
 31
0.0
  0
ARC
  5
17B
330
2
100
AcDbEntity
  8
0
 48
10.0
100
AcDbCircle
 10
110.9915546672177
 20
149.7310733111102
 30
0.0
 40
20.75
100
AcDbArc
 50
185.5310715248391
 51
354.4689284751608
  0
LINE
  5
17C
330
2
100
AcDbEntity
  8
0
 48
10.0
100
AcDbLine
 10
77.99155466721775
 20
177.7310733111101
 30
0.0
 11
143.9915546672177
 21
177.7310733111101
 31
0.0
  0
LINE
  5
17E
330
2
100
AcDbEntity
  8
0
 48
10.0
100
AcDbLine
 10
77.99155466721775
 20
121.7310733111101
 30
0.0
 11
143.9915546672177
 21
121.7310733111102
 31
0.0
  0
LINE
  5
17F
330
2
100
AcDbEntity
  8
0
 48
10.0
100
AcDbLine
 10
77.99155466721774
 20
177.7310733111101
 30
0.0
 11
77.99155466721774
 21
151.7310733111102
 31
0.0
  0
LINE
  5
180
330
2
100
AcDbEntity
  8
0
 48
10.0
100
AcDbLine
 10
143.9915546672177
 20
177.7310733111101
 30
0.0
 11
143.9915546672177
 21
151.7310733111102
 31
0.0
  0
LINE
  5
181
330
2
100
AcDbEntity
  8
0
 48
10.0
100
AcDbLine
 10
77.99155466721774
 20
151.7310733111102
 30
0.0
 11
90.33816511489488
 21
151.7310733111102
 31
0.0
  0
LINE
  5
182
330
2
100
AcDbEntity
  8
0
 48
10.0
100
AcDbLine
 10
77.99155466721774
 20
147.7310733111101
 30
0.0
 11
90.33816511489488
 21
147.7310733111101
 31
0.0
  0
LINE
  5
183
330
2
100
AcDbEntity
  8
0
 48
10.0
100
AcDbLine
 10
77.99155466721774
 20
147.7310733111101
 30
0.0
 11
77.99155466721775
 21
121.7310733111101
 31
0.0
  0
LINE
  5
184
330
2
100
AcDbEntity
  8
0
 48
10.0
100
AcDbLine
 10
131.6449442195406
 20
151.7310733111102
 30
0.0
 11
143.9915546672177
 21
151.7310733111102
 31
0.0
  0
LINE
  5
185
330
2
100
AcDbEntity
  8
0
 48
10.0
100
AcDbLine
 10
131.6449442195406
 20
147.7310733111102
 30
0.0
 11
143.9915546672177
 21
147.7310733111102
 31
0.0
  0
ARC
  5
186
330
2
100
AcDbEntity
  8
0
 48
10.0
100
AcDbCircle
 10
110.9915546672177
 20
149.7310733111102
 30
0.0
 40
20.75
100
AcDbArc
 50
5.531071524839179
 51
174.4689284751608
  0
LINE
  5
187
330
2
100
AcDbEntity
  8
0
 48
10.0
100
AcDbLine
 10
143.9915546672177
 20
147.7310733111101
 30
0.0
 11
143.9915546672177
 21
121.7310733111102
 31
0.0
  0
LINE
  5
189
330
2
100
AcDbEntity
  8
MITTE
 48
10.0
100
AcDbLine
 10
84.99155466721775
 20
179.1456042937991
 30
0.0
 11
84.99155466721775
 21
119.2759737592286
 31
0.0
  0
LINE
  5
18A
330
2
100
AcDbEntity
  8
MITTE
 48
10.0
100
AcDbLine
 10
136.9915546672177
 20
179.0322503731369
 30
0.0
 11
136.9915546672177
 21
119.6160355212155
 31
0.0
  0
LINE
  5
190
330
2
100
AcDbEntity
  8
0
 48
10.0
100
AcDbLine
 10
81.99155466721776
 20
151.7310733111102
 30
0.0
 11
81.99155466721776
 21
147.7310733111101
 31
0.0
  0
LINE
  5
191
330
2
100
AcDbEntity
  8
0
 48
10.0
100
AcDbLine
 10
87.99155466721776
 20
151.7310733111102
 30
0.0
 11
87.99155466721776
 21
147.7310733111101
 31
0.0
  0
LINE
  5
192
330
2
100
AcDbEntity
  8
0
 48
10.0
100
AcDbLine
 10
133.9915546672177
 20
151.7310733111102
 30
0.0
 11
133.9915546672177
 21
147.7310733111102
 31
0.0
  0
LINE
  5
193
330
2
100
AcDbEntity
  8
0
 48
10.0
100
AcDbLine
 10
139.9915546672177
 20
151.7310733111102
 30
0.0
 11
139.9915546672177
 21
147.7310733111102
 31
0.0
  0
LINE
  5
195
330
2
100
AcDbEntity
  8
LINIE
 48
10.0
100
AcDbLine
 10
87.34155466721777
 20
151.7310733111102
 30
0.0
 11
87.34155466721777
 21
147.7310733111101
 31
0.0
  0
LINE
  5
196
330
2
100
AcDbEntity
  8
LINIE
 48
10.0
100
AcDbLine
 10
82.64155466721778
 20
151.7310733111102
 30
0.0
 11
82.64155466721778
 21
147.7310733111101
 31
0.0
  0
LINE
  5
197
330
2
100
AcDbEntity
  8
LINIE
 48
10.0
100
AcDbLine
 10
134.6415546672178
 20
151.7310733111102
 30
0.0
 11
134.6415546672178
 21
147.7310733111102
 31
0.0
  0
LINE
  5
198
330
2
100
AcDbEntity
  8
LINIE
 48
10.0
100
AcDbLine
 10
139.3415546672177
 20
151.7310733111102
 30
0.0
 11
139.3415546672178
 21
147.7310733111102
 31
0.0
  0
LINE
  5
199
330
2
100
AcDbEntity
  8
0
 48
10.0
100
AcDbLine
 10
165.7227924073697
 20
177.7310733111101
 30
0.0
 11
225.7227924073697
 21
177.7310733111101
 31
0.0
  0
LINE
  5
19A
330
2
100
AcDbEntity
  8
0
 48
10.0
100
AcDbLine
 10
165.7227924073697
 20
151.7310733111102
 30
0.0
 11
225.7227924073697
 21
151.7310733111102
 31
0.0
  0
LINE
  5
19B
330
2
100
AcDbEntity
  8
0
 48
10.0
100
AcDbLine
 10
165.7227924073697
 20
147.7310733111101
 30
0.0
 11
225.7227924073697
 21
147.7310733111101
 31
0.0
  0
LINE
  5
19C
330
2
100
AcDbEntity
  8
0
 48
10.0
100
AcDbLine
 10
165.7227924073697
 20
121.7310733111102
 30
0.0
 11
225.7227924073697
 21
121.7310733111102
 31
0.0
  0
LINE
  5
19D
330
2
100
AcDbEntity
  8
0
 48
10.0
100
AcDbLine
 10
165.7227924073697
 20
177.7310733111101
 30
0.0
 11
165.7227924073697
 21
151.7310733111102
 31
0.0
  0
LINE
  5
19E
330
2
100
AcDbEntity
  8
0
 48
10.0
100
AcDbLine
 10
225.7227924073697
 20
177.7310733111101
 30
0.0
 11
225.7227924073697
 21
151.7310733111102
 31
0.0
  0
LINE
  5
19F
330
2
100
AcDbEntity
  8
0
 48
10.0
100
AcDbLine
 10
165.7227924073697
 20
147.7310733111101
 30
0.0
 11
165.7227924073697
 21
121.7310733111102
 31
0.0
  0
LINE
  5
1A0
330
2
100
AcDbEntity
  8
0
 48
10.0
100
AcDbLine
 10
225.7227924073697
 20
147.7310733111101
 30
0.0
 11
225.7227924073697
 21
121.7310733111102
 31
0.0
  0
LINE
  5
1A2
330
2
100
AcDbEntity
  8
MITTE
 48
10.0
100
AcDbLine
 10
162.6901697562639
 20
149.7310733111102
 30
0.0
 11
228.104082960348
 21
149.7310733111102
 31
0.0
  0
LINE
  5
1A6
330
2
100
AcDbEntity
  8
MITTE
 48
10.0
100
AcDbLine
 10
172.7227924073697
 20
179.0322503731369
 30
0.0
 11
172.7227924073697
 21
119.6160355212155
 31
0.0
  0
LINE
  5
1A7
330
2
100
AcDbEntity
  8
0
 48
10.0
100
AcDbLine
 10
175.7227924073697
 20
151.7310733111102
 30
0.0
 11
175.7227924073697
 21
147.7310733111102
 31
0.0
  0
LINE
  5
1A8
330
2
100
AcDbEntity
  8
LINIE
 48
10.0
100
AcDbLine
 10
175.0727924073697
 20
151.7310733111102
 30
0.0
 11
175.0727924073697
 21
147.7310733111102
 31
0.0
  0
LINE
  5
1A9
330
2
100
AcDbEntity
  8
0
 48
10.0
100
AcDbLine
 10
169.7227924073697
 20
151.7310733111102
 30
0.0
 11
169.7227924073697
 21
147.7310733111102
 31
0.0
  0
LINE
  5
1AA
330
2
100
AcDbEntity
  8
LINIE
 48
10.0
100
AcDbLine
 10
170.3727924073697
 20
151.7310733111102
 30
0.0
 11
170.3727924073697
 21
147.7310733111102
 31
0.0
  0
LINE
  5
1AB
330
2
100
AcDbEntity
  8
MITTE
 48
10.0
100
AcDbLine
 10
218.7227924073698
 20
179.0322503731369
 30
0.0
 11
218.7227924073698
 21
119.6160355212155
 31
0.0
  0
LINE
  5
1AC
330
2
100
AcDbEntity
  8
0
 48
10.0
100
AcDbLine
 10
221.7227924073697
 20
151.7310733111102
 30
0.0
 11
221.7227924073697
 21
147.7310733111102
 31
0.0
  0
LINE
  5
1AD
330
2
100
AcDbEntity
  8
LINIE
 48
10.0
100
AcDbLine
 10
221.0727924073698
 20
151.7310733111102
 30
0.0
 11
221.0727924073698
 21
147.7310733111102
 31
0.0
  0
LINE
  5
1AE
330
2
100
AcDbEntity
  8
0
 48
10.0
100
AcDbLine
 10
215.7227924073698
 20
151.7310733111102
 30
0.0
 11
215.7227924073698
 21
147.7310733111102
 31
0.0
  0
LINE
  5
1AF
330
2
100
AcDbEntity
  8
LINIE
 48
10.0
100
AcDbLine
 10
216.3727924073697
 20
151.7310733111102
 30
0.0
 11
216.3727924073697
 21
147.7310733111102
 31
0.0
  0
LINE
  5
1B0
330
2
100
AcDbEntity
  8
0
 48
10.0
100
AcDbLine
 10
165.7227924073697
 20
43.33954678767757
 30
0.0
 11
165.7227924073697
 21
109.3395467876776
 31
0.0
  0
LINE
  5
1B1
330
2
100
AcDbEntity
  8
0
 48
10.0
100
AcDbLine
 10
225.7227924073697
 20
109.3395467876776
 30
0.0
 11
225.7227924073697
 21
43.33954678767759
 31
0.0
  0
LINE
  5
1B3
330
2
100
AcDbEntity
  8
0
 48
10.0
100
AcDbLine
 10
165.7227924073697
 20
109.3395467876776
 30
0.0
 11
225.7227924073697
 21
109.3395467876776
 31
0.0
  0
LINE
  5
1B4
330
2
100
AcDbEntity
  8
MITTE
 48
10.0
100
AcDbLine
 10
229.3636691801673
 20
76.33954678767759
 30
0.0
 11
162.2091820538437
 21
76.33954678767759
 31
0.0
  0
LINE
  5
1B5
330
2
100
AcDbEntity
  8
0
 48
10.0
100
AcDbLine
 10
165.7227924073697
 20
43.33954678767759
 30
0.0
 11
225.7227924073697
 21
43.33954678767759
 31
0.0
  0
LINE
  5
1B8
330
2
100
AcDbEntity
  8
0
 48
10.0
100
AcDbLine
 10
165.7227924073697
 20
194.983904799456
 30
0.0
 11
165.7227924073697
 21
260.983904799456
 31
0.0
  0
LINE
  5
1B9
330
2
100
AcDbEntity
  8
0
 48
10.0
100
AcDbLine
 10
225.7227924073697
 20
260.983904799456
 30
0.0
 11
225.7227924073697
 21
194.983904799456
 31
0.0
  0
LINE
  5
1BA
330
2
100
AcDbEntity
  8
0
 48
10.0
100
AcDbLine
 10
165.7227924073697
 20
260.983904799456
 30
0.0
 11
225.7227924073697
 21
260.983904799456
 31
0.0
  0
LINE
  5
1BB
330
2
100
AcDbEntity
  8
MITTE
 48
10.0
100
AcDbLine
 10
229.3636691801673
 20
227.983904799456
 30
0.0
 11
161.60731206014
 21
227.983904799456
 31
0.0
  0
LINE
  5
1BC
330
2
100
AcDbEntity
  8
0
 48
10.0
100
AcDbLine
 10
165.7227924073697
 20
194.983904799456
 30
0.0
 11
225.7227924073697
 21
194.983904799456
 31
0.0
  0
LINE
  5
1BD
330
2
100
AcDbEntity
  8
MITTE
 48
3.0
100
AcDbLine
 10
225.7227924073697
 20
102.3395467876776
 30
0.0
 11
211.7227924073698
 21
102.3395467876776
 31
0.0
  0
LINE
  5
1C0
330
2
100
AcDbEntity
  8
MITTE
 48
3.0
100
AcDbLine
 10
218.7227924073698
 20
95.33954678767759
 30
0.0
 11
218.7227924073698
 21
109.3395467876776
 31
0.0
  0
CIRCLE
  5
1C2
330
2
100
AcDbEntity
  8
0
 48
10.0
100
AcDbCircle
 10
218.7227924073698
 20
102.3395467876776
 30
0.0
 40
5.0
  0
CIRCLE
  5
1C3
330
2
100
AcDbEntity
  8
0
 48
10.0
100
AcDbCircle
 10
218.7227924073698
 20
102.3395467876776
 30
0.0
 40
5.5
  0
LWPOLYLINE
  5
1C9
330
2
100
AcDbEntity
  8
0
 48
10.0
100
AcDbPolyline
 90
        6
 70
     1
 43
0.0
 10
217.5680918689905
 20
104.3395467876776
 10
216.4133913306113
 20
102.3395467876776
 10
217.5680918689905
 20
100.3395467876776
 10
219.877492945749
 20
100.3395467876776
 10
221.0321934841283
 20
102.3395467876776
 10
219.877492945749
 20
104.3395467876776
  0
LINE
  5
1CA
330
2
100
AcDbEntity
  8
MITTE
 48
3.0
100
AcDbLine
 10
179.7227924073697
 20
102.3395467876776
 30
0.0
 11
165.7227924073697
 21
102.3395467876776
 31
0.0
  0
LINE
  5
1CB
330
2
100
AcDbEntity
  8
MITTE
 48
3.0
100
AcDbLine
 10
172.7227924073697
 20
95.33954678767759
 30
0.0
 11
172.7227924073697
 21
109.3395467876776
 31
0.0
  0
CIRCLE
  5
1CC
330
2
100
AcDbEntity
  8
0
 48
10.0
100
AcDbCircle
 10
172.7227924073697
 20
102.3395467876776
 30
0.0
 40
5.0
  0
CIRCLE
  5
1CD
330
2
100
AcDbEntity
  8
0
 48
10.0
100
AcDbCircle
 10
172.7227924073697
 20
102.3395467876776
 30
0.0
 40
5.5
  0
LWPOLYLINE
  5
1D0
330
2
100
AcDbEntity
  8
0
 48
10.0
100
AcDbPolyline
 90
        6
 70
     1
 43
0.0
 10
171.5680918689905
 20
104.3395467876776
 10
170.4133913306112
 20
102.3395467876776
 10
171.5680918689905
 20
100.3395467876776
 10
173.877492945749
 20
100.3395467876776
 10
175.0321934841282
 20
102.3395467876776
 10
173.877492945749
 20
104.3395467876776
  0
LINE
  5
1D1
330
2
100
AcDbEntity
  8
MITTE
 48
3.0
100
AcDbLine
 10
179.7227924073697
 20
50.33954678767759
 30
0.0
 11
165.7227924073697
 21
50.33954678767759
 31
0.0
  0
LINE
  5
1D2
330
2
100
AcDbEntity
  8
MITTE
 48
3.0
100
AcDbLine
 10
172.7227924073697
 20
43.33954678767759
 30
0.0
 11
172.7227924073697
 21
57.33954678767759
 31
0.0
  0
CIRCLE
  5
1D3
330
2
100
AcDbEntity
  8
0
 48
10.0
100
AcDbCircle
 10
172.7227924073697
 20
50.33954678767759
 30
0.0
 40
5.0
  0
CIRCLE
  5
1D4
330
2
100
AcDbEntity
  8
0
 48
10.0
100
AcDbCircle
 10
172.7227924073697
 20
50.33954678767759
 30
0.0
 40
5.5
  0
LWPOLYLINE
  5
1D7
330
2
100
AcDbEntity
  8
0
 48
10.0
100
AcDbPolyline
 90
        6
 70
     1
 43
0.0
 10
171.5680918689905
 20
52.33954678767759
 10
170.4133913306112
 20
50.33954678767759
 10
171.5680918689905
 20
48.33954678767759
 10
173.877492945749
 20
48.33954678767759
 10
175.0321934841282
 20
50.33954678767759
 10
173.877492945749
 20
52.33954678767759
  0
LINE
  5
1D8
330
2
100
AcDbEntity
  8
MITTE
 48
3.0
100
AcDbLine
 10
225.7227924073697
 20
50.33954678767759
 30
0.0
 11
211.7227924073698
 21
50.33954678767759
 31
0.0
  0
LINE
  5
1D9
330
2
100
AcDbEntity
  8
MITTE
 48
3.0
100
AcDbLine
 10
218.7227924073698
 20
43.33954678767759
 30
0.0
 11
218.7227924073698
 21
57.33954678767759
 31
0.0
  0
CIRCLE
  5
1DA
330
2
100
AcDbEntity
  8
0
 48
10.0
100
AcDbCircle
 10
218.7227924073698
 20
50.33954678767759
 30
0.0
 40
5.0
  0
CIRCLE
  5
1DB
330
2
100
AcDbEntity
  8
0
 48
10.0
100
AcDbCircle
 10
218.7227924073698
 20
50.33954678767759
 30
0.0
 40
5.5
  0
LWPOLYLINE
  5
1DE
330
2
100
AcDbEntity
  8
0
 48
10.0
100
AcDbPolyline
 90
        6
 70
     1
 43
0.0
 10
217.5680918689905
 20
52.33954678767759
 10
216.4133913306113
 20
50.33954678767759
 10
217.5680918689905
 20
48.33954678767759
 10
219.877492945749
 20
48.33954678767759
 10
221.0321934841283
 20
50.33954678767759
 10
219.877492945749
 20
52.33954678767759
  0
LINE
  5
1EE
330
2
100
AcDbEntity
  8
MITTE
 48
10.0
100
AcDbLine
 10
213.7227924073698
 20
253.983904799456
 30
0.0
 11
205.7227924073698
 21
253.983904799456
 31
0.0
  0
LINE
  5
1EF
330
2
100
AcDbEntity
  8
MITTE
 48
10.0
100
AcDbLine
 10
213.7227924073698
 20
201.983904799456
 30
0.0
 11
205.7227924073698
 21
201.983904799456
 31
0.0
  0
LINE
  5
1F0
330
2
100
AcDbEntity
  8
MITTE
 48
10.0
100
AcDbLine
 10
195.7227924073697
 20
257.983904799456
 30
0.0
 11
195.7227924073697
 21
249.983904799456
 31
0.0
  0
CIRCLE
  5
1F2
330
2
100
AcDbEntity
  8
0
 48
10.0
100
AcDbCircle
 10
195.7227924073697
 20
253.983904799456
 30
0.0
 40
2.5
  0
CIRCLE
  5
1F3
330
2
100
AcDbEntity
  8
0
 48
10.0
100
AcDbCircle
 10
195.7227924073697
 20
201.983904799456
 30
0.0
 40
2.5
  0
LINE
  5
1F4
330
2
100
AcDbEntity
  8
MITTE
 48
10.0
100
AcDbLine
 10
209.7227924073698
 20
257.983904799456
 30
0.0
 11
209.7227924073698
 21
249.983904799456
 31
0.0
  0
LINE
  5
1F5
330
2
100
AcDbEntity
  8
MITTE
 48
10.0
100
AcDbLine
 10
181.7227924073697
 20
257.983904799456
 30
0.0
 11
181.7227924073697
 21
249.983904799456
 31
0.0
  0
ARC
  5
1F6
330
2
100
AcDbEntity
  8
LINIE
 48
10.0
100
AcDbCircle
 10
209.7227924073698
 20
253.983904799456
 30
0.0
 40
2.5
100
AcDbArc
 50
171.6634047776226
 51
112.2472119386735
  0
CIRCLE
  5
1F8
330
2
100
AcDbEntity
  8
0
 48
10.0
100
AcDbCircle
 10
209.7227924073698
 20
253.983904799456
 30
0.0
 40
2.0
  0
ARC
  5
1F9
330
2
100
AcDbEntity
  8
LINIE
 48
10.0
100
AcDbCircle
 10
181.7227924073697
 20
253.983904799456
 30
0.0
 40
2.5
100
AcDbArc
 50
167.784192782103
 51
108.9529870910445
  0
CIRCLE
  5
1FA
330
2
100
AcDbEntity
  8
0
 48
10.0
100
AcDbCircle
 10
181.7227924073697
 20
253.983904799456
 30
0.0
 40
2.0
  0
ARC
  5
1FB
330
2
100
AcDbEntity
  8
LINIE
 48
10.0
100
AcDbCircle
 10
181.7227924073697
 20
201.983904799456
 30
0.0
 40
2.5
100
AcDbArc
 50
168.1599359318109
 51
108.6507708249597
  0
CIRCLE
  5
1FC
330
2
100
AcDbEntity
  8
0
 48
10.0
100
AcDbCircle
 10
181.7227924073697
 20
201.983904799456
 30
0.0
 40
2.0
  0
ARC
  5
1FD
330
2
100
AcDbEntity
  8
LINIE
 48
10.0
100
AcDbCircle
 10
209.7227924073698
 20
201.983904799456
 30
0.0
 40
2.5
100
AcDbArc
 50
167.3540768310669
 51
112.9783023437654
  0
CIRCLE
  5
1FE
330
2
100
AcDbEntity
  8
0
 48
10.0
100
AcDbCircle
 10
209.7227924073698
 20
201.983904799456
 30
0.0
 40
2.0
  0
LINE
  5
205
330
2
100
AcDbEntity
  8
MITTE
 48
10.0
100
AcDbLine
 10
199.7227924073697
 20
201.983904799456
 30
0.0
 11
191.7227924073697
 21
201.983904799456
 31
0.0
  0
LINE
  5
206
330
2
100
AcDbEntity
  8
MITTE
 48
10.0
100
AcDbLine
 10
185.7227924073697
 20
201.983904799456
 30
0.0
 11
177.7227924073697
 21
201.983904799456
 31
0.0
  0
LINE
  5
207
330
2
100
AcDbEntity
  8
MITTE
 48
10.0
100
AcDbLine
 10
181.7227924073697
 20
205.983904799456
 30
0.0
 11
181.7227924073697
 21
197.983904799456
 31
0.0
  0
LINE
  5
208
330
2
100
AcDbEntity
  8
MITTE
 48
10.0
100
AcDbLine
 10
185.7227924073697
 20
253.983904799456
 30
0.0
 11
177.7227924073697
 21
253.983904799456
 31
0.0
  0
LINE
  5
209
330
2
100
AcDbEntity
  8
MITTE
 48
10.0
100
AcDbLine
 10
195.7227924073697
 20
205.983904799456
 30
0.0
 11
195.7227924073697
 21
197.983904799456
 31
0.0
  0
LINE
  5
20A
330
2
100
AcDbEntity
  8
MITTE
 48
10.0
100
AcDbLine
 10
199.7227924073697
 20
253.983904799456
 30
0.0
 11
191.7227924073697
 21
253.983904799456
 31
0.0
  0
LINE
  5
20B
330
2
100
AcDbEntity
  8
MITTE
 48
10.0
100
AcDbLine
 10
209.7227924073698
 20
205.983904799456
 30
0.0
 11
209.7227924073698
 21
197.983904799456
 31
0.0
  0
DIMENSION
  5
20C
330
2
100
AcDbEntity
  8
BEM
 48
10.0
100
AcDbDimension
  2
*D2
 10
39.09839365375407
 20
192.9948132018637
 30
0.0
 11
72.09839365375408
 21
196.2448132018637
 31
0.0
 70
    32
  1
<>
 71
     5
 42
66.00000000000003
  3
ISO-25
100
AcDbAlignedDimension
 13
105.0983936537541
 23
177.7310733111101
 33
0.0
 14
39.09839365375407
 24
177.7310733111101
 34
0.0
100
AcDbRotatedDimension
1001
ACAD
1000
DSTYLE
1002
{
1070
   144
1040
1.0
1002
}
  0
DIMENSION
  5
21A
330
2
100
AcDbEntity
  8
BEM
 48
10.0
100
AcDbDimension
  2
*D3
 10
132.6404515175716
 20
121.7310733111102
 30
0.0
 11
129.3904515175716
 21
149.7310733111102
 31
0.0
 70
    32
 71
     5
 42
55.99999999999997
  3
ISO-25
100
AcDbAlignedDimension
 13
105.0983936537541
 23
177.7310733111101
 33
0.0
 14
105.0983936537541
 24
121.7310733111102
 34
0.0
 50
90.0
100
AcDbRotatedDimension
1001
ACAD
1000
DSTYLE
1002
{
1070
   144
1040
1.0
1002
}
  0
DIMENSION
  5
227
330
2
100
AcDbEntity
  8
BEM
 48
10.0
100
AcDbDimension
  2
*D4
 10
18.84595946787365
 20
121.7310733111102
 30
0.0
 11
15.59595946787363
 21
135.7310733111102
 31
0.0
 70
    32
  1
<>{}{\H0.71x;\C3;%%p0.05}
 71
     5
 42
28.00000000000004
  3
ISO-25
100
AcDbAlignedDimension
 13
37.07770078556246
 23
149.7310733111102
 33
0.0
 14
39.09839365375409
 24
121.7310733111101
 34
0.0
 50
90.0
100
AcDbRotatedDimension
1001
ACAD_DSTYLE_DIMINSPECT
1070
   396
1000
100%
1070
   395
1000

1070
   394
1070
    33
1070
   393
1070
     0
1001
ACAD
1000
DSTYLE
1002
{
1070
   286
1070
     0
1070
   284
1070
     8
1070
   274
1070
     2
1070
   272
1070
     4
1070
    47
1040
0.05
1070
    48
1040
0.05
1070
   144
1040
1.0
1002
}
1001
GENIUS_GENDTOL_13
1000
TolSmPm
1000

1000
{\H0.71x;$2%%p$P}
1040
28.0
  0
DIMENSION
  5
234
330
2
100
AcDbEntity
  8
BEM
 48
10.0
100
AcDbDimension
  2
*D5
 10
117.3706982308947
 20
147.7310733111102
 30
0.0
 11
114.1206982308947
 21
137.9810733111102
 31
0.0
 70
    32
 71
     5
 42
4.0
  3
ISO-25
100
AcDbAlignedDimension
 13
105.0983936537541
 23
151.7310733111102
 33
0.0
 14
105.0983936537541
 24
147.7310733111102
 34
0.0
 50
90.0
100
AcDbRotatedDimension
1001
ACAD
1000
DSTYLE
1002
{
1070
   144
1040
1.0
1002
}
  0
DIMENSION
  5
243
330
2
100
AcDbEntity
  8
BEM
 48
10.0
100
AcDbDimension
  2
*D6
 10
78.73385285192594
 20
169.391520438004
 30
0.0
 11
55.24815474606793
 21
99.80487811856527
 31
0.0
 70
   163
  1
<>{}{\A0;{\H1.5x;}{\A2;\H0.71x;\C3;+0.05}}
 71
     5
 42
41.50000000000005
  3
ISO-25
100
AcDbDiametricDimension
 15
65.46293445558217
 25
130.0706261842159
 35
0.0
 40
0.0
1001
ACAD_DSTYLE_DIMINSPECT
1070
   396
1000
100%
1070
   395
1000

1070
   394
1070
    33
1070
   393
1070
     0
1001
ACAD
1000
DSTYLE
1002
{
1070
   286
1070
     0
1070
   284
1070
     8
1070
   274
1070
     2
1070
   272
1070
     4
1070
    48
1040
0.0
1070
    47
1040
0.05
1070
   144
1040
1.0
1002
}
1001
GENIUS_GENDTOL_13
1000
TolHiPm
1000
h7
1000
{\A0;{\H1.5x;}{\A2;\H0.71x;$2$+$P}}
1040
41.5
  0
DIMENSION
  5
24F
330
2
100
AcDbEntity
  8
BEM
 48
10.0
100
AcDbDimension
  2
*D7
 10
165.7227924073697
 20
193.40263659375
 30
0.0
 11
195.7227924073697
 21
196.65263659375
 31
0.0
 70
    32
 71
     5
 42
60.0
  3
ISO-25
100
AcDbAlignedDimension
 13
225.7227924073697
 23
177.7310733111101
 33
0.0
 14
165.7227924073697
 24
177.7310733111101
 34
0.0
100
AcDbRotatedDimension
1001
ACAD
1000
DSTYLE
1002
{
1070
   144
1040
1.0
1002
}
  0
DIMENSION
  5
25C
330
2
100
AcDbEntity
  8
BEM
 48
10.0
100
AcDbDimension
  2
*D8
 10
225.7227924073697
 20
328.9550631405136
 30
0.0
 11
237.5202924073698
 21
332.2050631405137
 31
0.0
 70
    32
  1
<>{}{\H0.71x;\C3;%%p0.1}
 71
     5
 42
16.0
  3
ISO-25
100
AcDbAlignedDimension
 13
209.7227924073698
 23
306.583904693993
 33
0.0
 14
225.7227924073697
 24
309.5839046939929
 34
0.0
100
AcDbRotatedDimension
1001
ACAD_DSTYLE_DIMINSPECT
1070
   396
1000
100%
1070
   395
1000

1070
   394
1070
    33
1070
   393
1070
     0
1001
ACAD
1000
DSTYLE
1002
{
1070
   286
1070
     0
1070
   284
1070
     8
1070
   274
1070
     2
1070
   272
1070
     4
1070
    47
1040
0.1
1070
    48
1040
0.1
1070
   144
1040
1.0
1002
}
1001
GENIUS_GENDTOL_13
1000
TolSmPm
1000

1000
{\H0.71x;$2%%p$P}
1040
16.0
  0
DIMENSION
  5
269
330
2
100
AcDbEntity
  8
BEM
 48
10.0
100
AcDbDimension
  2
*D9
 10
181.7227924073697
 20
328.9550631405136
 30
0.0
 11
195.7227924073697
 21
332.2050631405137
 31
0.0
 70
    32
  1
<>{}{\H0.71x;\C3;%%p0.05}
 71
     5
 42
28.0
  3
ISO-25
100
AcDbAlignedDimension
 13
209.7227924073698
 23
306.583904693993
 33
0.0
 14
181.7227924073697
 24
306.583904693993
 34
0.0
100
AcDbRotatedDimension
1001
ACAD_DSTYLE_DIMINSPECT
1070
   396
1000
100%
1070
   395
1000

1070
   394
1070
    33
1070
   393
1070
     0
1001
ACAD
1000
DSTYLE
1002
{
1070
   286
1070
     0
1070
   284
1070
     8
1070
   274
1070
     2
1070
   272
1070
     4
1070
    47
1040
0.05
1070
    48
1040
0.05
1070
   144
1040
1.0
1002
}
1001
GENIUS_GENDTOL_13
1000
TolSmPm
1000

1000
{\H0.71x;$2%%p$P}
1040
28.0
  0
DIMENSION
  5
289
102
{ACAD_XDICTIONARY
360
1706
102
}
102
{ACAD_REACTORS
330
1707
102
}
330
2
100
AcDbEntity
  8
BEM
 48
10.0
100
AcDbDimension
  2
*D10
 10
209.7227924073698
 20
214.6951513894166
 30
0.0
 11
223.0586257407031
 21
214.6951513894166
 31
0.0
 70
   160
  1
<>{}{\H0.71x;\C3;%%p0.05}
 71
     5
 42
14.0
  3
ISO-25
100
AcDbAlignedDimension
 13
195.7227924073697
 23
246.583904693993
 33
0.0
 14
209.7227924073698
 24
246.583904693993
 34
0.0
100
AcDbRotatedDimension
1001
ACAD_DSTYLE_DIMINSPECT
1070
   396
1000
100%
1070
   395
1000

1070
   394
1070
    33
1070
   393
1070
     0
1001
ACAD
1000
DSTYLE
1002
{
1070
   286
1070
     0
1070
   284
1070
     8
1070
   274
1070
     2
1070
   272
1070
     4
1070
    47
1040
0.05
1070
    48
1040
0.05
1070
   144
1040
1.0
1002
}
1001
GENIUS_GENDTOL_13
1000
TolSmPm
1000

1000
{\H0.71x;$2%%p$P}
1040
14.0
  0
DIMENSION
  5
297
330
2
100
AcDbEntity
  8
BEM
 48
10.0
100
AcDbDimension
  2
*D11
 10
198.2227924073697
 20
227.5864564127823
 30
0.0
 11
176.7227924073697
 21
227.5864564127823
 31
0.0
 70
   160
  1
%%c<>{}{\H0.71x;\C3; H7}
 71
     5
 42
5.0
  3
ISO-25
100
AcDbAlignedDimension
 13
193.2227924073697
 23
250.583904693993
 33
0.0
 14
198.2227924073697
 24
250.583904693993
 34
0.0
100
AcDbRotatedDimension
1001
ACAD_DSTYLE_DIMINSPECT
1070
   396
1000
100%
1070
   395
1000

1070
   394
1070
    33
1070
   393
1070
     0
1001
GENIUS_GENDTOL_13
1000
FitSmTxt
1000
H7
1000
{\H0.71x;$2 $T}
1040
5.0
1001
ACAD
1000
DSTYLE
1002
{
1070
   286
1070
     0
1070
   284
1070
     8
1070
   274
1070
     2
1070
   272
1070
     4
1070
    48
1040
0.0
1070
    47
1040
0.0
1070
   144
1040
1.0
1002
}
  0
DIMENSION
  5
2A6
330
2
100
AcDbEntity
  8
BEM
 48
10.0
100
AcDbDimension
  2
*D12
 10
249.1731421249351
 20
250.583904693993
 30
0.0
 11
245.9231421249351
 21
276.583904693993
 31
0.0
 70
    32
  1
<>{}{\H0.71x;\C3;%%p0.05}
 71
     5
 42
52.0
  3
ISO-25
100
AcDbAlignedDimension
 13
213.7227924073698
 23
302.583904693993
 33
0.0
 14
213.7227924073698
 24
250.583904693993
 34
0.0
 50
90.0
100
AcDbRotatedDimension
1001
ACAD_DSTYLE_DIMINSPECT
1070
   396
1000
100%
1070
   395
1000

1070
   394
1070
    33
1070
   393
1070
     0
1001
ACAD
1000
DSTYLE
1002
{
1070
   286
1070
     0
1070
   284
1070
     8
1070
   274
1070
     2
1070
   272
1070
     4
1070
    47
1040
0.05
1070
    48
1040
0.05
1070
   144
1040
1.0
1002
}
1001
GENIUS_GENDTOL_13
1000
TolSmPm
1000

1000
{\H0.71x;$2%%p$P}
1040
52.0
  0
DIMENSION
  5
2B3
330
2
100
AcDbEntity
  8
BEM
 48
10.0
100
AcDbDimension
  2
*D13
 10
190.7754642416698
 20
250.583904693993
 30
0.0
 11
187.5254642416698
 21
276.583904693993
 31
0.0
 70
    32
  1
<>{}{\H0.71x;\C3;%%p0.01}
 71
     5
 42
52.00000000000002
  3
ISO-25
100
AcDbAlignedDimension
 13
191.7227924073697
 23
302.583904693993
 33
0.0
 14
191.7227924073697
 24
250.583904693993
 34
0.0
 50
90.0
100
AcDbRotatedDimension
1001
ACAD_DSTYLE_DIMINSPECT
1070
   396
1000
100%
1070
   395
1000

1070
   394
1070
    33
1070
   393
1070
     0
1001
ACAD
1000
DSTYLE
1002
{
1070
   286
1070
     0
1070
   284
1070
     8
1070
   274
1070
     2
1070
   272
1070
     4
1070
    47
1040
0.01
1070
    48
1040
0.01
1070
   144
1040
1.0
1002
}
1001
GENIUS_GENDTOL_13
1000
TolSmPm
1000

1000
{\H0.71x;$2%%p$P}
1040
52.0
  0
DIMENSION
  5
2C2
330
2
100
AcDbEntity
  8
BEM
 48
10.0
100
AcDbDimension
  2
*D14
 10
141.0874157331773
 20
300.083904693993
 30
0.0
 11
137.8374157331773
 21
288.5005713606597
 31
0.0
 70
    32
  1
M<>
 71
     5
 42
5.0
  3
ISO-25
100
AcDbAlignedDimension
 13
181.7227924073697
 23
305.083904693993
 33
0.0
 14
181.7227924073697
 24
300.083904693993
 34
0.0
 50
90.0
100
AcDbRotatedDimension
1001
ACAD
1000
DSTYLE
1002
{
1070
   144
1040
1.0
1002
}
  0
TEXT
  5
46D
330
2
100
AcDbEntity
  8
TEXT
100
AcDbText
 10
381.8725546314985
 20
65.95747165905024
 30
0.0
 40
3.5
  1

100
AcDbText
  0
TEXT
  5
46E
330
2
100
AcDbEntity
  8
TEXT
100
AcDbText
 10
348.5921867209947
 20
56.08465571486515
 30
0.0
 40
3.5
  1

100
AcDbText
  0
TEXT
  5
46F
330
2
100
AcDbEntity
  8
LINIE
100
AcDbText
 10
295.1650830602254
 20
45.62248334516732
 30
0.0
 40
2.5
  1

100
AcDbText
  0
TEXT
  5
470
330
2
100
AcDbEntity
  8
LINIE
100
AcDbText
 10
310.4031003657155
 20
45.95580140624962
 30
0.0
 40
2.5
  1

100
AcDbText
  0
TEXT
  5
4A3
330
2
100
AcDbEntity
  8
0
100
AcDbText
 10
185.8125162035608
 20
161.3712318078648
 30
0.0
 40
5.0
  1
%%C41,5
  7
STYLE1
100
AcDbText
  0
MTEXT
  5
EC3
330
2
100
AcDbEntity
  8
BEM
 48
10.0
100
AcDbMText
 10
84.36360726281781
 20
75.63544263343044
 30
0.0
 40
5.0
 41
76.62068133002435
 71
     1
 72
     5
  1
{\fArial|b0|i0|c0|p34;4x Klemmschraube\P     clamping screw}
 73
     1
 44
1.0
1001
ACAD
1000
ACAD_MTEXT_DEFINED_HEIGHT_BEGIN
1070
    46
1040
22.62613756003259
1000
ACAD_MTEXT_DEFINED_HEIGHT_END
  0
ENDSEC
  0
SECTION
  2
OBJECTS
  0
DICTIONARY
  5
1B
330
0
100
AcDbDictionary
281
     1
  3
ACAD_2007HEADERVARS_RT
350
1798
  3
ACAD_COLOR
350
5F
  3
ACAD_GROUP
350
19
  3
ACAD_LAYOUT
350
60
  3
ACAD_MATERIAL
350
5E
  3
ACAD_MLEADERSTYLE
350
ACB
  3
ACAD_MLINESTYLE
350
1A
  3
ACAD_PLOTSETTINGS
350
61
  3
ACAD_PLOTSTYLENAME
350
5C
  3
ACAD_SCALELIST
350
AA9
  3
ACAD_TABLESTYLE
350
141
  3
ACAD_VISUALSTYLE
350
7F7
  3
ACDB_RECOMPOSE_DATA
350
AF9
  3
ACDBVARIABLEDICTIONARY
350
4D
  3
AcmDictionary
350
BC
  3
AMG
350
68
  3
AMGSNAPSETTINGS
350
F9
  3
ASE_INDEX_DICTIONARY
350
B45
  0
DICTIONARY
  5
12AE
330
B
100
AcDbDictionary
280
     1
281
     1
  3
ACAD_LAYERSTATES
360
12AF
  0
DICTIONARY
  5
AE7
330
5
100
AcDbDictionary
280
     1
281
     1
  3
ADSK_XREC_LAYER_RECONCILED
360
AE8
  0
DICTIONARY
  5
AE9
330
20
100
AcDbDictionary
280
     1
281
     1
  3
ADSK_XREC_LAYER_RECONCILED
360
AEA
  0
DICTIONARY
  5
AEB
330
26
100
AcDbDictionary
280
     1
281
     1
  3
ADSK_XREC_LAYER_RECONCILED
360
AEC
  0
DICTIONARY
  5
AED
330
28
100
AcDbDictionary
280
     1
281
     1
  3
ADSK_XREC_LAYER_RECONCILED
360
AEE
  0
DICTIONARY
  5
AEF
330
24
100
AcDbDictionary
280
     1
281
     1
  3
ADSK_XREC_LAYER_RECONCILED
360
AF0
  0
DICTIONARY
  5
3
330
2
100
AcDbDictionary
280
     1
281
     1
  3
ACAD_SORTENTS
360
17D
  0
DICTIONARY
  5
17AE
330
16B1
100
AcDbDictionary
280
     1
281
     1
  3
ACAD_MTEXT_2008_RT
360
17AF
  0
DICTIONARY
  5
1706
330
289
100
AcDbDictionary
280
     1
281
     1
  3
ACMDIMBREAKPERSREACTOR
360
1707
  0
DICTIONARY
  5
1798
102
{ACAD_REACTORS
330
1B
102
}
330
1B
100
AcDbDictionary
281
     1
  3
DIMJOGANG
350
1799
  0
DICTIONARY
  5
5F
102
{ACAD_REACTORS
330
1B
102
}
330
1B
100
AcDbDictionary
281
     1
  0
DICTIONARY
  5
19
102
{ACAD_REACTORS
330
1B
102
}
330
1B
100
AcDbDictionary
281
     1
  0
DICTIONARY
  5
60
102
{ACAD_REACTORS
330
1B
102
}
330
1B
100
AcDbDictionary
281
     1
  3
Layout1
350
63
  3
Model
350
62
  0
DICTIONARY
  5
5E
102
{ACAD_REACTORS
330
1B
102
}
330
1B
100
AcDbDictionary
281
     1
  3
ByBlock
350
7F5
  3
ByLayer
350
7F4
  3
Global
350
7F6
  0
DICTIONARY
  5
ACB
102
{ACAD_REACTORS
330
1B
102
}
330
1B
100
AcDbDictionary
281
     1
  3
Standard
350
ACC
  0
DICTIONARY
  5
1A
102
{ACAD_REACTORS
330
1B
102
}
330
1B
100
AcDbDictionary
281
     1
  3
STANDARD
350
1D
  0
DICTIONARY
  5
61
102
{ACAD_REACTORS
330
1B
102
}
330
1B
100
AcDbDictionary
281
     1
  0
ACDBDICTIONARYWDFLT
  5
5C
102
{ACAD_REACTORS
330
1B
102
}
330
1B
100
AcDbDictionary
281
     1
  3
Normal
350
5D
100
AcDbDictionaryWithDefault
340
5D
  0
DICTIONARY
  5
AA9
102
{ACAD_REACTORS
330
1B
102
}
330
1B
100
AcDbDictionary
281
     1
  3
A0
350
AAA
  3
A1
350
AAB
  3
A2
350
AAC
  3
A3
350
AAD
  3
A4
350
AAE
  3
A5
350
AAF
  3
A6
350
AB0
  3
A7
350
AB1
  3
A8
350
AB2
  3
A9
350
AB3
  3
B0
350
AB4
  3
B1
350
AB5
  3
B2
350
AB6
  3
B3
350
AB7
  3
B4
350
AB8
  3
B5
350
AB9
  3
B6
350
ABA
  3
B7
350
ABB
  3
B8
350
ABC
  3
B9
350
ABD
  3
C0
350
ABE
  3
C1
350
ABF
  3
C2
350
AC0
  3
C3
350
AC1
  3
C4
350
AC2
  3
C5
350
AC3
  3
C6
350
AC4
  3
C7
350
AC5
  3
C8
350
AC6
  3
C9
350
AC7
  3
D0
350
AC8
  3
D1
350
AC9
  3
D2
350
ACA
  0
DICTIONARY
  5
141
102
{ACAD_REACTORS
330
1B
102
}
330
1B
100
AcDbDictionary
281
     1
  3
Standard
350
142
  0
DICTIONARY
  5
7F7
102
{ACAD_REACTORS
330
1B
102
}
330
1B
100
AcDbDictionary
281
     1
  3
2dWireframe
350
7FD
  3
3D Hidden
350
7FF
  3
3dWireframe
350
7FE
  3
Basic
350
7FC
  3
Brighten
350
803
  3
ColorChange
350
807
  3
Conceptual
350
800
  3
Dim
350
802
  3
Facepattern
350
806
  3
Flat
350
7F8
  3
FlatWithEdges
350
7F9
  3
Gouraud
350
7FA
  3
GouraudWithEdges
350
7FB
  3
Linepattern
350
805
  3
Realistic
350
801
  3
Thicken
350
804
  0
XRECORD
  5
AF9
102
{ACAD_REACTORS
330
1B
102
}
330
1B
100
AcDbXrecord
280
     1
 90
        1
330
142
  0
DICTIONARY
  5
4D
102
{ACAD_REACTORS
330
1B
102
}
330
1B
100
AcDbDictionary
281
     1
  3
CANNOSCALE
350
AFC
  3
CMLEADERSTYLE
350
AFA
  3
CTABLESTYLE
350
15F
  3
INDEXCTL
350
4E
  3
LIGHTINGUNITS
350
AFD
  3
MSLTSCALE
350
AFB
  0
DICTIONARY
  5
BC
102
{ACAD_REACTORS
330
1B
102
}
330
1B
100
AcDbDictionary
281
     1
  3
AcmStdDictionary
350
C7
  3
AMDTSECTSYM_ARROWCOLOR
350
156
  0
DICTIONARY
  5
68
102
{ACAD_REACTORS
330
1B
102
}
330
1B
100
AcDbDictionary
281
     1
  0
DICTIONARY
  5
F9
102
{ACAD_REACTORS
330
1B
102
}
330
1B
100
AcDbDictionary
281
     1
  0
DICTIONARY
  5
B45
102
{ACAD_REACTORS
330
1B
102
}
330
1B
100
AcDbDictionary
281
     1
  3
ASEBlockHierarchyIndexRecord
350
B46
1001
DCO15
1040
1744359412.64
  0
DICTIONARY
  5
12AF
102
{ACAD_REACTORS
330
12AE
102
}
330
12AE
100
AcDbDictionary
281
     1
  0
XRECORD
  5
AE8
102
{ACAD_REACTORS
330
AE7
102
}
330
AE7
100
AcDbXrecord
280
     1
290
     1
  0
XRECORD
  5
AEA
102
{ACAD_REACTORS
330
AE9
102
}
330
AE9
100
AcDbXrecord
280
     1
290
     1
  0
XRECORD
  5
AEC
102
{ACAD_REACTORS
330
AEB
102
}
330
AEB
100
AcDbXrecord
280
     1
290
     1
  0
XRECORD
  5
AEE
102
{ACAD_REACTORS
330
AED
102
}
330
AED
100
AcDbXrecord
280
     1
290
     1
  0
XRECORD
  5
AF0
102
{ACAD_REACTORS
330
AEF
102
}
330
AEF
100
AcDbXrecord
280
     1
290
     1
  0
SORTENTSTABLE
  5
17D
102
{ACAD_REACTORS
330
3
102
}
330
3
100
AcDbSortentsTable
330
2
331
178
  5
178
331
1F6
  5
1FF
331
180
  5
179
331
1FE
  5
20C
331
206
  5
1D0
331
190
  5
191
331
198
  5
196
331
1D7
  5
1F5
331
1A0
  5
1A0
331
1A8
  5
1A8
331
1B0
  5
1B0
331
1EF
  5
1CC
331
4A3
  5
56E
331
179
  5
17F
331
1B8
  5
1BB
331
1C0
  5
1D7
331
181
  5
182
331
189
  5
189
331
207
  5
1C1
331
191
  5
18E
331
199
  5
199
331
1D0
  5
1EF
331
1D8
  5
1F6
331
1A9
  5
1A9
331
227
  5
234
331
1B1
  5
1B1
331
1F0
  5
1BD
331
1B9
  5
1BC
331
1F8
  5
200
331
182
  5
180
331
1C9
  5
1DA
331
18A
  5
193
331
24F
  5
25C
331
208
  5
1D3
331
192
  5
197
331
46D
  5
56F
331
19A
  5
19A
331
1D1
  5
1F0
331
2A6
  5
2B3
331
1D9
  5
1F8
331
1A2
  5
1A2
331
1AA
  5
1AA
331
17B
  5
186
331
1BA
  5
1C9
331
1C2
  5
1D8
331
183
  5
17E
331
1F9
  5
201
331
1CA
  5
1DB
331
209
  5
1BE
331
193
  5
195
331
297
  5
2A6
331
46E
  5
570
331
19B
  5
19B
331
1D2
  5
1F2
331
1DA
  5
1F9
331
1AB
  5
1AB
331
1B3
  5
1B3
331
1F2
  5
1FD
331
17C
  5
185
331
1BB
  5
1CA
331
1C3
  5
1D9
331
184
  5
183
331
1FA
  5
202
331
1CB
  5
1DE
331
20A
  5
1D2
331
46F
  5
571
331
1D3
  5
1F3
331
19C
  5
19C
331
21A
  5
227
331
1DB
  5
1FA
331
1AC
  5
1AC
331
1B4
  5
1B4
331
269
  5
289
331
EC3
  5
EC1
331
1F3
  5
1FE
331
1BC
  5
1D4
331
1FB
  5
203
331
185
  5
181
331
289
  5
297
331
1CC
  5
1E0
331
195
  5
190
331
20B
  5
1C4
331
470
  5
572
331
1D4
  5
1F4
331
19D
  5
19D
331
1AD
  5
1AD
331
1B5
  5
1BA
331
1F4
  5
1C3
331
17E
  5
184
331
1BD
  5
1B8
331
243
  5
24F
331
1FC
  5
204
331
186
  5
187
331
1CD
  5
1EE
331
196
  5
192
331
20C
  5
21A
331
19E
  5
19F
331
1A6
  5
1A6
331
1AE
  5
1AE
331
2C2
  5
46A
331
1F5
  5
1BF
331
17F
  5
17C
331
234
  5
243
331
1FD
  5
205
331
187
  5
17B
331
205
  5
1CD
331
197
  5
198
331
19F
  5
19E
331
2B3
  5
2C2
331
1DE
  5
1FC
331
1A7
  5
1A7
331
25C
  5
269
331
1AF
  5
1AF
331
1EE
  5
1D1
  0
XRECORD
  5
17AF
102
{ACAD_REACTORS
330
17AE
102
}
330
17AE
100
AcDbXrecord
280
     1
 40
111323.0
  1
\A1;\U+220541.5{}{\A0;{\H1.5x;}{\A2;\H0.71x;\C3;+0.05}}
  0
XRECORD
  5
1799
102
{ACAD_REACTORS
330
1798
102
}
330
1798
100
AcDbXrecord
280
     1
 40
1.570796326794896
  0
LAYOUT
  5
63
102
{ACAD_REACTORS
330
60
102
}
330
60
100
AcDbPlotSettings
  1

  2
HP LaserJet 5000 Series PCL6
  4

  6

 40
0.0
 41
0.0
 42
0.0
 43
0.0
 44
0.0
 45
0.0
 46
0.0
 47
0.0
 48
0.0
 49
0.0
140
0.0
141
0.0
142
1.0
143
1.0
 70
   688
 72
     0
 73
     0
 74
     5
  7
Zeich.ctb
 75
    16
147
1.0
 76
     0
 77
     2
 78
   300
148
0.0
149
0.0
100
AcDbLayout
  1
Layout1
 70
     0
 71
     1
 10
0.0
 20
0.0
 11
420.0
 21
297.0
 12
0.0
 22
0.0
 32
0.0
 14
1.000000000000000E+20
 24
1.000000000000000E+20
 34
1.000000000000000E+20
 15
-1.000000000000000E+20
 25
-1.000000000000000E+20
 35
-1.000000000000000E+20
146
0.0
 13
0.0
 23
0.0
 33
0.0
 16
1.0
 26
0.0
 36
0.0
 17
0.0
 27
1.0
 37
0.0
 76
     0
330
8
  0
LAYOUT
  5
62
102
{ACAD_REACTORS
330
60
102
}
330
60
100
AcDbPlotSettings
  1

  2
Basyouni
  4
A4
  6

 40
5.027083396911621
 41
6.551072120666503
 42
5.027084350585937
 43
5.027069091796875
 44
209.9733276367187
 45
296.9683227539062
 46
-0.0000000000000142
 47
1.202955744543402
 48
5.0
 49
15.0
140
414.0
141
301.0
142
1.0
143
1.480754466401995
 70
 11956
 72
     1
 73
     1
 74
     1
  7
Zeich.ctb
 75
     0
147
0.6753314088795867
 76
     0
 77
     2
 78
   300
148
0.0188875846667998
149
-9.98519975457475
100
AcDbLayout
  1
Model
 70
     1
 71
     0
 10
0.0
 20
0.0
 11
12.0
 21
9.0
 12
0.0
 22
0.0
 32
0.0
 14
0.0
 24
0.0
 34
0.0
 15
0.0
 25
0.0
 35
0.0
146
0.0
 13
0.0
 23
0.0
 33
0.0
 16
1.0
 26
0.0
 36
0.0
 17
0.0
 27
1.0
 37
0.0
 76
     0
330
2
331
7F2
1001
ACAD_PSEXT
1000
Basyouni
1000
HP LaserJet 2300 Series PCL 6
1000
Konstruktion
1000
CAD 1_A4
1070
     0
  0
MATERIAL
  5
7F5
102
{ACAD_XDICTIONARY
360
179D
102
}
102
{ACAD_REACTORS
330
5E
102
}
330
5E
100
AcDbMaterial
  1
ByBlock
 73
     1
 78
     1
172
     1
176
     1
270
     1
274
     1
  0
MATERIAL
  5
7F4
102
{ACAD_XDICTIONARY
360
179B
102
}
102
{ACAD_REACTORS
330
5E
102
}
330
5E
100
AcDbMaterial
  1
ByLayer
 73
     1
 78
     1
172
     1
176
     1
270
     1
274
     1
  0
MATERIAL
  5
7F6
102
{ACAD_XDICTIONARY
360
179F
102
}
102
{ACAD_REACTORS
330
5E
102
}
330
5E
100
AcDbMaterial
  1
Global
 73
     1
 78
     1
172
     1
176
     1
270
     1
274
     1
  0
MLEADERSTYLE
  5
ACC
102
{ACAD_REACTORS
330
ACB
102
}
330
ACB
100
AcDbMLeaderStyle
170
     2
171
     1
172
     0
 90
        2
 40
0.0
 41
0.0
173
     1
 91
-1056964608
340
F
 92
       -2
290
     1
 42
0.09
291
     1
 43
0.36
  3
Standard
 44
0.18
300

342
D
174
     1
178
     6
175
     1
176
     0
 93
-1056964608
 45
0.18
292
     0
297
     0
 46
0.18
 94
-1056964608
 47
1.0
 49
1.0
140
1.0
293
     1
141
0.0
294
     1
177
     0
142
1.0
295
     0
296
     0
143
0.125
1001
ACAD_MLEADERVER
1070
     2
  0
MLINESTYLE
  5
1D
102
{ACAD_REACTORS
330
1A
102
}
330
1A
100
AcDbMlineStyle
  2
STANDARD
 70
     0
  3

 62
     0
 51
90.0
 52
90.0
 71
     2
 49
0.5
 62
   256
  6
BYLAYER
 49
-0.5
 62
   256
  6
BYLAYER
  0
ACDBPLACEHOLDER
  5
5D
102
{ACAD_REACTORS
330
5C
102
}
330
5C
  0
SCALE
  5
AAA
102
{ACAD_REACTORS
330
AA9
102
}
330
AA9
100
AcDbScale
 70
     0
300
1:1
140
1.0
141
1.0
290
     1
  0
SCALE
  5
AAB
102
{ACAD_REACTORS
330
AA9
102
}
330
AA9
100
AcDbScale
 70
     0
300
1:2
140
1.0
141
2.0
290
     0
  0
SCALE
  5
AAC
102
{ACAD_REACTORS
330
AA9
102
}
330
AA9
100
AcDbScale
 70
     0
300
1:4
140
1.0
141
4.0
290
     0
  0
SCALE
  5
AAD
102
{ACAD_REACTORS
330
AA9
102
}
330
AA9
100
AcDbScale
 70
     0
300
1:5
140
1.0
141
5.0
290
     0
  0
SCALE
  5
AAE
102
{ACAD_REACTORS
330
AA9
102
}
330
AA9
100
AcDbScale
 70
     0
300
1:8
140
1.0
141
8.0
290
     0
  0
SCALE
  5
AAF
102
{ACAD_REACTORS
330
AA9
102
}
330
AA9
100
AcDbScale
 70
     0
300
1:10
140
1.0
141
10.0
290
     0
  0
SCALE
  5
AB0
102
{ACAD_REACTORS
330
AA9
102
}
330
AA9
100
AcDbScale
 70
     0
300
1:16
140
1.0
141
16.0
290
     0
  0
SCALE
  5
AB1
102
{ACAD_REACTORS
330
AA9
102
}
330
AA9
100
AcDbScale
 70
     0
300
1:20
140
1.0
141
20.0
290
     0
  0
SCALE
  5
AB2
102
{ACAD_REACTORS
330
AA9
102
}
330
AA9
100
AcDbScale
 70
     0
300
1:30
140
1.0
141
30.0
290
     0
  0
SCALE
  5
AB3
102
{ACAD_REACTORS
330
AA9
102
}
330
AA9
100
AcDbScale
 70
     0
300
1:40
140
1.0
141
40.0
290
     0
  0
SCALE
  5
AB4
102
{ACAD_REACTORS
330
AA9
102
}
330
AA9
100
AcDbScale
 70
     0
300
1:50
140
1.0
141
50.0
290
     0
  0
SCALE
  5
AB5
102
{ACAD_REACTORS
330
AA9
102
}
330
AA9
100
AcDbScale
 70
     0
300
1:100
140
1.0
141
100.0
290
     0
  0
SCALE
  5
AB6
102
{ACAD_REACTORS
330
AA9
102
}
330
AA9
100
AcDbScale
 70
     0
300
2:1
140
2.0
141
1.0
290
     0
  0
SCALE
  5
AB7
102
{ACAD_REACTORS
330
AA9
102
}
330
AA9
100
AcDbScale
 70
     0
300
4:1
140
4.0
141
1.0
290
     0
  0
SCALE
  5
AB8
102
{ACAD_REACTORS
330
AA9
102
}
330
AA9
100
AcDbScale
 70
     0
300
8:1
140
8.0
141
1.0
290
     0
  0
SCALE
  5
AB9
102
{ACAD_REACTORS
330
AA9
102
}
330
AA9
100
AcDbScale
 70
     0
300
10:1
140
10.0
141
1.0
290
     0
  0
SCALE
  5
ABA
102
{ACAD_REACTORS
330
AA9
102
}
330
AA9
100
AcDbScale
 70
     0
300
100:1
140
100.0
141
1.0
290
     0
  0
SCALE
  5
ABB
102
{ACAD_REACTORS
330
AA9
102
}
330
AA9
100
AcDbScale
 70
     0
300
1/128" = 1'-0"
140
0.0078125
141
12.0
290
     0
  0
SCALE
  5
ABC
102
{ACAD_REACTORS
330
AA9
102
}
330
AA9
100
AcDbScale
 70
     0
300
1/64" = 1'-0"
140
0.015625
141
12.0
290
     0
  0
SCALE
  5
ABD
102
{ACAD_REACTORS
330
AA9
102
}
330
AA9
100
AcDbScale
 70
     0
300
1/32" = 1'-0"
140
0.03125
141
12.0
290
     0
  0
SCALE
  5
ABE
102
{ACAD_REACTORS
330
AA9
102
}
330
AA9
100
AcDbScale
 70
     0
300
1/16" = 1'-0"
140
0.0625
141
12.0
290
     0
  0
SCALE
  5
ABF
102
{ACAD_REACTORS
330
AA9
102
}
330
AA9
100
AcDbScale
 70
     0
300
3/32" = 1'-0"
140
0.09375
141
12.0
290
     0
  0
SCALE
  5
AC0
102
{ACAD_REACTORS
330
AA9
102
}
330
AA9
100
AcDbScale
 70
     0
300
1/8" = 1'-0"
140
0.125
141
12.0
290
     0
  0
SCALE
  5
AC1
102
{ACAD_REACTORS
330
AA9
102
}
330
AA9
100
AcDbScale
 70
     0
300
3/16" = 1'-0"
140
0.1875
141
12.0
290
     0
  0
SCALE
  5
AC2
102
{ACAD_REACTORS
330
AA9
102
}
330
AA9
100
AcDbScale
 70
     0
300
1/4" = 1'-0"
140
0.25
141
12.0
290
     0
  0
SCALE
  5
AC3
102
{ACAD_REACTORS
330
AA9
102
}
330
AA9
100
AcDbScale
 70
     0
300
3/8" = 1'-0"
140
0.375
141
12.0
290
     0
  0
SCALE
  5
AC4
102
{ACAD_REACTORS
330
AA9
102
}
330
AA9
100
AcDbScale
 70
     0
300
1/2" = 1'-0"
140
0.5
141
12.0
290
     0
  0
SCALE
  5
AC5
102
{ACAD_REACTORS
330
AA9
102
}
330
AA9
100
AcDbScale
 70
     0
300
3/4" = 1'-0"
140
0.75
141
12.0
290
     0
  0
SCALE
  5
AC6
102
{ACAD_REACTORS
330
AA9
102
}
330
AA9
100
AcDbScale
 70
     0
300
1" = 1'-0"
140
1.0
141
12.0
290
     0
  0
SCALE
  5
AC7
102
{ACAD_REACTORS
330
AA9
102
}
330
AA9
100
AcDbScale
 70
     0
300
1-1/2" = 1'-0"
140
1.5
141
12.0
290
     0
  0
SCALE
  5
AC8
102
{ACAD_REACTORS
330
AA9
102
}
330
AA9
100
AcDbScale
 70
     0
300
3" = 1'-0"
140
3.0
141
12.0
290
     0
  0
SCALE
  5
AC9
102
{ACAD_REACTORS
330
AA9
102
}
330
AA9
100
AcDbScale
 70
     0
300
6" = 1'-0"
140
6.0
141
12.0
290
     0
  0
SCALE
  5
ACA
102
{ACAD_REACTORS
330
AA9
102
}
330
AA9
100
AcDbScale
 70
     0
300
1'-0" = 1'-0"
140
12.0
141
12.0
290
     0
  0
TABLESTYLE
  5
142
102
{ACAD_XDICTIONARY
360
AF7
102
}
102
{ACAD_REACTORS
330
141
102
}
330
141
100
AcDbTableStyle
  3
Standard
 70
     0
 71
     0
 40
0.06
 41
0.06
280
     0
281
     0
  7
STANDARD
140
0.18
170
     2
 62
     0
 63
     7
283
     0
274
    -2
284
     1
 64
     0
275
    -2
285
     1
 65
     0
276
    -2
286
     1
 66
     0
277
    -2
287
     1
 67
     0
278
    -2
288
     1
 68
     0
279
    -2
289
     1
 69
     0
  7
STANDARD
140
0.25
170
     5
 62
     0
 63
     7
283
     0
274
    -2
284
     1
 64
     0
275
    -2
285
     1
 65
     0
276
    -2
286
     1
 66
     0
277
    -2
287
     1
 67
     0
278
    -2
288
     1
 68
     0
279
    -2
289
     1
 69
     0
  7
STANDARD
140
0.18
170
     5
 62
     0
 63
     7
283
     0
274
    -2
284
     1
 64
     0
275
    -2
285
     1
 65
     0
276
    -2
286
     1
 66
     0
277
    -2
287
     1
 67
     0
278
    -2
288
     1
 68
     0
279
    -2
289
     1
 69
     0
  0
VISUALSTYLE
  5
7FD
102
{ACAD_REACTORS
330
7F7
102
}
330
7F7
100
AcDbVisualStyle
  2
2dWireframe
 70
     4
 71
     0
 72
     2
 73
     0
 90
        0
 40
-0.6
 41
-30.0
 62
     5
 63
     7
421
 16777215
 74
     1
 91
        4
 64
     7
 65
   257
 75
     1
175
     1
 42
1.0
 92
        0
 66
   257
 43
1.0
 76
     1
 77
     6
 78
     2
 67
     7
 79
     5
170
     0
171
     0
290
     0
174
     0
 93
        1
 44
0.0
173
     0
291
     0
 45
0.0
1001
ACAD
1000
AcDbSavedByObjectVersion
1070
     0
  0
VISUALSTYLE
  5
7FF
102
{ACAD_REACTORS
330
7F7
102
}
330
7F7
100
AcDbVisualStyle
  2
3D Hidden
 70
     6
 71
     1
 72
     2
 73
     2
 90
        0
 40
-0.6
 41
-30.0
 62
     5
 63
     7
421
 16777215
 74
     2
 91
        2
 64
     7
 65
   257
 75
     2
175
     1
 42
40.0
 92
        0
 66
   257
 43
1.0
 76
     1
 77
     6
 78
     2
 67
     7
 79
     3
170
     0
171
     0
290
     0
174
     0
 93
        1
 44
0.0
173
     0
291
     0
 45
0.0
1001
ACAD
1000
AcDbSavedByObjectVersion
1070
     0
  0
VISUALSTYLE
  5
7FE
102
{ACAD_REACTORS
330
7F7
102
}
330
7F7
100
AcDbVisualStyle
  2
3dWireframe
 70
     5
 71
     0
 72
     2
 73
     0
 90
        0
 40
-0.6
 41
-30.0
 62
     5
 63
     7
421
 16777215
 74
     1
 91
        4
 64
     7
 65
   257
 75
     1
175
     1
 42
1.0
 92
        0
 66
   257
 43
1.0
 76
     1
 77
     6
 78
     2
 67
     7
 79
     5
170
     0
171
     0
290
     0
174
     0
 93
        1
 44
0.0
173
     0
291
     0
 45
0.0
1001
ACAD
1000
AcDbSavedByObjectVersion
1070
     0
  0
VISUALSTYLE
  5
7FC
102
{ACAD_REACTORS
330
7F7
102
}
330
7F7
100
AcDbVisualStyle
  2
Basic
 70
     7
 71
     1
 72
     0
 73
     1
 90
        0
 40
-0.6
 41
-30.0
 62
     5
 63
     7
421
 16777215
 74
     0
 91
        4
 64
     7
 65
   257
 75
     1
175
     1
 42
1.0
 92
        8
 66
     7
 43
1.0
 76
     1
 77
     6
 78
     2
 67
     7
 79
     5
170
     0
171
     0
290
     0
174
     0
 93
        1
 44
0.0
173
     0
291
     1
 45
0.0
1001
ACAD
1000
AcDbSavedByObjectVersion
1070
     0
  0
VISUALSTYLE
  5
803
102
{ACAD_REACTORS
330
7F7
102
}
330
7F7
100
AcDbVisualStyle
  2
Brighten
 70
    12
 71
     2
 72
     2
 73
     0
 90
        0
 40
-0.6
 41
-30.0
 62
     5
 63
     7
421
 16777215
 74
     1
 91
        4
 64
     7
 65
   257
 75
     1
175
     1
 42
1.0
 92
        8
 66
     7
 43
1.0
 76
     1
 77
     6
 78
     2
 67
     7
 79
     5
170
     0
171
     0
290
     0
174
     0
 93
        1
 44
50.0
173
     0
291
     1
 45
0.0
1001
ACAD
1000
AcDbSavedByObjectVersion
1070
     0
  0
VISUALSTYLE
  5
807
102
{ACAD_REACTORS
330
7F7
102
}
330
7F7
100
AcDbVisualStyle
  2
ColorChange
 70
    16
 71
     2
 72
     2
 73
     3
 90
        0
 40
-0.6
 41
-30.0
 62
     5
 63
     8
421
  8421504
 74
     1
 91
        4
 64
     7
 65
   257
 75
     1
175
     1
 42
1.0
 92
        8
 66
     8
424
  8421504
 43
1.0
 76
     1
 77
     6
 78
     2
 67
     7
 79
     5
170
     0
171
     0
290
     0
174
     0
 93
        1
 44
0.0
173
     0
291
     1
 45
0.0
1001
ACAD
1000
AcDbSavedByObjectVersion
1070
     0
  0
VISUALSTYLE
  5
800
102
{ACAD_REACTORS
330
7F7
102
}
330
7F7
100
AcDbVisualStyle
  2
Conceptual
 70
     9
 71
     3
 72
     2
 73
     0
 90
        0
 40
-0.6
 41
-30.0
 62
     5
 63
     7
421
 16777215
 74
     2
 91
        2
 64
     7
 65
   257
 75
     1
175
     1
 42
40.0
 92
        8
 66
     7
 43
1.0
 76
     1
 77
     6
 78
     2
 67
     7
 79
     3
170
     0
171
     0
290
     0
174
     0
 93
        1
 44
0.0
173
     0
291
     0
 45
0.0
1001
ACAD
1000
AcDbSavedByObjectVersion
1070
     0
  0
VISUALSTYLE
  5
802
102
{ACAD_REACTORS
330
7F7
102
}
330
7F7
100
AcDbVisualStyle
  2
Dim
 70
    11
 71
     2
 72
     2
 73
     0
 90
        0
 40
-0.6
 41
-30.0
 62
     5
 63
     7
421
 16777215
 74
     1
 91
        4
 64
     7
 65
   257
 75
     1
175
     1
 42
1.0
 92
        8
 66
     7
 43
1.0
 76
     1
 77
     6
 78
     2
 67
     7
 79
     5
170
     0
171
     0
290
     0
174
     0
 93
        1
 44
-50.0
173
     0
291
     1
 45
0.0
1001
ACAD
1000
AcDbSavedByObjectVersion
1070
     0
  0
VISUALSTYLE
  5
806
102
{ACAD_REACTORS
330
7F7
102
}
330
7F7
100
AcDbVisualStyle
  2
Facepattern
 70
    15
 71
     2
 72
     2
 73
     0
 90
        0
 40
-0.6
 41
-30.0
 62
     5
 63
     7
421
 16777215
 74
     1
 91
        4
 64
     7
 65
   257
 75
     1
175
     1
 42
1.0
 92
        8
 66
     7
 43
1.0
 76
     1
 77
     6
 78
     2
 67
     7
 79
     5
170
     0
171
     0
290
     0
174
     0
 93
        1
 44
0.0
173
     0
291
     1
 45
0.0
1001
ACAD
1000
AcDbSavedByObjectVersion
1070
     0
  0
VISUALSTYLE
  5
7F8
102
{ACAD_REACTORS
330
7F7
102
}
330
7F7
100
AcDbVisualStyle
  2
Flat
 70
     0
 71
     2
 72
     1
 73
     1
 90
        2
 40
-0.6
 41
30.0
 62
     5
 63
     7
421
 16777215
 74
     0
 91
        4
 64
     7
 65
   257
 75
     1
175
     1
 42
1.0
 92
        8
 66
     7
 43
1.0
 76
     1
 77
     6
 78
     2
 67
     7
 79
     5
170
     0
171
     0
290
     0
174
     0
 93
       13
 44
0.0
173
     0
291
     1
 45
0.0
1001
ACAD
1000
AcDbSavedByObjectVersion
1070
     0
  0
VISUALSTYLE
  5
7F9
102
{ACAD_REACTORS
330
7F7
102
}
330
7F7
100
AcDbVisualStyle
  2
FlatWithEdges
 70
     1
 71
     2
 72
     1
 73
     1
 90
        2
 40
-0.6
 41
30.0
 62
     5
 63
     7
421
 16777215
 74
     1
 91
        4
 64
     7
 65
   257
 75
     1
175
     1
 42
1.0
 92
        0
 66
   257
 43
1.0
 76
     1
 77
     6
 78
     2
 67
     7
 79
     5
170
     0
171
     0
290
     0
174
     0
 93
       13
 44
0.0
173
     0
291
     1
 45
0.0
1001
ACAD
1000
AcDbSavedByObjectVersion
1070
     0
  0
VISUALSTYLE
  5
7FA
102
{ACAD_REACTORS
330
7F7
102
}
330
7F7
100
AcDbVisualStyle
  2
Gouraud
 70
     2
 71
     2
 72
     2
 73
     1
 90
        2
 40
-0.6
 41
30.0
 62
     5
 63
     7
421
 16777215
 74
     0
 91
        4
 64
     7
 65
   257
 75
     1
175
     1
 42
1.0
 92
        0
 66
     7
 43
1.0
 76
     1
 77
     6
 78
     2
 67
     7
 79
     5
170
     0
171
     0
290
     0
174
     0
 93
       13
 44
0.0
173
     0
291
     1
 45
0.0
1001
ACAD
1000
AcDbSavedByObjectVersion
1070
     0
  0
VISUALSTYLE
  5
7FB
102
{ACAD_REACTORS
330
7F7
102
}
330
7F7
100
AcDbVisualStyle
  2
GouraudWithEdges
 70
     3
 71
     2
 72
     2
 73
     1
 90
        2
 40
-0.6
 41
30.0
 62
     5
 63
     7
421
 16777215
 74
     1
 91
        4
 64
     7
 65
   257
 75
     1
175
     1
 42
1.0
 92
        0
 66
   257
 43
1.0
 76
     1
 77
     6
 78
     2
 67
     7
 79
     5
170
     0
171
     0
290
     0
174
     0
 93
       13
 44
0.0
173
     0
291
     1
 45
0.0
1001
ACAD
1000
AcDbSavedByObjectVersion
1070
     0
  0
VISUALSTYLE
  5
805
102
{ACAD_REACTORS
330
7F7
102
}
330
7F7
100
AcDbVisualStyle
  2
Linepattern
 70
    14
 71
     2
 72
     2
 73
     0
 90
        0
 40
-0.6
 41
-30.0
 62
     5
 63
     7
421
 16777215
 74
     1
 91
        4
 64
     7
 65
   257
 75
     7
175
     7
 42
1.0
 92
        8
 66
     7
 43
1.0
 76
     1
 77
     6
 78
     2
 67
     7
 79
     5
170
     0
171
     0
290
     0
174
     0
 93
        1
 44
0.0
173
     0
291
     1
 45
0.0
1001
ACAD
1000
AcDbSavedByObjectVersion
1070
     0
  0
VISUALSTYLE
  5
801
102
{ACAD_REACTORS
330
7F7
102
}
330
7F7
100
AcDbVisualStyle
  2
Realistic
 70
     8
 71
     2
 72
     2
 73
     0
 90
        0
 40
-0.6
 41
-30.0
 62
     5
 63
     7
421
 16777215
 74
     1
 91
        0
 64
     7
 65
   257
 75
     1
175
     1
 42
1.0
 92
        8
 66
     8
424
  7895160
 43
1.0
 76
     1
 77
     6
 78
     2
 67
     7
 79
     5
170
     0
171
     0
290
     0
174
     0
 93
       13
 44
0.0
173
     0
291
     0
 45
0.0
1001
ACAD
1000
AcDbSavedByObjectVersion
1070
     0
  0
VISUALSTYLE
  5
804
102
{ACAD_REACTORS
330
7F7
102
}
330
7F7
100
AcDbVisualStyle
  2
Thicken
 70
    13
 71
     2
 72
     2
 73
     0
 90
        0
 40
-0.6
 41
-30.0
 62
     5
 63
     7
421
 16777215
 74
     1
 91
        4
 64
     7
 65
   257
 75
     1
175
     1
 42
1.0
 92
       12
 66
     7
 43
1.0
 76
     1
 77
     6
 78
     2
 67
     7
 79
     5
170
     0
171
     0
290
     0
174
     0
 93
        1
 44
0.0
173
     0
291
     1
 45
0.0
1001
ACAD
1000
AcDbSavedByObjectVersion
1070
     0
  0
DICTIONARYVAR
  5
AFC
102
{ACAD_REACTORS
330
4D
102
}
330
4D
100
DictionaryVariables
280
     0
  1
1:1
  0
DICTIONARYVAR
  5
AFA
102
{ACAD_REACTORS
330
4D
102
}
330
4D
100
DictionaryVariables
280
     0
  1
STANDARD
  0
DICTIONARYVAR
  5
15F
102
{ACAD_REACTORS
330
4D
102
}
330
4D
100
DictionaryVariables
280
     0
  1
STANDARD
  0
DICTIONARYVAR
  5
4E
102
{ACAD_REACTORS
330
4D
102
}
330
4D
100
DictionaryVariables
280
     0
  1
1
  0
DICTIONARYVAR
  5
AFD
102
{ACAD_REACTORS
330
4D
102
}
330
4D
100
DictionaryVariables
280
     0
  1
0
  0
DICTIONARYVAR
  5
AFB
102
{ACAD_REACTORS
330
4D
102
}
330
4D
100
DictionaryVariables
280
     0
  1
0
  0
DICTIONARY
  5
C7
102
{ACAD_REACTORS
330
BC
102
}
330
BC
100
AcDbDictionary
281
     1
  0
XRECORD
  5
156
102
{ACAD_REACTORS
330
BC
102
}
330
BC
100
AcDbXrecord
280
     1
 90
-1023410169
  0
XRECORD
  5
B46
102
{ACAD_REACTORS
330
B45
102
}
330
B45
100
AcDbXrecord
280
     1
330
CCC
  0
DICTIONARY
  5
179D
330
7F5
100
AcDbDictionary
280
     1
281
     1
  3
ACAD_XREC_ROUNDTRIP
360
179E
  0
DICTIONARY
  5
179B
330
7F4
100
AcDbDictionary
280
     1
281
     1
  3
ACAD_XREC_ROUNDTRIP
360
179C
  0
DICTIONARY
  5
179F
330
7F6
100
AcDbDictionary
280
     1
281
     1
  3
ACAD_XREC_ROUNDTRIP
360
17A0
  0
DICTIONARY
  5
AF7
330
142
100
AcDbDictionary
280
     1
281
     1
  3
ACAD_ROUNDTRIP_2008_TABLESTYLE_CELLSTYLEMAP
360
1797
  3
ACAD_XREC_ROUNDTRIP
360
179A
  0
XRECORD
  5
179E
102
{ACAD_REACTORS
330
179D
102
}
330
179D
100
AcDbXrecord
280
     1
102
MATERIAL
148
0.0
149
0.0
149
0.0
 93
        0
 94
       63
282
     0
 72
     1
 77
     1
171
     1
175
     1
179
     1
273
     0
  0
XRECORD
  5
179C
102
{ACAD_REACTORS
330
179B
102
}
330
179B
100
AcDbXrecord
280
     1
102
MATERIAL
148
0.0
149
0.0
149
0.0
 93
        0
 94
       63
282
     0
 72
     1
 77
     1
171
     1
175
     1
179
     1
273
     0
  0
XRECORD
  5
17A0
102
{ACAD_REACTORS
330
179F
102
}
330
179F
100
AcDbXrecord
280
     1
102
MATERIAL
148
0.0
149
0.0
149
0.0
 93
        0
 94
       63
282
     0
 72
     1
 77
     1
171
     1
175
     1
179
     1
273
     0
  0
CELLSTYLEMAP
  5
1797
102
{ACAD_REACTORS
330
AF7
102
}
330
AF7
100
AcDbCellStyleMap
 90
        3
300
CELLSTYLE
  1
TABLEFORMAT_BEGIN
 90
        5
170
     1
 91
        0
 92
    32768
 62
   257
 93
        1
300
CONTENTFORMAT
  1
CONTENTFORMAT_BEGIN
 90
        0
 91
        0
 92
        4
 93
        0
300

 40
0.0
140
1.0
 94
        5
 62
     0
340
D
144
0.25
309
CONTENTFORMAT_END
171
     0
 94
        6
 95
        1
302
GRIDFORMAT
  1
GRIDFORMAT_BEGIN
 90
        0
 91
        1
 62
     0
 92
       -2
340
0
 93
        0
 40
0.045
309
GRIDFORMAT_END
 95
        2
302
GRIDFORMAT
  1
GRIDFORMAT_BEGIN
 90
        0
 91
        1
 62
     0
 92
       -2
340
0
 93
        0
 40
0.045
309
GRIDFORMAT_END
 95
        4
302
GRIDFORMAT
  1
GRIDFORMAT_BEGIN
 90
        0
 91
        1
 62
     0
 92
       -2
340
0
 93
        0
 40
0.045
309
GRIDFORMAT_END
 95
        8
302
GRIDFORMAT
  1
GRIDFORMAT_BEGIN
 90
        0
 91
        1
 62
     0
 92
       -2
340
0
 93
        0
 40
0.045
309
GRIDFORMAT_END
 95
       16
302
GRIDFORMAT
  1
GRIDFORMAT_BEGIN
 90
        0
 91
        1
 62
     0
 92
       -2
340
0
 93
        0
 40
0.045
309
GRIDFORMAT_END
 95
       32
302
GRIDFORMAT
  1
GRIDFORMAT_BEGIN
 90
        0
 91
        1
 62
     0
 92
       -2
340
0
 93
        0
 40
0.045
309
GRIDFORMAT_END
309
TABLEFORMAT_END
  1
CELLSTYLE_BEGIN
 90
        1
 91
        1
300
_TITLE
309
CELLSTYLE_END
300
CELLSTYLE
  1
TABLEFORMAT_BEGIN
 90
        5
170
     1
 91
        0
 92
        0
 62
   257
 93
        1
300
CONTENTFORMAT
  1
CONTENTFORMAT_BEGIN
 90
        0
 91
        0
 92
        4
 93
        0
300

 40
0.0
140
1.0
 94
        5
 62
     0
340
D
144
0.18
309
CONTENTFORMAT_END
171
     0
 94
        6
 95
        1
302
GRIDFORMAT
  1
GRIDFORMAT_BEGIN
 90
        0
 91
        1
 62
     0
 92
       -2
340
0
 93
        0
 40
0.045
309
GRIDFORMAT_END
 95
        2
302
GRIDFORMAT
  1
GRIDFORMAT_BEGIN
 90
        0
 91
        1
 62
     0
 92
       -2
340
0
 93
        0
 40
0.045
309
GRIDFORMAT_END
 95
        4
302
GRIDFORMAT
  1
GRIDFORMAT_BEGIN
 90
        0
 91
        1
 62
     0
 92
       -2
340
0
 93
        0
 40
0.045
309
GRIDFORMAT_END
 95
        8
302
GRIDFORMAT
  1
GRIDFORMAT_BEGIN
 90
        0
 91
        1
 62
     0
 92
       -2
340
0
 93
        0
 40
0.045
309
GRIDFORMAT_END
 95
       16
302
GRIDFORMAT
  1
GRIDFORMAT_BEGIN
 90
        0
 91
        1
 62
     0
 92
       -2
340
0
 93
        0
 40
0.045
309
GRIDFORMAT_END
 95
       32
302
GRIDFORMAT
  1
GRIDFORMAT_BEGIN
 90
        0
 91
        1
 62
     0
 92
       -2
340
0
 93
        0
 40
0.045
309
GRIDFORMAT_END
309
TABLEFORMAT_END
  1
CELLSTYLE_BEGIN
 90
        2
 91
        1
300
_HEADER
309
CELLSTYLE_END
300
CELLSTYLE
  1
TABLEFORMAT_BEGIN
 90
        5
170
     1
 91
        0
 92
        0
 62
   257
 93
        1
300
CONTENTFORMAT
  1
CONTENTFORMAT_BEGIN
 90
        0
 91
        0
 92
        4
 93
        0
300

 40
0.0
140
1.0
 94
        2
 62
     0
340
D
144
0.18
309
CONTENTFORMAT_END
171
     0
 94
        6
 95
        1
302
GRIDFORMAT
  1
GRIDFORMAT_BEGIN
 90
        0
 91
        1
 62
     0
 92
       -2
340
0
 93
        0
 40
0.045
309
GRIDFORMAT_END
 95
        2
302
GRIDFORMAT
  1
GRIDFORMAT_BEGIN
 90
        0
 91
        1
 62
     0
 92
       -2
340
0
 93
        0
 40
0.045
309
GRIDFORMAT_END
 95
        4
302
GRIDFORMAT
  1
GRIDFORMAT_BEGIN
 90
        0
 91
        1
 62
     0
 92
       -2
340
0
 93
        0
 40
0.045
309
GRIDFORMAT_END
 95
        8
302
GRIDFORMAT
  1
GRIDFORMAT_BEGIN
 90
        0
 91
        1
 62
     0
 92
       -2
340
0
 93
        0
 40
0.045
309
GRIDFORMAT_END
 95
       16
302
GRIDFORMAT
  1
GRIDFORMAT_BEGIN
 90
        0
 91
        1
 62
     0
 92
       -2
340
0
 93
        0
 40
0.045
309
GRIDFORMAT_END
 95
       32
302
GRIDFORMAT
  1
GRIDFORMAT_BEGIN
 90
        0
 91
        1
 62
     0
 92
       -2
340
0
 93
        0
 40
0.045
309
GRIDFORMAT_END
309
TABLEFORMAT_END
  1
CELLSTYLE_BEGIN
 90
        3
 91
        2
300
_DATA
309
CELLSTYLE_END
  0
XRECORD
  5
179A
102
{ACAD_REACTORS
330
AF7
102
}
330
AF7
100
AcDbXrecord
280
     1
102
ACAD_ROUNDTRIP_PRE2007_TABLESTYLE
 90
        4
 91
        0
  1

 92
        4
 93
        0
  2

 94
        4
 95
        0
  3

  0
ENDSEC
  0
EOF
