  0
SECTION
  2
HEADER
  9
$ACADVER
  1
AC1021
  9
$ACADMAINTVER
 70
    26
  9
$DWGCODEPAGE
  3
ANSI_1252
  9
$LASTSAVEDBY
  1
ibasyouni
  9
$INSBASE
 10
0.0
 20
0.0
 30
0.0
  9
$EXTMIN
 10
440.637362719083
 20
264.5910203935491
 30
0.0
  9
$EXTMAX
 10
976.9129392546428
 20
354.5163144401501
 30
0.0
  9
$LIMMIN
 10
0.0
 20
0.0
  9
$LIMMAX
 10
1400.0
 20
600.0
  9
$ORTHOMODE
 70
     1
  9
$REGENMODE
 70
     1
  9
$FILLMODE
 70
     1
  9
$QTEXTMODE
 70
     0
  9
$MIRRTEXT
 70
     1
  9
$LTSCALE
 40
1.0
  9
$ATTMODE
 70
     1
  9
$TEXTSIZE
 40
20.0
  9
$TRACEWID
 40
1.0
  9
$TEXTSTYLE
  7
STANDARD
  9
$CLAYER
  8
0
  9
$CELTYPE
  6
BYLAYER
  9
$CECOLOR
 62
   256
  9
$CELTSCALE
 40
10.0
  9
$DISPSILH
 70
     0
  9
$DIMSCALE
 40
1.0
  9
$DIMASZ
 40
3.5
  9
$DIMEXO
 40
0.0
  9
$DIMDLI
 40
7.0
  9
$DIMRND
 40
0.0
  9
$DIMDLE
 40
0.0
  9
$DIMEXE
 40
1.25
  9
$DIMTP
 40
0.0
  9
$DIMTM
 40
0.0
  9
$DIMTXT
 40
3.5
  9
$DIMCEN
 40
0.0
  9
$DIMTSZ
 40
0.0
  9
$DIMTOL
 70
     0
  9
$DIMLIM
 70
     0
  9
$DIMTIH
 70
     0
  9
$DIMTOH
 70
     0
  9
$DIMSE1
 70
     0
  9
$DIMSE2
 70
     0
  9
$DIMTAD
 70
     1
  9
$DIMZIN
 70
     8
  9
$DIMBLK
  1

  9
$DIMASO
 70
     1
  9
$DIMSHO
 70
     1
  9
$DIMPOST
  1

  9
$DIMAPOST
  1

  9
$DIMALT
 70
     0
  9
$DIMALTD
 70
     2
  9
$DIMALTF
 40
0.0394
  9
$DIMLFAC
 40
1.0
  9
$DIMTOFL
 70
     1
  9
$DIMTVP
 40
1.0
  9
$DIMTIX
 70
     0
  9
$DIMSOXD
 70
     0
  9
$DIMSAH
 70
     0
  9
$DIMBLK1
  1

  9
$DIMBLK2
  1

  9
$DIMSTYLE
  2
ISO-25
  9
$DIMCLRD
 70
   256
  9
$DIMCLRE
 70
   256
  9
$DIMCLRT
 70
   256
  9
$DIMTFAC
 40
1.0
  9
$DIMGAP
 40
1.5
  9
$DIMJUST
 70
     0
  9
$DIMSD1
 70
     0
  9
$DIMSD2
 70
     0
  9
$DIMTOLJ
 70
     1
  9
$DIMTZIN
 70
     8
  9
$DIMALTZ
 70
     0
  9
$DIMALTTZ
 70
     0
  9
$DIMUPT
 70
     1
  9
$DIMDEC
 70
     4
  9
$DIMTDEC
 70
     4
  9
$DIMALTU
 70
     2
  9
$DIMALTTD
 70
     2
  9
$DIMTXSTY
  7
STANDARD
  9
$DIMAUNIT
 70
     0
  9
$DIMADEC
 70
     0
  9
$DIMALTRND
 40
0.0
  9
$DIMAZIN
 70
     0
  9
$DIMDSEP
 70
    46
  9
$DIMATFIT
 70
     3
  9
$DIMFRAC
 70
     0
  9
$DIMLDRBLK
  1

  9
$DIMLUNIT
 70
     2
  9
$DIMLWD
 70
    -2
  9
$DIMLWE
 70
    -2
  9
$DIMTMOVE
 70
     0
  9
$DIMFXL
 40
1.0
  9
$DIMFXLON
 70
     0
  9
$DIMJOGANG
 40
0.7853981633974483
  9
$DIMTFILL
 70
     0
  9
$DIMTFILLCLR
 70
     0
  9
$DIMARCSYM
 70
     0
  9
$DIMLTYPE
  6

  9
$DIMLTEX1
  6

  9
$DIMLTEX2
  6

  9
$LUNITS
 70
     2
  9
$LUPREC
 70
     2
  9
$SKETCHINC
 40
1.0
  9
$FILLETRAD
 40
2.5
  9
$AUNITS
 70
     0
  9
$AUPREC
 70
     0
  9
$MENU
  1
.
  9
$ELEVATION
 40
0.0
  9
$PELEVATION
 40
0.0
  9
$THICKNESS
 40
0.0
  9
$LIMCHECK
 70
     0
  9
$CHAMFERA
 40
2.5
  9
$CHAMFERB
 40
2.5
  9
$CHAMFERC
 40
0.0
  9
$CHAMFERD
 40
0.0
  9
$SKPOLY
 70
     0
  9
$TDCREATE
 40
2450382.432057130
  9
$TDUCREATE
 40
2450382.348723796
  9
$TDUPDATE
 40
2456055.537576760
  9
$TDUUPDATE
 40
2456055.454243426
  9
$TDINDWG
 40
1.9819959954
  9
$TDUSRTIMER
 40
1.9819959954
  9
$USRTIMER
 70
     1
  9
$ANGBASE
 50
0.0
  9
$ANGDIR
 70
     0
  9
$PDMODE
 70
     0
  9
$PDSIZE
 40
0.0
  9
$PLINEWID
 40
0.0
  9
$SPLFRAME
 70
     0
  9
$SPLINETYPE
 70
     6
  9
$SPLINESEGS
 70
     8
  9
$HANDSEED
  5
8F06
  9
$SURFTAB1
 70
     6
  9
$SURFTAB2
 70
     6
  9
$SURFTYPE
 70
     6
  9
$SURFU
 70
     6
  9
$SURFV
 70
     6
  9
$UCSBASE
  2

  9
$UCSNAME
  2

  9
$UCSORG
 10
0.0
 20
0.0
 30
0.0
  9
$UCSXDIR
 10
1.0
 20
0.0
 30
0.0
  9
$UCSYDIR
 10
0.0
 20
1.0
 30
0.0
  9
$UCSORTHOREF
  2

  9
$UCSORTHOVIEW
 70
     0
  9
$UCSORGTOP
 10
0.0
 20
0.0
 30
0.0
  9
$UCSORGBOTTOM
 10
0.0
 20
0.0
 30
0.0
  9
$UCSORGLEFT
 10
0.0
 20
0.0
 30
0.0
  9
$UCSORGRIGHT
 10
0.0
 20
0.0
 30
0.0
  9
$UCSORGFRONT
 10
0.0
 20
0.0
 30
0.0
  9
$UCSORGBACK
 10
0.0
 20
0.0
 30
0.0
  9
$PUCSBASE
  2

  9
$PUCSNAME
  2

  9
$PUCSORG
 10
0.0
 20
0.0
 30
0.0
  9
$PUCSXDIR
 10
1.0
 20
0.0
 30
0.0
  9
$PUCSYDIR
 10
0.0
 20
1.0
 30
0.0
  9
$PUCSORTHOREF
  2

  9
$PUCSORTHOVIEW
 70
     0
  9
$PUCSORGTOP
 10
0.0
 20
0.0
 30
0.0
  9
$PUCSORGBOTTOM
 10
0.0
 20
0.0
 30
0.0
  9
$PUCSORGLEFT
 10
0.0
 20
0.0
 30
0.0
  9
$PUCSORGRIGHT
 10
0.0
 20
0.0
 30
0.0
  9
$PUCSORGFRONT
 10
0.0
 20
0.0
 30
0.0
  9
$PUCSORGBACK
 10
0.0
 20
0.0
 30
0.0
  9
$USERI1
 70
     0
  9
$USERI2
 70
     0
  9
$USERI3
 70
     0
  9
$USERI4
 70
     0
  9
$USERI5
 70
     0
  9
$USERR1
 40
0.0
  9
$USERR2
 40
0.0
  9
$USERR3
 40
0.0
  9
$USERR4
 40
0.0
  9
$USERR5
 40
0.0
  9
$WORLDVIEW
 70
     1
  9
$SHADEDGE
 70
     3
  9
$SHADEDIF
 70
    70
  9
$TILEMODE
 70
     1
  9
$MAXACTVP
 70
    16
  9
$PINSBASE
 10
0.0
 20
0.0
 30
0.0
  9
$PLIMCHECK
 70
     0
  9
$PEXTMIN
 10
1.000000000000000E+20
 20
1.000000000000000E+20
 30
1.000000000000000E+20
  9
$PEXTMAX
 10
-1.000000000000000E+20
 20
-1.000000000000000E+20
 30
-1.000000000000000E+20
  9
$PLIMMIN
 10
0.0
 20
0.0
  9
$PLIMMAX
 10
420.0
 20
297.0
  9
$UNITMODE
 70
     0
  9
$VISRETAIN
 70
     0
  9
$PLINEGEN
 70
     0
  9
$PSLTSCALE
 70
     0
  9
$TREEDEPTH
 70
  3020
  9
$CMLSTYLE
  2
STANDARD
  9
$CMLJUST
 70
     0
  9
$CMLSCALE
 40
1.0
  9
$PROXYGRAPHICS
 70
     1
  9
$MEASUREMENT
 70
     1
  9
$CELWEIGHT
370
    -1
  9
$ENDCAPS
280
     0
  9
$JOINSTYLE
280
     0
  9
$LWDISPLAY
290
     0
  9
$INSUNITS
 70
     4
  9
$HYPERLINKBASE
  1

  9
$STYLESHEET
  1
Zeich.ctb
  9
$XEDIT
290
     1
  9
$CEPSNTYPE
380
     0
  9
$PSTYLEMODE
290
     1
  9
$FINGERPRINTGUID
  2
{325BFBD5-B27C-480F-A6FD-52B59258B312}
  9
$VERSIONGUID
  2
{CC476D1E-4F03-4E14-8020-8BC195EB1061}
  9
$EXTNAMES
290
     1
  9
$PSVPSCALE
 40
0.0
  9
$OLESTARTUP
290
     0
  9
$SORTENTS
280
   127
  9
$INDEXCTL
280
     0
  9
$HIDETEXT
280
     0
  9
$XCLIPFRAME
290
     0
  9
$HALOGAP
280
     0
  9
$OBSCOLOR
 70
   257
  9
$OBSLTYPE
280
     0
  9
$INTERSECTIONDISPLAY
280
     0
  9
$INTERSECTIONCOLOR
 70
   257
  9
$DIMASSOC
280
     1
  9
$PROJECTNAME
  1

  9
$CAMERADISPLAY
290
     0
  9
$LENSLENGTH
 40
50.0
  9
$CAMERAHEIGHT
 40
0.0
  9
$STEPSPERSEC
 40
2.0
  9
$STEPSIZE
 40
6.0
  9
$3DDWFPREC
 40
2.0
  9
$PSOLWIDTH
 40
0.25
  9
$PSOLHEIGHT
 40
4.0
  9
$LOFTANG1
 40
1.570796326794896
  9
$LOFTANG2
 40
1.570796326794896
  9
$LOFTMAG1
 40
0.0
  9
$LOFTMAG2
 40
0.0
  9
$LOFTPARAM
 70
     7
  9
$LOFTNORMALS
280
     1
  9
$LATITUDE
 40
37.795
  9
$LONGITUDE
 40
-122.394
  9
$NORTHDIRECTION
 40
0.0
  9
$TIMEZONE
 70
 -8000
  9
$LIGHTGLYPHDISPLAY
280
     1
  9
$TILEMODELIGHTSYNCH
280
     1
  9
$CMATERIAL
347
3361
  9
$SOLIDHIST
280
     1
  9
$SHOWHIST
280
     1
  9
$DWFFRAME
280
     2
  9
$DGNFRAME
280
     0
  9
$REALWORLDSCALE
290
     1
  9
$INTERFERECOLOR
 62
     1
  9
$INTERFEREOBJVS
345
336E
  9
$INTERFEREVPVS
346
336B
  9
$CSHADOW
280
     0
  9
$SHADOWPLANELOCATION
 40
0.0
  0
ENDSEC
  0
SECTION
  2
CLASSES
  0
CLASS
  1
ACMESTATEMGR
  2
AcMeStateMgr
  3
AcMeServices
 90
     1024
 91
        1
280
     0
281
     0
  0
CLASS
  1
ACMESCOPE
  2
AcMeScope
  3
AcMeServices
 90
     1024
 91
        1
280
     0
281
     0
  0
CLASS
  1
ACMECOMMANDHISTORY
  2
AcMeCommandHistory
  3
AcMeServices
 90
     1024
 91
        1
280
     0
281
     0
  0
CLASS
  1
ACRFINSADJUSTERMGR
  2
AcRfInsAdjusterMgr
  3
AcMeServices
 90
     1024
 91
        1
280
     0
281
     0
  0
CLASS
  1
ACMEDRAWINGMAN
  2
AcMeDrawingMan
  3
AcMeServices
 90
     1024
 91
        1
280
     0
281
     0
  0
CLASS
  1
AMATTR
  2
AcMeAttribute
  3
AcMeServices
 90
     1024
 91
        0
280
     0
281
     0
  0
CLASS
  1
ACMEBOMCOLUMN
  2
AcMeBOMColumn
  3
AcMeServices
 90
     1024
 91
        0
280
     0
281
     0
  0
CLASS
  1
ACMEBOMCONF
  2
AcMeBOMConf
  3
AcMeServices
 90
     1024
 91
        0
280
     0
281
     0
  0
CLASS
  1
ACMEBOMTABLE
  2
AcMeBOMTable
  3
AcMeServices
 90
     1024
 91
        0
280
     0
281
     0
  0
CLASS
  1
ACMEBOMENTRY
  2
AcMeBOMEntry
  3
AcMeServices
 90
     1024
 91
        0
280
     0
281
     0
  0
CLASS
  1
ACMEVIEW
  2
AcMeView
  3
AcMeServices
 90
     1024
 91
        0
280
     0
281
     0
  0
CLASS
  1
DICTIONARYVAR
  2
AcDbDictionaryVar
  3
ObjectDBX Classes
 90
        0
 91
        6
280
     0
281
     0
  0
CLASS
  1
LAYER_INDEX
  2
AcDbLayerIndex
  3
ObjectDBX Classes
 90
        0
 91
        0
280
     0
281
     0
  0
CLASS
  1
IDBUFFER
  2
AcDbIdBuffer
  3
ObjectDBX Classes
 90
        0
 91
        0
280
     0
281
     0
  0
CLASS
  1
ACDBDICTIONARYWDFLT
  2
AcDbDictionaryWithDefault
  3
ObjectDBX Classes
 90
        0
 91
        1
280
     0
281
     0
  0
CLASS
  1
ACME_DOCUMENT
  2
AcMeDbDoc
  3
AcMeServices
 90
     1024
 91
        2
280
     0
281
     0
  0
CLASS
  1
AMGSETTINGSOBJ
  2
AmgSettingsObj
  3
"AcadM|Product Description: AutoCAD Mechanical|Company: Autodesk, Inc."
 90
     1024
 91
        4
280
     0
281
     0
  0
CLASS
  1
ACIMSYSVARMAN
  2
AcImSysVarManager
  3
AcMeServices
 90
     1024
 91
        5
280
     0
281
     0
  0
CLASS
  1
ACIMINTSYSVAR
  2
AcImIntSysVar
  3
AcMeServices
 90
     1024
 91
       27
280
     0
281
     0
  0
CLASS
  1
ACDBENTITYCACHE
  2
AcMeEntityCache
  3
AcMeServices
 90
     1024
 91
        1
280
     0
281
     0
  0
CLASS
  1
GSMANAGER
  2
AcMeGSManager
  3
AcMeServices
 90
     1024
 91
        1
280
     0
281
     0
  0
CLASS
  1
AMDTINTERNALREACTOR
  2
AmdtInternalReactor
  3
AcMeServices
 90
     1024
 91
        2
280
     0
281
     0
  0
CLASS
  1
ACGREFMASTER
  2
AcGrefMaster
  3
AcAttribServices
 90
     1024
 91
        1
280
     0
281
     0
  0
CLASS
  1
AM_DRAWING_MGR
  2
AcDmDwgMgr
  3
AcMechDwgViewMgmt
 90
     1024
 91
        1
280
     0
281
     0
  0
CLASS
  1
AM_DWG_DOCUMENT
  2
AcDmDwgDocument
  3
AcMechDwgViewMgmt
 90
     1024
 91
        1
280
     0
281
     0
  0
CLASS
  1
AM_DWG_SHEET
  2
AcDmSheet
  3
AcMechDwgViewMgmt
 90
     1024
 91
        1
280
     0
281
     0
  0
CLASS
  1
AM_VIEWDIMPARMAP
  2
AcDmViewDimParMap
  3
AcMechDwgViewMgmt
 90
     1024
 91
        1
280
     0
281
     0
  0
CLASS
  1
ACIMREALSYSVAR
  2
AcImRealSysVar
  3
AcMeServices
 90
     1024
 91
        1
280
     0
281
     0
  0
CLASS
  1
AM_DWGMGR_NAME
  2
AcDmDwgMgrName
  3
AcMechDwgViewMgmt
 90
     1024
 91
        1
280
     0
281
     0
  0
CLASS
  1
ACME_DATABASE
  2
AcMeDbDatabase
  3
AcMeServices
 90
     1024
 91
        2
280
     0
281
     0
  0
CLASS
  1
ACGREFACADMASTER
  2
AcGrefacadMaster
  3
AcGrefServices
 90
     1024
 91
        1
280
     0
281
     0
  0
CLASS
  1
AMDTMENUSTATEMGR
  2
AmdtMenuStateMgr
  3
McadcomServices
 90
     1024
 91
        1
280
     0
281
     0
  0
CLASS
  1
AMDTMCOMMENUSTATE
  2
AmdtMcomMenuState
  3
McadcomServices
 90
     1024
 91
        1
280
     0
281
     0
  0
CLASS
  1
AMIMASTER
  2
AmiMaster
  3
AmiServices
 90
     1024
 91
        1
280
     0
281
     0
  0
CLASS
  1
MAPIAMMOUDLE
  2
MApiAmModule
  3
MApiAmServices
 90
     1024
 91
        1
280
     0
281
     0
  0
CLASS
  1
AMDTADMENUSTATE
  2
AmdtAdMenuState
  3
DesignerServices
 90
     1024
 91
        1
280
     0
281
     0
  0
CLASS
  1
ADAPPL
  2
AcAdAppl
  3
DesignerServices
 90
     1024
 91
        1
280
     0
281
     0
  0
CLASS
  1
DEPMGR
  2
AcAdDepMgr
  3
DesignerServices
 90
     1024
 91
        1
280
     0
281
     0
  0
CLASS
  1
PARAMMGR
  2
AcAdParamMgr
  3
DesignerServices
 90
     1024
 91
        1
280
     0
281
     0
  0
CLASS
  1
PARAMSCOPE
  2
AcAdParamScope
  3
DesignerServices
 90
     1024
 91
        1
280
     0
281
     0
  0
CLASS
  1
NAMEDAPPL
  2
AcAdNamedAppl
  3
DesignerServices
 90
     1024
 91
        1
280
     0
281
     0
  0
CLASS
  1
AMDTDMMENUSTATE
  2
AmdtDmMenuState
  3
AcMechDwgViewMgmt
 90
     1024
 91
        1
280
     0
281
     0
  0
CLASS
  1
AMDTAMMENUSTATE
  2
AmdtAmMenuState
  3
DesignerAssemblies
 90
     1024
 91
        1
280
     0
281
     0
  0
CLASS
  1
ACIMSTRSYSVAR
  2
AcImStrSysVar
  3
AcMeServices
 90
     1024
 91
        5
280
     0
281
     0
  0
CLASS
  1
ACAMPROJECT
  2
AcAmProject
  3
DesignerAssemblies
 90
     1024
 91
        1
280
     0
281
     0
  0
CLASS
  1
ACAMGRCOMPDEF
  2
AcAmGrCompDef
  3
DesignerAssemblies
 90
     1024
 91
        1
280
     0
281
     0
  0
CLASS
  1
ACCMCONTEXT
  2
AcCmContext
  3
DesignerAssemblies
 90
     1024
 91
        1
280
     0
281
     0
  0
CLASS
  1
ACAMCOMPDEF
  2
AcAmCompDef
  3
DesignerAssemblies
 90
     1024
 91
        1
280
     0
281
     0
  0
CLASS
  1
ACAMCOMPDEFMGR
  2
AcAmCompDefMgr
  3
DesignerAssemblies
 90
     1024
 91
        1
280
     0
281
     0
  0
CLASS
  1
AMCONTEXTMGR
  2
AcAmContextMgr
  3
DesignerAssemblies
 90
     1024
 91
        1
280
     0
281
     0
  0
CLASS
  1
ACAMCONTEXTMODELER
  2
AcAmContextModeler
  3
DesignerAssemblies
 90
     1024
 91
        1
280
     0
281
     0
  0
CLASS
  1
ACMDATADICTIONARY
  2
AcmDataDictionary
  3
"AcmSymBB|Product Description: AutoCAD Mechanical|Company: Autodesk, Inc."
 90
     1024
 91
        1
280
     0
281
     0
  0
CLASS
  1
CATALOGSTATE
  2
AcAmCatalogState
  3
DesignerAssemblies
 90
     1024
 91
        1
280
     0
281
     0
  0
CLASS
  1
ACAMGRCOMPDEFSET
  2
AcAmGrCompDefSet
  3
DesignerAssemblies
 90
     1024
 91
        1
280
     0
281
     0
  0
CLASS
  1
AMDTBROWSERDBTAB
  2
AmdtBrowserDbTab
  3
McadcomServices
 90
     1024
 91
        1
280
     0
281
     0
  0
CLASS
  1
CBROWSERAPPOBJECT
  2
CBrowserAppObject
  3
McadcomServices
 90
     1024
 91
        3
280
     0
281
     0
  0
CLASS
  1
DM_PLACEHOLDER
  2
AcDmSelsetPlaceholder
  3
AcMechDwgViewMgmt
 90
     1024
 91
        1
280
     0
281
     0
  0
CLASS
  1
ACMSTANDARDANSI
  2
AcmStandardANSI
  3
"Amdt_StdImp|Product Description: AutoCAD Mechanical|Company: Autodesk, Inc."
 90
     1024
 91
        1
280
     0
281
     0
  0
CLASS
  1
AMGOBJPROPCFG
  2
AmgObjPropCfg
  3
"AmgLay|Product Description: AutoCAD Mechanical|Company: Autodesk, Inc."
 90
     1025
 91
        1
280
     0
281
     0
  0
CLASS
  1
ACMSURFSTANDARDANSI
  2
AcmSurfTextStdANSI
  3
"Amdt_StdImp|Product Description: AutoCAD Mechanical|Company: Autodesk, Inc."
 90
     1024
 91
        1
280
     0
281
     0
  0
CLASS
  1
ACMFCFSTANDARDANSI
  2
AcmFCFStdANSI
  3
"Amdt_StdImp|Product Description: AutoCAD Mechanical|Company: Autodesk, Inc."
 90
     1024
 91
        1
280
     0
281
     0
  0
CLASS
  1
ACMWELDSTANDARDANSI
  2
AcmWeldingStdANSI
  3
"Amdt_StdImp|Product Description: AutoCAD Mechanical|Company: Autodesk, Inc."
 90
     1024
 91
        1
280
     0
281
     0
  0
CLASS
  1
ACMIDSTANDARDANSI
  2
AcmIdStdANSI
  3
"Amdt_StdImp|Product Description: AutoCAD Mechanical|Company: Autodesk, Inc."
 90
     1024
 91
        1
280
     0
281
     0
  0
CLASS
  1
ACMDATUMSTANDARDANSI
  2
AcmDatumStdANSI
  3
"Amdt_StdImp|Product Description: AutoCAD Mechanical|Company: Autodesk, Inc."
 90
     1024
 91
        1
280
     0
281
     0
  0
CLASS
  1
ACMBOMSTANDARDANSI
  2
AcmBOMStdANSI
  3
"Amdt_StdImp|Product Description: AutoCAD Mechanical|Company: Autodesk, Inc."
 90
     1024
 91
        1
280
     0
281
     0
  0
CLASS
  1
ACMDETAILSTANDARDANSI
  2
AmdtDetailSymStdANSI
  3
"Amdt_StdImp|Product Description: AutoCAD Mechanical|Company: Autodesk, Inc."
 90
     1024
 91
        1
280
     0
281
     0
  0
CLASS
  1
ACMSECTIONSTANDARDANSI
  2
AmdtSectionSymStdANSI
  3
"Amdt_StdImp|Product Description: AutoCAD Mechanical|Company: Autodesk, Inc."
 90
     1024
 91
        1
280
     0
281
     0
  0
CLASS
  1
ACMCENTERLINESTANDARDANSI
  2
AmdtCenterLineStdANSI
  3
"Amdt_StdImp|Product Description: AutoCAD Mechanical|Company: Autodesk, Inc."
 90
     1024
 91
        1
280
     0
281
     0
  0
CLASS
  1
ACMTHREADLINESTANDARDANSI
  2
AmdtThreadLineStdANSI
  3
"Amdt_StdImp|Product Description: AutoCAD Mechanical|Company: Autodesk, Inc."
 90
     1024
 91
        1
280
     0
281
     0
  0
CLASS
  1
ACMNOTESTANDARDANSI
  2
AmdtNoteStdANSI
  3
"Amdt_StdImp|Product Description: AutoCAD Mechanical|Company: Autodesk, Inc."
 90
     1024
 91
        1
280
     0
281
     0
  0
CLASS
  1
AMDTNOTETEMPLATEDB
  2
AmdtNoteTemplateDB
  3
AcmSymBB|Product Description: AutoCAD Mechanical|Company: Autodesk, Inc.
 90
     1024
 91
       10
280
     0
281
     0
  0
CLASS
  1
ACAMGLAYSTD
  2
AcAmgLayStd
  3
"AmgLay|Product Description: AutoCAD Mechanical|Company: Autodesk, Inc."
 90
     1024
 91
        2
280
     0
281
     0
  0
CLASS
  1
ACAMGDIMSTD
  2
AcAmgDimStd
  3
"AmgDim|Product Description: AutoCAD Mechanical|Company: Autodesk, Inc."
 90
     1024
 91
        2
280
     0
281
     0
  0
CLASS
  1
ACAMGHOLECHARTSTDANSI
  2
AcAmgHoleChartStdANSI
  3
AmgDim|Product Description: AutoCAD Mechanical|Company: Autodesk, Inc.
 90
     1024
 91
        1
280
     0
281
     0
  0
CLASS
  1
ACAMGTITLESTD
  2
AcAmgTitleStd
  3
"AmgTitle|Product Description: AutoCAD Mechanical|Company: Autodesk, Inc."
 90
     4095
 91
        2
280
     0
281
     0
  0
CLASS
  1
ACAMGFILTERDAT
  2
AcAmgFilterDat
  3
"AcadM|Product Description: AutoCAD Mechanical|Company: Autodesk, Inc."
 90
     1024
 91
        6
280
     0
281
     0
  0
CLASS
  1
TABLESTYLE
  2
AcDbTableStyle
  3
ObjectDBX Classes
 90
     4095
 91
        1
280
     0
281
     0
  0
CLASS
  1
VAACXREFPANELOBJECT
  2
VaAcXREFPanelObject
  3
VAAC_ADDIN
 90
        0
 91
        0
280
     0
281
     0
  0
CLASS
  1
VAACIMAGEINVENTORY
  2
VaAcImageInventory
  3
VAAC_ADDIN
 90
        0
 91
        0
280
     0
281
     0
  0
CLASS
  1
ACMDATAENTRYBLOCK
  2
AcmDataEntryBlock
  3
AcmSymBB|Product Description: AutoCAD Mechanical|Company: Autodesk, Inc.
 90
     1024
 91
        1
280
     0
281
     0
  0
CLASS
  1
AC_AM_2D_XREF_MGR
  2
AcAmXrefMgr2d
  3
DesignerAssemblies
 90
     1024
 91
        0
280
     0
281
     0
  0
CLASS
  1
SORTENTSTABLE
  2
AcDbSortentsTable
  3
ObjectDBX Classes
 90
        0
 91
       32
280
     0
281
     0
  0
CLASS
  1
MATERIAL
  2
AcDbMaterial
  3
ObjectDBX Classes
 90
     1153
 91
        3
280
     0
281
     0
  0
CLASS
  1
VISUALSTYLE
  2
AcDbVisualStyle
  3
ObjectDBX Classes
 90
     4095
 91
       16
280
     0
281
     0
  0
CLASS
  1
ACMTAPERSTANDARDANSI
  2
AcmTaperStdANSI
  3
"Amdt_StdImp|Product Description: AutoCAD Mechanical|Company: Autodesk, Inc."
 90
     1024
 91
        1
280
     0
281
     0
  0
CLASS
  1
CAMSSTRUCTBTNSTATE
  2
StructBtnState
  3
DesignerAssemblies
 90
     1024
 91
        1
280
     0
281
     0
  0
CLASS
  1
SCALE
  2
AcDbScale
  3
ObjectDBX Classes
 90
     1153
 91
       33
280
     0
281
     0
  0
CLASS
  1
MLEADERSTYLE
  2
AcDbMLeaderStyle
  3
ACDB_MLEADERSTYLE_CLASS
 90
     4095
 91
        1
280
     0
281
     0
  0
CLASS
  1
ACMANOOTATIONVIEWSTANDARDANSI
  2
AmdtAnViewStdANSI
  3
"Amdt_StdImp|Product Description: AutoCAD Mechanical|Company: Autodesk, Inc."
 90
     1024
 91
        1
280
     0
281
     0
  0
CLASS
  1
CELLSTYLEMAP
  2
AcDbCellStyleMap
  3
ObjectDBX Classes
 90
     1152
 91
       10
280
     0
281
     0
  0
CLASS
  1
ACMSTANDARDDIN
  2
AcmStandardDIN
  3
"Amdt_StdImp|Product Description: AutoCAD Mechanical|Company: Autodesk, Inc."
 90
     1024
 91
        1
280
     0
281
     0
  0
CLASS
  1
AMDTEDGESTANDARDDIN13715
  2
AmdtEdgeStdDIN13715
  3
"Amdt_StdImp|Product Description: AutoCAD Mechanical|Company: Autodesk, Inc."
 90
     1024
 91
        1
280
     0
281
     0
  0
CLASS
  1
ACMSURFSTANDARDDIN2002
  2
AcmSurfTextStdDIN2002
  3
"Amdt_StdImp|Product Description: AutoCAD Mechanical|Company: Autodesk, Inc."
 90
     1024
 91
        1
280
     0
281
     0
  0
CLASS
  1
ACMFCFSTANDARDDIN
  2
AcmFCFStdDIN
  3
"Amdt_StdImp|Product Description: AutoCAD Mechanical|Company: Autodesk, Inc."
 90
     1024
 91
        1
280
     0
281
     0
  0
CLASS
  1
ACMWELDSTANDARDDIN
  2
AcmWeldingStdDIN
  3
"Amdt_StdImp|Product Description: AutoCAD Mechanical|Company: Autodesk, Inc."
 90
     1024
 91
        1
280
     0
281
     0
  0
CLASS
  1
ACMIDSTANDARDDIN
  2
AcmIdStdDIN
  3
"Amdt_StdImp|Product Description: AutoCAD Mechanical|Company: Autodesk, Inc."
 90
     1024
 91
        1
280
     0
281
     0
  0
CLASS
  1
ACMDATUMSTANDARDDIN
  2
AcmDatumStdDIN
  3
"Amdt_StdImp|Product Description: AutoCAD Mechanical|Company: Autodesk, Inc."
 90
     1024
 91
        1
280
     0
281
     0
  0
CLASS
  1
ACMBOMSTANDARDDIN
  2
AcmBOMStdDIN
  3
"Amdt_StdImp|Product Description: AutoCAD Mechanical|Company: Autodesk, Inc."
 90
     1024
 91
        1
280
     0
281
     0
  0
CLASS
  1
ACMDETAILSTANDARDDIN
  2
AmdtDetailSymStdDIN
  3
"Amdt_StdImp|Product Description: AutoCAD Mechanical|Company: Autodesk, Inc."
 90
     1024
 91
        1
280
     0
281
     0
  0
CLASS
  1
ACMSECTIONSTANDARDDIN
  2
AmdtSectionSymStdDIN
  3
"Amdt_StdImp|Product Description: AutoCAD Mechanical|Company: Autodesk, Inc."
 90
     1024
 91
        1
280
     0
281
     0
  0
CLASS
  1
ACMCENTERLINESTANDARDDIN
  2
AmdtCenterLineStdDIN
  3
"Amdt_StdImp|Product Description: AutoCAD Mechanical|Company: Autodesk, Inc."
 90
     1024
 91
        1
280
     0
281
     0
  0
CLASS
  1
ACMTHREADLINESTANDARDDIN
  2
AmdtThreadLineStdDIN
  3
"Amdt_StdImp|Product Description: AutoCAD Mechanical|Company: Autodesk, Inc."
 90
     1024
 91
        1
280
     0
281
     0
  0
CLASS
  1
ACMNOTESTANDARDDIN
  2
AmdtNoteStdDIN
  3
"Amdt_StdImp|Product Description: AutoCAD Mechanical|Company: Autodesk, Inc."
 90
     1024
 91
        1
280
     0
281
     0
  0
CLASS
  1
ACMTAPERSTANDARDDIN
  2
AcmTaperStdDIN
  3
"Amdt_StdImp|Product Description: AutoCAD Mechanical|Company: Autodesk, Inc."
 90
     1024
 91
        1
280
     0
281
     0
  0
CLASS
  1
ACMANOOTATIONVIEWSTANDARDDIN
  2
AmdtAnViewStdDIN
  3
"Amdt_StdImp|Product Description: AutoCAD Mechanical|Company: Autodesk, Inc."
 90
     1024
 91
        1
280
     0
281
     0
  0
CLASS
  1
ACAMGHOLECHARTSTDDIN
  2
AcAmgHoleChartStdDIN
  3
AmgDim|Product Description: AutoCAD Mechanical|Company: Autodesk, Inc.
 90
     1024
 91
        1
280
     0
281
     0
  0
CLASS
  1
EXACXREFPANELOBJECT
  2
ExAcXREFPanelObject
  3
EXAC_ESW
 90
     1025
 91
        0
280
     0
281
     0
  0
CLASS
  1
NPOCOLLECTION
  2
AcDbImpNonPersistentObjectsCollection
  3
ObjectDBX Classes
 90
     1153
 91
        0
280
     0
281
     0
  0
CLASS
  1
ACMDIMBREAKPERSREACTOR
  2
AcmDimBreakPersReactor
  3
AmgDim|Product Description: AutoCAD Mechanical|Company: Autodesk, Inc.
 90
     4095
 91
       22
280
     0
281
     0
  0
ENDSEC
  0
SECTION
  2
TABLES
  0
TABLE
  2
VPORT
  5
13
330
0
100
AcDbSymbolTable
 70
     1
  0
VPORT
  5
335F
330
13
100
AcDbSymbolTableRecord
100
AcDbViewportTableRecord
  2
*Active
 70
     0
 10
0.0
 20
0.0
 11
1.0
 21
1.0
 12
707.9970664171947
 22
303.9774976570063
 13
0.0
 23
0.0
 14
2.5
 24
2.5
 15
10.0
 25
10.0
 16
0.0
 26
0.0
 36
1.0
 17
0.0
 27
0.0
 37
0.0
 40
551.2988218544847
 41
1.511511511511511
 42
50.0
 43
0.0
 44
0.0
 50
0.0
 51
0.0
 71
     0
 72
   100
 73
     1
 74
     0
 75
     0
 76
     0
 77
     0
 78
     0
281
     0
 65
     1
110
0.0
120
0.0
130
0.0
111
1.0
121
0.0
131
0.0
112
0.0
122
1.0
132
0.0
 79
     0
146
0.0
348
336A
 60
     2
 61
     5
292
     1
282
     1
141
0.0
142
0.0
 63
   250
421
  3355443
  0
ENDTAB
  0
TABLE
  2
LTYPE
  5
E
330
0
100
AcDbSymbolTable
 70
    32
  0
LTYPE
  5
F
330
E
100
AcDbSymbolTableRecord
100
AcDbLinetypeTableRecord
  2
BYBLOCK
 70
     0
  3

 72
    65
 73
     0
 40
0.0
  0
LTYPE
  5
10
330
E
100
AcDbSymbolTableRecord
100
AcDbLinetypeTableRecord
  2
BYLAYER
 70
     0
  3

 72
    65
 73
     0
 40
0.0
  0
LTYPE
  5
6
330
E
100
AcDbSymbolTableRecord
100
AcDbLinetypeTableRecord
  2
CONTINUOUS
 70
     0
  3
Solid line
 72
    65
 73
     0
 40
0.0
  0
LTYPE
  5
29
330
E
100
AcDbSymbolTableRecord
100
AcDbLinetypeTableRecord
  2
MITTE
 70
     0
  3
____ _ ____ _ ____ _ ____ _ ____ _ ____ _ ____ 
 72
    65
 73
     4
 40
2.0
 49
1.25
 74
     0
 49
-0.25
 74
     0
 49
0.25
 74
     0
 49
-0.25
 74
     0
  0
LTYPE
  5
81
330
E
100
AcDbSymbolTableRecord
100
AcDbLinetypeTableRecord
  2
HIDDEN
 70
     0
  3
Verdeckt
 72
    65
 73
     2
 40
0.375
 49
0.25
 74
     0
 49
-0.125
 74
     0
  0
LTYPE
  5
82
330
E
100
AcDbSymbolTableRecord
100
AcDbLinetypeTableRecord
  2
PHANTOM2
 70
     0
  3
Phantom (.5x) ___ _ _ ___ _ _ ___ _ _ ___ _ _
 72
    65
 73
     6
 40
1.25
 49
0.625
 74
     0
 49
-0.125
 74
     0
 49
0.125
 74
     0
 49
-0.125
 74
     0
 49
0.125
 74
     0
 49
-0.125
 74
     0
  0
LTYPE
  5
83
330
E
100
AcDbSymbolTableRecord
100
AcDbLinetypeTableRecord
  2
CENTER
 70
     0
  3
Mitte ____ _ ____ _ ____ _ ____ _ ____ _ ____
 72
    65
 73
     4
 40
2.0
 49
1.25
 74
     0
 49
-0.25
 74
     0
 49
0.25
 74
     0
 49
-0.25
 74
     0
  0
LTYPE
  5
CD
330
E
100
AcDbSymbolTableRecord
100
AcDbLinetypeTableRecord
  2
Amconstr
 70
     0
  3
_______________________
 72
    65
 73
     2
 40
9999.0
 49
9999.0
 74
     0
 49
0.0
 74
     0
  0
LTYPE
  5
D3
330
E
100
AcDbSymbolTableRecord
100
AcDbLinetypeTableRecord
  2
CENTER2
 70
     0
  3
Center (.5x) ___ _ ___ _ ___ _ ___ _ ___ _ ___
 72
    65
 73
     4
 40
1.125
 49
0.75
 74
     0
 49
-0.125
 74
     0
 49
0.125
 74
     0
 49
-0.125
 74
     0
  0
LTYPE
  5
D4
330
E
100
AcDbSymbolTableRecord
100
AcDbLinetypeTableRecord
  2
HIDDEN2
 70
     0
  3
Hidden (.5x) _ _ _ _ _ _ _ _ _ _ _ _ _ _ _ _ _
 72
    65
 73
     2
 40
0.1875
 49
0.125
 74
     0
 49
-0.0625
 74
     0
  0
LTYPE
  5
D5
330
E
100
AcDbSymbolTableRecord
100
AcDbLinetypeTableRecord
  2
Amzigzag2
 70
     0
  3
/\/-/\/-/\/-/\/-/\/-/\/
 72
    65
 73
     2
 40
0.4401
 49
0.0001
 74
     4
 75
   135
340
D1
 46
0.0016
 50
0.0
 44
0.0
 45
0.0
 49
-0.4400000000000001
 74
     0
  0
LTYPE
  5
E3
330
E
100
AcDbSymbolTableRecord
100
AcDbLinetypeTableRecord
  2
ACANSTGB
 70
     0
  3
__ . . __ . .
 72
    65
 73
     6
 40
0.35433070866
 49
0.15748031496
 74
     0
 49
-0.03937007874
 74
     0
 49
0.03937007874
 74
     0
 49
-0.03937007874
 74
     0
 49
0.03937007874
 74
     0
 49
-0.03937007874
 74
     0
  0
LTYPE
  5
E4
330
E
100
AcDbSymbolTableRecord
100
AcDbLinetypeTableRecord
  2
ACANSTGL
 70
     0
  3
_ _ _ _ _
 72
    65
 73
     2
 40
0.11811023622
 49
0.07874015748
 74
     0
 49
-0.03937007874
 74
     0
  0
LTYPE
  5
3B26
330
E
100
AcDbSymbolTableRecord
100
AcDbLinetypeTableRecord
  2
AM_ISO08W050
 70
     0
  3
____ . ____ . ____ . ____ . ____ . ____ . ____
 72
    65
 73
     4
 40
18.0
 49
12.0
 74
     0
 49
-1.5
 74
     0
 49
3.0
 74
     0
 49
-1.5
 74
     0
  0
LTYPE
  5
3B28
330
E
100
AcDbSymbolTableRecord
100
AcDbLinetypeTableRecord
  2
ACDINWELD
 70
     0
  3
_ _ _ _ _
 72
    65
 73
     2
 40
2.0
 49
2.0
 74
     0
 49
-1.0
 74
     0
  0
LTYPE
  5
3B29
330
E
100
AcDbSymbolTableRecord
100
AcDbLinetypeTableRecord
  2
ACDINTGB
 70
     0
  3
__ . . __ . .
 72
    65
 73
     6
 40
9.0
 49
4.0
 74
     0
 49
-1.0
 74
     0
 49
1.0
 74
     0
 49
-1.0
 74
     0
 49
1.0
 74
     0
 49
-1.0
 74
     0
  0
LTYPE
  5
3B2A
330
E
100
AcDbSymbolTableRecord
100
AcDbLinetypeTableRecord
  2
ACDINTGL
 70
     0
  3
_ _ _ _ _
 72
    65
 73
     2
 40
3.0
 49
2.0
 74
     0
 49
-1.0
 74
     0
  0
LTYPE
  5
834B
330
E
100
AcDbSymbolTableRecord
100
AcDbLinetypeTableRecord
  2
Amzigzag
 70
     0
  3
/\/-/\/-/\/-/\/-/\/-/\/
 72
    65
 73
     2
 40
11.0001
 49
0.0001
 74
     4
 75
   136
340
8351
 46
0.04
 50
0.0
 44
0.0
 45
0.0
 49
-11.0
 74
     0
  0
LTYPE
  5
834C
330
E
100
AcDbSymbolTableRecord
100
AcDbLinetypeTableRecord
  2
AM_DIN_F_W050
 70
     0
  3
__ __ __ __ __ __ __ __ __ __ __ __ __ __ __
 72
    65
 73
     2
 40
6.25
 49
4.75
 74
     0
 49
-1.5
 74
     0
  0
LTYPE
  5
834D
330
E
100
AcDbSymbolTableRecord
100
AcDbLinetypeTableRecord
  2
AM_DIN_G_W050
 70
     0
  3
____ . ____ . ____ . ____ . ____ . ____ . ____
 72
    65
 73
     4
 40
13.75
 49
9.75
 74
     0
 49
-1.5
 74
     0
 49
1.0
 74
     0
 49
-1.5
 74
     0
  0
LTYPE
  5
834E
330
E
100
AcDbSymbolTableRecord
100
AcDbLinetypeTableRecord
  2
AM_DIN_K_W050
 70
     0
  3
_____ . . _____ . . _____ . . ____ .. ____
 72
    65
 73
     6
 40
16.25
 49
9.75
 74
     0
 49
-1.5
 74
     0
 49
1.0
 74
     0
 49
-1.5
 74
     0
 49
1.0
 74
     0
 49
-1.5
 74
     0
  0
LTYPE
  5
834F
330
E
100
AcDbSymbolTableRecord
100
AcDbLinetypeTableRecord
  2
AM_DIN_G_W050x2
 70
     0
  3
__ . __ . __ . __ . __ . __
 72
    65
 73
     4
 40
6.875
 49
4.75
 74
     0
 49
-0.875
 74
     0
 49
0.375
 74
     0
 49
-0.875
 74
     0
  0
LTYPE
  5
8350
330
E
100
AcDbSymbolTableRecord
100
AcDbLinetypeTableRecord
  2
AM_DIN_F_W050x2
 70
     0
  3
 _ _ _ _ _ _ _ _ _ _ _ _
 72
    65
 73
     2
 40
3.125
 49
2.25
 74
     0
 49
-0.875
 74
     0
  0
ENDTAB
  0
TABLE
  2
LAYER
  5
B
102
{ACAD_XDICTIONARY
360
8352
102
}
330
0
100
AcDbSymbolTable
 70
     9
  0
LAYER
  5
5
102
{ACAD_XDICTIONARY
360
38E0
102
}
330
B
100
AcDbSymbolTableRecord
100
AcDbLayerTableRecord
  2
0
 70
     0
 62
     7
  6
CONTINUOUS
370
    -3
390
5D
347
3363
  0
LAYER
  5
26
102
{ACAD_XDICTIONARY
360
38E2
102
}
330
B
100
AcDbSymbolTableRecord
100
AcDbLayerTableRecord
  2
TEXT
 70
     1
 62
     2
  6
CONTINUOUS
370
    -3
390
5D
347
3363
  0
LAYER
  5
28
102
{ACAD_XDICTIONARY
360
38E4
102
}
330
B
100
AcDbSymbolTableRecord
100
AcDbLayerTableRecord
  2
MITTE
 70
     0
 62
     4
  6
MITTE
370
    -3
390
5D
347
3363
  0
LAYER
  5
22
102
{ACAD_XDICTIONARY
360
38E6
102
}
330
B
100
AcDbSymbolTableRecord
100
AcDbLayerTableRecord
  2
SCHRAFF
 70
     0
 62
     1
  6
CONTINUOUS
370
    -3
390
5D
347
3363
  0
LAYER
  5
24
102
{ACAD_XDICTIONARY
360
38E8
102
}
330
B
100
AcDbSymbolTableRecord
100
AcDbLayerTableRecord
  2
LINIE
 70
     0
 62
     4
  6
CONTINUOUS
370
    -3
390
5D
347
3363
  0
LAYER
  5
C88
330
B
100
AcDbSymbolTableRecord
100
AcDbLayerTableRecord
  2
Defpoints
 70
     0
 62
     7
  6
CONTINUOUS
290
     0
370
    -3
390
5D
347
3363
  0
LAYER
  5
68EC
102
{ACAD_XDICTIONARY
360
68ED
102
}
330
B
100
AcDbSymbolTableRecord
100
AcDbLayerTableRecord
  2
BEM
 70
     1
 62
     3
  6
CONTINUOUS
370
    -3
390
5D
347
3363
  0
ENDTAB
  0
TABLE
  2
STYLE
  5
C
330
0
100
AcDbSymbolTable
 70
    11
  0
STYLE
  5
D
330
C
100
AcDbSymbolTableRecord
100
AcDbTextStyleTableRecord
  2
STANDARD
 70
     0
 40
0.0
 41
1.0
 50
0.0
 71
     0
 42
20.0
  3
romans.shx
  4

  0
STYLE
  5
D1
330
C
100
AcDbSymbolTableRecord
100
AcDbTextStyleTableRecord
  2

 70
     1
 40
0.0
 41
1.0
 50
0.0
 71
     0
 42
20.0
  3
ltypeshp.shx
  4

  0
STYLE
  5
D6
330
C
100
AcDbSymbolTableRecord
100
AcDbTextStyleTableRecord
  2
ACANSTS
 70
     0
 40
1.0
 41
1.0
 50
0.0
 71
     0
 42
20.0
  3
romans.shx
  4

  0
STYLE
  5
E2
330
C
100
AcDbSymbolTableRecord
100
AcDbTextStyleTableRecord
  2
ACANSGDT
 70
     0
 40
0.0
 41
1.0
 50
0.0
 71
     0
 42
20.0
  3
amgdtans.shx
  4

  0
STYLE
  5
3B31
330
C
100
AcDbSymbolTableRecord
100
AcDbTextStyleTableRecord
  2
ACDINTS
 70
     0
 40
1.0
 41
1.0
 50
0.0
 71
     0
 42
20.0
  3
isocp.shx
  4

  0
STYLE
  5
3B32
330
C
100
AcDbSymbolTableRecord
100
AcDbTextStyleTableRecord
  2
ACDINGDT
 70
     0
 40
0.0
 41
1.0
 50
0.0
 71
     0
 42
20.0
  3
amgdt.shx
  4

  0
STYLE
  5
8351
330
C
100
AcDbSymbolTableRecord
100
AcDbTextStyleTableRecord
  2

 70
     1
 40
0.0
 41
1.0
 50
0.0
 71
     0
 42
20.0
  3
genltshp.shx
  4

  0
ENDTAB
  0
TABLE
  2
VIEW
  5
11
330
0
100
AcDbSymbolTable
 70
     0
  0
ENDTAB
  0
TABLE
  2
UCS
  5
12
330
0
100
AcDbSymbolTable
 70
     0
  0
ENDTAB
  0
TABLE
  2
APPID
  5
15
330
0
100
AcDbSymbolTable
 70
    20
  0
APPID
  5
16
330
15
100
AcDbSymbolTableRecord
100
AcDbRegAppTableRecord
  2
ACAD
 70
     0
  0
APPID
  5
30
330
15
100
AcDbSymbolTableRecord
100
AcDbRegAppTableRecord
  2
MCAD_NO_VIS
 70
     0
  0
APPID
  5
6D
330
15
100
AcDbSymbolTableRecord
100
AcDbRegAppTableRecord
  2
ACAD_TEMP_GRAPHIC
 70
     0
  0
APPID
  5
98
330
15
100
AcDbSymbolTableRecord
100
AcDbRegAppTableRecord
  2
AD_DRAW
 70
     0
  0
APPID
  5
9B
330
15
100
AcDbSymbolTableRecord
100
AcDbRegAppTableRecord
  2
ACATTRIBSERVICES
 70
     0
  0
APPID
  5
B9
330
15
100
AcDbSymbolTableRecord
100
AcDbRegAppTableRecord
  2
DESIGNERASSEMBLIES
 70
     0
  0
APPID
  5
C1
330
15
100
AcDbSymbolTableRecord
100
AcDbRegAppTableRecord
  2
ACADM_DIM_EDIT
 70
     0
  0
APPID
  5
C2
330
15
100
AcDbSymbolTableRecord
100
AcDbRegAppTableRecord
  2
AMDT_DM_ADJ
 70
     0
  0
APPID
  5
9EC
330
15
100
AcDbSymbolTableRecord
100
AcDbRegAppTableRecord
  2
ACAD_DSTYLE_DIMTEXT_FILL
 70
     0
  0
APPID
  5
D04
330
15
100
AcDbSymbolTableRecord
100
AcDbRegAppTableRecord
  2
ACAD_PSEXT
 70
     0
  0
APPID
  5
35F6
330
15
100
AcDbSymbolTableRecord
100
AcDbRegAppTableRecord
  2
ACAD_EXEMPT_FROM_CAD_STANDARDS
 70
     0
  0
APPID
  5
38AD
330
15
100
AcDbSymbolTableRecord
100
AcDbRegAppTableRecord
  2
ACAD_MLEADERVER
 70
     0
  0
APPID
  5
38C0
330
15
100
AcDbSymbolTableRecord
100
AcDbRegAppTableRecord
  2
DCO15
 70
     0
  0
APPID
  5
3B3A
330
15
100
AcDbSymbolTableRecord
100
AcDbRegAppTableRecord
  2
ACAD_DSTYLE_DIMJAG
 70
     0
  0
APPID
  5
3B3B
330
15
100
AcDbSymbolTableRecord
100
AcDbRegAppTableRecord
  2
ACAD_DSTYLE_DIMTALN
 70
     0
  0
APPID
  5
5356
330
15
100
AcDbSymbolTableRecord
100
AcDbRegAppTableRecord
  2
ACAD_DSTYLE_DIMRADIAL_EXTENSION
 70
     0
  0
APPID
  5
6F73
330
15
100
AcDbSymbolTableRecord
100
AcDbRegAppTableRecord
  2
ACAD_DSTYLE_DIMINSPECT
 70
     0
  0
APPID
  5
6F74
330
15
100
AcDbSymbolTableRecord
100
AcDbRegAppTableRecord
  2
GENIUS_GENDTOL_13
 70
     0
  0
APPID
  5
87BD
330
15
100
AcDbSymbolTableRecord
100
AcDbRegAppTableRecord
  2
AcadAnnoPO
 70
     0
  0
APPID
  5
8B71
330
15
100
AcDbSymbolTableRecord
100
AcDbRegAppTableRecord
  2
AcAecLayerStandard
 70
     0
  0
ENDTAB
  0
TABLE
  2
DIMSTYLE
  5
17
330
0
100
AcDbSymbolTable
 70
    18
100
AcDbDimStyleTable
 71
     3
340
1E
340
3B33
340
8FF
  0
DIMSTYLE
105
1E
102
{ACAD_REACTORS
330
71C9
330
71CA
330
71D0
330
71D7
330
7206
330
7207
330
7208
330
71D1
330
7866
330
76E1
330
76B9
330
767F
330
71FF
330
7200
330
720D
330
71FE
330
7201
330
7202
330
78CC
330
7889
330
787C
330
78AA
330
71C8
330
7BB0
330
7BB3
330
720B
330
8A2F
330
7203
330
76F7
330
7205
330
7204
102
}
330
17
100
AcDbSymbolTableRecord
100
AcDbDimStyleTableRecord
  2
ISO-25
 70
     0
 41
3.5
 42
0.0
 43
7.0
 44
1.25
 73
     0
 74
     0
 77
     1
 78
     8
140
3.5
141
0.0
143
0.0394
145
1.0
147
1.5
172
     1
176
   256
177
   256
178
   256
284
     8
288
     1
340
D
1001
ACAD_DSTYLE_DIMJAG
1070
   388
1040
1.5
1001
ACAD_DSTYLE_DIMTALN
1070
   392
1070
     0
  0
DIMSTYLE
105
EB
330
17
100
AcDbSymbolTableRecord
100
AcDbDimStyleTableRecord
  2
AM_ANSI
 70
     0
  4
mm
 41
0.1
 42
0.05
 43
0.5
 44
0.1
 47
0.1
 48
0.1
 78
     7
 79
     2
140
0.12
141
0.0
146
0.71
147
0.06
176
   256
177
   256
178
     2
274
     4
284
     7
340
D
371
    -1
372
    -1
  0
DIMSTYLE
105
EC
330
17
100
AcDbSymbolTableRecord
100
AcDbDimStyleTableRecord
  2
AM_ANSI$3
 70
     0
  4
mm
 41
0.1
 42
0.05
 43
0.5
 44
0.1
 47
0.1
 48
0.1
 78
     7
 79
     2
140
0.12
141
0.0
146
0.71
147
0.06
176
   256
177
   256
178
     2
274
     4
284
     7
288
     1
289
     0
340
D
371
    -1
372
    -1
  0
DIMSTYLE
105
ED
330
17
100
AcDbSymbolTableRecord
100
AcDbDimStyleTableRecord
  2
AM_ANSI$4
 70
     0
  4
mm
 41
0.1
 42
0.05
 43
0.5
 44
0.1
 47
0.1
 48
0.1
 78
     7
 79
     2
140
0.12
141
0.0
146
0.71
147
0.06
176
   256
177
   256
178
     2
274
     4
284
     7
288
     1
289
     0
340
D
371
    -1
372
    -1
  0
DIMSTYLE
105
EE
330
17
100
AcDbSymbolTableRecord
100
AcDbDimStyleTableRecord
  2
AM_ANSI$7
 70
     0
  4
mm
 41
0.1
 42
0.05
 43
0.5
 44
0.1
 47
0.1
 48
0.1
 78
     7
 79
     2
140
0.24
141
0.0
146
0.71
147
0.06
176
   256
177
   256
178
     2
274
     4
284
     7
340
D
371
    -1
372
    -1
  0
DIMSTYLE
105
EF
330
17
100
AcDbSymbolTableRecord
100
AcDbDimStyleTableRecord
  2
AM_ANSI$SF
 70
     0
  4
mm
 41
0.1
 42
0.05
 43
0.5
 44
0.1
 47
0.1
 48
0.1
 75
     1
 76
     1
 78
     7
 79
     2
140
0.12
141
0.0
146
0.71
147
0.06
176
   256
177
   256
178
     2
274
     4
284
     7
340
D
371
    -1
372
    -1
  0
DIMSTYLE
105
F4
330
17
100
AcDbSymbolTableRecord
100
AcDbDimStyleTableRecord
  2
AM_ANSI$SH
 70
     0
  4
mm
 41
0.1
 42
0.05
 43
0.5
 44
0.1
 47
0.1
 48
0.1
 75
     1
 76
     1
 78
     7
 79
     2
140
0.12
141
0.0
146
0.71
147
0.06
173
     1
176
   256
177
   256
178
     2
274
     4
284
     7
340
D
343
F0
371
    -1
372
    -1
  0
DIMSTYLE
105
8FF
330
17
100
AcDbSymbolTableRecord
100
AcDbDimStyleTableRecord
  2
STANDARD
 70
     0
 41
3.5
 42
0.0
 43
7.0
 44
1.25
 73
     0
 74
     0
 77
     1
 78
     8
140
3.5
141
-1.0
144
0.5
147
1.5
172
     1
176
   256
177
   256
178
   256
284
     8
288
     1
340
D
1001
ACAD_DSTYLE_DIMJAG
1070
   388
1040
1.5
1001
ACAD_DSTYLE_DIMTALN
1070
   392
1070
     0
  0
DIMSTYLE
105
3B33
330
17
100
AcDbSymbolTableRecord
100
AcDbDimStyleTableRecord
  2
AM_DIN
 70
     0
  4
"
 41
2.5
 42
1.0
 43
10.0
 44
1.0
 47
0.1
 48
0.1
 50
90.0
 73
     0
 74
     0
 77
     1
 78
     8
 79
     2
140
3.5
141
0.0
143
0.0393701
146
0.71
147
1.5
172
     1
176
   256
177
   256
178
     2
271
     2
272
     3
274
     4
283
     0
284
     8
340
D
371
    -1
372
    -1
  0
DIMSTYLE
105
3B34
330
17
100
AcDbSymbolTableRecord
100
AcDbDimStyleTableRecord
  2
AM_DIN$3
 70
     0
  4
"
 41
2.5
 42
1.0
 43
10.0
 44
1.0
 47
0.1
 48
0.1
 50
90.0
 73
     0
 77
     1
 78
     8
 79
     2
140
3.5
141
0.0
143
0.0393701
146
0.71
147
1.5
176
   256
177
   256
178
     2
271
     2
272
     3
274
     4
283
     0
284
     8
288
     1
289
     0
340
D
371
    -1
372
    -1
  0
DIMSTYLE
105
3B35
330
17
100
AcDbSymbolTableRecord
100
AcDbDimStyleTableRecord
  2
AM_DIN$4
 70
     0
  4
"
 41
2.5
 42
1.0
 43
10.0
 44
1.0
 47
0.1
 48
0.1
 50
90.0
 73
     0
 77
     1
 78
     8
 79
     2
140
3.5
141
0.0
143
0.0393701
146
0.71
147
1.5
176
   256
177
   256
178
     2
271
     2
272
     3
274
     4
283
     0
284
     8
288
     1
289
     0
340
D
371
    -1
372
    -1
  0
DIMSTYLE
105
3B36
330
17
100
AcDbSymbolTableRecord
100
AcDbDimStyleTableRecord
  2
AM_DIN$6
 70
     0
  4
"
 41
2.5
 42
1.0
 43
10.0
 44
1.0
 47
0.1
 48
0.1
 50
90.0
 73
     0
 74
     0
 78
     8
 79
     2
140
3.5
141
0.0
143
0.0393701
146
0.71
147
1.5
172
     1
176
   256
177
   256
178
     2
271
     2
272
     3
274
     4
283
     0
284
     8
340
D
371
    -1
372
    -1
  0
DIMSTYLE
105
3B37
330
17
100
AcDbSymbolTableRecord
100
AcDbDimStyleTableRecord
  2
AM_DIN$7
 70
     0
  4
"
 41
2.5
 42
1.0
 43
10.0
 44
1.0
 47
0.1
 48
0.1
 50
90.0
 73
     0
 74
     0
 77
     1
 78
     8
 79
     2
140
5.0
141
0.0
143
0.0393701
146
0.71
147
1.5
172
     1
176
   256
177
   256
178
     2
271
     2
272
     3
274
     4
283
     0
284
     8
340
D
371
    -1
372
    -1
  0
DIMSTYLE
105
3B38
330
17
100
AcDbSymbolTableRecord
100
AcDbDimStyleTableRecord
  2
AM_DIN$SF
 70
     0
  4
"
 41
2.5
 42
1.0
 43
10.0
 44
1.0
 47
0.1
 48
0.1
 50
90.0
 73
     0
 74
     0
 75
     1
 76
     1
 77
     1
 78
     8
 79
     2
140
3.5
141
0.0
143
0.0393701
146
0.71
147
1.5
172
     1
176
   256
177
   256
178
     2
271
     2
272
     3
274
     4
283
     0
284
     8
340
D
371
    -1
372
    -1
  0
DIMSTYLE
105
3B39
330
17
100
AcDbSymbolTableRecord
100
AcDbDimStyleTableRecord
  2
AM_DIN$SH
 70
     0
  4
"
 41
2.5
 42
1.0
 43
10.0
 44
1.0
 47
0.1
 48
0.1
 50
90.0
 73
     0
 74
     0
 75
     1
 76
     1
 77
     1
 78
     8
 79
     2
140
3.5
141
0.0
143
0.0393701
144
2.0
146
0.71
147
1.5
172
     1
173
     1
176
   256
177
   256
178
     2
271
     2
272
     3
274
     4
283
     0
284
     8
340
D
343
F0
371
    -1
372
    -1
  0
ENDTAB
  0
TABLE
  2
BLOCK_RECORD
  5
1
330
0
100
AcDbSymbolTable
 70
   149
  0
BLOCK_RECORD
  5
2
102
{ACAD_XDICTIONARY
360
3
102
}
330
1
100
AcDbSymbolTableRecord
100
AcDbBlockTableRecord
  2
*MODEL_SPACE
340
62
 70
     0
280
     1
281
     0
  0
BLOCK_RECORD
  5
8
330
1
100
AcDbSymbolTableRecord
100
AcDbBlockTableRecord
  2
*PAPER_SPACE
340
63
 70
     0
280
     1
281
     0
  0
BLOCK_RECORD
  5
F0
330
1
100
AcDbSymbolTableRecord
100
AcDbBlockTableRecord
  2
GENAXEH
340
0
 70
     0
280
     1
281
     0
  0
BLOCK_RECORD
  5
7243
330
1
100
AcDbSymbolTableRecord
100
AcDbBlockTableRecord
  2
*D61
340
0
 70
     0
280
     1
281
     0
  0
BLOCK_RECORD
  5
724F
330
1
100
AcDbSymbolTableRecord
100
AcDbBlockTableRecord
  2
*D62
340
0
 70
     0
280
     1
281
     0
  0
BLOCK_RECORD
  5
725D
330
1
100
AcDbSymbolTableRecord
100
AcDbBlockTableRecord
  2
*D63
340
0
 70
     0
280
     1
281
     0
  0
BLOCK_RECORD
  5
7277
330
1
100
AcDbSymbolTableRecord
100
AcDbBlockTableRecord
  2
*D65
340
0
 70
     0
280
     1
281
     0
  0
BLOCK_RECORD
  5
7285
330
1
100
AcDbSymbolTableRecord
100
AcDbBlockTableRecord
  2
*D66
340
0
 70
     0
280
     1
281
     0
  0
BLOCK_RECORD
  5
7293
330
1
100
AcDbSymbolTableRecord
100
AcDbBlockTableRecord
  2
*D67
340
0
 70
     0
280
     1
281
     0
  0
BLOCK_RECORD
  5
72AD
330
1
100
AcDbSymbolTableRecord
100
AcDbBlockTableRecord
  2
*D68
340
0
 70
     0
280
     1
281
     0
  0
BLOCK_RECORD
  5
72B9
330
1
100
AcDbSymbolTableRecord
100
AcDbBlockTableRecord
  2
*D69
340
0
 70
     0
280
     1
281
     0
  0
BLOCK_RECORD
  5
72C5
330
1
100
AcDbSymbolTableRecord
100
AcDbBlockTableRecord
  2
*D70
340
0
 70
     0
280
     1
281
     0
  0
BLOCK_RECORD
  5
72D1
330
1
100
AcDbSymbolTableRecord
100
AcDbBlockTableRecord
  2
*D71
340
0
 70
     0
280
     1
281
     0
  0
BLOCK_RECORD
  5
72DD
330
1
100
AcDbSymbolTableRecord
100
AcDbBlockTableRecord
  2
*D72
340
0
 70
     0
280
     1
281
     0
  0
BLOCK_RECORD
  5
730F
330
1
100
AcDbSymbolTableRecord
100
AcDbBlockTableRecord
  2
*D76
340
0
 70
     0
280
     1
281
     0
  0
BLOCK_RECORD
  5
731D
330
1
100
AcDbSymbolTableRecord
100
AcDbBlockTableRecord
  2
*D77
340
0
 70
     0
280
     1
281
     0
  0
BLOCK_RECORD
  5
732B
330
1
100
AcDbSymbolTableRecord
100
AcDbBlockTableRecord
  2
*D78
340
0
 70
     0
280
     1
281
     0
  0
BLOCK_RECORD
  5
734F
330
1
100
AcDbSymbolTableRecord
100
AcDbBlockTableRecord
  2
*D79
340
0
 70
     0
280
     1
281
     0
  0
BLOCK_RECORD
  5
7367
330
1
100
AcDbSymbolTableRecord
100
AcDbBlockTableRecord
  2
*D80
340
0
 70
     0
280
     1
281
     0
  0
BLOCK_RECORD
  5
7680
330
1
100
AcDbSymbolTableRecord
100
AcDbBlockTableRecord
  2
*D81
340
0
 70
     0
280
     1
281
     0
  0
BLOCK_RECORD
  5
76BA
330
1
100
AcDbSymbolTableRecord
100
AcDbBlockTableRecord
  2
*D82
340
0
 70
     0
280
     1
281
     0
  0
BLOCK_RECORD
  5
76E2
330
1
100
AcDbSymbolTableRecord
100
AcDbBlockTableRecord
  2
*D83
340
0
 70
     0
280
     1
281
     0
  0
BLOCK_RECORD
  5
7867
330
1
100
AcDbSymbolTableRecord
100
AcDbBlockTableRecord
  2
*D89
340
0
 70
     0
280
     1
281
     0
  0
BLOCK_RECORD
  5
787D
330
1
100
AcDbSymbolTableRecord
100
AcDbBlockTableRecord
  2
*D90
340
0
 70
     0
280
     1
281
     0
  0
BLOCK_RECORD
  5
788A
330
1
100
AcDbSymbolTableRecord
100
AcDbBlockTableRecord
  2
*D91
340
0
 70
     0
280
     1
281
     0
  0
BLOCK_RECORD
  5
78AB
330
1
100
AcDbSymbolTableRecord
100
AcDbBlockTableRecord
  2
*D92
340
0
 70
     0
280
     1
281
     0
  0
BLOCK_RECORD
  5
78CD
330
1
100
AcDbSymbolTableRecord
100
AcDbBlockTableRecord
  2
*D93
340
0
 70
     0
280
     1
281
     0
  0
BLOCK_RECORD
  5
7BB4
330
1
100
AcDbSymbolTableRecord
100
AcDbBlockTableRecord
  2
*D99
340
0
 70
     0
280
     1
281
     0
  0
BLOCK_RECORD
  5
7BC0
330
1
100
AcDbSymbolTableRecord
100
AcDbBlockTableRecord
  2
*D100
340
0
 70
     0
280
     1
281
     0
  0
BLOCK_RECORD
  5
830F
330
1
100
AcDbSymbolTableRecord
100
AcDbBlockTableRecord
  2
_Dot
340
0
 70
     0
280
     1
281
     0
  0
BLOCK_RECORD
  5
8A30
330
1
100
AcDbSymbolTableRecord
100
AcDbBlockTableRecord
  2
*D139
340
0
 70
     0
280
     1
281
     0
  0
BLOCK_RECORD
  5
8C13
330
1
100
AcDbSymbolTableRecord
100
AcDbBlockTableRecord
  2
*D141
340
0
 70
     0
280
     1
281
     0
  0
BLOCK_RECORD
  5
8C5E
330
1
100
AcDbSymbolTableRecord
100
AcDbBlockTableRecord
  2
*D143
340
0
 70
     0
280
     1
281
     0
  0
BLOCK_RECORD
  5
8C6A
330
1
100
AcDbSymbolTableRecord
100
AcDbBlockTableRecord
  2
*D144
340
0
 70
     0
280
     1
281
     0
  0
BLOCK_RECORD
  5
8C76
330
1
100
AcDbSymbolTableRecord
100
AcDbBlockTableRecord
  2
*D145
340
0
 70
     0
280
     1
281
     0
  0
ENDTAB
  0
ENDSEC
  0
SECTION
  2
BLOCKS
  0
BLOCK
  5
4
330
2
100
AcDbEntity
  8
0
100
AcDbBlockBegin
  2
*MODEL_SPACE
 70
     0
 10
0.0
 20
0.0
 30
0.0
  3
*MODEL_SPACE
  1

  0
ENDBLK
  5
7
330
2
100
AcDbEntity
  8
0
100
AcDbBlockEnd
  0
BLOCK
  5
9
330
8
100
AcDbEntity
 67
     1
  8
0
100
AcDbBlockBegin
  2
*PAPER_SPACE
 70
     0
 10
0.0
 20
0.0
 30
0.0
  3
*PAPER_SPACE
  1

  0
ENDBLK
  5
A
330
8
100
AcDbEntity
 67
     1
  8
0
100
AcDbBlockEnd
  0
BLOCK
  5
F2
330
F0
100
AcDbEntity
  8
0
 48
10.0
100
AcDbBlockBegin
  2
GENAXEH
 70
     0
 10
0.0
 20
0.0
 30
0.0
  3
GENAXEH
  1

  0
LINE
  5
F1
330
F0
100
AcDbEntity
  8
0
100
AcDbLine
 10
-1.0
 20
0.0
 30
0.0
 11
1.0
 21
0.0
 31
0.0
  0
ENDBLK
  5
F3
330
F0
100
AcDbEntity
  8
0
 48
10.0
100
AcDbBlockEnd
  0
BLOCK
  5
7244
330
7243
100
AcDbEntity
  8
0
 48
10.0
100
AcDbBlockBegin
  2
*D61
 70
     1
 10
0.0
 20
0.0
 30
0.0
  3
*D61
  1

  0
LINE
  5
8E45
330
7243
100
AcDbEntity
  8
BEM
 48
10.0
370
    -2
100
AcDbLine
 10
1241.524579757874
 20
382.5536674168496
 30
0.0
 11
1116.065928451663
 21
382.5536674168497
 31
0.0
  0
LINE
  5
8E46
330
7243
100
AcDbEntity
  8
BEM
 48
10.0
370
    -2
100
AcDbLine
 10
1241.524579757874
 20
236.5536674168497
 30
0.0
 11
1116.065928451663
 21
236.5536674168498
 31
0.0
  0
LINE
  5
8E47
330
7243
100
AcDbEntity
  8
BEM
 48
10.0
370
    -2
100
AcDbLine
 10
1117.315928451663
 20
376.5536674168497
 30
0.0
 11
1117.315928451663
 21
242.5536674168498
 31
0.0
  0
SOLID
  5
8E48
330
7243
100
AcDbEntity
  8
BEM
 48
10.0
100
AcDbTrace
 10
1116.315928451663
 20
376.5536674168497
 30
0.0
 11
1118.315928451663
 21
376.5536674168497
 31
0.0
 12
1117.315928451663
 22
382.5536674168497
 32
0.0
 13
1117.315928451663
 23
382.5536674168497
 33
0.0
  0
SOLID
  5
8E49
330
7243
100
AcDbEntity
  8
BEM
 48
10.0
100
AcDbTrace
 10
1116.315928451663
 20
242.5536674168498
 30
0.0
 11
1118.315928451663
 21
242.5536674168498
 31
0.0
 12
1117.315928451663
 22
236.5536674168498
 32
0.0
 13
1117.315928451663
 23
236.5536674168498
 33
0.0
  0
MTEXT
  5
8E4A
330
7243
100
AcDbEntity
  8
BEM
 48
10.0
100
AcDbMText
 10
1110.815928451663
 20
309.5536674168499
 30
0.0
 40
6.0
 41
0.0
 46
0.0
 71
     5
 72
     1
  1
\A1;%%c146{}{\A0;{\H1.5x;}{\A2;\H0.71x;\C3;%%p0.05}}
 11
0.0000000000000001
 21
1.0
 31
0.0
 73
     1
 44
1.0
  0
POINT
  5
8E4B
330
7243
100
AcDbEntity
  8
Defpoints
 62
     0
 48
10.0
100
AcDbPoint
 10
1241.524579757874
 20
382.5536674168496
 30
0.0
  0
POINT
  5
8E4C
330
7243
100
AcDbEntity
  8
Defpoints
 62
     0
 48
10.0
100
AcDbPoint
 10
1241.524579757874
 20
236.5536674168497
 30
0.0
  0
POINT
  5
8E4D
330
7243
100
AcDbEntity
  8
Defpoints
 62
     0
 48
10.0
100
AcDbPoint
 10
1117.315928451663
 20
236.5536674168498
 30
0.0
  0
ENDBLK
  5
7245
330
7243
100
AcDbEntity
  8
0
 48
10.0
100
AcDbBlockEnd
  0
BLOCK
  5
7250
330
724F
100
AcDbEntity
  8
0
 48
10.0
100
AcDbBlockBegin
  2
*D62
 70
     1
 10
0.0
 20
0.0
 30
0.0
  3
*D62
  1

  0
LINE
  5
8E98
330
724F
100
AcDbEntity
  8
BEM
 48
10.0
370
    -2
100
AcDbLine
 10
1241.524579757874
 20
401.9893270672217
 30
0.0
 11
1241.524579757874
 21
477.293975454208
 31
0.0
  0
LINE
  5
8E99
330
724F
100
AcDbEntity
  8
BEM
 48
10.0
370
    -2
100
AcDbLine
 10
1161.472950285079
 20
355.7714972420356
 30
0.0
 11
1126.422744804396
 21
376.0077428114595
 31
0.0
  0
ARC
  5
8E9A
330
724F
100
AcDbEntity
  8
BEM
 48
10.0
370
    -2
100
AcDbCircle
 10
1241.524579757874
 20
309.5536674168497
 30
0.0
 40
166.4903080373585
100
AcDbArc
 50
92.06494472279841
 51
147.9350552772016
  0
SOLID
  5
8E9B
330
724F
100
AcDbEntity
  8
BEM
 48
10.0
100
AcDbTrace
 10
1235.507534830362
 20
476.9356986961962
 30
0.0
 11
1235.543572964177
 21
474.9360234093281
 31
0.0
 12
1241.524579757874
 22
476.0439754542081
 32
0.0
 13
1241.524579757874
 23
476.0439754542081
 33
0.0
  0
SOLID
  5
8E9C
330
724F
100
AcDbEntity
  8
BEM
 48
10.0
100
AcDbTrace
 10
1101.289761527514
 20
397.4245492366375
 30
0.0
 11
1099.576010996674
 21
398.4555968194607
 31
0.0
 12
1097.339743513625
 22
392.7988214355288
 32
0.0
 13
1097.339743513625
 23
392.7988214355288
 33
0.0
  0
MTEXT
  5
8E9D
330
724F
100
AcDbEntity
  8
BEM
 48
10.0
100
AcDbMText
 10
1155.779425739194
 20
458.0686306800206
 30
0.0
 40
6.0
 41
0.0
 46
0.0
 71
     5
 72
     1
  1
\A1;60\U+00B0
 11
0.8660254037844383
 21
0.5000000000000009
 31
0.0
 73
     1
 44
1.0
  0
POINT
  5
8E9E
330
724F
100
AcDbEntity
  8
Defpoints
 62
     0
 48
10.0
100
AcDbPoint
 10
1184.581540740602
 20
466.0033813119282
 30
0.0
  0
POINT
  5
8E9F
330
724F
100
AcDbEntity
  8
Defpoints
 62
     0
 48
10.0
100
AcDbPoint
 10
1241.524579757874
 20
309.5536674168497
 30
0.0
  0
POINT
  5
8EA0
330
724F
100
AcDbEntity
  8
Defpoints
 62
     0
 48
10.0
100
AcDbPoint
 10
1241.524579757874
 20
401.9893270672217
 30
0.0
  0
POINT
  5
8EA1
330
724F
100
AcDbEntity
  8
Defpoints
 62
     0
 48
10.0
100
AcDbPoint
 10
1241.524579757874
 20
217.1180077664775
 30
0.0
  0
POINT
  5
8EA2
330
724F
100
AcDbEntity
  8
Defpoints
 62
     0
 48
10.0
100
AcDbPoint
 10
1161.472950285079
 20
355.7714972420356
 30
0.0
  0
LINE
  5
8EA3
330
724F
100
AcDbEntity
  8
BEM
 48
10.0
370
    -2
100
AcDbLine
 10
1110.364656844491
 20
385.2788842177815
 30
0.0
 11
1096.257211758894
 21
393.4238214355288
 31
0.0
  0
ENDBLK
  5
7251
330
724F
100
AcDbEntity
  8
0
 48
10.0
100
AcDbBlockEnd
  0
BLOCK
  5
725E
330
725D
100
AcDbEntity
  8
0
 48
10.0
100
AcDbBlockBegin
  2
*D63
 70
     1
 10
0.0
 20
0.0
 30
0.0
  3
*D63
  1

  0
LINE
  5
8EA4
330
725D
100
AcDbEntity
  8
BEM
 48
10.0
370
    -2
100
AcDbLine
 10
1321.576209230668
 20
355.7714972420355
 30
0.0
 11
1333.779942133705
 21
362.817325718722
 31
0.0
  0
LINE
  5
8EA5
330
725D
100
AcDbEntity
  8
BEM
 48
10.0
370
    -2
100
AcDbLine
 10
1241.524579757874
 20
401.9893270672215
 30
0.0
 11
1241.524579757874
 21
477.2939754542063
 31
0.0
  0
ARC
  5
8EA6
330
725D
100
AcDbEntity
  8
BEM
 48
10.0
370
    -2
100
AcDbCircle
 10
1241.524579757874
 20
309.5536674168494
 30
0.0
 40
166.4903080373569
100
AcDbArc
 50
32.06494472279843
 51
87.93505527720151
  0
SOLID
  5
8EA7
330
725D
100
AcDbEntity
  8
BEM
 48
10.0
100
AcDbTrace
 10
1383.473148519072
 20
398.4555968194598
 30
0.0
 11
1381.759397988232
 21
397.4245492366366
 31
0.0
 12
1385.709416002121
 22
392.7988214355279
 32
0.0
 13
1385.709416002121
 23
392.7988214355279
 33
0.0
  0
SOLID
  5
8EA8
330
725D
100
AcDbEntity
  8
BEM
 48
10.0
100
AcDbTrace
 10
1247.50558655157
 20
474.9360234093264
 30
0.0
 11
1247.541624685386
 21
476.9356986961945
 31
0.0
 12
1241.524579757874
 22
476.0439754542063
 32
0.0
 13
1241.524579757874
 23
476.0439754542063
 33
0.0
  0
MTEXT
  5
8EA9
330
725D
100
AcDbEntity
  8
BEM
 48
10.0
100
AcDbMText
 10
1327.269733776552
 20
458.0686306800193
 30
0.0
 40
6.0
 41
0.0
 46
0.0
 71
     5
 72
     1
  1
\A1;60\U+00B0
 11
0.8660254037844387
 21
-0.5000000000000004
 31
0.0
 73
     1
 44
1.0
  0
POINT
  5
8EAA
330
725D
100
AcDbEntity
  8
Defpoints
 62
     0
 48
10.0
100
AcDbPoint
 10
1348.542486897182
 20
437.0926427220336
 30
0.0
  0
POINT
  5
8EAB
330
725D
100
AcDbEntity
  8
Defpoints
 62
     0
 48
10.0
100
AcDbPoint
 10
1241.524579757874
 20
401.9893270672215
 30
0.0
  0
POINT
  5
8EAC
330
725D
100
AcDbEntity
  8
Defpoints
 62
     0
 48
10.0
100
AcDbPoint
 10
1241.524579757874
 20
309.5536674168494
 30
0.0
  0
POINT
  5
8EAD
330
725D
100
AcDbEntity
  8
Defpoints
 62
     0
 48
10.0
100
AcDbPoint
 10
1321.576209230668
 20
355.7714972420355
 30
0.0
  0
POINT
  5
8EAE
330
725D
100
AcDbEntity
  8
Defpoints
 62
     0
 48
10.0
100
AcDbPoint
 10
1241.524579757874
 20
217.1180077664774
 30
0.0
  0
LINE
  5
8EAF
330
725D
100
AcDbEntity
  8
BEM
 48
10.0
370
    -2
100
AcDbLine
 10
1348.664777774206
 20
371.4110895826084
 30
0.0
 11
1386.791947756852
 21
393.4238214355279
 31
0.0
  0
ENDBLK
  5
725F
330
725D
100
AcDbEntity
  8
0
 48
10.0
100
AcDbBlockEnd
  0
BLOCK
  5
7278
330
7277
100
AcDbEntity
  8
0
 48
10.0
100
AcDbBlockBegin
  2
*D65
 70
     1
 10
0.0
 20
0.0
 30
0.0
  3
*D65
  1

  0
LINE
  5
8EB0
330
7277
100
AcDbEntity
  8
BEM
 48
10.0
370
    -2
100
AcDbLine
 10
1241.524579757874
 20
396.7416891231133
 30
0.0
 11
1241.524579757874
 21
446.5354859278658
 31
0.0
  0
LINE
  5
8EB1
330
7277
100
AcDbEntity
  8
BEM
 48
10.0
370
    -2
100
AcDbLine
 10
1200.024579757874
 20
381.4337759309581
 30
0.0
 11
1191.019092982656
 21
397.031736572525
 31
0.0
  0
ARC
  5
8EB2
330
7277
100
AcDbEntity
  8
BEM
 48
10.0
370
    -2
100
AcDbCircle
 10
1241.524579757874
 20
309.5536674168497
 30
0.0
 40
135.7318185110159
100
AcDbArc
 50
92.5329556248087
 51
117.4670443751912
  0
SOLID
  5
8EB3
330
7277
100
AcDbEntity
  8
BEM
 48
10.0
100
AcDbTrace
 10
1235.503943078422
 20
446.1526271931969
 30
0.0
 11
1235.54814789396
 21
444.1531157693027
 31
0.0
 12
1241.524579757874
 22
445.2854859278657
 32
0.0
 13
1241.524579757874
 23
445.2854859278657
 33
0.0
  0
SOLID
  5
8EB4
330
7277
100
AcDbEntity
  8
BEM
 48
10.0
100
AcDbTrace
 10
1179.400597399783
 20
429.1084249574023
 30
0.0
 11
1178.439124181062
 21
430.8621550534211
 31
0.0
 12
1173.658670502366
 22
427.1008703492485
 32
0.0
 13
1173.658670502366
 23
427.1008703492485
 33
0.0
  0
MTEXT
  5
8EB5
330
7277
100
AcDbEntity
  8
BEM
 48
10.0
100
AcDbMText
 10
1205.100504875311
 20
445.490165497266
 30
0.0
 40
6.0
 41
0.0
 46
0.0
 71
     5
 72
     1
  1
\A1;30\U+00B0
 11
0.9659258262890684
 21
0.2588190451025198
 31
0.0
 73
     1
 44
1.0
  0
POINT
  5
8EB6
330
7277
100
AcDbEntity
  8
Defpoints
 62
     0
 48
10.0
100
AcDbPoint
 10
1217.954996822017
 20
443.2234146169442
 30
0.0
  0
POINT
  5
8EB7
330
7277
100
AcDbEntity
  8
Defpoints
 62
     0
 48
10.0
100
AcDbPoint
 10
1241.524579757874
 20
309.5536674168496
 30
0.0
  0
POINT
  5
8EB8
330
7277
100
AcDbEntity
  8
Defpoints
 62
     0
 48
10.0
100
AcDbPoint
 10
1241.524579757874
 20
396.7416891231133
 30
0.0
  0
POINT
  5
8EB9
330
7277
100
AcDbEntity
  8
Defpoints
 62
     0
 48
10.0
100
AcDbPoint
 10
1241.524579757874
 20
217.1180077664775
 30
0.0
  0
POINT
  5
8EBA
330
7277
100
AcDbEntity
  8
Defpoints
 62
     0
 48
10.0
100
AcDbPoint
 10
1200.024579757874
 20
381.4337759309581
 30
0.0
  0
LINE
  5
8EBB
330
7277
100
AcDbEntity
  8
BEM
 48
10.0
370
    -2
100
AcDbLine
 10
1183.928216866291
 20
409.3134942762451
 30
0.0
 11
1173.033670502366
 21
428.1834021039791
 31
0.0
  0
ENDBLK
  5
7279
330
7277
100
AcDbEntity
  8
0
 48
10.0
100
AcDbBlockEnd
  0
BLOCK
  5
7286
330
7285
100
AcDbEntity
  8
0
 48
10.0
100
AcDbBlockBegin
  2
*D66
 70
     1
 10
0.0
 20
0.0
 30
0.0
  3
*D66
  1

  0
LINE
  5
8DBB
330
7285
100
AcDbEntity
  8
BEM
 48
10.0
370
    -2
100
AcDbLine
 10
1194.937003102604
 20
378.2457171852863
 30
0.0
 11
1181.434971609457
 21
401.6319217368126
 31
0.0
  0
LINE
  5
8DBC
330
7285
100
AcDbEntity
  8
BEM
 48
10.0
370
    -2
100
AcDbLine
 10
1205.329307948017
 20
384.2457171852863
 30
0.0
 11
1191.827276454869
 21
407.6319217368125
 31
0.0
  0
LINE
  5
8DBD
330
7285
100
AcDbEntity
  8
BEM
 48
10.0
370
    -2
100
AcDbLine
 10
1176.86381918675
 20
397.5493899820819
 30
0.0
 11
1171.667666764043
 21
394.5493899820819
 31
0.0
  0
LINE
  5
8DBE
330
7285
100
AcDbEntity
  8
BEM
 48
10.0
370
    -2
100
AcDbLine
 10
1197.648428877576
 20
409.549389982082
 30
0.0
 11
1224.91090858871
 21
425.2893899820823
 31
0.0
  0
LINE
  5
8DBF
330
7285
100
AcDbEntity
  8
BEM
 48
10.0
370
    -2
100
AcDbLine
 10
1182.059971609457
 20
400.549389982082
 30
0.0
 11
1192.452276454869
 21
406.549389982082
 31
0.0
  0
SOLID
  5
8DC0
330
7285
100
AcDbEntity
  8
BEM
 48
10.0
100
AcDbTrace
 10
1176.36381918675
 20
398.4154153858664
 30
0.0
 11
1177.36381918675
 21
396.6833645782975
 31
0.0
 12
1182.059971609457
 22
400.549389982082
 32
0.0
 13
1182.059971609457
 23
400.549389982082
 33
0.0
  0
SOLID
  5
8DC1
330
7285
100
AcDbEntity
  8
BEM
 48
10.0
100
AcDbTrace
 10
1197.148428877576
 20
410.4154153858664
 30
0.0
 11
1198.148428877576
 21
408.6833645782976
 31
0.0
 12
1192.452276454869
 22
406.549389982082
 32
0.0
 13
1192.452276454869
 23
406.549389982082
 33
0.0
  0
MTEXT
  5
8DC2
330
7285
100
AcDbEntity
  8
BEM
 48
10.0
100
AcDbMText
 10
1211.377744944497
 20
423.2495170010043
 30
0.0
 40
6.0
 41
0.0
 46
0.0
 71
     5
 72
     1
  1
\A1;12{}{\H0.71x;\C3; P9}
 11
0.8660254037844337
 21
0.5000000000000084
 31
0.0
 73
     1
 44
1.0
  0
POINT
  5
8DC3
330
7285
100
AcDbEntity
  8
Defpoints
 62
     0
 48
10.0
100
AcDbPoint
 10
1194.937003102604
 20
378.2457171852863
 30
0.0
  0
POINT
  5
8DC4
330
7285
100
AcDbEntity
  8
Defpoints
 62
     0
 48
10.0
100
AcDbPoint
 10
1205.329307948017
 20
384.2457171852863
 30
0.0
  0
POINT
  5
8DC5
330
7285
100
AcDbEntity
  8
Defpoints
 62
     0
 48
10.0
100
AcDbPoint
 10
1192.452276454869
 20
406.549389982082
 30
0.0
  0
ENDBLK
  5
7287
330
7285
100
AcDbEntity
  8
0
 48
10.0
100
AcDbBlockEnd
  0
BLOCK
  5
7294
330
7293
100
AcDbEntity
  8
0
 48
10.0
100
AcDbBlockBegin
  2
*D67
 70
     1
 10
0.0
 20
0.0
 30
0.0
  3
*D67
  1

  0
LINE
  5
8D91
330
7293
100
AcDbEntity
  8
BEM
 48
10.0
370
    -2
100
AcDbLine
 10
1301.744434234138
 20
351.2498198395562
 30
0.0
 11
1338.392261203449
 21
372.4084526055017
 31
0.0
  0
LINE
  5
8D92
330
7293
100
AcDbEntity
  8
BEM
 48
10.0
370
    -2
100
AcDbLine
 10
1307.744434234138
 20
340.857514994143
 30
0.0
 11
1344.392261203449
 21
362.0161477600885
 31
0.0
  0
LINE
  5
8D93
330
7293
100
AcDbEntity
  8
BEM
 48
10.0
370
    -2
100
AcDbLine
 10
1334.309729448719
 20
376.9796050282084
 30
0.0
 11
1331.309729448719
 21
382.1757574509151
 31
0.0
  0
LINE
  5
8D94
330
7293
100
AcDbEntity
  8
BEM
 48
10.0
370
    -2
100
AcDbLine
 10
1346.309729448718
 20
356.1949953373818
 30
0.0
 11
1359.452586591575
 21
333.4308990093336
 31
0.0
  0
LINE
  5
8D95
330
7293
100
AcDbEntity
  8
BEM
 48
10.0
370
    -2
100
AcDbLine
 10
1337.309729448718
 20
371.7834526055018
 30
0.0
 11
1343.309729448718
 21
361.3911477600885
 31
0.0
  0
SOLID
  5
8D96
330
7293
100
AcDbEntity
  8
BEM
 48
10.0
100
AcDbTrace
 10
1335.175754852503
 20
377.4796050282084
 30
0.0
 11
1333.443704044934
 21
376.4796050282084
 31
0.0
 12
1337.309729448718
 22
371.7834526055018
 32
0.0
 13
1337.309729448718
 23
371.7834526055018
 33
0.0
  0
SOLID
  5
8D97
330
7293
100
AcDbEntity
  8
BEM
 48
10.0
100
AcDbTrace
 10
1347.175754852503
 20
356.6949953373818
 30
0.0
 11
1345.443704044934
 21
355.6949953373818
 31
0.0
 12
1343.309729448718
 22
361.3911477600885
 32
0.0
 13
1343.309729448718
 23
361.3911477600885
 33
0.0
  0
MTEXT
  5
8D98
330
7293
100
AcDbEntity
  8
BEM
 48
10.0
100
AcDbMText
 10
1358.711285039068
 20
344.7148709620045
 30
0.0
 40
6.0
 41
0.0
 46
0.0
 71
     5
 72
     1
  1
\A1;M12
 11
0.4999999999999857
 21
-0.8660254037844469
 31
0.0
 73
     1
 44
1.0
  0
POINT
  5
8D99
330
7293
100
AcDbEntity
  8
Defpoints
 62
     0
 48
10.0
100
AcDbPoint
 10
1301.744434234138
 20
351.2498198395562
 30
0.0
  0
POINT
  5
8D9A
330
7293
100
AcDbEntity
  8
Defpoints
 62
     0
 48
10.0
100
AcDbPoint
 10
1307.744434234138
 20
340.857514994143
 30
0.0
  0
POINT
  5
8D9B
330
7293
100
AcDbEntity
  8
Defpoints
 62
     0
 48
10.0
100
AcDbPoint
 10
1343.309729448718
 20
361.3911477600885
 30
0.0
  0
ENDBLK
  5
7295
330
7293
100
AcDbEntity
  8
0
 48
10.0
100
AcDbBlockEnd
  0
BLOCK
  5
72AE
330
72AD
100
AcDbEntity
  8
0
 48
10.0
100
AcDbBlockBegin
  2
*D68
 70
     1
 10
0.0
 20
0.0
 30
0.0
  3
*D68
  1

  0
LINE
  5
8E05
330
72AD
100
AcDbEntity
  8
BEM
 48
10.0
370
    -2
100
AcDbLine
 10
372.995927942694
 20
319.5536674168498
 30
0.0
 11
344.4668472595704
 21
319.5536674168498
 31
0.0
  0
LINE
  5
8E06
330
72AD
100
AcDbEntity
  8
BEM
 48
10.0
370
    -2
100
AcDbLine
 10
372.995927942694
 20
299.5536674168497
 30
0.0
 11
344.4668472595704
 21
299.5536674168497
 31
0.0
  0
LINE
  5
8E07
330
72AD
100
AcDbEntity
  8
BEM
 48
10.0
370
    -2
100
AcDbLine
 10
345.7168472595705
 20
313.5536674168498
 30
0.0
 11
345.7168472595705
 21
305.5536674168497
 31
0.0
  0
SOLID
  5
8E08
330
72AD
100
AcDbEntity
  8
BEM
 48
10.0
100
AcDbTrace
 10
344.7168472595704
 20
313.5536674168498
 30
0.0
 11
346.7168472595704
 21
313.5536674168498
 31
0.0
 12
345.7168472595705
 22
319.5536674168498
 32
0.0
 13
345.7168472595705
 23
319.5536674168498
 33
0.0
  0
SOLID
  5
8E09
330
72AD
100
AcDbEntity
  8
BEM
 48
10.0
100
AcDbTrace
 10
344.7168472595704
 20
305.5536674168497
 30
0.0
 11
346.7168472595704
 21
305.5536674168497
 31
0.0
 12
345.7168472595705
 22
299.5536674168497
 32
0.0
 13
345.7168472595705
 23
299.5536674168497
 33
0.0
  0
MTEXT
  5
8E0A
330
72AD
100
AcDbEntity
  8
BEM
 48
10.0
100
AcDbMText
 10
340.7168472595704
 20
310.1121811132105
 30
0.0
 40
6.0
 41
0.0
 46
0.0
 71
     5
 72
     1
  1
\A1;M20
 11
0.0000000000000001
 21
1.0
 31
0.0
 73
     1
 44
1.0
  0
POINT
  5
8E0B
330
72AD
100
AcDbEntity
  8
Defpoints
 62
     0
 48
10.0
100
AcDbPoint
 10
372.995927942694
 20
319.5536674168498
 30
0.0
  0
POINT
  5
8E0C
330
72AD
100
AcDbEntity
  8
Defpoints
 62
     0
 48
10.0
100
AcDbPoint
 10
372.995927942694
 20
299.5536674168497
 30
0.0
  0
POINT
  5
8E0D
330
72AD
100
AcDbEntity
  8
Defpoints
 62
     0
 48
10.0
100
AcDbPoint
 10
345.7168472595705
 20
299.5536674168497
 30
0.0
  0
ENDBLK
  5
72AF
330
72AD
100
AcDbEntity
  8
0
 48
10.0
100
AcDbBlockEnd
  0
BLOCK
  5
72BA
330
72B9
100
AcDbEntity
  8
0
 48
10.0
100
AcDbBlockBegin
  2
*D69
 70
     1
 10
0.0
 20
0.0
 30
0.0
  3
*D69
  1

  0
LINE
  5
8EBC
330
72B9
100
AcDbEntity
  8
BEM
 48
10.0
370
    -2
100
AcDbLine
 10
496.9959279426952
 20
371.5536674168498
 30
0.0
 11
402.4505038995039
 21
371.5536674168498
 31
0.0
  0
LINE
  5
8EBD
330
72B9
100
AcDbEntity
  8
BEM
 48
10.0
370
    -2
100
AcDbLine
 10
496.9959279426952
 20
247.5536674168497
 30
0.0
 11
287.2672108972038
 21
247.5536674168498
 31
0.0
  0
LINE
  5
8EBE
330
72B9
100
AcDbEntity
  8
BEM
 48
10.0
370
    -2
100
AcDbLine
 10
288.5172108972038
 20
365.5536674168498
 30
0.0
 11
288.5172108972038
 21
253.5536674168498
 31
0.0
  0
SOLID
  5
8EBF
330
72B9
100
AcDbEntity
  8
BEM
 48
10.0
100
AcDbTrace
 10
287.5172108972038
 20
365.5536674168498
 30
0.0
 11
289.5172108972038
 21
365.5536674168498
 31
0.0
 12
288.5172108972038
 22
371.5536674168498
 32
0.0
 13
288.5172108972038
 23
371.5536674168498
 33
0.0
  0
SOLID
  5
8EC0
330
72B9
100
AcDbEntity
  8
BEM
 48
10.0
100
AcDbTrace
 10
287.5172108972038
 20
253.5536674168498
 30
0.0
 11
289.5172108972038
 21
253.5536674168498
 31
0.0
 12
288.5172108972038
 22
247.5536674168498
 32
0.0
 13
288.5172108972038
 23
247.5536674168498
 33
0.0
  0
MTEXT
  5
8EC1
330
72B9
100
AcDbEntity
  8
BEM
 48
10.0
100
AcDbMText
 10
283.5172108972037
 20
309.5536674168499
 30
0.0
 40
6.0
 41
0.0
 46
0.0
 71
     5
 72
     1
  1
\A1;%%C124{}{\H0.71x;\C3; H7}
 11
0.0000000000000001
 21
1.0
 31
0.0
 73
     1
 44
1.0
  0
POINT
  5
8EC2
330
72B9
100
AcDbEntity
  8
Defpoints
 62
     0
 48
10.0
100
AcDbPoint
 10
496.9959279426952
 20
371.5536674168498
 30
0.0
  0
POINT
  5
8EC3
330
72B9
100
AcDbEntity
  8
Defpoints
 62
     0
 48
10.0
100
AcDbPoint
 10
496.9959279426952
 20
247.5536674168497
 30
0.0
  0
POINT
  5
8EC4
330
72B9
100
AcDbEntity
  8
Defpoints
 62
     0
 48
10.0
100
AcDbPoint
 10
288.5172108972038
 20
247.5536674168498
 30
0.0
  0
LINE
  5
8EC5
330
72B9
100
AcDbEntity
  8
BEM
 48
10.0
370
    -2
100
AcDbLine
 10
360.5999850233475
 20
371.5536674168498
 30
0.0
 11
287.2672108972038
 21
371.5536674168498
 31
0.0
  0
ENDBLK
  5
72BB
330
72B9
100
AcDbEntity
  8
0
 48
10.0
100
AcDbBlockEnd
  0
BLOCK
  5
72C6
330
72C5
100
AcDbEntity
  8
0
 48
10.0
100
AcDbBlockBegin
  2
*D70
 70
     1
 10
0.0
 20
0.0
 30
0.0
  3
*D70
  1

  0
LINE
  5
8EC6
330
72C5
100
AcDbEntity
  8
BEM
 48
10.0
370
    -2
100
AcDbLine
 10
496.9959279426952
 20
392.5536674168496
 30
0.0
 11
382.6038684935465
 21
392.5536674168496
 31
0.0
  0
LINE
  5
8EC7
330
72C5
100
AcDbEntity
  8
BEM
 48
10.0
370
    -2
100
AcDbLine
 10
496.9959279426952
 20
226.5536674168497
 30
0.0
 11
260.2525626940783
 21
226.5536674168498
 31
0.0
  0
LINE
  5
8EC8
330
72C5
100
AcDbEntity
  8
BEM
 48
10.0
370
    -2
100
AcDbLine
 10
261.5025626940783
 20
386.5536674168497
 30
0.0
 11
261.5025626940783
 21
232.5536674168498
 31
0.0
  0
SOLID
  5
8EC9
330
72C5
100
AcDbEntity
  8
BEM
 48
10.0
100
AcDbTrace
 10
260.5025626940783
 20
386.5536674168497
 30
0.0
 11
262.5025626940783
 21
386.5536674168497
 31
0.0
 12
261.5025626940783
 22
392.5536674168497
 32
0.0
 13
261.5025626940783
 23
392.5536674168497
 33
0.0
  0
SOLID
  5
8ECA
330
72C5
100
AcDbEntity
  8
BEM
 48
10.0
100
AcDbTrace
 10
260.5025626940783
 20
232.5536674168498
 30
0.0
 11
262.5025626940783
 21
232.5536674168498
 31
0.0
 12
261.5025626940783
 22
226.5536674168498
 32
0.0
 13
261.5025626940783
 23
226.5536674168498
 33
0.0
  0
MTEXT
  5
8ECB
330
72C5
100
AcDbEntity
  8
BEM
 48
10.0
100
AcDbMText
 10
256.5025626940782
 20
309.5536674168498
 30
0.0
 40
6.0
 41
0.0
 46
0.0
 71
     5
 72
     1
  1
\A1;%%C166{}{\H0.71x;\C3; h9}
 11
0.0000000000000001
 21
1.0
 31
0.0
 73
     1
 44
1.0
  0
POINT
  5
8ECC
330
72C5
100
AcDbEntity
  8
Defpoints
 62
     0
 48
10.0
100
AcDbPoint
 10
496.9959279426952
 20
392.5536674168496
 30
0.0
  0
POINT
  5
8ECD
330
72C5
100
AcDbEntity
  8
Defpoints
 62
     0
 48
10.0
100
AcDbPoint
 10
496.9959279426952
 20
226.5536674168497
 30
0.0
  0
POINT
  5
8ECE
330
72C5
100
AcDbEntity
  8
Defpoints
 62
     0
 48
10.0
100
AcDbPoint
 10
261.5025626940783
 20
226.5536674168498
 30
0.0
  0
LINE
  5
8ECF
330
72C5
100
AcDbEntity
  8
BEM
 48
10.0
370
    -2
100
AcDbLine
 10
357.5798477587796
 20
392.5536674168497
 30
0.0
 11
260.2525626940783
 21
392.5536674168497
 31
0.0
  0
ENDBLK
  5
72C7
330
72C5
100
AcDbEntity
  8
0
 48
10.0
100
AcDbBlockEnd
  0
BLOCK
  5
72D2
330
72D1
100
AcDbEntity
  8
0
 48
10.0
100
AcDbBlockBegin
  2
*D71
 70
     1
 10
0.0
 20
0.0
 30
0.0
  3
*D71
  1

  0
LINE
  5
8E0E
330
72D1
100
AcDbEntity
  8
BEM
 48
10.0
370
    -2
100
AcDbLine
 10
372.995927942694
 20
285.5536674168497
 30
0.0
 11
372.995927942694
 21
188.2674421208471
 31
0.0
  0
LINE
  5
8E0F
330
72D1
100
AcDbEntity
  8
BEM
 48
10.0
370
    -2
100
AcDbLine
 10
420.995927942694
 20
299.5536674168497
 30
0.0
 11
420.995927942694
 21
188.2674421208471
 31
0.0
  0
LINE
  5
8E10
330
72D1
100
AcDbEntity
  8
BEM
 48
10.0
370
    -2
100
AcDbLine
 10
378.995927942694
 20
189.5174421208471
 30
0.0
 11
414.995927942694
 21
189.5174421208471
 31
0.0
  0
SOLID
  5
8E11
330
72D1
100
AcDbEntity
  8
BEM
 48
10.0
100
AcDbTrace
 10
378.995927942694
 20
190.5174421208471
 30
0.0
 11
378.995927942694
 21
188.5174421208471
 31
0.0
 12
372.995927942694
 22
189.5174421208471
 32
0.0
 13
372.995927942694
 23
189.5174421208471
 33
0.0
  0
SOLID
  5
8E12
330
72D1
100
AcDbEntity
  8
BEM
 48
10.0
100
AcDbTrace
 10
414.995927942694
 20
190.5174421208471
 30
0.0
 11
414.995927942694
 21
188.5174421208471
 31
0.0
 12
420.995927942694
 22
189.5174421208471
 32
0.0
 13
420.995927942694
 23
189.5174421208471
 33
0.0
  0
MTEXT
  5
8E13
330
72D1
100
AcDbEntity
  8
BEM
 48
10.0
100
AcDbMText
 10
396.9959279426941
 20
194.5174421208471
 30
0.0
 40
6.0
 41
0.0
 46
0.0
 71
     5
 72
     1
  1
\A1;48
 73
     1
 44
1.0
  0
POINT
  5
8E14
330
72D1
100
AcDbEntity
  8
Defpoints
 62
     0
 48
10.0
100
AcDbPoint
 10
372.995927942694
 20
285.5536674168497
 30
0.0
  0
POINT
  5
8E15
330
72D1
100
AcDbEntity
  8
Defpoints
 62
     0
 48
10.0
100
AcDbPoint
 10
420.995927942694
 20
299.5536674168497
 30
0.0
  0
POINT
  5
8E16
330
72D1
100
AcDbEntity
  8
Defpoints
 62
     0
 48
10.0
100
AcDbPoint
 10
420.995927942694
 20
189.5174421208471
 30
0.0
  0
ENDBLK
  5
72D3
330
72D1
100
AcDbEntity
  8
0
 48
10.0
100
AcDbBlockEnd
  0
BLOCK
  5
72DE
330
72DD
100
AcDbEntity
  8
0
 48
10.0
100
AcDbBlockBegin
  2
*D72
 70
     1
 10
0.0
 20
0.0
 30
0.0
  3
*D72
  1

  0
LINE
  5
8ED0
330
72DD
100
AcDbEntity
  8
BEM
 48
10.0
370
    -2
100
AcDbLine
 10
372.995927942694
 20
285.5536674168497
 30
0.0
 11
372.995927942694
 21
163.4317317914977
 31
0.0
  0
LINE
  5
8ED1
330
72DD
100
AcDbEntity
  8
BEM
 48
10.0
370
    -2
100
AcDbLine
 10
492.9959279426939
 20
279.5536674168498
 30
0.0
 11
492.9959279426939
 21
195.7480408842775
 31
0.0
  0
LINE
  5
8ED2
330
72DD
100
AcDbEntity
  8
BEM
 48
10.0
370
    -2
100
AcDbLine
 10
378.995927942694
 20
164.6817317914976
 30
0.0
 11
486.9959279426939
 21
164.6817317914976
 31
0.0
  0
SOLID
  5
8ED3
330
72DD
100
AcDbEntity
  8
BEM
 48
10.0
100
AcDbTrace
 10
378.995927942694
 20
165.6817317914977
 30
0.0
 11
378.995927942694
 21
163.6817317914976
 31
0.0
 12
372.995927942694
 22
164.6817317914976
 32
0.0
 13
372.995927942694
 23
164.6817317914976
 33
0.0
  0
SOLID
  5
8ED4
330
72DD
100
AcDbEntity
  8
BEM
 48
10.0
100
AcDbTrace
 10
486.9959279426939
 20
165.6817317914977
 30
0.0
 11
486.9959279426939
 21
163.6817317914976
 31
0.0
 12
492.9959279426939
 22
164.6817317914976
 32
0.0
 13
492.9959279426939
 23
164.6817317914976
 33
0.0
  0
MTEXT
  5
8ED5
330
72DD
100
AcDbEntity
  8
BEM
 48
10.0
100
AcDbMText
 10
432.62644829596
 20
169.6817317914977
 30
0.0
 40
6.0
 41
0.0
 46
0.0
 71
     5
 72
     1
  1
\A1;120
 73
     1
 44
1.0
  0
POINT
  5
8ED6
330
72DD
100
AcDbEntity
  8
Defpoints
 62
     0
 48
10.0
100
AcDbPoint
 10
372.995927942694
 20
285.5536674168497
 30
0.0
  0
POINT
  5
8ED7
330
72DD
100
AcDbEntity
  8
Defpoints
 62
     0
 48
10.0
100
AcDbPoint
 10
492.9959279426939
 20
279.5536674168498
 30
0.0
  0
POINT
  5
8ED8
330
72DD
100
AcDbEntity
  8
Defpoints
 62
     0
 48
10.0
100
AcDbPoint
 10
492.9959279426939
 20
164.6817317914976
 30
0.0
  0
LINE
  5
8ED9
330
72DD
100
AcDbEntity
  8
BEM
 48
10.0
370
    -2
100
AcDbLine
 10
492.9959279426939
 20
182.8665421414862
 30
0.0
 11
492.9959279426939
 21
163.4317317914977
 31
0.0
  0
ENDBLK
  5
72DF
330
72DD
100
AcDbEntity
  8
0
 48
10.0
100
AcDbBlockEnd
  0
BLOCK
  5
7310
330
730F
100
AcDbEntity
  8
0
 48
10.0
100
AcDbBlockBegin
  2
*D76
 70
     1
 10
0.0
 20
0.0
 30
0.0
  3
*D76
  1

  0
LINE
  5
8D9C
330
730F
100
AcDbEntity
  8
BEM
 48
10.0
370
    -2
100
AcDbLine
 10
496.9959279426952
 20
226.5536674168497
 30
0.0
 11
496.9959279426952
 21
188.2674421208471
 31
0.0
  0
LINE
  5
8D9D
330
730F
100
AcDbEntity
  8
BEM
 48
10.0
370
    -2
100
AcDbLine
 10
501.9959279426952
 20
247.5536674168497
 30
0.0
 11
501.9959279426952
 21
188.2674421208471
 31
0.0
  0
LINE
  5
8D9E
330
730F
100
AcDbEntity
  8
BEM
 48
10.0
370
    -2
100
AcDbLine
 10
490.9959279426953
 20
189.5174421208471
 30
0.0
 11
484.9959279426952
 21
189.5174421208471
 31
0.0
  0
LINE
  5
8D9F
330
730F
100
AcDbEntity
  8
BEM
 48
10.0
370
    -2
100
AcDbLine
 10
507.9959279426953
 20
189.5174421208471
 30
0.0
 11
526.2816422284096
 21
189.5174421208471
 31
0.0
  0
LINE
  5
8DA0
330
730F
100
AcDbEntity
  8
BEM
 48
10.0
370
    -2
100
AcDbLine
 10
496.9959279426952
 20
189.5174421208471
 30
0.0
 11
501.9959279426952
 21
189.5174421208471
 31
0.0
  0
SOLID
  5
8DA1
330
730F
100
AcDbEntity
  8
BEM
 48
10.0
100
AcDbTrace
 10
490.9959279426953
 20
190.5174421208471
 30
0.0
 11
490.9959279426953
 21
188.5174421208471
 31
0.0
 12
496.9959279426952
 22
189.5174421208471
 32
0.0
 13
496.9959279426952
 23
189.5174421208471
 33
0.0
  0
SOLID
  5
8DA2
330
730F
100
AcDbEntity
  8
BEM
 48
10.0
100
AcDbTrace
 10
507.9959279426953
 20
190.5174421208471
 30
0.0
 11
507.9959279426953
 21
188.5174421208471
 31
0.0
 12
501.9959279426952
 22
189.5174421208471
 32
0.0
 13
501.9959279426952
 23
189.5174421208471
 33
0.0
  0
MTEXT
  5
8DA3
330
730F
100
AcDbEntity
  8
BEM
 48
10.0
100
AcDbMText
 10
522.2816422284096
 20
194.5174421208471
 30
0.0
 40
6.0
 41
0.0
 46
0.0
 71
     5
 72
     1
  1
\A1;5
 73
     1
 44
1.0
  0
POINT
  5
8DA4
330
730F
100
AcDbEntity
  8
Defpoints
 62
     0
 48
10.0
100
AcDbPoint
 10
496.9959279426952
 20
226.5536674168497
 30
0.0
  0
POINT
  5
8DA5
330
730F
100
AcDbEntity
  8
Defpoints
 62
     0
 48
10.0
100
AcDbPoint
 10
501.9959279426952
 20
247.5536674168497
 30
0.0
  0
POINT
  5
8DA6
330
730F
100
AcDbEntity
  8
Defpoints
 62
     0
 48
10.0
100
AcDbPoint
 10
501.9959279426952
 20
189.5174421208471
 30
0.0
  0
ENDBLK
  5
7311
330
730F
100
AcDbEntity
  8
0
 48
10.0
100
AcDbBlockEnd
  0
BLOCK
  5
731E
330
731D
100
AcDbEntity
  8
0
 48
10.0
100
AcDbBlockBegin
  2
*D77
 70
     1
 10
0.0
 20
0.0
 30
0.0
  3
*D77
  1

  0
LINE
  5
8DA7
330
731D
100
AcDbEntity
  8
BEM
 48
10.0
370
    -2
100
AcDbLine
 10
496.9959279426952
 20
392.5536674168496
 30
0.0
 11
496.9959279426952
 21
432.1544887262606
 31
0.0
  0
LINE
  5
8DA8
330
731D
100
AcDbEntity
  8
BEM
 48
10.0
370
    -2
100
AcDbLine
 10
506.9959279426954
 20
381.2457171852863
 30
0.0
 11
506.9959279426954
 21
432.1544887262606
 31
0.0
  0
LINE
  5
8DA9
330
731D
100
AcDbEntity
  8
BEM
 48
10.0
370
    -2
100
AcDbLine
 10
490.9959279426953
 20
430.9044887262606
 30
0.0
 11
484.9959279426952
 21
430.9044887262606
 31
0.0
  0
LINE
  5
8DAA
330
731D
100
AcDbEntity
  8
BEM
 48
10.0
370
    -2
100
AcDbLine
 10
512.9959279426953
 20
430.9044887262606
 30
0.0
 11
518.9959279426954
 21
430.9044887262606
 31
0.0
  0
LINE
  5
8DAB
330
731D
100
AcDbEntity
  8
BEM
 48
10.0
370
    -2
100
AcDbLine
 10
496.9959279426952
 20
430.9044887262606
 30
0.0
 11
506.9959279426954
 21
430.9044887262606
 31
0.0
  0
SOLID
  5
8DAC
330
731D
100
AcDbEntity
  8
BEM
 48
10.0
100
AcDbTrace
 10
490.9959279426953
 20
431.9044887262606
 30
0.0
 11
490.9959279426953
 21
429.9044887262606
 31
0.0
 12
496.9959279426952
 22
430.9044887262606
 32
0.0
 13
496.9959279426952
 23
430.9044887262606
 33
0.0
  0
SOLID
  5
8DAD
330
731D
100
AcDbEntity
  8
BEM
 48
10.0
100
AcDbTrace
 10
512.9959279426953
 20
431.9044887262606
 30
0.0
 11
512.9959279426953
 21
429.9044887262606
 31
0.0
 12
506.9959279426954
 22
430.9044887262606
 32
0.0
 13
506.9959279426954
 23
430.9044887262606
 33
0.0
  0
MTEXT
  5
8DAE
330
731D
100
AcDbEntity
  8
BEM
 48
10.0
100
AcDbMText
 10
501.9959279426953
 20
435.9044887262606
 30
0.0
 40
6.0
 41
0.0
 46
0.0
 71
     5
 72
     1
  1
\A1;10
 73
     1
 44
1.0
  0
POINT
  5
8DAF
330
731D
100
AcDbEntity
  8
Defpoints
 62
     0
 48
10.0
100
AcDbPoint
 10
496.9959279426952
 20
392.5536674168496
 30
0.0
  0
POINT
  5
8DB0
330
731D
100
AcDbEntity
  8
Defpoints
 62
     0
 48
10.0
100
AcDbPoint
 10
506.9959279426954
 20
381.2457171852863
 30
0.0
  0
POINT
  5
8DB1
330
731D
100
AcDbEntity
  8
Defpoints
 62
     0
 48
10.0
100
AcDbPoint
 10
506.9959279426954
 20
430.9044887262606
 30
0.0
  0
ENDBLK
  5
731F
330
731D
100
AcDbEntity
  8
0
 48
10.0
100
AcDbBlockEnd
  0
BLOCK
  5
732C
330
732B
100
AcDbEntity
  8
0
 48
10.0
100
AcDbBlockBegin
  2
*D78
 70
     1
 10
0.0
 20
0.0
 30
0.0
  3
*D78
  1

  0
LINE
  5
8DB2
330
732B
100
AcDbEntity
  8
BEM
 48
10.0
370
    -2
100
AcDbLine
 10
506.9959279426954
 20
381.2457171852861
 30
0.0
 11
506.9959279426954
 21
432.1544887262606
 31
0.0
  0
LINE
  5
8DB3
330
732B
100
AcDbEntity
  8
BEM
 48
10.0
370
    -2
100
AcDbLine
 10
556.9959279426954
 20
381.2457171852861
 30
0.0
 11
556.9959279426954
 21
432.1544887262606
 31
0.0
  0
LINE
  5
8DB4
330
732B
100
AcDbEntity
  8
BEM
 48
10.0
370
    -2
100
AcDbLine
 10
512.9959279426953
 20
430.9044887262606
 30
0.0
 11
550.9959279426953
 21
430.9044887262606
 31
0.0
  0
SOLID
  5
8DB5
330
732B
100
AcDbEntity
  8
BEM
 48
10.0
100
AcDbTrace
 10
512.9959279426953
 20
431.9044887262606
 30
0.0
 11
512.9959279426953
 21
429.9044887262606
 31
0.0
 12
506.9959279426954
 22
430.9044887262606
 32
0.0
 13
506.9959279426954
 23
430.9044887262606
 33
0.0
  0
SOLID
  5
8DB6
330
732B
100
AcDbEntity
  8
BEM
 48
10.0
100
AcDbTrace
 10
550.9959279426953
 20
431.9044887262606
 30
0.0
 11
550.9959279426953
 21
429.9044887262606
 31
0.0
 12
556.9959279426954
 22
430.9044887262606
 32
0.0
 13
556.9959279426954
 23
430.9044887262606
 33
0.0
  0
MTEXT
  5
8DB7
330
732B
100
AcDbEntity
  8
BEM
 48
10.0
100
AcDbMText
 10
531.9959279426954
 20
435.9044887262606
 30
0.0
 40
6.0
 41
0.0
 46
0.0
 71
     5
 72
     1
  1
\A1;50
 73
     1
 44
1.0
  0
POINT
  5
8DB8
330
732B
100
AcDbEntity
  8
Defpoints
 62
     0
 48
10.0
100
AcDbPoint
 10
506.9959279426954
 20
381.2457171852861
 30
0.0
  0
POINT
  5
8DB9
330
732B
100
AcDbEntity
  8
Defpoints
 62
     0
 48
10.0
100
AcDbPoint
 10
556.9959279426954
 20
381.2457171852861
 30
0.0
  0
POINT
  5
8DBA
330
732B
100
AcDbEntity
  8
Defpoints
 62
     0
 48
10.0
100
AcDbPoint
 10
556.9959279426954
 20
430.9044887262606
 30
0.0
  0
ENDBLK
  5
732D
330
732B
100
AcDbEntity
  8
0
 48
10.0
100
AcDbBlockEnd
  0
BLOCK
  5
7350
330
734F
100
AcDbEntity
  8
0
 48
10.0
100
AcDbBlockBegin
  2
*D79
 70
     1
 10
0.0
 20
0.0
 30
0.0
  3
*D79
  1

  0
LINE
  5
8E60
330
734F
100
AcDbEntity
  8
BEM
 48
10.0
370
    -2
100
AcDbLine
 10
625.3691583174913
 20
389.5536674168499
 30
0.0
 11
620.6126453693597
 21
389.5536674168499
 31
0.0
  0
LINE
  5
8E61
330
734F
100
AcDbEntity
  8
BEM
 48
10.0
370
    -2
100
AcDbLine
 10
625.3691583174913
 20
229.5536674168498
 30
0.0
 11
620.6126453693595
 21
229.5536674168498
 31
0.0
  0
LINE
  5
8E62
330
734F
100
AcDbEntity
  8
BEM
 48
10.0
370
    -2
100
AcDbLine
 10
621.8626453693596
 20
383.5536674168499
 30
0.0
 11
621.8626453693596
 21
235.5536674168497
 31
0.0
  0
SOLID
  5
8E63
330
734F
100
AcDbEntity
  8
BEM
 48
10.0
100
AcDbTrace
 10
620.8626453693597
 20
383.5536674168499
 30
0.0
 11
622.8626453693597
 21
383.5536674168499
 31
0.0
 12
621.8626453693596
 22
389.5536674168499
 32
0.0
 13
621.8626453693596
 23
389.5536674168499
 33
0.0
  0
SOLID
  5
8E64
330
734F
100
AcDbEntity
  8
BEM
 48
10.0
100
AcDbTrace
 10
620.8626453693596
 20
235.5536674168497
 30
0.0
 11
622.8626453693595
 21
235.5536674168497
 31
0.0
 12
621.8626453693596
 22
229.5536674168498
 32
0.0
 13
621.8626453693596
 23
229.5536674168498
 33
0.0
  0
MTEXT
  5
8E65
330
734F
100
AcDbEntity
  8
BEM
 48
10.0
100
AcDbMText
 10
616.8626453693596
 20
309.5536674168499
 30
0.0
 40
6.0
 41
0.0
 46
0.0
 71
     5
 72
     1
  1
\A1;%%C160{}{\H0.71x;\C3;-0.3}
 11
0.0000000000000001
 21
1.0
 31
0.0
 73
     1
 44
1.0
  0
POINT
  5
8E66
330
734F
100
AcDbEntity
  8
Defpoints
 62
     0
 48
10.0
100
AcDbPoint
 10
625.3691583174913
 20
389.5536674168499
 30
0.0
  0
POINT
  5
8E67
330
734F
100
AcDbEntity
  8
Defpoints
 62
     0
 48
10.0
100
AcDbPoint
 10
625.3691583174913
 20
229.5536674168498
 30
0.0
  0
POINT
  5
8E68
330
734F
100
AcDbEntity
  8
Defpoints
 62
     0
 48
10.0
100
AcDbPoint
 10
621.8626453693596
 20
229.5536674168498
 30
0.0
  0
ENDBLK
  5
7351
330
734F
100
AcDbEntity
  8
0
 48
10.0
100
AcDbBlockEnd
  0
BLOCK
  5
7368
330
7367
100
AcDbEntity
  8
0
 48
10.0
100
AcDbBlockBegin
  2
*D80
 70
     1
 10
0.0
 20
0.0
 30
0.0
  3
*D80
  1

  0
LINE
  5
8DFC
330
7367
100
AcDbEntity
  8
BEM
 48
10.0
370
    -2
100
AcDbLine
 10
376.995927942694
 20
337.5536674168497
 30
0.0
 11
315.3652804013037
 21
337.5536674168497
 31
0.0
  0
LINE
  5
8DFD
330
7367
100
AcDbEntity
  8
BEM
 48
10.0
370
    -2
100
AcDbLine
 10
376.9959279426942
 20
281.5536674168496
 30
0.0
 11
315.3652804013037
 21
281.5536674168496
 31
0.0
  0
LINE
  5
8DFE
330
7367
100
AcDbEntity
  8
BEM
 48
10.0
370
    -2
100
AcDbLine
 10
316.6152804013037
 20
331.5536674168498
 30
0.0
 11
316.6152804013037
 21
287.5536674168496
 31
0.0
  0
SOLID
  5
8DFF
330
7367
100
AcDbEntity
  8
BEM
 48
10.0
100
AcDbTrace
 10
315.6152804013037
 20
331.5536674168498
 30
0.0
 11
317.6152804013037
 21
331.5536674168498
 31
0.0
 12
316.6152804013037
 22
337.5536674168497
 32
0.0
 13
316.6152804013037
 23
337.5536674168497
 33
0.0
  0
SOLID
  5
8E00
330
7367
100
AcDbEntity
  8
BEM
 48
10.0
100
AcDbTrace
 10
315.6152804013037
 20
287.5536674168496
 30
0.0
 11
317.6152804013037
 21
287.5536674168496
 31
0.0
 12
316.6152804013037
 22
281.5536674168496
 32
0.0
 13
316.6152804013037
 23
281.5536674168496
 33
0.0
  0
MTEXT
  5
8E01
330
7367
100
AcDbEntity
  8
BEM
 48
10.0
100
AcDbMText
 10
310.9052804013036
 20
309.5536674168497
 30
0.0
 40
6.0
 41
0.0
 46
0.0
 71
     5
 72
     1
  1
\A1;%%C56{}{\H0.71x;\C3; j6}
 11
0.0000000000000001
 21
1.0
 31
0.0
 73
     1
 44
1.0
  0
POINT
  5
8E02
330
7367
100
AcDbEntity
  8
Defpoints
 62
     0
 48
10.0
100
AcDbPoint
 10
376.995927942694
 20
337.5536674168497
 30
0.0
  0
POINT
  5
8E03
330
7367
100
AcDbEntity
  8
Defpoints
 62
     0
 48
10.0
100
AcDbPoint
 10
376.9959279426942
 20
281.5536674168496
 30
0.0
  0
POINT
  5
8E04
330
7367
100
AcDbEntity
  8
Defpoints
 62
     0
 48
10.0
100
AcDbPoint
 10
316.6152804013037
 20
281.5536674168496
 30
0.0
  0
ENDBLK
  5
7369
330
7367
100
AcDbEntity
  8
0
 48
10.0
100
AcDbBlockEnd
  0
BLOCK
  5
7681
330
7680
100
AcDbEntity
  8
0
 48
10.0
100
AcDbBlockBegin
  2
*D81
 70
     1
 10
0.0
 20
0.0
 30
0.0
  3
*D81
  1

  0
LINE
  5
8DE1
330
7680
100
AcDbEntity
  8
BEM
 48
10.0
370
    -2
100
AcDbLine
 10
1047.995927942695
 20
355.5536674168497
 30
0.0
 11
1047.995927942695
 21
432.1544887262606
 31
0.0
  0
LINE
  5
8DE2
330
7680
100
AcDbEntity
  8
BEM
 48
10.0
370
    -2
100
AcDbLine
 10
675.9959279426973
 20
382.6254641865741
 30
0.0
 11
675.9959279426973
 21
432.1544887262606
 31
0.0
  0
LINE
  5
8DE3
330
7680
100
AcDbEntity
  8
BEM
 48
10.0
370
    -2
100
AcDbLine
 10
1041.995927942695
 20
430.9044887262606
 30
0.0
 11
681.9959279426973
 21
430.9044887262606
 31
0.0
  0
SOLID
  5
8DE4
330
7680
100
AcDbEntity
  8
BEM
 48
10.0
100
AcDbTrace
 10
1041.995927942695
 20
431.9044887262606
 30
0.0
 11
1041.995927942695
 21
429.9044887262606
 31
0.0
 12
1047.995927942695
 22
430.9044887262606
 32
0.0
 13
1047.995927942695
 23
430.9044887262606
 33
0.0
  0
SOLID
  5
8DE5
330
7680
100
AcDbEntity
  8
BEM
 48
10.0
100
AcDbTrace
 10
681.9959279426973
 20
431.9044887262606
 30
0.0
 11
681.9959279426973
 21
429.9044887262606
 31
0.0
 12
675.9959279426973
 22
430.9044887262606
 32
0.0
 13
675.9959279426973
 23
430.9044887262606
 33
0.0
  0
MTEXT
  5
8DE6
330
7680
100
AcDbEntity
  8
BEM
 48
10.0
100
AcDbMText
 10
861.9959279426963
 20
435.9044887262606
 30
0.0
 40
6.0
 41
0.0
 46
0.0
 71
     5
 72
     1
  1
\A1;372
 73
     1
 44
1.0
  0
POINT
  5
8DE7
330
7680
100
AcDbEntity
  8
Defpoints
 62
     0
 48
10.0
100
AcDbPoint
 10
1047.995927942695
 20
355.5536674168497
 30
0.0
  0
POINT
  5
8DE8
330
7680
100
AcDbEntity
  8
Defpoints
 62
     0
 48
10.0
100
AcDbPoint
 10
675.9959279426973
 20
382.6254641865741
 30
0.0
  0
POINT
  5
8DE9
330
7680
100
AcDbEntity
  8
Defpoints
 62
     0
 48
10.0
100
AcDbPoint
 10
675.9959279426973
 20
430.9044887262606
 30
0.0
  0
ENDBLK
  5
7682
330
7680
100
AcDbEntity
  8
0
 48
10.0
100
AcDbBlockEnd
  0
BLOCK
  5
76BB
330
76BA
100
AcDbEntity
  8
0
 48
10.0
100
AcDbBlockBegin
  2
*D82
 70
     1
 10
0.0
 20
0.0
 30
0.0
  3
*D82
  1

  0
LINE
  5
8DD8
330
76BA
100
AcDbEntity
  8
BEM
 48
10.0
370
    -2
100
AcDbLine
 10
1047.995927942695
 20
355.5536674168497
 30
0.0
 11
1047.995927942695
 21
470.7000644404553
 31
0.0
  0
LINE
  5
8DD9
330
76BA
100
AcDbEntity
  8
BEM
 48
10.0
370
    -2
100
AcDbLine
 10
594.9959279426951
 20
392.5536674168495
 30
0.0
 11
594.9959279426951
 21
470.7000644404553
 31
0.0
  0
LINE
  5
8DDA
330
76BA
100
AcDbEntity
  8
BEM
 48
10.0
370
    -2
100
AcDbLine
 10
1041.995927942695
 20
469.4500644404553
 30
0.0
 11
600.9959279426952
 21
469.4500644404553
 31
0.0
  0
SOLID
  5
8DDB
330
76BA
100
AcDbEntity
  8
BEM
 48
10.0
100
AcDbTrace
 10
1041.995927942695
 20
470.4500644404553
 30
0.0
 11
1041.995927942695
 21
468.4500644404553
 31
0.0
 12
1047.995927942695
 22
469.4500644404553
 32
0.0
 13
1047.995927942695
 23
469.4500644404553
 33
0.0
  0
SOLID
  5
8DDC
330
76BA
100
AcDbEntity
  8
BEM
 48
10.0
100
AcDbTrace
 10
600.9959279426952
 20
470.4500644404553
 30
0.0
 11
600.9959279426952
 21
468.4500644404553
 31
0.0
 12
594.9959279426951
 22
469.4500644404553
 32
0.0
 13
594.9959279426951
 23
469.4500644404553
 33
0.0
  0
MTEXT
  5
8DDD
330
76BA
100
AcDbEntity
  8
BEM
 48
10.0
100
AcDbMText
 10
821.4959279426953
 20
474.4500644404553
 30
0.0
 40
6.0
 41
0.0
 46
0.0
 71
     5
 72
     1
  1
\A1;453
 73
     1
 44
1.0
  0
POINT
  5
8DDE
330
76BA
100
AcDbEntity
  8
Defpoints
 62
     0
 48
10.0
100
AcDbPoint
 10
1047.995927942695
 20
355.5536674168497
 30
0.0
  0
POINT
  5
8DDF
330
76BA
100
AcDbEntity
  8
Defpoints
 62
     0
 48
10.0
100
AcDbPoint
 10
594.9959279426951
 20
392.5536674168495
 30
0.0
  0
POINT
  5
8DE0
330
76BA
100
AcDbEntity
  8
Defpoints
 62
     0
 48
10.0
100
AcDbPoint
 10
594.9959279426951
 20
469.4500644404553
 30
0.0
  0
ENDBLK
  5
76BC
330
76BA
100
AcDbEntity
  8
0
 48
10.0
100
AcDbBlockEnd
  0
BLOCK
  5
76E3
330
76E2
100
AcDbEntity
  8
0
 48
10.0
100
AcDbBlockBegin
  2
*D83
 70
     1
 10
0.0
 20
0.0
 30
0.0
  3
*D83
  1

  0
LINE
  5
8DCF
330
76E2
100
AcDbEntity
  8
BEM
 48
10.0
370
    -2
100
AcDbLine
 10
496.9959279426952
 20
392.5536674168496
 30
0.0
 11
496.9959279426952
 21
499.0916024171381
 31
0.0
  0
LINE
  5
8DD0
330
76E2
100
AcDbEntity
  8
BEM
 48
10.0
370
    -2
100
AcDbLine
 10
1047.995927942695
 20
355.5536674168497
 30
0.0
 11
1047.995927942695
 21
499.0916024171381
 31
0.0
  0
LINE
  5
8DD1
330
76E2
100
AcDbEntity
  8
BEM
 48
10.0
370
    -2
100
AcDbLine
 10
502.9959279426953
 20
497.8416024171381
 30
0.0
 11
1041.995927942695
 21
497.8416024171381
 31
0.0
  0
SOLID
  5
8DD2
330
76E2
100
AcDbEntity
  8
BEM
 48
10.0
100
AcDbTrace
 10
502.9959279426953
 20
498.8416024171381
 30
0.0
 11
502.9959279426953
 21
496.8416024171381
 31
0.0
 12
496.9959279426952
 22
497.8416024171381
 32
0.0
 13
496.9959279426952
 23
497.8416024171381
 33
0.0
  0
SOLID
  5
8DD3
330
76E2
100
AcDbEntity
  8
BEM
 48
10.0
100
AcDbTrace
 10
1041.995927942695
 20
498.8416024171381
 30
0.0
 11
1041.995927942695
 21
496.8416024171381
 31
0.0
 12
1047.995927942695
 22
497.8416024171381
 32
0.0
 13
1047.995927942695
 23
497.8416024171381
 33
0.0
  0
MTEXT
  5
8DD4
330
76E2
100
AcDbEntity
  8
BEM
 48
10.0
100
AcDbMText
 10
772.4959279426952
 20
502.8416024171381
 30
0.0
 40
6.0
 41
0.0
 46
0.0
 71
     5
 72
     1
  1
\A1;551
 73
     1
 44
1.0
  0
POINT
  5
8DD5
330
76E2
100
AcDbEntity
  8
Defpoints
 62
     0
 48
10.0
100
AcDbPoint
 10
496.9959279426952
 20
392.5536674168496
 30
0.0
  0
POINT
  5
8DD6
330
76E2
100
AcDbEntity
  8
Defpoints
 62
     0
 48
10.0
100
AcDbPoint
 10
1047.995927942695
 20
355.5536674168497
 30
0.0
  0
POINT
  5
8DD7
330
76E2
100
AcDbEntity
  8
Defpoints
 62
     0
 48
10.0
100
AcDbPoint
 10
1047.995927942695
 20
497.8416024171381
 30
0.0
  0
ENDBLK
  5
76E4
330
76E2
100
AcDbEntity
  8
0
 48
10.0
100
AcDbBlockEnd
  0
BLOCK
  5
7868
330
7867
100
AcDbEntity
  8
0
 48
10.0
100
AcDbBlockBegin
  2
*D89
 70
     1
 10
0.0
 20
0.0
 30
0.0
  3
*D89
  1

  0
LINE
  5
8DC6
330
7867
100
AcDbEntity
  8
BEM
 48
10.0
370
    -2
100
AcDbLine
 10
829.9959279426904
 20
255.3271701087388
 30
0.0
 11
829.9959279426904
 21
163.4317317914977
 31
0.0
  0
LINE
  5
8DC7
330
7867
100
AcDbEntity
  8
BEM
 48
10.0
370
    -2
100
AcDbLine
 10
1047.995927942695
 20
263.5536674168496
 30
0.0
 11
1047.995927942695
 21
163.4317317914977
 31
0.0
  0
LINE
  5
8DC8
330
7867
100
AcDbEntity
  8
BEM
 48
10.0
370
    -2
100
AcDbLine
 10
835.9959279426904
 20
164.6817317914976
 30
0.0
 11
1041.995927942695
 21
164.6817317914976
 31
0.0
  0
SOLID
  5
8DC9
330
7867
100
AcDbEntity
  8
BEM
 48
10.0
100
AcDbTrace
 10
835.9959279426904
 20
165.6817317914977
 30
0.0
 11
835.9959279426904
 21
163.6817317914976
 31
0.0
 12
829.9959279426904
 22
164.6817317914976
 32
0.0
 13
829.9959279426904
 23
164.6817317914976
 33
0.0
  0
SOLID
  5
8DCA
330
7867
100
AcDbEntity
  8
BEM
 48
10.0
100
AcDbTrace
 10
1041.995927942695
 20
165.6817317914977
 30
0.0
 11
1041.995927942695
 21
163.6817317914976
 31
0.0
 12
1047.995927942695
 22
164.6817317914976
 32
0.0
 13
1047.995927942695
 23
164.6817317914976
 33
0.0
  0
MTEXT
  5
8DCB
330
7867
100
AcDbEntity
  8
BEM
 48
10.0
100
AcDbMText
 10
938.9959279426928
 20
169.6817317914977
 30
0.0
 40
6.0
 41
0.0
 46
0.0
 71
     5
 72
     1
  1
\A1;218
 73
     1
 44
1.0
  0
POINT
  5
8DCC
330
7867
100
AcDbEntity
  8
Defpoints
 62
     0
 48
10.0
100
AcDbPoint
 10
829.9959279426904
 20
255.3271701087388
 30
0.0
  0
POINT
  5
8DCD
330
7867
100
AcDbEntity
  8
Defpoints
 62
     0
 48
10.0
100
AcDbPoint
 10
1047.995927942695
 20
263.5536674168496
 30
0.0
  0
POINT
  5
8DCE
330
7867
100
AcDbEntity
  8
Defpoints
 62
     0
 48
10.0
100
AcDbPoint
 10
1047.995927942695
 20
164.6817317914976
 30
0.0
  0
ENDBLK
  5
7869
330
7867
100
AcDbEntity
  8
0
 48
10.0
100
AcDbBlockEnd
  0
BLOCK
  5
787E
330
787D
100
AcDbEntity
  8
0
 48
10.0
100
AcDbBlockBegin
  2
*D90
 70
     1
 10
0.0
 20
0.0
 30
0.0
  3
*D90
  1

  0
LINE
  5
8E33
330
787D
100
AcDbEntity
  8
BEM
 48
10.0
370
    -2
100
AcDbLine
 10
198.2989203054576
 20
309.5536674168496
 30
0.0
 11
220.748301080328
 21
309.5536674168496
 31
0.0
  0
LINE
  5
8E34
330
787D
100
AcDbEntity
  8
BEM
 48
10.0
370
    -2
100
AcDbLine
 10
123.4113594457415
 20
338.1536674168497
 30
0.0
 11
220.748301080328
 21
338.1536674168496
 31
0.0
  0
LINE
  5
8E35
330
787D
100
AcDbEntity
  8
BEM
 48
10.0
370
    -2
100
AcDbLine
 10
219.498301080328
 20
315.5536674168496
 30
0.0
 11
219.4983010803281
 21
332.1536674168496
 31
0.0
  0
SOLID
  5
8E36
330
787D
100
AcDbEntity
  8
BEM
 48
10.0
100
AcDbTrace
 10
218.498301080328
 20
315.5536674168496
 30
0.0
 11
220.498301080328
 21
315.5536674168496
 31
0.0
 12
219.498301080328
 22
309.5536674168496
 32
0.0
 13
219.498301080328
 23
309.5536674168496
 33
0.0
  0
SOLID
  5
8E37
330
787D
100
AcDbEntity
  8
BEM
 48
10.0
100
AcDbTrace
 10
218.498301080328
 20
332.1536674168496
 30
0.0
 11
220.498301080328
 21
332.1536674168496
 31
0.0
 12
219.4983010803281
 22
338.1536674168496
 32
0.0
 13
219.4983010803281
 23
338.1536674168496
 33
0.0
  0
MTEXT
  5
8E38
330
787D
100
AcDbEntity
  8
BEM
 48
10.0
100
AcDbMText
 10
214.498301080328
 20
326.076338988487
 30
0.0
 40
6.0
 41
0.0
 46
0.0
 71
     5
 72
     1
  1
\A1;28.6
 11
0.0000000000000001
 21
1.0
 31
0.0
 73
     1
 44
1.0
  0
POINT
  5
8E39
330
787D
100
AcDbEntity
  8
Defpoints
 62
     0
 48
10.0
100
AcDbPoint
 10
198.2989203054576
 20
309.5536674168496
 30
0.0
  0
POINT
  5
8E3A
330
787D
100
AcDbEntity
  8
Defpoints
 62
     0
 48
10.0
100
AcDbPoint
 10
123.4113594457415
 20
338.1536674168497
 30
0.0
  0
POINT
  5
8E3B
330
787D
100
AcDbEntity
  8
Defpoints
 62
     0
 48
10.0
100
AcDbPoint
 10
219.4983010803281
 20
338.1536674168496
 30
0.0
  0
ENDBLK
  5
787F
330
787D
100
AcDbEntity
  8
0
 48
10.0
100
AcDbBlockEnd
  0
BLOCK
  5
788B
330
788A
100
AcDbEntity
  8
0
 48
10.0
100
AcDbBlockBegin
  2
*D91
 70
     1
 10
0.0
 20
0.0
 30
0.0
  3
*D91
  1

  0
LINE
  5
8E29
330
788A
100
AcDbEntity
  8
BEM
 48
10.0
370
    -2
100
AcDbLine
 10
198.2989203054576
 20
309.5536674168496
 30
0.0
 11
220.748301080328
 21
309.5536674168496
 31
0.0
  0
LINE
  5
8E2A
330
788A
100
AcDbEntity
  8
BEM
 48
10.0
370
    -2
100
AcDbLine
 10
132.1311848772975
 20
288.5536674168496
 30
0.0
 11
220.748301080328
 21
288.5536674168496
 31
0.0
  0
LINE
  5
8E2B
330
788A
100
AcDbEntity
  8
BEM
 48
10.0
370
    -2
100
AcDbLine
 10
219.4983010803281
 20
303.5536674168497
 30
0.0
 11
219.4983010803281
 21
294.5536674168496
 31
0.0
  0
LINE
  5
8E2C
330
788A
100
AcDbEntity
  8
BEM
 48
10.0
370
    -2
100
AcDbLine
 10
219.4983010803281
 20
288.5536674168496
 30
0.0
 11
219.4983010803281
 21
261.7198219155237
 31
0.0
  0
SOLID
  5
8E2D
330
788A
100
AcDbEntity
  8
BEM
 48
10.0
100
AcDbTrace
 10
218.498301080328
 20
303.5536674168497
 30
0.0
 11
220.498301080328
 21
303.5536674168497
 31
0.0
 12
219.4983010803281
 22
309.5536674168496
 32
0.0
 13
219.4983010803281
 23
309.5536674168496
 33
0.0
  0
SOLID
  5
8E2E
330
788A
100
AcDbEntity
  8
BEM
 48
10.0
100
AcDbTrace
 10
218.498301080328
 20
294.5536674168496
 30
0.0
 11
220.498301080328
 21
294.5536674168496
 31
0.0
 12
219.4983010803281
 22
288.5536674168496
 32
0.0
 13
219.4983010803281
 23
288.5536674168496
 33
0.0
  0
MTEXT
  5
8E2F
330
788A
100
AcDbEntity
  8
BEM
 48
10.0
100
AcDbMText
 10
214.498301080328
 20
267.7198219155238
 30
0.0
 40
6.0
 41
0.0
 46
0.0
 71
     5
 72
     1
  1
\A1;21
 11
0.0000000000000001
 21
1.0
 31
0.0
 73
     1
 44
1.0
  0
POINT
  5
8E30
330
788A
100
AcDbEntity
  8
Defpoints
 62
     0
 48
10.0
100
AcDbPoint
 10
198.2989203054576
 20
309.5536674168496
 30
0.0
  0
POINT
  5
8E31
330
788A
100
AcDbEntity
  8
Defpoints
 62
     0
 48
10.0
100
AcDbPoint
 10
132.1311848772975
 20
288.5536674168496
 30
0.0
  0
POINT
  5
8E32
330
788A
100
AcDbEntity
  8
Defpoints
 62
     0
 48
10.0
100
AcDbPoint
 10
219.4983010803281
 20
288.5536674168496
 30
0.0
  0
ENDBLK
  5
788C
330
788A
100
AcDbEntity
  8
0
 48
10.0
100
AcDbBlockEnd
  0
BLOCK
  5
78AC
330
78AB
100
AcDbEntity
  8
0
 48
10.0
100
AcDbBlockBegin
  2
*D92
 70
     1
 10
0.0
 20
0.0
 30
0.0
  3
*D92
  1

  0
LINE
  5
8E3C
330
78AB
100
AcDbEntity
  8
BEM
 48
10.0
370
    -2
100
AcDbLine
 10
95.21662625885658
 20
338.1536674168497
 30
0.0
 11
95.21662625885658
 21
432.1544887262606
 31
0.0
  0
LINE
  5
8E3D
330
78AB
100
AcDbEntity
  8
BEM
 48
10.0
370
    -2
100
AcDbLine
 10
121.5306262588565
 20
338.1536674168497
 30
0.0
 11
121.5306262588565
 21
432.1544887262606
 31
0.0
  0
LINE
  5
8E3E
330
78AB
100
AcDbEntity
  8
BEM
 48
10.0
370
    -2
100
AcDbLine
 10
101.2166262588566
 20
430.9044887262606
 30
0.0
 11
115.5306262588565
 21
430.9044887262606
 31
0.0
  0
SOLID
  5
8E3F
330
78AB
100
AcDbEntity
  8
BEM
 48
10.0
100
AcDbTrace
 10
101.2166262588566
 20
431.9044887262606
 30
0.0
 11
101.2166262588566
 21
429.9044887262606
 31
0.0
 12
95.21662625885658
 22
430.9044887262606
 32
0.0
 13
95.21662625885658
 23
430.9044887262606
 33
0.0
  0
SOLID
  5
8E40
330
78AB
100
AcDbEntity
  8
BEM
 48
10.0
100
AcDbTrace
 10
115.5306262588565
 20
431.9044887262606
 30
0.0
 11
115.5306262588565
 21
429.9044887262606
 31
0.0
 12
121.5306262588565
 22
430.9044887262606
 32
0.0
 13
121.5306262588565
 23
430.9044887262606
 33
0.0
  0
MTEXT
  5
8E41
330
78AB
100
AcDbEntity
  8
BEM
 48
10.0
100
AcDbMText
 10
115.5306262588565
 20
437.4759172976892
 30
0.0
 40
6.0
 41
0.0
 46
0.0
 71
     5
 72
     1
  1
\A1;G1/4"
 73
     1
 44
1.0
  0
POINT
  5
8E42
330
78AB
100
AcDbEntity
  8
Defpoints
 62
     0
 48
10.0
100
AcDbPoint
 10
95.21662625885658
 20
338.1536674168497
 30
0.0
  0
POINT
  5
8E43
330
78AB
100
AcDbEntity
  8
Defpoints
 62
     0
 48
10.0
100
AcDbPoint
 10
121.5306262588565
 20
338.1536674168497
 30
0.0
  0
POINT
  5
8E44
330
78AB
100
AcDbEntity
  8
Defpoints
 62
     0
 48
10.0
100
AcDbPoint
 10
121.5306262588565
 20
430.9044887262606
 30
0.0
  0
ENDBLK
  5
78AD
330
78AB
100
AcDbEntity
  8
0
 48
10.0
100
AcDbBlockEnd
  0
BLOCK
  5
78CE
330
78CD
100
AcDbEntity
  8
0
 48
10.0
100
AcDbBlockBegin
  2
*D93
 70
     1
 10
0.0
 20
0.0
 30
0.0
  3
*D93
  1

  0
LINE
  5
8E20
330
78CD
100
AcDbEntity
  8
BEM
 48
10.0
370
    -2
100
AcDbLine
 10
87.41862625885659
 20
288.5536674168496
 30
0.0
 11
87.41862625885659
 21
188.2674421208471
 31
0.0
  0
LINE
  5
8E21
330
78CD
100
AcDbEntity
  8
BEM
 48
10.0
370
    -2
100
AcDbLine
 10
129.3286262588565
 20
288.5536674168496
 30
0.0
 11
129.3286262588565
 21
188.2674421208471
 31
0.0
  0
LINE
  5
8E22
330
78CD
100
AcDbEntity
  8
BEM
 48
10.0
370
    -2
100
AcDbLine
 10
93.41862625885658
 20
189.5174421208471
 30
0.0
 11
123.3286262588565
 21
189.5174421208471
 31
0.0
  0
SOLID
  5
8E23
330
78CD
100
AcDbEntity
  8
BEM
 48
10.0
100
AcDbTrace
 10
93.41862625885658
 20
190.5174421208471
 30
0.0
 11
93.41862625885658
 21
188.5174421208471
 31
0.0
 12
87.41862625885659
 22
189.5174421208471
 32
0.0
 13
87.41862625885659
 23
189.5174421208471
 33
0.0
  0
SOLID
  5
8E24
330
78CD
100
AcDbEntity
  8
BEM
 48
10.0
100
AcDbTrace
 10
123.3286262588565
 20
190.5174421208471
 30
0.0
 11
123.3286262588565
 21
188.5174421208471
 31
0.0
 12
129.3286262588565
 22
189.5174421208471
 32
0.0
 13
129.3286262588565
 23
189.5174421208471
 33
0.0
  0
MTEXT
  5
8E25
330
78CD
100
AcDbEntity
  8
BEM
 48
10.0
100
AcDbMText
 10
109.5838445801919
 20
196.0888706922757
 30
0.0
 40
6.0
 41
0.0
 46
0.0
 71
     5
 72
     1
  1
\A1;G1/2"
 73
     1
 44
1.0
  0
POINT
  5
8E26
330
78CD
100
AcDbEntity
  8
Defpoints
 62
     0
 48
10.0
100
AcDbPoint
 10
87.41862625885659
 20
288.5536674168496
 30
0.0
  0
POINT
  5
8E27
330
78CD
100
AcDbEntity
  8
Defpoints
 62
     0
 48
10.0
100
AcDbPoint
 10
129.3286262588565
 20
288.5536674168496
 30
0.0
  0
POINT
  5
8E28
330
78CD
100
AcDbEntity
  8
Defpoints
 62
     0
 48
10.0
100
AcDbPoint
 10
129.3286262588565
 20
189.5174421208471
 30
0.0
  0
ENDBLK
  5
78CF
330
78CD
100
AcDbEntity
  8
0
 48
10.0
100
AcDbBlockEnd
  0
BLOCK
  5
7BB5
330
7BB4
100
AcDbEntity
  8
0
 48
10.0
100
AcDbBlockBegin
  2
*D99
 70
     1
 10
0.0
 20
0.0
 30
0.0
  3
*D99
  1

  0
LINE
  5
8E4E
330
7BB4
100
AcDbEntity
  8
BEM
 48
10.0
370
    -2
100
AcDbLine
 10
1047.995927942695
 20
355.5536674168497
 30
0.0
 11
1077.342754454126
 21
355.5536674168497
 31
0.0
  0
LINE
  5
8E4F
330
7BB4
100
AcDbEntity
  8
BEM
 48
10.0
370
    -2
100
AcDbLine
 10
1047.995927942695
 20
263.5536674168496
 30
0.0
 11
1077.342754454126
 21
263.5536674168496
 31
0.0
  0
LINE
  5
8E50
330
7BB4
100
AcDbEntity
  8
BEM
 48
10.0
370
    -2
100
AcDbLine
 10
1076.092754454126
 20
349.5536674168497
 30
0.0
 11
1076.092754454126
 21
269.5536674168496
 31
0.0
  0
SOLID
  5
8E51
330
7BB4
100
AcDbEntity
  8
BEM
 48
10.0
100
AcDbTrace
 10
1075.092754454126
 20
349.5536674168497
 30
0.0
 11
1077.092754454126
 21
349.5536674168497
 31
0.0
 12
1076.092754454126
 22
355.5536674168497
 32
0.0
 13
1076.092754454126
 23
355.5536674168497
 33
0.0
  0
SOLID
  5
8E52
330
7BB4
100
AcDbEntity
  8
BEM
 48
10.0
100
AcDbTrace
 10
1075.092754454126
 20
269.5536674168496
 30
0.0
 11
1077.092754454126
 21
269.5536674168496
 31
0.0
 12
1076.092754454126
 22
263.5536674168496
 32
0.0
 13
1076.092754454126
 23
263.5536674168496
 33
0.0
  0
MTEXT
  5
8E53
330
7BB4
100
AcDbEntity
  8
BEM
 48
10.0
100
AcDbMText
 10
1071.092754454126
 20
307.9729822925703
 30
0.0
 40
6.0
 41
0.0
 46
0.0
 71
     5
 72
     1
  1
\A1;%%C92{}{\H0.71x;\C3;-0.2}
 11
0.0000000000000001
 21
1.0
 31
0.0
 73
     1
 44
1.0
  0
POINT
  5
8E54
330
7BB4
100
AcDbEntity
  8
Defpoints
 62
     0
 48
10.0
100
AcDbPoint
 10
1047.995927942695
 20
355.5536674168497
 30
0.0
  0
POINT
  5
8E55
330
7BB4
100
AcDbEntity
  8
Defpoints
 62
     0
 48
10.0
100
AcDbPoint
 10
1047.995927942695
 20
263.5536674168496
 30
0.0
  0
POINT
  5
8E56
330
7BB4
100
AcDbEntity
  8
Defpoints
 62
     0
 48
10.0
100
AcDbPoint
 10
1076.092754454126
 20
263.5536674168496
 30
0.0
  0
ENDBLK
  5
7BB6
330
7BB4
100
AcDbEntity
  8
0
 48
10.0
100
AcDbBlockEnd
  0
BLOCK
  5
7BC1
330
7BC0
100
AcDbEntity
  8
0
 48
10.0
100
AcDbBlockBegin
  2
*D100
 70
     1
 10
0.0
 20
0.0
 30
0.0
  3
*D100
  1

  0
LINE
  5
8E57
330
7BC0
100
AcDbEntity
  8
BEM
 48
10.0
370
    -2
100
AcDbLine
 10
789.2551754736451
 20
369.5536674168496
 30
0.0
 11
793.736680411749
 21
369.5536674168496
 31
0.0
  0
LINE
  5
8E58
330
7BC0
100
AcDbEntity
  8
BEM
 48
10.0
370
    -2
100
AcDbLine
 10
789.2551754736451
 20
249.5536674168497
 30
0.0
 11
793.7366804117488
 21
249.5536674168497
 31
0.0
  0
LINE
  5
8E59
330
7BC0
100
AcDbEntity
  8
BEM
 48
10.0
370
    -2
100
AcDbLine
 10
792.486680411749
 20
363.5536674168496
 30
0.0
 11
792.4866804117489
 21
255.5536674168497
 31
0.0
  0
SOLID
  5
8E5A
330
7BC0
100
AcDbEntity
  8
BEM
 48
10.0
100
AcDbTrace
 10
791.486680411749
 20
363.5536674168496
 30
0.0
 11
793.486680411749
 21
363.5536674168496
 31
0.0
 12
792.486680411749
 22
369.5536674168496
 32
0.0
 13
792.486680411749
 23
369.5536674168496
 33
0.0
  0
SOLID
  5
8E5B
330
7BC0
100
AcDbEntity
  8
BEM
 48
10.0
100
AcDbTrace
 10
791.4866804117488
 20
255.5536674168497
 30
0.0
 11
793.4866804117489
 21
255.5536674168497
 31
0.0
 12
792.4866804117489
 22
249.5536674168497
 32
0.0
 13
792.4866804117489
 23
249.5536674168497
 33
0.0
  0
MTEXT
  5
8E5C
330
7BC0
100
AcDbEntity
  8
BEM
 48
10.0
100
AcDbMText
 10
787.4866804117488
 20
309.5536674168497
 30
0.0
 40
6.0
 41
0.0
 46
0.0
 71
     5
 72
     1
  1
\A1;%%C120{}{\H0.71x;\C3;-0.2}
 11
0.0000000000000001
 21
1.0
 31
0.0
 73
     1
 44
1.0
  0
POINT
  5
8E5D
330
7BC0
100
AcDbEntity
  8
Defpoints
 62
     0
 48
10.0
100
AcDbPoint
 10
789.2551754736451
 20
369.5536674168496
 30
0.0
  0
POINT
  5
8E5E
330
7BC0
100
AcDbEntity
  8
Defpoints
 62
     0
 48
10.0
100
AcDbPoint
 10
789.2551754736451
 20
249.5536674168497
 30
0.0
  0
POINT
  5
8E5F
330
7BC0
100
AcDbEntity
  8
Defpoints
 62
     0
 48
10.0
100
AcDbPoint
 10
792.4866804117489
 20
249.5536674168497
 30
0.0
  0
ENDBLK
  5
7BC2
330
7BC0
100
AcDbEntity
  8
0
 48
10.0
100
AcDbBlockEnd
  0
BLOCK
  5
8310
330
830F
100
AcDbEntity
  8
0
 48
10.0
100
AcDbBlockBegin
  2
_Dot
 70
     0
 10
0.0
 20
0.0
 30
0.0
  3
_Dot
  1

  0
LWPOLYLINE
  5
8311
330
830F
100
AcDbEntity
  8
0
  6
ByBlock
 62
     0
100
AcDbPolyline
 90
        2
 70
     1
 43
0.5
 10
-0.25
 20
0.0
 42
1.0
 10
0.25
 20
0.0
 42
1.0
  0
LINE
  5
8312
330
830F
100
AcDbEntity
  8
0
  6
ByBlock
 62
     0
370
    -2
100
AcDbLine
 10
-0.5
 20
0.0
 30
0.0
 11
-1.0
 21
0.0
 31
0.0
  0
ENDBLK
  5
8313
330
830F
100
AcDbEntity
  8
0
 48
10.0
100
AcDbBlockEnd
  0
BLOCK
  5
8A31
330
8A30
100
AcDbEntity
  8
0
 48
10.0
100
AcDbBlockBegin
  2
*D139
 70
     1
 10
0.0
 20
0.0
 30
0.0
  3
*D139
  1

  0
LINE
  5
8E69
330
8A30
100
AcDbEntity
  8
BEM
 48
10.0
370
    -2
100
AcDbLine
 10
1316.524579757874
 20
274.524813753639
 30
0.0
 11
1316.524579757874
 21
163.4317317914977
 31
0.0
  0
LINE
  5
8E6A
330
8A30
100
AcDbEntity
  8
BEM
 48
10.0
370
    -2
100
AcDbLine
 10
1166.524579757874
 20
274.000889747587
 30
0.0
 11
1166.524579757874
 21
163.4317317914977
 31
0.0
  0
LINE
  5
8E6B
330
8A30
100
AcDbEntity
  8
BEM
 48
10.0
370
    -2
100
AcDbLine
 10
1310.524579757874
 20
164.6817317914976
 30
0.0
 11
1172.524579757874
 21
164.6817317914976
 31
0.0
  0
SOLID
  5
8E6C
330
8A30
100
AcDbEntity
  8
BEM
 48
10.0
100
AcDbTrace
 10
1310.524579757874
 20
165.6817317914977
 30
0.0
 11
1310.524579757874
 21
163.6817317914976
 31
0.0
 12
1316.524579757874
 22
164.6817317914976
 32
0.0
 13
1316.524579757874
 23
164.6817317914976
 33
0.0
  0
SOLID
  5
8E6D
330
8A30
100
AcDbEntity
  8
BEM
 48
10.0
100
AcDbTrace
 10
1172.524579757874
 20
165.6817317914977
 30
0.0
 11
1172.524579757874
 21
163.6817317914976
 31
0.0
 12
1166.524579757874
 22
164.6817317914976
 32
0.0
 13
1166.524579757874
 23
164.6817317914976
 33
0.0
  0
MTEXT
  5
8E6E
330
8A30
100
AcDbEntity
  8
BEM
 48
10.0
100
AcDbMText
 10
1241.524579757874
 20
169.6817317914977
 30
0.0
 40
6.0
 41
0.0
 46
0.0
 71
     5
 72
     1
  1
\A1;SW150{}{\H0.71x;\C3;-0.3}
 73
     1
 44
1.0
  0
POINT
  5
8E6F
330
8A30
100
AcDbEntity
  8
Defpoints
 62
     0
 48
10.0
100
AcDbPoint
 10
1316.524579757874
 20
274.524813753639
 30
0.0
  0
POINT
  5
8E70
330
8A30
100
AcDbEntity
  8
Defpoints
 62
     0
 48
10.0
100
AcDbPoint
 10
1166.524579757874
 20
274.000889747587
 30
0.0
  0
POINT
  5
8E71
330
8A30
100
AcDbEntity
  8
Defpoints
 62
     0
 48
10.0
100
AcDbPoint
 10
1166.524579757874
 20
164.6817317914976
 30
0.0
  0
ENDBLK
  5
8A32
330
8A30
100
AcDbEntity
  8
0
 48
10.0
100
AcDbBlockEnd
  0
BLOCK
  5
8C14
330
8C13
100
AcDbEntity
  8
0
 48
10.0
100
AcDbBlockBegin
  2
*D141
 70
     1
 10
0.0
 20
0.0
 30
0.0
  3
*D141
  1

  0
LINE
  5
8EDA
330
8C13
100
AcDbEntity
  8
BEM
 48
10.0
370
    -2
100
AcDbLine
 10
372.995927942694
 20
333.5536674168498
 30
0.0
 11
372.995927942694
 21
367.3216998237399
 31
0.0
  0
LINE
  5
8EDB
330
8C13
100
AcDbEntity
  8
BEM
 48
10.0
370
    -2
100
AcDbLine
 10
382.995927942694
 20
343.5536674168497
 30
0.0
 11
382.995927942694
 21
363.8712792795309
 31
0.0
  0
LINE
  5
8EDC
330
8C13
100
AcDbEntity
  8
BEM
 48
10.0
370
    -2
100
AcDbLine
 10
388.995927942694
 20
469.4500644404553
 30
0.0
 11
394.995927942694
 21
469.4500644404553
 31
0.0
  0
LINE
  5
8EDD
330
8C13
100
AcDbEntity
  8
BEM
 48
10.0
370
    -2
100
AcDbLine
 10
366.9959279426941
 20
469.4500644404553
 30
0.0
 11
348.1387850855512
 21
469.4500644404553
 31
0.0
  0
LINE
  5
8EDE
330
8C13
100
AcDbEntity
  8
BEM
 48
10.0
370
    -2
100
AcDbLine
 10
382.995927942694
 20
469.4500644404553
 30
0.0
 11
372.995927942694
 21
469.4500644404553
 31
0.0
  0
SOLID
  5
8EDF
330
8C13
100
AcDbEntity
  8
BEM
 48
10.0
100
AcDbTrace
 10
388.995927942694
 20
470.4500644404553
 30
0.0
 11
388.995927942694
 21
468.4500644404553
 31
0.0
 12
382.995927942694
 22
469.4500644404553
 32
0.0
 13
382.995927942694
 23
469.4500644404553
 33
0.0
  0
SOLID
  5
8EE0
330
8C13
100
AcDbEntity
  8
BEM
 48
10.0
100
AcDbTrace
 10
366.9959279426941
 20
470.4500644404553
 30
0.0
 11
366.9959279426941
 21
468.4500644404553
 31
0.0
 12
372.995927942694
 22
469.4500644404553
 32
0.0
 13
372.995927942694
 23
469.4500644404553
 33
0.0
  0
MTEXT
  5
8EE1
330
8C13
100
AcDbEntity
  8
BEM
 48
10.0
100
AcDbMText
 10
354.5673565141226
 20
474.4500644404553
 30
0.0
 40
6.0
 41
0.0
 46
0.0
 71
     5
 72
     1
  1
\A1;10
 73
     1
 44
1.0
  0
POINT
  5
8EE2
330
8C13
100
AcDbEntity
  8
Defpoints
 62
     0
 48
10.0
100
AcDbPoint
 10
372.995927942694
 20
333.5536674168498
 30
0.0
  0
POINT
  5
8EE3
330
8C13
100
AcDbEntity
  8
Defpoints
 62
     0
 48
10.0
100
AcDbPoint
 10
382.995927942694
 20
343.5536674168497
 30
0.0
  0
POINT
  5
8EE4
330
8C13
100
AcDbEntity
  8
Defpoints
 62
     0
 48
10.0
100
AcDbPoint
 10
382.995927942694
 20
469.4500644404553
 30
0.0
  0
LINE
  5
8EE5
330
8C13
100
AcDbEntity
  8
BEM
 48
10.0
370
    -2
100
AcDbLine
 10
372.995927942694
 20
431.1544884667914
 30
0.0
 11
372.995927942694
 21
470.7000644404553
 31
0.0
  0
LINE
  5
8EE6
330
8C13
100
AcDbEntity
  8
BEM
 48
10.0
370
    -2
100
AcDbLine
 10
382.995927942694
 20
413.902382887351
 30
0.0
 11
382.995927942694
 21
470.7000644404553
 31
0.0
  0
ENDBLK
  5
8C15
330
8C13
100
AcDbEntity
  8
0
 48
10.0
100
AcDbBlockEnd
  0
BLOCK
  5
8C5F
330
8C5E
100
AcDbEntity
  8
0
 48
10.0
100
AcDbBlockBegin
  2
*D143
 70
     1
 10
0.0
 20
0.0
 30
0.0
  3
*D143
  1

  0
LINE
  5
8EE7
330
8C5E
100
AcDbEntity
  8
BEM
 48
10.0
370
    -2
100
AcDbLine
 10
372.995927942694
 20
333.5536674168495
 30
0.0
 11
372.995927942694
 21
381.1233849628225
 31
0.0
  0
LINE
  5
8EE8
330
8C5E
100
AcDbEntity
  8
BEM
 48
10.0
370
    -2
100
AcDbLine
 10
1047.995927942695
 20
355.5536674168497
 30
0.0
 11
1047.995927942695
 21
530.2427962766312
 31
0.0
  0
LINE
  5
8EE9
330
8C5E
100
AcDbEntity
  8
BEM
 48
10.0
370
    -2
100
AcDbLine
 10
378.995927942694
 20
528.9927962766312
 30
0.0
 11
1041.995927942695
 21
528.9927962766312
 31
0.0
  0
SOLID
  5
8EEA
330
8C5E
100
AcDbEntity
  8
BEM
 48
10.0
100
AcDbTrace
 10
378.995927942694
 20
529.9927962766312
 30
0.0
 11
378.995927942694
 21
527.9927962766312
 31
0.0
 12
372.995927942694
 22
528.9927962766312
 32
0.0
 13
372.995927942694
 23
528.9927962766312
 33
0.0
  0
SOLID
  5
8EEB
330
8C5E
100
AcDbEntity
  8
BEM
 48
10.0
100
AcDbTrace
 10
1041.995927942695
 20
529.9927962766312
 30
0.0
 11
1041.995927942695
 21
527.9927962766312
 31
0.0
 12
1047.995927942695
 22
528.9927962766312
 32
0.0
 13
1047.995927942695
 23
528.9927962766312
 33
0.0
  0
MTEXT
  5
8EEC
330
8C5E
100
AcDbEntity
  8
BEM
 48
10.0
100
AcDbMText
 10
710.4959279426946
 20
533.9927962766312
 30
0.0
 40
6.0
 41
0.0
 46
0.0
 71
     5
 72
     1
  1
\A1;675
 73
     1
 44
1.0
  0
POINT
  5
8EED
330
8C5E
100
AcDbEntity
  8
Defpoints
 62
     0
 48
10.0
100
AcDbPoint
 10
372.995927942694
 20
333.5536674168495
 30
0.0
  0
POINT
  5
8EEE
330
8C5E
100
AcDbEntity
  8
Defpoints
 62
     0
 48
10.0
100
AcDbPoint
 10
1047.995927942695
 20
355.5536674168497
 30
0.0
  0
POINT
  5
8EEF
330
8C5E
100
AcDbEntity
  8
Defpoints
 62
     0
 48
10.0
100
AcDbPoint
 10
1047.995927942695
 20
528.9927962766312
 30
0.0
  0
LINE
  5
8EF0
330
8C5E
100
AcDbEntity
  8
BEM
 48
10.0
370
    -2
100
AcDbLine
 10
372.995927942694
 20
450.1318058491555
 30
0.0
 11
372.995927942694
 21
530.2427962766312
 31
0.0
  0
ENDBLK
  5
8C60
330
8C5E
100
AcDbEntity
  8
0
 48
10.0
100
AcDbBlockEnd
  0
BLOCK
  5
8C6B
330
8C6A
100
AcDbEntity
  8
0
 48
10.0
100
AcDbBlockBegin
  2
*D144
 70
     1
 10
0.0
 20
0.0
 30
0.0
  3
*D144
  1

  0
LINE
  5
8EF1
330
8C6A
100
AcDbEntity
  8
BEM
 48
10.0
370
    -2
100
AcDbLine
 10
496.9959279426952
 20
392.5536674168495
 30
0.0
 11
496.9959279426952
 21
499.0916024171381
 31
0.0
  0
LINE
  5
8EF2
330
8C6A
100
AcDbEntity
  8
BEM
 48
10.0
370
    -2
100
AcDbLine
 10
372.995927942694
 20
333.5536674168498
 30
0.0
 11
372.995927942694
 21
375.947750909093
 31
0.0
  0
LINE
  5
8EF3
330
8C6A
100
AcDbEntity
  8
BEM
 48
10.0
370
    -2
100
AcDbLine
 10
490.9959279426953
 20
497.8416024171381
 30
0.0
 11
378.995927942694
 21
497.8416024171381
 31
0.0
  0
SOLID
  5
8EF4
330
8C6A
100
AcDbEntity
  8
BEM
 48
10.0
100
AcDbTrace
 10
490.9959279426953
 20
498.8416024171381
 30
0.0
 11
490.9959279426953
 21
496.8416024171381
 31
0.0
 12
496.9959279426952
 22
497.8416024171381
 32
0.0
 13
496.9959279426952
 23
497.8416024171381
 33
0.0
  0
SOLID
  5
8EF5
330
8C6A
100
AcDbEntity
  8
BEM
 48
10.0
100
AcDbTrace
 10
378.995927942694
 20
498.8416024171381
 30
0.0
 11
378.995927942694
 21
496.8416024171381
 31
0.0
 12
372.995927942694
 22
497.8416024171381
 32
0.0
 13
372.995927942694
 23
497.8416024171381
 33
0.0
  0
MTEXT
  5
8EF6
330
8C6A
100
AcDbEntity
  8
BEM
 48
10.0
100
AcDbMText
 10
434.9959279426946
 20
502.8416024171381
 30
0.0
 40
6.0
 41
0.0
 46
0.0
 71
     5
 72
     1
  1
\A1;124
 73
     1
 44
1.0
  0
POINT
  5
8EF7
330
8C6A
100
AcDbEntity
  8
Defpoints
 62
     0
 48
10.0
100
AcDbPoint
 10
496.9959279426952
 20
392.5536674168495
 30
0.0
  0
POINT
  5
8EF8
330
8C6A
100
AcDbEntity
  8
Defpoints
 62
     0
 48
10.0
100
AcDbPoint
 10
372.995927942694
 20
333.5536674168498
 30
0.0
  0
POINT
  5
8EF9
330
8C6A
100
AcDbEntity
  8
Defpoints
 62
     0
 48
10.0
100
AcDbPoint
 10
372.995927942694
 20
497.8416024171381
 30
0.0
  0
LINE
  5
8EFA
330
8C6A
100
AcDbEntity
  8
BEM
 48
10.0
370
    -2
100
AcDbLine
 10
372.995927942694
 20
441.5057527777612
 30
0.0
 11
372.995927942694
 21
499.0916024171381
 31
0.0
  0
ENDBLK
  5
8C6C
330
8C6A
100
AcDbEntity
  8
0
 48
10.0
100
AcDbBlockEnd
  0
BLOCK
  5
8C77
330
8C76
100
AcDbEntity
  8
0
 48
10.0
100
AcDbBlockBegin
  2
*D145
 70
     1
 10
0.0
 20
0.0
 30
0.0
  3
*D145
  1

  0
LINE
  5
8EFB
330
8C76
100
AcDbEntity
  8
BEM
 48
10.0
370
    -2
100
AcDbLine
 10
382.995927942694
 20
343.5536674168497
 30
0.0
 11
382.995927942694
 21
365.1651854910556
 31
0.0
  0
LINE
  5
8EFC
330
8C76
100
AcDbEntity
  8
BEM
 48
10.0
370
    -2
100
AcDbLine
 10
482.9959279426939
 20
343.5536674168497
 30
0.0
 11
482.9959279426939
 21
470.7000644404553
 31
0.0
  0
LINE
  5
8EFD
330
8C76
100
AcDbEntity
  8
BEM
 48
10.0
370
    -2
100
AcDbLine
 10
388.995927942694
 20
469.4500644404553
 30
0.0
 11
476.9959279426939
 21
469.4500644404553
 31
0.0
  0
SOLID
  5
8EFE
330
8C76
100
AcDbEntity
  8
BEM
 48
10.0
100
AcDbTrace
 10
388.995927942694
 20
470.4500644404553
 30
0.0
 11
388.995927942694
 21
468.4500644404553
 31
0.0
 12
382.995927942694
 22
469.4500644404553
 32
0.0
 13
382.995927942694
 23
469.4500644404553
 33
0.0
  0
SOLID
  5
8EFF
330
8C76
100
AcDbEntity
  8
BEM
 48
10.0
100
AcDbTrace
 10
476.9959279426939
 20
470.4500644404553
 30
0.0
 11
476.9959279426939
 21
468.4500644404553
 31
0.0
 12
482.9959279426939
 22
469.4500644404553
 32
0.0
 13
482.9959279426939
 23
469.4500644404553
 33
0.0
  0
MTEXT
  5
8F00
330
8C76
100
AcDbEntity
  8
BEM
 48
10.0
100
AcDbMText
 10
432.9959279426939
 20
474.4500644404553
 30
0.0
 40
6.0
 41
0.0
 46
0.0
 71
     5
 72
     1
  1
\A1;100
 73
     1
 44
1.0
  0
POINT
  5
8F01
330
8C76
100
AcDbEntity
  8
Defpoints
 62
     0
 48
10.0
100
AcDbPoint
 10
382.995927942694
 20
343.5536674168497
 30
0.0
  0
POINT
  5
8F02
330
8C76
100
AcDbEntity
  8
Defpoints
 62
     0
 48
10.0
100
AcDbPoint
 10
482.9959279426939
 20
343.5536674168497
 30
0.0
  0
POINT
  5
8F03
330
8C76
100
AcDbEntity
  8
Defpoints
 62
     0
 48
10.0
100
AcDbPoint
 10
482.9959279426939
 20
469.4500644404553
 30
0.0
  0
LINE
  5
8F04
330
8C76
100
AcDbEntity
  8
BEM
 48
10.0
370
    -2
100
AcDbLine
 10
382.995927942694
 20
447.9752898176911
 30
0.0
 11
382.995927942694
 21
470.7000644404553
 31
0.0
  0
ENDBLK
  5
8C78
330
8C76
100
AcDbEntity
  8
0
 48
10.0
100
AcDbBlockEnd
  0
ENDSEC
  0
SECTION
  2
ENTITIES
  0
TEXT
  5
FFE
330
2
100
AcDbEntity
  8
TEXT
100
AcDbText
 10
531.82415148737
 20
352.819543643049
 30
0.0
 40
4.0
  1

 50
90.0
100
AcDbText
  0
TEXT
  5
1005
330
2
100
AcDbEntity
  8
TEXT
100
AcDbText
 10
382.3418507152831
 20
352.819543643049
 30
0.0
 40
4.0
  1

 50
90.0
100
AcDbText
  0
HATCH
  5
716E
330
2
100
AcDbEntity
  8
SCHRAFF
 48
10.0
100
AcDbHatch
 10
0.0
 20
0.0
 30
0.0
210
0.0
220
0.0
230
1.0
  2
ANSI31
 70
     0
 71
     0
 91
        2
 92
        5
 93
       11
 72
     4
 94
        3
 73
     0
 74
     0
 95
        9
 96
        5
 40
0.0
 40
0.0
 40
0.0
 40
0.0
 40
10.12505964714341
 40
29.00148780626603
 40
29.00148780626603
 40
29.00148780626603
 40
29.00148780626603
 10
591.6721413589128
 20
309.5536674168496
 10
592.3403455937814
 20
311.1046596865851
 10
594.1055136891472
 20
315.5894325746775
 10
594.7553879161865
 20
320.413674712294
 10
595.178376703559
 20
323.5536674168496
 72
     1
 10
595.178376703559
 20
323.5536674168495
 11
592.9652116590705
 21
323.5536674168495
 72
     1
 10
592.9652116590705
 20
323.5536674168495
 11
592.9652116590705
 21
319.5536674168496
 72
     1
 10
592.9652116590705
 20
319.5536674168496
 11
542.9652116590705
 21
319.5536674168494
 72
     1
 10
542.9652116590705
 20
319.5536674168494
 11
542.9652116590705
 21
323.5536674168495
 72
     1
 10
542.9652116590705
 20
323.5536674168495
 11
539.9652116590705
 21
323.5536674168495
 72
     1
 10
539.9652116590705
 20
323.5536674168496
 11
537.9652116590705
 21
321.5536674168495
 72
     1
 10
537.9652116590705
 20
321.5536674168495
 11
537.9652116590705
 21
313.6336674168496
 72
     1
 10
537.9652116590705
 20
313.6336674168496
 11
571.9652116590705
 21
313.6336674168496
 72
     1
 10
571.9652116590706
 20
313.6336674168496
 11
574.3208007573644
 21
309.5536674168496
 72
     1
 10
574.3208007573644
 20
309.5536674168496
 11
591.6721413589129
 21
309.5536674168496
 97
        0
 92
        5
 93
        7
 72
     4
 94
        3
 73
     0
 74
     0
 95
        9
 96
        5
 40
29.00148780626603
 40
29.00148780626603
 40
29.00148780626603
 40
29.00148780626603
 40
42.23296873096782
 40
59.03854941500694
 40
59.03854941500694
 40
59.03854941500694
 40
59.03854941500694
 10
586.2099001635662
 20
295.5536674168495
 10
586.8566898494946
 20
297.6627830907134
 10
588.324980644356
 20
302.4507306981154
 10
590.5630555289177
 20
306.9793294240148
 10
591.6721413589128
 20
309.5536674168496
 72
     1
 10
591.6721413589128
 20
309.5536674168496
 11
574.3208007573644
 21
309.5536674168496
 72
     1
 10
574.3208007573644
 20
309.5536674168496
 11
571.9652116590705
 21
305.4736674168496
 72
     1
 10
571.9652116590705
 20
305.4736674168496
 11
537.9652116590705
 21
305.4736674168496
 72
     1
 10
537.9652116590705
 20
305.4736674168496
 11
537.9652116590705
 21
297.5536674168496
 72
     1
 10
537.9652116590705
 20
297.5536674168496
 11
539.9652116590707
 21
295.5536674168494
 72
     1
 10
539.9652116590707
 20
295.5536674168494
 11
586.2099001635662
 21
295.5536674168495
 97
        0
 75
     0
 76
     1
 52
90.0
 41
12.5
 77
     0
 78
     1
 53
135.0
 43
489.9652116590715
 44
134.2024703474407
 45
-1.10485434560398
 46
-1.10485434560398
 79
     0
 47
0.2199429360659828
 98
        2
 10
580.7077284905199
 20
316.9293751007173
 10
580.9277528386667
 20
305.4923422649241
1001
ACAD
1010
0.0
1020
0.0
1030
0.0
  0
LINE
  5
716F
330
2
100
AcDbEntity
  8
MITTE
 48
10.0
100
AcDbLine
 10
535.6700500618881
 20
309.5536674168496
 30
0.0
 11
878.9489152938195
 21
309.5536674168496
 31
0.0
  0
LINE
  5
7176
330
2
100
AcDbEntity
  8
0
 48
10.0
100
AcDbLine
 10
756.9652116590721
 20
279.5536674168509
 30
0.0
 11
756.9652116590721
 21
284.473667416851
 31
0.0
  0
LINE
  5
7177
330
2
100
AcDbEntity
  8
0
 48
10.0
100
AcDbLine
 10
756.9652116590721
 20
339.5536674168496
 30
0.0
 11
737.465211659072
 21
339.5536674168496
 31
0.0
  0
LINE
  5
7178
330
2
100
AcDbEntity
  8
0
 48
10.0
100
AcDbLine
 10
735.4652116590719
 20
339.5536674168496
 30
0.0
 11
719.4652116590718
 21
339.5536674168496
 31
0.0
  0
LINE
  5
7179
330
2
100
AcDbEntity
  8
0
 48
10.0
100
AcDbLine
 10
717.4652116590719
 20
339.5536674168496
 30
0.0
 11
689.4652116590723
 21
339.5536674168496
 31
0.0
  0
LINE
  5
717A
330
2
100
AcDbEntity
  8
0
 48
10.0
100
AcDbLine
 10
736.4652116590719
 20
338.5536674168496
 30
0.0
 11
737.465211659072
 21
339.5536674168496
 31
0.0
  0
LINE
  5
717B
330
2
100
AcDbEntity
  8
0
 48
10.0
100
AcDbLine
 10
736.4652116590719
 20
338.5536674168496
 30
0.0
 11
735.4652116590719
 21
339.5536674168496
 31
0.0
  0
LINE
  5
717C
330
2
100
AcDbEntity
  8
0
 48
10.0
100
AcDbLine
 10
718.4652116590719
 20
338.5536674168496
 30
0.0
 11
719.4652116590718
 21
339.5536674168496
 31
0.0
  0
LINE
  5
717D
330
2
100
AcDbEntity
  8
0
 48
10.0
100
AcDbLine
 10
718.4652116590719
 20
338.5536674168496
 30
0.0
 11
717.4652116590719
 21
339.5536674168496
 31
0.0
  0
LINE
  5
717E
330
2
100
AcDbEntity
  8
0
 48
10.0
100
AcDbLine
 10
756.9652116590718
 20
279.5536674168496
 30
0.0
 11
756.9652116590718
 21
339.5536674168509
 31
0.0
  0
LINE
  5
717F
330
2
100
AcDbEntity
  8
0
 48
10.0
100
AcDbLine
 10
756.9652116590721
 20
279.5536674168496
 30
0.0
 11
737.465211659072
 21
279.5536674168496
 31
0.0
  0
LINE
  5
7180
330
2
100
AcDbEntity
  8
0
 48
10.0
100
AcDbLine
 10
735.4652116590719
 20
279.5536674168496
 30
0.0
 11
719.4652116590718
 21
279.5536674168496
 31
0.0
  0
LINE
  5
7181
330
2
100
AcDbEntity
  8
0
 48
10.0
100
AcDbLine
 10
717.4652116590719
 20
279.5536674168496
 30
0.0
 11
689.465211659072
 21
279.5536674168495
 31
0.0
  0
LINE
  5
7182
330
2
100
AcDbEntity
  8
0
 48
10.0
100
AcDbLine
 10
736.4652116590719
 20
280.5536674168497
 30
0.0
 11
737.465211659072
 21
279.5536674168496
 31
0.0
  0
LINE
  5
7183
330
2
100
AcDbEntity
  8
0
 48
10.0
100
AcDbLine
 10
736.4652116590719
 20
280.5536674168497
 30
0.0
 11
735.4652116590719
 21
279.5536674168496
 31
0.0
  0
LINE
  5
7184
330
2
100
AcDbEntity
  8
0
 48
10.0
100
AcDbLine
 10
718.4652116590719
 20
280.5536674168497
 30
0.0
 11
719.4652116590718
 21
279.5536674168496
 31
0.0
  0
LINE
  5
7185
330
2
100
AcDbEntity
  8
0
 48
10.0
100
AcDbLine
 10
718.4652116590719
 20
280.5536674168497
 30
0.0
 11
717.4652116590719
 21
279.5536674168496
 31
0.0
  0
LINE
  5
7186
330
2
100
AcDbEntity
  8
0
 48
10.0
100
AcDbLine
 10
597.9652116590705
 20
294.5536674168496
 30
0.0
 11
599.9652116590712
 21
294.5536674168496
 31
0.0
  0
LINE
  5
7187
330
2
100
AcDbEntity
  8
0
 48
10.0
100
AcDbLine
 10
597.9652116590705
 20
294.5536674168496
 30
0.0
 11
597.9652116590705
 21
324.5536674168497
 31
0.0
  0
LINE
  5
7188
330
2
100
AcDbEntity
  8
0
 48
10.0
100
AcDbLine
 10
597.9652116590705
 20
324.5536674168497
 30
0.0
 11
599.9652116590712
 21
324.5536674168497
 31
0.0
  0
LINE
  5
7189
330
2
100
AcDbEntity
  8
0
 48
10.0
100
AcDbLine
 10
599.9652116590712
 20
351.0536674168496
 30
0.0
 11
648.965211659071
 21
351.0536674168495
 31
0.0
  0
LINE
  5
718A
330
2
100
AcDbEntity
  8
0
 48
10.0
100
AcDbLine
 10
599.9652116590712
 20
351.0536674168495
 30
0.0
 11
599.9652116590712
 21
268.0536674168497
 31
0.0
  0
LINE
  5
718B
330
2
100
AcDbEntity
  8
0
 48
10.0
100
AcDbLine
 10
649.4652116590721
 20
343.6336674168497
 30
0.0
 11
648.9652116590711
 21
343.6336674168497
 31
0.0
  0
LINE
  5
718C
330
2
100
AcDbEntity
  8
0
 48
10.0
100
AcDbLine
 10
599.9652116590712
 20
268.0536674168497
 30
0.0
 11
648.965211659071
 21
268.0536674168497
 31
0.0
  0
LINE
  5
718D
330
2
100
AcDbEntity
  8
0
 48
10.0
100
AcDbLine
 10
648.9652116590711
 20
268.0536674168497
 30
0.0
 11
648.9652116590711
 21
351.0536674168495
 31
0.0
  0
LINE
  5
718E
330
2
100
AcDbEntity
  8
0
 48
10.0
100
AcDbLine
 10
649.4652116590721
 20
275.4736674168496
 30
0.0
 11
648.9652116590711
 21
275.4736674168496
 31
0.0
  0
LINE
  5
718F
330
2
100
AcDbEntity
  8
0
 48
10.0
100
AcDbLine
 10
649.4652116590721
 20
269.5536674168496
 30
0.0
 11
676.4652116590722
 21
269.5536674168496
 31
0.0
  0
LINE
  5
7190
330
2
100
AcDbEntity
  8
0
 48
10.0
100
AcDbLine
 10
678.4652116590722
 20
269.5536674168496
 30
0.0
 11
683.4652116590721
 21
269.5536674168496
 31
0.0
  0
LINE
  5
7191
330
2
100
AcDbEntity
  8
0
 48
10.0
100
AcDbLine
 10
649.4652116590721
 20
349.5536674168497
 30
0.0
 11
676.465211659072
 21
349.5536674168497
 31
0.0
  0
LINE
  5
7192
330
2
100
AcDbEntity
  8
0
 48
10.0
100
AcDbLine
 10
678.4652116590723
 20
349.5536674168497
 30
0.0
 11
683.4652116590721
 21
349.5536674168497
 31
0.0
  0
LINE
  5
7193
330
2
100
AcDbEntity
  8
0
 48
10.0
100
AcDbLine
 10
689.4652116590723
 20
346.0895658017118
 30
0.0
 11
689.465211659072
 21
273.0177690319874
 31
0.0
  0
LINE
  5
7194
330
2
100
AcDbEntity
  8
0
 48
10.0
100
AcDbLine
 10
649.4652116590721
 20
349.5536674168497
 30
0.0
 11
649.4652116590721
 21
269.5536674168496
 31
0.0
  0
LINE
  5
7195
330
2
100
AcDbEntity
  8
0
 48
10.0
100
AcDbLine
 10
683.4652116590722
 20
349.5536674168497
 30
0.0
 11
689.4652116590722
 21
346.0895658017118
 31
0.0
  0
LINE
  5
7196
330
2
100
AcDbEntity
  8
0
 48
10.0
100
AcDbLine
 10
683.4652116590721
 20
269.5536674168496
 30
0.0
 11
689.465211659072
 21
273.0177690319873
 31
0.0
  0
LINE
  5
7197
330
2
100
AcDbEntity
  8
0
 48
10.0
100
AcDbLine
 10
677.4652116590722
 20
348.5536674168496
 30
0.0
 11
676.465211659072
 21
349.5536674168497
 31
0.0
  0
LINE
  5
7198
330
2
100
AcDbEntity
  8
0
 48
10.0
100
AcDbLine
 10
677.4652116590722
 20
348.5536674168496
 30
0.0
 11
678.4652116590723
 21
349.5536674168497
 31
0.0
  0
LINE
  5
7199
330
2
100
AcDbEntity
  8
0
 48
10.0
100
AcDbLine
 10
677.4652116590722
 20
270.5536674168496
 30
0.0
 11
676.4652116590722
 21
269.5536674168496
 31
0.0
  0
LINE
  5
719A
330
2
100
AcDbEntity
  8
0
 48
10.0
100
AcDbLine
 10
677.4652116590722
 20
270.5536674168496
 30
0.0
 11
678.4652116590722
 21
269.5536674168496
 31
0.0
  0
LINE
  5
719B
330
2
100
AcDbEntity
  8
0
 48
10.0
100
AcDbLine
 10
539.9652116590705
 20
323.5536674168496
 30
0.0
 11
542.9652116590705
 21
323.5536674168496
 31
0.0
  0
LINE
  5
719C
330
2
100
AcDbEntity
  8
0
 48
10.0
100
AcDbLine
 10
592.9652116590705
 20
323.5536674168495
 30
0.0
 11
597.9652116590706
 21
323.5536674168496
 31
0.0
  0
LINE
  5
719D
330
2
100
AcDbEntity
  8
0
 48
10.0
100
AcDbLine
 10
542.9652116590705
 20
326.5536674168496
 30
0.0
 11
592.9652116590705
 21
326.5536674168496
 31
0.0
  0
LINE
  5
719E
330
2
100
AcDbEntity
  8
0
 48
10.0
100
AcDbLine
 10
539.9652116590707
 20
295.5536674168494
 30
0.0
 11
597.9652116590705
 21
295.5536674168495
 31
0.0
  0
LINE
  5
719F
330
2
100
AcDbEntity
  8
0
 48
10.0
100
AcDbLine
 10
542.9652116590705
 20
319.5536674168494
 30
0.0
 11
592.9652116590705
 21
319.5536674168496
 31
0.0
  0
LINE
  5
71A0
330
2
100
AcDbEntity
  8
0
 48
10.0
100
AcDbLine
 10
592.9652116590705
 20
326.5536674168496
 30
0.0
 11
592.9652116590705
 21
319.5536674168496
 31
0.0
  0
LINE
  5
71A1
330
2
100
AcDbEntity
  8
LINIE
 48
10.0
100
AcDbLine
 10
537.9652116590705
 20
314.5536674168496
 30
0.0
 11
561.9652116590705
 21
314.5536674168496
 31
0.0
  0
LINE
  5
71A2
330
2
100
AcDbEntity
  8
0
 48
10.0
100
AcDbLine
 10
537.9652116590705
 20
313.6336674168496
 30
0.0
 11
571.9652116590705
 21
313.6336674168496
 31
0.0
  0
LINE
  5
71A3
330
2
100
AcDbEntity
  8
LINIE
 48
10.0
100
AcDbLine
 10
537.9652116590705
 20
304.5536674168496
 30
0.0
 11
561.9652116590705
 21
304.5536674168496
 31
0.0
  0
LINE
  5
71A4
330
2
100
AcDbEntity
  8
0
 48
10.0
100
AcDbLine
 10
537.9652116590705
 20
305.4736674168496
 30
0.0
 11
571.9652116590705
 21
305.4736674168496
 31
0.0
  0
LINE
  5
71A5
330
2
100
AcDbEntity
  8
0
 48
10.0
100
AcDbLine
 10
537.9652116590705
 20
297.5536674168496
 30
0.0
 11
537.9652116590705
 21
321.5536674168496
 31
0.0
  0
LINE
  5
71A6
330
2
100
AcDbEntity
  8
0
 48
10.0
100
AcDbLine
 10
561.9652116590705
 20
304.5536674168496
 30
0.0
 11
561.9652116590705
 21
314.5536674168496
 31
0.0
  0
LINE
  5
71A7
330
2
100
AcDbEntity
  8
0
 48
10.0
100
AcDbLine
 10
571.9652116590705
 20
305.4736674168496
 30
0.0
 11
571.9652116590705
 21
313.6336674168496
 31
0.0
  0
LINE
  5
71A8
330
2
100
AcDbEntity
  8
0
 48
10.0
100
AcDbLine
 10
537.9652116590705
 20
297.5536674168496
 30
0.0
 11
539.9652116590705
 21
295.5536674168495
 31
0.0
  0
LINE
  5
71A9
330
2
100
AcDbEntity
  8
0
 48
10.0
100
AcDbLine
 10
537.9652116590705
 20
321.5536674168496
 30
0.0
 11
539.9652116590705
 21
323.5536674168496
 31
0.0
  0
LINE
  5
71AA
330
2
100
AcDbEntity
  8
0
 48
10.0
100
AcDbLine
 10
571.9652116590705
 20
313.6336674168496
 30
0.0
 11
574.3208007573644
 21
309.5536674168496
 31
0.0
  0
LINE
  5
71AB
330
2
100
AcDbEntity
  8
0
 48
10.0
100
AcDbLine
 10
542.9652116590705
 20
326.5536674168496
 30
0.0
 11
542.9652116590705
 21
319.5536674168496
 31
0.0
  0
LINE
  5
71AC
330
2
100
AcDbEntity
  8
0
 48
10.0
100
AcDbLine
 10
592.9652116590705
 20
323.5536674168496
 30
0.0
 11
592.9652116590705
 21
319.5536674168496
 31
0.0
  0
LINE
  5
71AD
330
2
100
AcDbEntity
  8
0
 48
10.0
100
AcDbLine
 10
571.9652116590705
 20
305.4736674168496
 30
0.0
 11
574.3208007573644
 21
309.5536674168496
 31
0.0
  0
SPLINE
  5
71AE
330
2
100
AcDbEntity
  8
LINIE
 48
10.0
100
AcDbSpline
210
0.0
220
0.0
230
1.0
 70
     8
 71
     3
 72
    10
 73
     6
 74
     4
 42
0.0000000001
 43
0.0000000001
 44
0.0000000001
 40
0.0
 40
0.0
 40
0.0
 40
0.0
 40
18.87642815912262
 40
45.80706849030514
 40
59.03854941500694
 40
59.03854941500694
 40
59.03854941500694
 40
59.03854941500694
 10
595.178376703559
 20
323.5536674168496
 30
0.0
 10
594.7553879161865
 20
320.413674712294
 30
0.0
 10
593.7289290866626
 20
312.793914254216
 30
0.0
 10
588.8199202649811
 20
304.0646786848997
 30
0.0
 10
586.8566898494946
 20
297.6627830907134
 30
0.0
 10
586.2099001635662
 20
295.5536674168495
 30
0.0
 11
595.178376703559
 21
323.5536674168496
 31
0.0
 11
593.4369249370875
 21
314.2775027591539
 31
0.0
 11
588.299641824647
 21
301.8306891353981
 31
0.0
 11
586.2099001635662
 21
295.5536674168495
 31
0.0
  0
LINE
  5
71AF
330
2
100
AcDbEntity
  8
MITTE
 48
10.0
100
AcDbLine
 10
888.0318566655391
 20
309.5536674168496
 30
0.0
 11
976.9129392546428
 21
309.5536674168496
 31
0.0
  0
LINE
  5
71B0
330
2
100
AcDbEntity
  8
MITTE
 48
10.0
100
AcDbLine
 10
932.3810895648072
 20
353.1476782699814
 30
0.0
 11
932.3810895648072
 21
265.4995819327011
 31
0.0
  0
LINE
  5
71B1
330
2
100
AcDbEntity
  8
0
 48
10.0
100
AcDbLine
 10
936.3810895648072
 20
326.5536674168497
 30
0.0
 11
936.3810895648072
 21
322.9700752818484
 31
0.0
  0
LINE
  5
71B2
330
2
100
AcDbEntity
  8
0
 48
10.0
100
AcDbLine
 10
928.3810895648072
 20
326.5536674168497
 30
0.0
 11
928.3810895648072
 21
322.9700752818484
 31
0.0
  0
LINE
  5
71B3
330
2
100
AcDbEntity
  8
0
 48
10.0
100
AcDbLine
 10
969.8810895648072
 20
327.3300562514808
 30
0.0
 11
969.8810895648072
 21
291.7772785822184
 31
0.0
  0
LINE
  5
71B4
330
2
100
AcDbEntity
  8
0
 48
10.0
100
AcDbLine
 10
894.8810895648072
 20
327.3300562514809
 30
0.0
 11
894.8810895648072
 21
291.7772785822184
 31
0.0
  0
CIRCLE
  5
71B5
330
2
100
AcDbEntity
  8
0
 48
10.0
100
AcDbCircle
 10
932.3810895648072
 20
309.5536674168496
 30
0.0
 40
41.5
  0
CIRCLE
  5
71B6
330
2
100
AcDbEntity
  8
0
 48
10.0
100
AcDbCircle
 10
932.3810895648072
 20
309.5536674168496
 30
0.0
 40
31.0
  0
CIRCLE
  5
71B7
330
2
100
AcDbEntity
  8
MITTE
 48
10.0
100
AcDbCircle
 10
932.3810895648072
 20
309.5536674168496
 30
0.0
 40
36.5
  0
LINE
  5
71B8
330
2
100
AcDbEntity
  8
MITTE
 48
10.0
100
AcDbLine
 10
932.3810895648072
 20
309.5536674168496
 30
0.0
 11
892.35527482841
 21
332.6625823294426
 31
0.0
  0
LINE
  5
71B9
330
2
100
AcDbEntity
  8
MITTE
 48
10.0
100
AcDbLine
 10
932.3810895648072
 20
309.5536674168496
 30
0.0
 11
972.4069043012045
 21
332.6625823294426
 31
0.0
  0
LINE
  5
71BA
330
2
100
AcDbEntity
  8
MITTE
 48
10.0
100
AcDbLine
 10
932.3810895648072
 20
309.5536674168496
 30
0.0
 11
892.35527482841
 21
286.4447525042566
 31
0.0
  0
LINE
  5
71BB
330
2
100
AcDbEntity
  8
MITTE
 48
10.0
100
AcDbLine
 10
932.3810895648072
 20
309.5536674168496
 30
0.0
 11
972.4069043012045
 21
286.4447525042566
 31
0.0
  0
ARC
  5
71BC
330
2
100
AcDbEntity
  8
LINIE
 48
10.0
100
AcDbCircle
 10
932.3810895648072
 20
346.0536674168496
 30
0.0
 40
3.0
100
AcDbArc
 50
174.9453636882729
 51
117.2761063251563
  0
CIRCLE
  5
71BD
330
2
100
AcDbEntity
  8
0
 48
10.0
100
AcDbCircle
 10
932.3810895648072
 20
346.0536674168496
 30
0.0
 40
2.35
  0
ARC
  5
71BE
330
2
100
AcDbEntity
  8
LINIE
 48
10.0
100
AcDbCircle
 10
900.7711623266752
 20
327.8036674168496
 30
0.0
 40
3.0
100
AcDbArc
 50
219.0912463645152
 51
180.6971457353703
  0
CIRCLE
  5
71BF
330
2
100
AcDbEntity
  8
0
 48
10.0
100
AcDbCircle
 10
900.7711623266752
 20
327.8036674168496
 30
0.0
 40
2.35
  0
ARC
  5
71C0
330
2
100
AcDbEntity
  8
LINIE
 48
10.0
100
AcDbCircle
 10
963.9910168029393
 20
327.8036674168496
 30
0.0
 40
3.0
100
AcDbArc
 50
106.2042382576031
 51
55.56388735104441
  0
CIRCLE
  5
71C1
330
2
100
AcDbEntity
  8
0
 48
10.0
100
AcDbCircle
 10
963.9910168029393
 20
327.8036674168496
 30
0.0
 40
2.35
  0
ARC
  5
71C2
330
2
100
AcDbEntity
  8
LINIE
 48
10.0
100
AcDbCircle
 10
932.3810895648072
 20
273.0536674168497
 30
0.0
 40
3.0
100
AcDbArc
 50
242.7238936748437
 51
185.0546363117271
  0
CIRCLE
  5
71C3
330
2
100
AcDbEntity
  8
0
 48
10.0
100
AcDbCircle
 10
932.3810895648072
 20
273.0536674168497
 30
0.0
 40
2.35
  0
ARC
  5
71C4
330
2
100
AcDbEntity
  8
LINIE
 48
10.0
100
AcDbCircle
 10
900.7711623266752
 20
291.3036674168497
 30
0.0
 40
3.0
100
AcDbArc
 50
179.3028542646296
 51
140.9087536354847
  0
CIRCLE
  5
71C5
330
2
100
AcDbEntity
  8
0
 48
10.0
100
AcDbCircle
 10
900.7711623266752
 20
291.3036674168497
 30
0.0
 40
2.35
  0
ARC
  5
71C6
330
2
100
AcDbEntity
  8
LINIE
 48
10.0
100
AcDbCircle
 10
963.9910168029393
 20
291.3036674168497
 30
0.0
 40
3.0
100
AcDbArc
 50
304.4361126489556
 51
253.7957617423969
  0
CIRCLE
  5
71C7
330
2
100
AcDbEntity
  8
0
 48
10.0
100
AcDbCircle
 10
963.9910168029393
 20
291.3036674168497
 30
0.0
 40
2.35
  0
DIMENSION
  5
71C8
330
2
100
AcDbEntity
  8
BEM
 48
10.0
100
AcDbDimension
  2
*D61
 10
1117.315928451663
 20
236.5536674168498
 30
0.0
 11
1110.815928451663
 21
309.5536674168499
 31
0.0
 70
    32
  1
%%c<>{}{\A0;{\H1.5x;}{\A2;\H0.71x;\C3;%%p0.05}}
 71
     5
 42
145.9999999999999
 73
     0
 74
     0
 75
     0
  3
ISO-25
100
AcDbAlignedDimension
 13
1241.524579757874
 23
382.5536674168496
 33
0.0
 14
1241.524579757874
 24
236.5536674168497
 34
0.0
 50
90.0
100
AcDbRotatedDimension
1001
ACAD_DSTYLE_DIMINSPECT
1070
   396
1000
100%
1070
   395
1000

1070
   394
1070
    33
1070
   393
1070
     0
1001
ACAD
1000
DSTYLE
1002
{
1070
   286
1070
     0
1070
   284
1070
     8
1070
   274
1070
     2
1070
   272
1070
     4
1070
    41
1040
6.0
1070
    47
1040
0.05
1070
    48
1040
0.05
1070
   140
1040
6.0
1070
   147
1040
2.0
1002
}
1001
GENIUS_GENDTOL_13
1000
TolHiPm
1000

1000
{\A0;{\H1.5x;}{\A2;\H0.71x;$2%%p$P}}
1040
73.0
  0
DIMENSION
  5
71C9
102
{ACAD_XDICTIONARY
360
8929
102
}
102
{ACAD_REACTORS
330
892A
102
}
330
2
100
AcDbEntity
  8
BEM
 48
10.0
100
AcDbDimension
  2
*D62
 10
1161.472950285079
 20
355.7714972420356
 30
0.0
 11
1155.779425739194
 21
458.0686306800207
 31
0.0
 70
    34
 71
     5
 42
1.047197551196598
 73
     0
 74
     0
 75
     0
  3
ISO-25
100
AcDb2LineAngularDimension
 13
1241.524579757874
 23
401.9893270672217
 33
0.0
 14
1241.524579757874
 24
217.1180077664775
 34
0.0
 15
1241.524579757874
 25
309.5536674168496
 35
0.0
 16
1184.581540740602
 26
466.0033813119282
 36
0.0
1001
ACAD
1000
DSTYLE
1002
{
1070
    41
1040
6.0
1070
   140
1040
6.0
1070
   147
1040
2.0
1002
}
  0
DIMENSION
  5
71CA
102
{ACAD_XDICTIONARY
360
88B7
102
}
102
{ACAD_REACTORS
330
88B8
102
}
330
2
100
AcDbEntity
  8
BEM
 48
10.0
100
AcDbDimension
  2
*D63
 10
1241.524579757874
 20
217.1180077664775
 30
0.0
 11
1327.269733776552
 21
458.0686306800193
 31
0.0
 70
    34
 71
     5
 42
1.047197551196596
 73
     0
 74
     0
 75
     0
  3
ISO-25
100
AcDb2LineAngularDimension
 13
1241.524579757874
 23
309.5536674168496
 33
0.0
 14
1321.576209230668
 24
355.7714972420356
 34
0.0
 15
1241.524579757874
 25
401.9893270672217
 35
0.0
 16
1348.542486897182
 26
437.0926427220336
 36
0.0
1001
ACAD
1000
DSTYLE
1002
{
1070
    41
1040
6.0
1070
   140
1040
6.0
1070
   147
1040
2.0
1002
}
  0
LINE
  5
71CC
330
2
100
AcDbEntity
  8
MITTE
 48
10.0
100
AcDbLine
 10
932.3810895648072
 20
309.5536674168496
 30
0.0
 11
911.6310895648071
 21
345.4937216739038
 31
0.0
  0
LINE
  5
71CD
330
2
100
AcDbEntity
  8
LINIE
  6
HIDDEN
 48
6.0
100
AcDbLine
 10
914.283453659879
 20
346.899692301068
 30
0.0
 11
915.9791657761605
 21
343.9626327606583
 31
0.0
  0
LINE
  5
71CE
330
2
100
AcDbEntity
  8
LINIE
  6
HIDDEN
 48
6.0
100
AcDbLine
 10
909.0873012371725
 20
343.8996923010679
 30
0.0
 11
910.7830133534537
 21
340.9626327606583
 31
0.0
  0
LINE
  5
71CF
330
2
100
AcDbEntity
  8
LINIE
  6
HIDDEN
 48
6.0
100
AcDbLine
 10
910.7830133534537
 20
340.9626327606583
 30
0.0
 11
915.9791657761605
 21
343.9626327606583
 31
0.0
  0
DIMENSION
  5
71D0
102
{ACAD_XDICTIONARY
360
8BA6
102
}
102
{ACAD_REACTORS
330
8BA7
102
}
330
2
100
AcDbEntity
  8
BEM
 48
10.0
100
AcDbDimension
  2
*D65
 10
1200.024579757874
 20
381.433775930958
 30
0.0
 11
1205.100504875311
 21
445.4901654972659
 31
0.0
 70
    34
 71
     5
 42
0.523598775598297
 73
     0
 74
     0
 75
     0
  3
ISO-25
100
AcDb2LineAngularDimension
 13
1241.524579757874
 23
396.7416891231133
 33
0.0
 14
1241.524579757874
 24
217.1180077664775
 34
0.0
 15
1241.524579757874
 25
309.5536674168496
 35
0.0
 16
1217.954996822017
 26
443.2234146169442
 36
0.0
1001
ACAD
1000
DSTYLE
1002
{
1070
    41
1040
6.0
1070
   140
1040
6.0
1070
   147
1040
2.0
1002
}
  0
DIMENSION
  5
71D1
330
2
100
AcDbEntity
  8
BEM
 48
10.0
100
AcDbDimension
  2
*D66
 10
1192.452276454869
 20
406.549389982082
 30
0.0
 11
1213.877744944497
 21
418.9193899820821
 31
0.0
 70
   161
  1
<>{}{\H0.71x;\C3; P9}
 71
     5
 42
11.99999999999977
 73
     0
 74
     0
 75
     0
  3
ISO-25
100
AcDbAlignedDimension
 13
1194.937003102604
 23
378.2457171852863
 33
0.0
 14
1205.329307948017
 24
384.2457171852863
 34
0.0
1001
ACAD_DSTYLE_DIMINSPECT
1070
   396
1000
100%
1070
   395
1000

1070
   394
1070
    33
1070
   393
1070
     0
1001
GENIUS_GENDTOL_13
1000
FitSmTxt
1000
P9
1000
{\H0.71x;$2 $T}
1040
6.0
1001
ACAD
1000
DSTYLE
1002
{
1070
    41
1040
6.0
1070
   140
1040
6.0
1070
   147
1040
2.0
1002
}
  0
CIRCLE
  5
71D2
330
2
100
AcDbEntity
  8
0
 48
10.0
100
AcDbCircle
 10
932.3810895648072
 20
309.5536674168496
 30
0.0
 40
12.0
  0
CIRCLE
  5
71D3
330
2
100
AcDbEntity
  8
0
 48
10.0
100
AcDbCircle
 10
932.3810895648072
 20
309.5536674168496
 30
0.0
 40
14.00000000000004
  0
LINE
  5
71D4
330
2
100
AcDbEntity
  8
0
 48
10.0
100
AcDbLine
 10
928.3810895648072
 20
326.5536674168497
 30
0.0
 11
936.3810895648072
 21
326.5536674168497
 31
0.0
  0
CIRCLE
  5
71D5
330
2
100
AcDbEntity
  8
0
 48
10.0
100
AcDbCircle
 10
932.3810895648072
 20
309.5536674168496
 30
0.0
 40
4.079999999999984
  0
ARC
  5
71D6
330
2
100
AcDbEntity
  8
LINIE
 48
10.0
100
AcDbCircle
 10
932.3810895648072
 20
309.5536674168496
 30
0.0
 40
5.0
100
AcDbArc
 50
173.4014182417629
 51
110.4717490542393
  0
DIMENSION
  5
71D7
330
2
100
AcDbEntity
  8
BEM
 48
10.0
100
AcDbDimension
  2
*D67
 10
1343.309729448718
 20
361.3911477600885
 30
0.0
 11
1354.381158020146
 21
342.2148709620046
 31
0.0
 70
   161
  1
M<>
 71
     5
 42
11.99999999999983
 73
     0
 74
     0
 75
     0
  3
ISO-25
100
AcDbAlignedDimension
 13
1301.744434234138
 23
351.2498198395562
 33
0.0
 14
1307.744434234138
 24
340.8575149941429
 34
0.0
1001
ACAD
1000
DSTYLE
1002
{
1070
    41
1040
6.0
1070
   140
1040
6.0
1070
   147
1040
2.0
1002
}
  0
LINE
  5
71DA
330
2
100
AcDbEntity
  8
0
 48
10.0
100
AcDbLine
 10
614.9652116590711
 20
327.3300562514808
 30
0.0
 11
614.9652116590711
 21
291.7772785822184
 31
0.0
  0
LINE
  5
71DB
330
2
100
AcDbEntity
  8
LINIE
  6
HIDDEN
 48
15.0
100
AcDbLine
 10
602.4652116590711
 20
340.5536674168496
 30
0.0
 11
602.4652116590711
 21
278.5536674168496
 31
0.0
  0
LINE
  5
71DC
330
2
100
AcDbEntity
  8
LINIE
  6
HIDDEN
 48
8.0
100
AcDbLine
 10
599.9652116590712
 20
278.5536674168496
 30
0.0
 11
602.4652116590711
 21
278.5536674168496
 31
0.0
  0
LINE
  5
71DD
330
2
100
AcDbEntity
  8
LINIE
  6
HIDDEN
 48
8.0
100
AcDbLine
 10
599.9652116590712
 20
340.5536674168496
 30
0.0
 11
602.4652116590711
 21
340.5536674168496
 31
0.0
  0
LINE
  5
71DE
330
2
100
AcDbEntity
  8
LINIE
  6
HIDDEN
 48
12.0
100
AcDbLine
 10
607.9666848844984
 20
343.8996923010679
 30
0.0
 11
626.9666848844983
 21
343.8996923010679
 31
0.0
  0
LINE
  5
71DF
330
2
100
AcDbEntity
  8
LINIE
  6
HIDDEN
 48
12.0
100
AcDbLine
 10
607.9666848844984
 20
346.899692301068
 30
0.0
 11
626.9666848844983
 21
346.899692301068
 31
0.0
  0
ELLIPSE
  5
71E0
330
2
100
AcDbEntity
  8
LINIE
  6
HIDDEN
 48
12.0
100
AcDbEllipse
 10
626.9637384336441
 20
345.3996923010679
 30
0.0
 11
-3.001473225427125
 21
0.0
 31
0.0
210
0.0
220
0.0
230
1.0
 40
0.4997545829470456
 41
1.570796326794896
 42
4.712388980384689
  0
ELLIPSE
  5
71E1
330
2
100
AcDbEntity
  8
LINIE
  6
HIDDEN
 48
12.0
100
AcDbEllipse
 10
607.9666848844984
 20
345.3996923010679
 30
0.0
 11
-3.001473225427125
 21
0.0
 31
0.0
210
0.0
220
0.0
230
1.0
 40
0.4997545829470456
 41
4.712388980384689
 42
7.853981633974482
  0
LINE
  5
71E2
330
2
100
AcDbEntity
  8
0
 48
10.0
100
AcDbLine
 10
614.9652116590711
 20
327.3300562514808
 30
0.0
 11
599.9652116590712
 21
327.3300562514808
 31
0.0
  0
LINE
  5
71E3
330
2
100
AcDbEntity
  8
0
 48
10.0
100
AcDbLine
 10
614.9652116590711
 20
291.7772785822184
 30
0.0
 11
599.9652116590712
 21
291.7772785822184
 31
0.0
  0
LINE
  5
71E4
330
2
100
AcDbEntity
  8
LINIE
 48
10.0
100
AcDbLine
 10
614.9652116590711
 20
327.3300562514808
 30
0.0
 11
599.9652116590712
 21
291.7772785822184
 31
0.0
  0
LINE
  5
71E5
330
2
100
AcDbEntity
  8
LINIE
 48
10.0
100
AcDbLine
 10
599.9652116590712
 20
327.3300562514808
 30
0.0
 11
614.9652116590711
 21
291.7772785822184
 31
0.0
  0
LINE
  5
71E6
330
2
100
AcDbEntity
  8
0
 48
10.0
100
AcDbLine
 10
677.4652116590723
 20
348.5536674168496
 30
0.0
 11
677.4652116590721
 21
270.5536674168493
 31
0.0
  0
LINE
  5
71E7
330
2
100
AcDbEntity
  8
0
 48
10.0
100
AcDbLine
 10
683.4652116590722
 20
349.5536674168496
 30
0.0
 11
683.4652116590722
 21
328.9185841478866
 31
0.0
  0
LINE
  5
71E8
330
2
100
AcDbEntity
  8
0
 48
10.0
100
AcDbLine
 10
683.4652116590722
 20
290.1887506858125
 30
0.0
 11
683.4652116590722
 21
269.5536674168496
 31
0.0
  0
LINE
  5
71E9
330
2
100
AcDbEntity
  8
0
 48
10.0
100
AcDbLine
 10
677.4652116590722
 20
328.9185841478866
 30
0.0
 11
683.4652116590722
 21
328.9185841478866
 31
0.0
  0
LINE
  5
71EA
330
2
100
AcDbEntity
  8
0
 48
10.0
100
AcDbLine
 10
677.4652116590721
 20
290.1887506858125
 30
0.0
 11
683.4652116590722
 21
290.1887506858125
 31
0.0
  0
ELLIPSE
  5
71EB
330
2
100
AcDbEntity
  8
0
 48
10.0
100
AcDbEllipse
 10
683.4652116590722
 20
309.5536674168496
 30
0.0
 11
0.0
 21
19.36491673103708
 31
0.0
210
0.0
220
0.0
230
1.0
 40
0.3697252777809217
 41
3.141592653589793
 42
4.135244317630075
  0
ELLIPSE
  5
71EC
330
2
100
AcDbEntity
  8
0
 48
10.0
100
AcDbEllipse
 10
683.4652116590722
 20
309.5536674168496
 30
0.0
 11
0.0
 21
19.36491673103708
 31
0.0
210
0.0
220
0.0
230
1.0
 40
0.3697252777809217
 41
5.289533643139293
 42
6.283185307179586
  0
LINE
  5
71ED
330
2
100
AcDbEntity
  8
LINIE
 48
10.0
100
AcDbLine
 10
677.4652116590721
 20
290.1887506858125
 30
0.0
 11
689.4652116590722
 21
320.1198112838568
 31
0.0
  0
LINE
  5
71EE
330
2
100
AcDbEntity
  8
LINIE
 48
10.0
100
AcDbLine
 10
677.4652116590722
 20
328.9185841478866
 30
0.0
 11
689.4652116590722
 21
298.9875235498422
 31
0.0
  0
LINE
  5
71EF
330
2
100
AcDbEntity
  8
0
 48
10.0
100
AcDbLine
 10
678.4652116590723
 20
269.5536674168495
 30
0.0
 11
678.4652116590723
 21
290.1887506858125
 31
0.0
  0
LINE
  5
71F0
330
2
100
AcDbEntity
  8
0
 48
10.0
100
AcDbLine
 10
678.4652116590723
 20
328.9185841478866
 30
0.0
 11
678.4652116590723
 21
349.5536674168497
 31
0.0
  0
LINE
  5
71F1
330
2
100
AcDbEntity
  8
0
 48
10.0
100
AcDbLine
 10
676.4652116590722
 20
269.5536674168495
 30
0.0
 11
676.4652116590722
 21
349.5536674168497
 31
0.0
  0
LINE
  5
71F2
330
2
100
AcDbEntity
  8
0
 48
10.0
100
AcDbLine
 10
717.465211659072
 20
279.5536674168496
 30
0.0
 11
717.465211659072
 21
339.5536674168496
 31
0.0
  0
LINE
  5
71F3
330
2
100
AcDbEntity
  8
0
 48
10.0
100
AcDbLine
 10
718.465211659072
 20
280.5536674168494
 30
0.0
 11
718.465211659072
 21
338.5536674168496
 31
0.0
  0
LINE
  5
71F4
330
2
100
AcDbEntity
  8
0
 48
10.0
100
AcDbLine
 10
719.4652116590718
 20
279.5536674168494
 30
0.0
 11
719.4652116590719
 21
297.5640886085679
 31
0.0
  0
LINE
  5
71F5
330
2
100
AcDbEntity
  8
0
 48
10.0
100
AcDbLine
 10
719.4652116590719
 20
321.5432462251315
 30
0.0
 11
719.4652116590718
 21
339.5536674168496
 31
0.0
  0
LINE
  5
71F6
330
2
100
AcDbEntity
  8
0
 48
10.0
100
AcDbLine
 10
735.4652116590719
 20
279.5536674168496
 30
0.0
 11
735.465211659072
 21
297.5640886085679
 31
0.0
  0
LINE
  5
71F7
330
2
100
AcDbEntity
  8
0
 48
10.0
100
AcDbLine
 10
735.465211659072
 20
321.5432462251315
 30
0.0
 11
735.4652116590719
 21
339.5536674168496
 31
0.0
  0
LINE
  5
71F8
330
2
100
AcDbEntity
  8
0
 48
10.0
100
AcDbLine
 10
736.4652116590719
 20
280.5536674168494
 30
0.0
 11
736.4652116590719
 21
338.5536674168496
 31
0.0
  0
LINE
  5
71F9
330
2
100
AcDbEntity
  8
0
 48
10.0
100
AcDbLine
 10
737.465211659072
 20
279.5536674168494
 30
0.0
 11
737.465211659072
 21
339.5536674168496
 31
0.0
  0
LINE
  5
71FA
330
2
100
AcDbEntity
  8
0
 48
10.0
100
AcDbLine
 10
736.4652116590719
 20
321.5432462251314
 30
0.0
 11
718.465211659072
 21
321.5432462251314
 31
0.0
  0
LINE
  5
71FB
330
2
100
AcDbEntity
  8
0
 48
10.0
100
AcDbLine
 10
736.4652116590719
 20
297.5640886085678
 30
0.0
 11
718.465211659072
 21
297.5640886085678
 31
0.0
  0
LINE
  5
71FC
330
2
100
AcDbEntity
  8
LINIE
 48
10.0
100
AcDbLine
 10
718.465211659072
 20
297.5640886085678
 30
0.0
 11
736.4652116590719
 21
321.5432462251314
 31
0.0
  0
LINE
  5
71FD
330
2
100
AcDbEntity
  8
LINIE
 48
10.0
100
AcDbLine
 10
718.465211659072
 20
321.5432462251314
 30
0.0
 11
736.4652116590719
 21
297.5640886085678
 31
0.0
  0
DIMENSION
  5
71FE
330
2
100
AcDbEntity
  8
BEM
 48
10.0
100
AcDbDimension
  2
*D68
 10
345.7168472595705
 20
299.5536674168497
 30
0.0
 11
345.7168472595704
 21
310.1121811132105
 31
0.0
 70
   160
  1
M<>
 71
     5
 42
20.0
 73
     0
 74
     0
 75
     0
  3
ISO-25
100
AcDbAlignedDimension
 13
372.995927942694
 23
319.5536674168498
 33
0.0
 14
372.995927942694
 24
299.5536674168497
 34
0.0
 50
90.0
100
AcDbRotatedDimension
1001
ACAD
1000
DSTYLE
1002
{
1070
    41
1040
6.0
1070
   140
1040
6.0
1070
   147
1040
2.0
1002
}
  0
DIMENSION
  5
71FF
102
{ACAD_XDICTIONARY
360
8BFE
102
}
102
{ACAD_REACTORS
330
8BFF
102
}
330
2
100
AcDbEntity
  8
BEM
 48
10.0
100
AcDbDimension
  2
*D69
 10
288.5172108972038
 20
247.5536674168498
 30
0.0
 11
283.5172108972037
 21
309.5536674168499
 31
0.0
 70
    32
  1
%%C<>{}{\H0.71x;\C3; H7}
 71
     5
 42
124.0
 73
     0
 74
     0
 75
     0
  3
ISO-25
100
AcDbAlignedDimension
 13
496.9959279426952
 23
371.5536674168498
 33
0.0
 14
496.9959279426952
 24
247.5536674168497
 34
0.0
 50
90.0
100
AcDbRotatedDimension
1001
ACAD_DSTYLE_DIMINSPECT
1070
   396
1000
100%
1070
   395
1000

1070
   394
1070
    33
1070
   393
1070
     0
1001
GENIUS_GENDTOL_13
1000
FitSmTxt
1000
H7
1000
{\H0.71x;$2 $T}
1040
62.0
1001
ACAD
1000
DSTYLE
1002
{
1070
    41
1040
6.0
1070
   140
1040
6.0
1070
   147
1040
2.0
1002
}
  0
DIMENSION
  5
7200
102
{ACAD_XDICTIONARY
360
8BE9
102
}
102
{ACAD_REACTORS
330
8BEA
102
}
330
2
100
AcDbEntity
  8
BEM
 48
10.0
100
AcDbDimension
  2
*D70
 10
261.5025626940783
 20
226.5536674168498
 30
0.0
 11
256.5025626940782
 21
309.5536674168498
 31
0.0
 70
    32
  1
%%C<>{}{\H0.71x;\C3; h9}
 71
     5
 42
165.9999999999999
 73
     0
 74
     0
 75
     0
  3
ISO-25
100
AcDbAlignedDimension
 13
496.9959279426952
 23
392.5536674168496
 33
0.0
 14
496.9959279426952
 24
226.5536674168497
 34
0.0
 50
90.0
100
AcDbRotatedDimension
1001
ACAD_DSTYLE_DIMINSPECT
1070
   396
1000
100%
1070
   395
1000

1070
   394
1070
    33
1070
   393
1070
     0
1001
GENIUS_GENDTOL_13
1000
FitSmTxt
1000
h9
1000
{\H0.71x;$2 $T}
1040
83.0
1001
ACAD
1000
DSTYLE
1002
{
1070
    41
1040
6.0
1070
   140
1040
6.0
1070
   147
1040
2.0
1002
}
  0
DIMENSION
  5
7201
330
2
100
AcDbEntity
  8
BEM
 48
10.0
100
AcDbDimension
  2
*D71
 10
420.995927942694
 20
189.5174421208471
 30
0.0
 11
396.9959279426941
 21
194.5174421208471
 31
0.0
 70
    32
 71
     5
 42
48.0
 73
     0
 74
     0
 75
     0
  3
ISO-25
100
AcDbAlignedDimension
 13
372.995927942694
 23
285.5536674168497
 33
0.0
 14
420.995927942694
 24
299.5536674168497
 34
0.0
100
AcDbRotatedDimension
1001
ACAD
1000
DSTYLE
1002
{
1070
    41
1040
6.0
1070
   140
1040
6.0
1070
   147
1040
2.0
1002
}
  0
DIMENSION
  5
7202
102
{ACAD_XDICTIONARY
360
87E6
102
}
102
{ACAD_REACTORS
330
87E7
102
}
330
2
100
AcDbEntity
  8
BEM
 48
10.0
100
AcDbDimension
  2
*D72
 10
492.9959279426939
 20
164.6817317914976
 30
0.0
 11
432.62644829596
 21
164.6817317914976
 31
0.0
 70
   160
 71
     5
 42
119.9999999999999
 73
     0
 74
     0
 75
     0
  3
ISO-25
100
AcDbAlignedDimension
 13
372.995927942694
 23
285.5536674168497
 33
0.0
 14
492.9959279426939
 24
279.5536674168498
 34
0.0
100
AcDbRotatedDimension
1001
ACAD
1000
DSTYLE
1002
{
1070
    41
1040
6.0
1070
   140
1040
6.0
1070
   147
1040
2.0
1002
}
  0
DIMENSION
  5
7203
102
{ACAD_XDICTIONARY
360
8D05
102
}
102
{ACAD_REACTORS
330
8D06
102
}
330
2
100
AcDbEntity
  8
BEM
 48
10.0
100
AcDbDimension
  2
*D141
 10
382.995927942694
 20
469.4500644404553
 30
0.0
 11
354.5673565141226
 21
469.4500644404553
 31
0.0
 70
   160
 71
     5
 42
10.0
 73
     0
 74
     0
 75
     0
  3
ISO-25
100
AcDbAlignedDimension
 13
372.995927942694
 23
333.5536674168498
 33
0.0
 14
382.995927942694
 24
343.5536674168497
 34
0.0
100
AcDbRotatedDimension
1001
ACAD
1000
DSTYLE
1002
{
1070
    41
1040
6.0
1070
   140
1040
6.0
1070
   147
1040
2.0
1002
}
  0
DIMENSION
  5
7204
102
{ACAD_XDICTIONARY
360
8BD4
102
}
102
{ACAD_REACTORS
330
8BD5
102
}
330
2
100
AcDbEntity
  8
BEM
 48
10.0
100
AcDbDimension
  2
*D145
 10
482.9959279426939
 20
469.4500644404553
 30
0.0
 11
432.9959279426939
 21
474.4500644404553
 31
0.0
 70
    32
 71
     5
 42
99.99999999999989
 73
     0
 74
     0
 75
     0
  3
ISO-25
100
AcDbAlignedDimension
 13
382.995927942694
 23
343.5536674168497
 33
0.0
 14
482.9959279426939
 24
343.5536674168497
 34
0.0
100
AcDbRotatedDimension
1001
ACAD
1000
DSTYLE
1002
{
1070
    41
1040
6.0
1070
   140
1040
6.0
1070
   147
1040
2.0
1002
}
  0
DIMENSION
  5
7205
102
{ACAD_XDICTIONARY
360
8C96
102
}
102
{ACAD_REACTORS
330
8C97
102
}
330
2
100
AcDbEntity
  8
BEM
 48
10.0
100
AcDbDimension
  2
*D144
 10
372.995927942694
 20
497.8416024171381
 30
0.0
 11
434.9959279426946
 21
502.8416024171381
 31
0.0
 70
    32
 71
     5
 42
124.0000000000012
 73
     0
 74
     0
 75
     0
  3
ISO-25
100
AcDbAlignedDimension
 13
496.9959279426952
 23
392.5536674168495
 33
0.0
 14
372.995927942694
 24
333.5536674168498
 34
0.0
100
AcDbRotatedDimension
1001
ACAD
1000
DSTYLE
1002
{
1070
    41
1040
6.0
1070
   140
1040
6.0
1070
   147
1040
2.0
1002
}
  0
DIMENSION
  5
7206
330
2
100
AcDbEntity
  8
BEM
 48
10.0
100
AcDbDimension
  2
*D76
 10
501.9959279426952
 20
189.5174421208471
 30
0.0
 11
522.2816422284096
 21
189.5174421208471
 31
0.0
 70
   160
 71
     5
 42
5.0
 73
     0
 74
     0
 75
     0
  3
ISO-25
100
AcDbAlignedDimension
 13
496.9959279426952
 23
226.5536674168497
 33
0.0
 14
501.9959279426952
 24
247.5536674168497
 34
0.0
100
AcDbRotatedDimension
1001
ACAD
1000
DSTYLE
1002
{
1070
    41
1040
6.0
1070
   140
1040
6.0
1070
   147
1040
2.0
1002
}
  0
DIMENSION
  5
7207
330
2
100
AcDbEntity
  8
BEM
 48
10.0
100
AcDbDimension
  2
*D77
 10
506.9959279426954
 20
430.9044887262606
 30
0.0
 11
501.9959279426953
 21
430.9044887262606
 31
0.0
 70
   160
  1
<>
 71
     5
 42
10.00000000000011
 73
     0
 74
     0
 75
     0
  3
ISO-25
100
AcDbAlignedDimension
 13
496.9959279426952
 23
392.5536674168496
 33
0.0
 14
506.9959279426954
 24
381.2457171852863
 34
0.0
100
AcDbRotatedDimension
1001
ACAD
1000
DSTYLE
1002
{
1070
    41
1040
6.0
1070
   140
1040
6.0
1070
   147
1040
2.0
1002
}
1001
ACAD_DSTYLE_DIMINSPECT
1070
   396
1000
100%
1070
   395
1000

1070
   394
1070
    33
1070
   393
1070
     0
  0
DIMENSION
  5
7208
330
2
100
AcDbEntity
  8
BEM
 48
10.0
100
AcDbDimension
  2
*D78
 10
556.9959279426954
 20
430.9044887262606
 30
0.0
 11
531.9959279426954
 21
435.9044887262606
 31
0.0
 70
    32
  1
<>
 71
     5
 42
50.0
 73
     0
 74
     0
 75
     0
  3
ISO-25
100
AcDbAlignedDimension
 13
506.9959279426954
 23
381.2457171852861
 33
0.0
 14
556.9959279426954
 24
381.2457171852861
 34
0.0
100
AcDbRotatedDimension
1001
ACAD
1000
DSTYLE
1002
{
1070
    41
1040
6.0
1070
   140
1040
6.0
1070
   147
1040
2.0
1002
}
1001
ACAD_DSTYLE_DIMINSPECT
1070
   396
1000
100%
1070
   395
1000

1070
   394
1070
    33
1070
   393
1070
     0
  0
DIMENSION
  5
720B
330
2
100
AcDbEntity
  8
BEM
 48
10.0
100
AcDbDimension
  2
*D79
 10
621.8626453693596
 20
229.5536674168498
 30
0.0
 11
616.8626453693596
 21
309.5536674168499
 31
0.0
 70
    32
  1
%%C<>{}{\H0.71x;\C3;-0.3}
 71
     5
 42
160.0000000000001
 73
     0
 74
     0
 75
     0
  3
ISO-25
100
AcDbAlignedDimension
 13
625.3691583174913
 23
389.5536674168499
 33
0.0
 14
625.3691583174913
 24
229.5536674168498
 34
0.0
 50
90.0
100
AcDbRotatedDimension
1001
ACAD
1000
DSTYLE
1002
{
1070
   286
1070
     0
1070
   284
1070
     8
1070
   274
1070
     2
1070
   272
1070
     4
1070
    47
1040
0.0
1070
    41
1040
6.0
1070
    48
1040
0.3
1070
   140
1040
6.0
1070
   147
1040
2.0
1002
}
1001
ACAD_DSTYLE_DIMINSPECT
1070
   396
1000
100%
1070
   395
1000

1070
   394
1070
    33
1070
   393
1070
     0
1001
GENIUS_GENDTOL_13
1000
TolSmPm
1000

1000
{\H0.71x;$2$+$P}
1040
80.0
  0
DIMENSION
  5
720D
330
2
100
AcDbEntity
  8
BEM
 48
10.0
100
AcDbDimension
  2
*D80
 10
316.6152804013037
 20
281.5536674168496
 30
0.0
 11
310.9052804013036
 21
309.5536674168497
 31
0.0
 70
    32
  1
%%C<>{}{\H0.71x;\C3; j6}
 71
     5
 42
56.00000000000012
 73
     0
 74
     0
 75
     0
  3
ISO-25
100
AcDbAlignedDimension
 13
376.995927942694
 23
337.5536674168497
 33
0.0
 14
376.9959279426942
 24
281.5536674168496
 34
0.0
 50
90.0
100
AcDbRotatedDimension
1001
ACAD_DSTYLE_DIMINSPECT
1070
   396
1000
100%
1070
   395
1000

1070
   394
1070
    33
1070
   393
1070
     0
1001
GENIUS_GENDTOL_13
1000
FitSmTxt
1000
j6
1000
{\H0.71x;$2 $T}
1040
28.0
1001
ACAD
1000
DSTYLE
1002
{
1070
    41
1040
6.0
1070
   140
1040
6.0
1070
   147
1040
2.0
1002
}
  0
LINE
  5
7216
330
2
100
AcDbEntity
  8
MITTE
 48
10.0
100
AcDbLine
 10
440.637362719083
 20
309.5536674168496
 30
0.0
 11
530.562656765684
 21
309.5536674168496
 31
0.0
  0
LINE
  5
7217
330
2
100
AcDbEntity
  8
MITTE
 48
10.0
100
AcDbLine
 10
485.6000097423835
 20
354.5163144401501
 30
0.0
 11
485.6000097423835
 21
264.5910203935491
 31
0.0
  0
LINE
  5
721C
330
2
100
AcDbEntity
  8
0
 48
10.0
100
AcDbLine
 10
450.6000097423835
 20
328.9185841478867
 30
0.0
 11
450.6000097423835
 21
290.1887506858126
 31
0.0
  0
ARC
  5
721D
330
2
100
AcDbEntity
  8
0
 48
10.0
100
AcDbCircle
 10
485.6000097423835
 20
309.5536674168496
 30
0.0
 40
36.23307590279808
100
AcDbArc
 50
14.99061125989432
 51
165.0093887401056
  0
ARC
  5
721E
330
2
100
AcDbEntity
  8
0
 48
10.0
100
AcDbCircle
 10
485.6000097423835
 20
309.5536674168496
 30
0.0
 40
36.23307590279808
100
AcDbArc
 50
194.9906112598943
 51
345.0093887401057
  0
CIRCLE
  5
721F
330
2
100
AcDbEntity
  8
0
 48
10.0
100
AcDbCircle
 10
485.6000097423835
 20
309.5536674168496
 30
0.0
 40
40.0
  0
CIRCLE
  5
7220
330
2
100
AcDbEntity
  8
0
 48
10.0
100
AcDbCircle
 10
485.6000097423835
 20
309.5536674168496
 30
0.0
 40
41.49999999999991
  0
LINE
  5
7221
330
2
100
AcDbEntity
  8
0
 48
10.0
100
AcDbLine
 10
520.6000097423835
 20
328.9185841478867
 30
0.0
 11
520.6000097423835
 21
290.1887506858126
 31
0.0
  0
LINE
  5
7222
330
2
100
AcDbEntity
  8
0
 48
10.0
100
AcDbLine
 10
756.9652116590718
 20
279.5536674168509
 30
0.0
 11
756.9652116590718
 21
339.5536674168509
 31
0.0
  0
MTEXT
  5
723E
330
2
100
AcDbEntity
  8
TEXT
100
AcDbMText
 10
84.02910697722745
 20
487.0398519831674
 30
0.0
 40
6.0
 41
161.8643881791417
 46
0.0
 71
     1
 72
     5
  1
Zuluft\Pair inlet\PBrachement de l'air\PAria in entrata
 73
     1
 44
1.0
  0
MTEXT
  5
723F
330
2
100
AcDbEntity
  8
TEXT
100
AcDbMText
 10
94.98736543332233
 20
183.3132868002305
 30
0.0
 40
6.0
 41
161.8643881791417
 46
0.0
 71
     1
 72
     5
  1
Abluft\Pexhaust air\PSortie de l'air\PAria in uscita
 73
     1
 44
1.0
  0
MTEXT
  5
7240
102
{ACAD_REACTORS
330
7241
102
}
330
2
100
AcDbEntity
  8
BEM
100
AcDbMText
 10
267.1289323021899
 20
463.7233387898175
 30
0.0
 40
5.0
 41
0.0
 46
0.0
 71
     1
 72
     1
  1
Paßfeder\PFitting key\PClavette d'ajustage\PLinguetta\P8x7x50 DIN 6885
 73
     1
 44
1.0
  0
LEADER
  5
7241
330
2
100
AcDbEntity
  8
BEM
100
AcDbLeader
  3
STANDARD
 73
     0
 75
     1
 40
39.28571428571429
 41
71.66666666666661
 76
     3
 10
414.3035634338988
 20
343.5500681289306
 30
0.0
 10
344.8852836826497
 20
421.416863697462
 30
0.0
 10
341.3852836826497
 20
421.416863697462
 30
0.0
340
7240
213
-0.4103152862068385
223
-0.0207608066413094
233
0.0
1001
ACAD
1000
DSTYLE
1002
{
1070
   147
1040
3.0
1070
   341
1005
830F
1002
}
  0
LINE
  5
751A
330
2
100
AcDbEntity
  8
0
 48
10.0
100
AcDbLine
 10
756.9652116590721
 20
339.5536674168509
 30
0.0
 11
761.4652116590718
 21
339.5536674168509
 31
0.0
  0
LINE
  5
751B
330
2
100
AcDbEntity
  8
0
 48
10.0
100
AcDbLine
 10
766.4652116590723
 20
282.4404187627962
 30
0.0
 11
766.4652116590716
 21
336.6669160709031
 31
0.0
  0
LINE
  5
751D
330
2
100
AcDbEntity
  8
0
 48
10.0
100
AcDbLine
 10
756.9652116590719
 20
279.553667416851
 30
0.0
 11
761.4652116590757
 21
279.5536674168509
 31
0.0
  0
LINE
  5
751E
330
2
100
AcDbEntity
  8
0
 48
10.0
100
AcDbLine
 10
761.4652116590718
 20
339.553667416851
 30
0.0
 11
766.4652116590718
 21
336.666916070903
 31
0.0
  0
LINE
  5
751F
330
2
100
AcDbEntity
  8
0
 48
10.0
100
AcDbLine
 10
761.4652116590685
 20
279.5536674168467
 30
0.0
 11
766.4652116590687
 21
282.4404187627942
 31
0.0
  0
LINE
  5
7520
330
2
100
AcDbEntity
  8
0
 48
10.0
100
AcDbLine
 10
761.4652116590718
 20
279.5536674168487
 30
0.0
 11
761.4652116590718
 21
297.5640886085633
 31
0.0
  0
LINE
  5
7521
330
2
100
AcDbEntity
  8
0
 48
10.0
100
AcDbLine
 10
875.4652116590712
 20
286.5536674168496
 30
0.0
 11
875.4652116590712
 21
332.5536674168497
 31
0.0
  0
LINE
  5
7522
330
2
100
AcDbEntity
  8
0
 48
10.0
100
AcDbLine
 10
839.4652116590712
 20
286.5536674168496
 30
0.0
 11
839.4652116590712
 21
332.5536674168497
 31
0.0
  0
LINE
  5
7530
330
2
100
AcDbEntity
  8
0
 48
10.0
100
AcDbLine
 10
766.4652116590722
 20
332.5536674168497
 30
0.0
 11
785.7152116590712
 21
332.5536674168497
 31
0.0
  0
LINE
  5
7531
330
2
100
AcDbEntity
  8
0
 48
10.0
100
AcDbLine
 10
766.4652116590722
 20
286.5536674168496
 30
0.0
 11
785.7152116590712
 21
286.5536674168496
 31
0.0
  0
DIMENSION
  5
767F
330
2
100
AcDbEntity
  8
BEM
 48
10.0
100
AcDbDimension
  2
*D81
 10
675.9959279426973
 20
430.9044887262606
 30
0.0
 11
861.9959279426963
 21
435.9044887262606
 31
0.0
 70
    32
 71
     5
 42
371.999999999998
 73
     0
 74
     0
 75
     0
  3
ISO-25
100
AcDbAlignedDimension
 13
1047.995927942695
 23
355.5536674168497
 33
0.0
 14
675.9959279426973
 24
382.6254641865741
 34
0.0
100
AcDbRotatedDimension
1001
ACAD
1000
DSTYLE
1002
{
1070
   340
1005
D
1070
    41
1040
6.0
1070
   140
1040
6.0
1070
   147
1040
2.0
1002
}
  0
DIMENSION
  5
76B9
330
2
100
AcDbEntity
  8
BEM
 48
10.0
100
AcDbDimension
  2
*D82
 10
594.9959279426951
 20
469.4500644404553
 30
0.0
 11
821.4959279426953
 21
474.4500644404553
 31
0.0
 70
    32
 71
     5
 42
453.0000000000001
 73
     0
 74
     0
 75
     0
  3
ISO-25
100
AcDbAlignedDimension
 13
1047.995927942695
 23
355.5536674168497
 33
0.0
 14
594.9959279426951
 24
392.5536674168495
 34
0.0
100
AcDbRotatedDimension
1001
ACAD
1000
DSTYLE
1002
{
1070
   340
1005
D
1070
    41
1040
6.0
1070
   140
1040
6.0
1070
   147
1040
2.0
1002
}
  0
DIMENSION
  5
76E1
330
2
100
AcDbEntity
  8
BEM
 48
10.0
100
AcDbDimension
  2
*D83
 10
1047.995927942695
 20
497.8416024171381
 30
0.0
 11
772.4959279426952
 21
502.8416024171381
 31
0.0
 70
    32
 71
     5
 42
551.0
 73
     0
 74
     0
 75
     0
  3
ISO-25
100
AcDbAlignedDimension
 13
496.9959279426952
 23
392.5536674168496
 33
0.0
 14
1047.995927942695
 24
355.5536674168497
 34
0.0
100
AcDbRotatedDimension
1001
ACAD
1000
DSTYLE
1002
{
1070
   340
1005
D
1070
    41
1040
6.0
1070
   140
1040
6.0
1070
   147
1040
2.0
1002
}
  0
DIMENSION
  5
76F7
102
{ACAD_XDICTIONARY
360
8BBF
102
}
102
{ACAD_REACTORS
330
8BC0
102
}
330
2
100
AcDbEntity
  8
BEM
 48
10.0
100
AcDbDimension
  2
*D143
 10
1047.995927942695
 20
528.9927962766312
 30
0.0
 11
710.4959279426946
 21
533.9927962766312
 31
0.0
 70
    32
 71
     5
 42
675.0000000000012
 73
     0
 74
     0
 75
     0
  3
ISO-25
100
AcDbAlignedDimension
 13
372.995927942694
 23
333.5536674168495
 33
0.0
 14
1047.995927942695
 24
355.5536674168497
 34
0.0
100
AcDbRotatedDimension
1001
ACAD
1000
DSTYLE
1002
{
1070
   340
1005
D
1070
    41
1040
6.0
1070
   140
1040
6.0
1070
   147
1040
2.0
1002
}
  0
LINE
  5
779F
330
2
100
AcDbEntity
  8
0
 48
10.0
100
AcDbLine
 10
761.4652116590733
 20
321.5432462251333
 30
0.0
 11
756.9652116590721
 21
321.5432462251333
 31
0.0
  0
LINE
  5
77A0
330
2
100
AcDbEntity
  8
0
 48
10.0
100
AcDbLine
 10
761.4652116590747
 20
297.5640886085633
 30
0.0
 11
756.9652116590721
 21
297.5640886085633
 31
0.0
  0
ELLIPSE
  5
77A1
330
2
100
AcDbEntity
  8
0
 48
10.0
100
AcDbEllipse
 10
761.465211659074
 20
309.5536674168483
 30
0.0
 11
-0.0000000000007816
 21
11.98957880828503
 31
0.0
210
0.0
220
0.0
230
1.0
 40
0.3611575592572568
 41
3.141592653589793
 42
6.283185307179586
  0
LINE
  5
77A2
330
2
100
AcDbEntity
  8
LINIE
 48
10.0
100
AcDbLine
 10
756.9652116590721
 20
321.5432462251333
 30
0.0
 11
761.4652116590748
 21
297.5640886085633
 31
0.0
  0
LINE
  5
77A3
330
2
100
AcDbEntity
  8
LINIE
 48
10.0
100
AcDbLine
 10
761.4652116590733
 20
321.5432462251333
 30
0.0
 11
756.9652116590721
 21
297.5640886085633
 31
0.0
  0
LINE
  5
77A8
330
2
100
AcDbEntity
  8
0
 48
10.0
100
AcDbLine
 10
761.4652116590718
 20
321.5432462251333
 30
0.0
 11
761.4652116590718
 21
339.553667416851
 31
0.0
  0
CIRCLE
  5
77AA
330
2
100
AcDbEntity
  8
0
 48
10.0
100
AcDbCircle
 10
485.6000097423835
 20
309.5536674168496
 30
0.0
 40
30.00000000000125
  0
CIRCLE
  5
77AC
330
2
100
AcDbEntity
  8
0
 48
10.0
100
AcDbCircle
 10
485.6000097423835
 20
309.5536674168496
 30
0.0
 40
27.11324865405334
  0
LINE
  5
77AD
330
2
100
AcDbEntity
  8
0
 48
10.0
100
AcDbLine
 10
458.1000097423835
 20
321.5432462251346
 30
0.0
 11
458.1000097423835
 21
297.5640886085646
 31
0.0
  0
LINE
  5
77AE
330
2
100
AcDbEntity
  8
0
 48
10.0
100
AcDbLine
 10
513.1000097423835
 20
321.5432462251345
 30
0.0
 11
513.1000097423835
 21
297.5640886085648
 31
0.0
  0
CIRCLE
  5
77AF
330
2
100
AcDbEntity
  8
0
 48
10.0
100
AcDbCircle
 10
485.6000097423835
 20
309.5536674168496
 30
0.0
 40
23.0
  0
LINE
  5
77D4
330
2
100
AcDbEntity
  8
MITTE
 48
10.0
100
AcDbLine
 10
477.4837159335747
 20
323.8536674168496
 30
0.0
 11
493.118876335826
 21
323.8536674168496
 31
0.0
  0
LINE
  5
77D5
330
2
100
AcDbEntity
  8
MITTE
 48
10.0
100
AcDbLine
 10
473.7155330397508
 20
299.0536674168496
 30
0.0
 11
497.478789051604
 21
299.0536674168496
 31
0.0
  0
ARC
  5
77D6
330
2
100
AcDbEntity
  8
LINIE
 48
10.0
100
AcDbCircle
 10
485.6000097423835
 20
323.8536674168496
 30
0.0
 40
6.5785
100
AcDbArc
 50
158.2327725411735
 51
109.5910667781121
  0
CIRCLE
  5
77D7
330
2
100
AcDbEntity
  8
0
 48
10.0
100
AcDbCircle
 10
485.6000097423835
 20
323.8536674168496
 30
0.0
 40
5.7225
  0
ARC
  5
77D8
330
2
100
AcDbEntity
  8
LINIE
 48
10.0
100
AcDbCircle
 10
485.6000097423835
 20
299.0536674168496
 30
0.0
 40
10.4775
100
AcDbArc
 50
175.7115737814204
 51
120.8735791358248
  0
CIRCLE
  5
77D9
330
2
100
AcDbEntity
  8
0
 48
10.0
100
AcDbCircle
 10
485.6000097423835
 20
299.0536674168496
 30
0.0
 40
9.3155
  0
LINE
  5
77DA
330
2
100
AcDbEntity
  8
0
 48
10.0
100
AcDbLine
 10
506.6028584390896
 20
318.9344989364965
 30
0.0
 11
506.6028584390896
 21
300.1728358972027
 31
0.0
  0
LINE
  5
77DB
330
2
100
AcDbEntity
  8
0
 48
10.0
100
AcDbLine
 10
464.6028584390896
 20
318.9344989364965
 30
0.0
 11
464.6028584390896
 21
300.1728358972028
 31
0.0
  0
LINE
  5
7808
330
2
100
AcDbEntity
  8
0
 48
10.0
100
AcDbLine
 10
864.2152116590711
 20
286.5536674168496
 30
0.0
 11
864.4652116590712
 21
286.8036674168497
 31
0.0
  0
LINE
  5
7809
330
2
100
AcDbEntity
  8
0
 48
10.0
100
AcDbLine
 10
864.4652116590712
 20
332.3036674168496
 30
0.0
 11
864.4652116590712
 21
286.8036674168497
 31
0.0
  0
LINE
  5
780A
330
2
100
AcDbEntity
  8
0
 48
10.0
100
AcDbLine
 10
864.4652116590712
 20
318.9344989364965
 30
0.0
 11
875.4652116590712
 21
318.9344989364965
 31
0.0
  0
LINE
  5
780B
330
2
100
AcDbEntity
  8
0
 48
10.0
100
AcDbLine
 10
864.4652116590712
 20
300.1728358972028
 30
0.0
 11
875.4652116590712
 21
300.1728358972027
 31
0.0
  0
LINE
  5
780C
330
2
100
AcDbEntity
  8
0
 48
10.0
100
AcDbLine
 10
864.4652116590712
 20
286.8036674168497
 30
0.0
 11
864.7152116590712
 21
286.5536674168496
 31
0.0
  0
LINE
  5
780D
330
2
100
AcDbEntity
  8
0
 48
10.0
100
AcDbLine
 10
864.2152116590711
 20
332.5536674168497
 30
0.0
 11
864.4652116590712
 21
332.3036674168496
 31
0.0
  0
LINE
  5
780E
330
2
100
AcDbEntity
  8
0
 48
10.0
100
AcDbLine
 10
864.4652116590712
 20
332.3036674168496
 30
0.0
 11
864.7152116590712
 21
332.5536674168497
 31
0.0
  0
LINE
  5
780F
330
2
100
AcDbEntity
  8
0
 48
10.0
100
AcDbLine
 10
864.2152116590711
 20
286.5536674168496
 30
0.0
 11
864.2152116590711
 21
332.5536674168497
 31
0.0
  0
LINE
  5
7810
330
2
100
AcDbEntity
  8
0
 48
10.0
100
AcDbLine
 10
864.7152116590712
 20
286.5536674168496
 30
0.0
 11
864.7152116590712
 21
300.1728358972028
 31
0.0
  0
LINE
  5
7811
330
2
100
AcDbEntity
  8
0
 48
10.0
100
AcDbLine
 10
864.7152116590712
 20
318.9344989364965
 30
0.0
 11
864.7152116590712
 21
332.5536674168497
 31
0.0
  0
LINE
  5
7812
330
2
100
AcDbEntity
  8
LINIE
 48
10.0
100
AcDbLine
 10
864.4652116590712
 20
300.1728358972028
 30
0.0
 11
875.4652116590712
 21
318.9344989364965
 31
0.0
  0
LINE
  5
7813
330
2
100
AcDbEntity
  8
LINIE
 48
10.0
100
AcDbLine
 10
864.4652116590712
 20
318.9344989364965
 30
0.0
 11
875.4652116590712
 21
300.1728358972027
 31
0.0
  0
LINE
  5
7814
330
2
100
AcDbEntity
  8
0
 48
10.0
100
AcDbLine
 10
864.7152116590712
 20
286.5536674168496
 30
0.0
 11
875.4652116590712
 21
286.5536674168496
 31
0.0
  0
LINE
  5
7818
330
2
100
AcDbEntity
  8
0
 48
10.0
100
AcDbLine
 10
864.7152116590712
 20
332.5536674168497
 30
0.0
 11
875.4652116590712
 21
332.5536674168497
 31
0.0
  0
LINE
  5
784E
330
2
100
AcDbEntity
  8
0
 48
10.0
100
AcDbLine
 10
797.9652116590711
 20
332.3036674168496
 30
0.0
 11
798.2152116590712
 21
332.5536674168497
 31
0.0
  0
LINE
  5
784F
330
2
100
AcDbEntity
  8
0
 48
10.0
100
AcDbLine
 10
785.9652116590711
 20
332.3036674168496
 30
0.0
 11
785.9652116590711
 21
286.8036674168497
 31
0.0
  0
LINE
  5
7850
330
2
100
AcDbEntity
  8
0
 48
10.0
100
AcDbLine
 10
786.2152116590712
 20
332.5536674168497
 30
0.0
 11
786.2152116590712
 21
318.9344989364965
 31
0.0
  0
LINE
  5
7851
330
2
100
AcDbEntity
  8
0
 48
10.0
100
AcDbLine
 10
786.2152116590712
 20
300.1728358972028
 30
0.0
 11
786.2152116590712
 21
286.5536674168496
 31
0.0
  0
LINE
  5
7852
330
2
100
AcDbEntity
  8
0
 48
10.0
100
AcDbLine
 10
785.7152116590712
 20
332.5536674168497
 30
0.0
 11
785.7152116590712
 21
286.5536674168496
 31
0.0
  0
LINE
  5
7853
330
2
100
AcDbEntity
  8
0
 48
10.0
100
AcDbLine
 10
797.9652116590711
 20
332.3036674168496
 30
0.0
 11
797.9652116590711
 21
286.8036674168518
 31
0.0
  0
LINE
  5
7854
330
2
100
AcDbEntity
  8
0
 48
10.0
100
AcDbLine
 10
798.2152116590712
 20
332.5536674168497
 30
0.0
 11
798.2152116590712
 21
286.5536674168496
 31
0.0
  0
LINE
  5
7855
330
2
100
AcDbEntity
  8
0
 48
10.0
100
AcDbLine
 10
797.7152116590712
 20
332.5536674168497
 30
0.0
 11
797.7152116590712
 21
318.9344989364965
 31
0.0
  0
LINE
  5
7856
330
2
100
AcDbEntity
  8
0
 48
10.0
100
AcDbLine
 10
797.7152116590712
 20
300.1728358972028
 30
0.0
 11
797.7152116590712
 21
286.5536674168496
 31
0.0
  0
LINE
  5
7857
330
2
100
AcDbEntity
  8
0
 48
10.0
100
AcDbLine
 10
785.7152116590712
 20
332.5536674168497
 30
0.0
 11
785.9652116590711
 21
332.3036674168496
 31
0.0
  0
LINE
  5
7858
330
2
100
AcDbEntity
  8
0
 48
10.0
100
AcDbLine
 10
797.9652116590719
 20
286.803667416851
 30
0.0
 11
798.2152116590721
 21
286.553667416851
 31
0.0
  0
LINE
  5
7859
330
2
100
AcDbEntity
  8
0
 48
10.0
100
AcDbLine
 10
785.715211659072
 20
286.5536674168506
 30
0.0
 11
785.9652116590719
 21
286.8036674168506
 31
0.0
  0
LINE
  5
785A
330
2
100
AcDbEntity
  8
0
 48
10.0
100
AcDbLine
 10
797.9652116590711
 20
318.9344989364965
 30
0.0
 11
785.9652116590711
 21
318.9344989364965
 31
0.0
  0
LINE
  5
785B
330
2
100
AcDbEntity
  8
0
 48
10.0
100
AcDbLine
 10
785.9652116590711
 20
300.1728358972028
 30
0.0
 11
797.9652116590711
 21
300.1728358972028
 31
0.0
  0
LINE
  5
785C
330
2
100
AcDbEntity
  8
0
 48
10.0
100
AcDbLine
 10
797.9652116590711
 20
332.3036674168496
 30
0.0
 11
797.7152116590712
 21
332.5536674168497
 31
0.0
  0
LINE
  5
785D
330
2
100
AcDbEntity
  8
0
 48
10.0
100
AcDbLine
 10
785.9652116590711
 20
332.3036674168496
 30
0.0
 11
786.2152116590712
 21
332.5536674168497
 31
0.0
  0
LINE
  5
785E
330
2
100
AcDbEntity
  8
0
 48
10.0
100
AcDbLine
 10
785.9652116590711
 20
286.8036674168497
 30
0.0
 11
786.2152116590712
 21
286.5536674168496
 31
0.0
  0
LINE
  5
785F
330
2
100
AcDbEntity
  8
0
 48
10.0
100
AcDbLine
 10
797.9652116590711
 20
286.8036674168518
 30
0.0
 11
797.7152116590712
 21
286.5536674168496
 31
0.0
  0
LINE
  5
7860
330
2
100
AcDbEntity
  8
LINIE
 48
10.0
100
AcDbLine
 10
785.9652116590711
 20
300.1728358972028
 30
0.0
 11
797.9652116590711
 21
318.9344989364965
 31
0.0
  0
LINE
  5
7861
330
2
100
AcDbEntity
  8
LINIE
 48
10.0
100
AcDbLine
 10
785.9652116590711
 20
318.9344989364965
 30
0.0
 11
797.9652116590711
 21
300.1728358972028
 31
0.0
  0
LINE
  5
7862
330
2
100
AcDbEntity
  8
0
 48
10.0
100
AcDbLine
 10
786.2152116590712
 20
286.5536674168496
 30
0.0
 11
797.7152116590712
 21
286.5536674168496
 31
0.0
  0
LINE
  5
7863
330
2
100
AcDbEntity
  8
0
 48
10.0
100
AcDbLine
 10
798.2152116590712
 20
286.5536674168496
 30
0.0
 11
864.2152116590711
 21
286.5536674168496
 31
0.0
  0
LINE
  5
7864
330
2
100
AcDbEntity
  8
0
 48
10.0
100
AcDbLine
 10
798.2152116590712
 20
332.5536674168497
 30
0.0
 11
864.2152116590711
 21
332.5536674168497
 31
0.0
  0
LINE
  5
7865
330
2
100
AcDbEntity
  8
0
 48
10.0
100
AcDbLine
 10
786.2152116590713
 20
332.5536674168497
 30
0.0
 11
797.7152116590712
 21
332.5536674168497
 31
0.0
  0
DIMENSION
  5
7866
330
2
100
AcDbEntity
  8
BEM
 48
10.0
100
AcDbDimension
  2
*D89
 10
1047.995927942695
 20
164.6817317914976
 30
0.0
 11
938.9959279426928
 21
169.6817317914977
 31
0.0
 70
    32
  1
<>
 71
     5
 42
218.0000000000049
 73
     0
 74
     0
 75
     0
  3
ISO-25
100
AcDbAlignedDimension
 13
829.9959279426904
 23
255.3271701087388
 33
0.0
 14
1047.995927942695
 24
263.5536674168496
 34
0.0
100
AcDbRotatedDimension
1001
ACAD
1000
DSTYLE
1002
{
1070
    41
1040
6.0
1070
   140
1040
6.0
1070
   147
1040
2.0
1002
}
  0
DIMENSION
  5
787C
330
2
100
AcDbEntity
  8
BEM
 48
10.0
100
AcDbDimension
  2
*D90
 10
219.4983010803281
 20
338.1536674168496
 30
0.0
 11
219.498301080328
 21
326.076338988487
 31
0.0
 70
   160
 71
     5
 42
28.59999999999997
 73
     0
 74
     0
 75
     0
  3
ISO-25
100
AcDbAlignedDimension
 13
198.2989203054576
 23
309.5536674168496
 33
0.0
 14
123.4113594457415
 24
338.1536674168497
 34
0.0
 50
90.0
100
AcDbRotatedDimension
1001
ACAD
1000
DSTYLE
1002
{
1070
    41
1040
6.0
1070
   140
1040
6.0
1070
   147
1040
2.0
1002
}
  0
DIMENSION
  5
7889
330
2
100
AcDbEntity
  8
BEM
 48
10.0
100
AcDbDimension
  2
*D91
 10
219.4983010803281
 20
288.5536674168496
 30
0.0
 11
219.498301080328
 21
267.7198219155238
 31
0.0
 70
   160
 71
     5
 42
21.0
 73
     0
 74
     0
 75
     0
  3
ISO-25
100
AcDbAlignedDimension
 13
198.2989203054576
 23
309.5536674168496
 33
0.0
 14
132.1311848772975
 24
288.5536674168496
 34
0.0
 50
90.0
100
AcDbRotatedDimension
1001
ACAD
1000
DSTYLE
1002
{
1070
    41
1040
6.0
1070
   140
1040
6.0
1070
   147
1040
2.0
1002
}
  0
DIMENSION
  5
78AA
330
2
100
AcDbEntity
  8
BEM
 48
10.0
100
AcDbDimension
  2
*D92
 10
121.5306262588565
 20
430.9044887262606
 30
0.0
 11
115.5306262588565
 21
430.9044887262606
 31
0.0
 70
   160
  1
G1/4"
 71
     5
 42
26.31399999999997
 73
     0
 74
     0
 75
     0
  3
ISO-25
100
AcDbAlignedDimension
 13
95.21662625885658
 23
338.1536674168497
 33
0.0
 14
121.5306262588565
 24
338.1536674168497
 34
0.0
100
AcDbRotatedDimension
1001
ACAD
1000
DSTYLE
1002
{
1070
    41
1040
6.0
1070
   140
1040
6.0
1070
   147
1040
2.0
1002
}
  0
DIMENSION
  5
78CC
330
2
100
AcDbEntity
  8
BEM
 48
10.0
100
AcDbDimension
  2
*D93
 10
129.3286262588565
 20
189.5174421208471
 30
0.0
 11
109.5838445801919
 21
189.5174421208471
 31
0.0
 70
   160
  1
G1/2"
 71
     5
 42
41.90999999999997
 73
     0
 74
     0
 75
     0
  3
ISO-25
100
AcDbAlignedDimension
 13
87.41862625885659
 23
288.5536674168496
 33
0.0
 14
129.3286262588565
 24
288.5536674168496
 34
0.0
100
AcDbRotatedDimension
1001
ACAD
1000
DSTYLE
1002
{
1070
    41
1040
6.0
1070
   140
1040
6.0
1070
   147
1040
2.0
1002
}
  0
DIMENSION
  5
7BB0
330
2
100
AcDbEntity
  8
BEM
 48
10.0
100
AcDbDimension
  2
*D99
 10
1076.092754454126
 20
263.5536674168496
 30
0.0
 11
1076.092754454126
 21
307.9729822925703
 31
0.0
 70
   160
  1
%%C<>{}{\H0.71x;\C3;-0.2}
 71
     5
 42
92.0
 73
     0
 74
     0
 75
     0
  3
ISO-25
100
AcDbAlignedDimension
 13
1047.995927942695
 23
355.5536674168497
 33
0.0
 14
1047.995927942695
 24
263.5536674168496
 34
0.0
 50
90.0
100
AcDbRotatedDimension
1001
ACAD_DSTYLE_DIMINSPECT
1070
   396
1000
100%
1070
   395
1000

1070
   394
1070
    33
1070
   393
1070
     0
1001
ACAD
1000
DSTYLE
1002
{
1070
   286
1070
     0
1070
   284
1070
     8
1070
   274
1070
     2
1070
   272
1070
     4
1070
    47
1040
0.0
1070
    41
1040
6.0
1070
    48
1040
0.2
1070
   140
1040
6.0
1070
   147
1040
2.0
1002
}
1001
GENIUS_GENDTOL_13
1000
TolSmPm
1000

1000
{\H0.71x;$2$+$P}
1040
46.0
  0
DIMENSION
  5
7BB3
330
2
100
AcDbEntity
  8
BEM
 48
10.0
100
AcDbDimension
  2
*D100
 10
792.4866804117489
 20
249.5536674168497
 30
0.0
 11
787.4866804117488
 21
309.5536674168497
 31
0.0
 70
    32
  1
%%C<>{}{\H0.71x;\C3;-0.2}
 71
     5
 42
120.0
 73
     0
 74
     0
 75
     0
  3
ISO-25
100
AcDbAlignedDimension
 13
789.2551754736451
 23
369.5536674168496
 33
0.0
 14
789.2551754736451
 24
249.5536674168497
 34
0.0
 50
90.0
100
AcDbRotatedDimension
1001
ACAD_DSTYLE_DIMINSPECT
1070
   396
1000
100%
1070
   395
1000

1070
   394
1070
    33
1070
   393
1070
     0
1001
ACAD
1000
DSTYLE
1002
{
1070
   286
1070
     0
1070
   284
1070
     8
1070
   274
1070
     2
1070
   272
1070
     4
1070
    47
1040
0.0
1070
    41
1040
6.0
1070
    48
1040
0.2
1070
   140
1040
6.0
1070
   147
1040
2.0
1002
}
1001
GENIUS_GENDTOL_13
1000
TolSmPm
1000

1000
{\H0.71x;$2$+$P}
1040
60.0
  0
DIMENSION
  5
8A2F
330
2
100
AcDbEntity
  8
BEM
 48
10.0
100
AcDbDimension
  2
*D139
 10
1166.524579757874
 20
164.6817317914976
 30
0.0
 11
1241.524579757874
 21
169.6817317914977
 31
0.0
 70
    32
  1
SW<>{}{\H0.71x;\C3;-0.3}
 71
     5
 42
149.9999999999998
 73
     0
 74
     0
 75
     0
  3
ISO-25
100
AcDbAlignedDimension
 13
1316.524579757874
 23
274.524813753639
 33
0.0
 14
1166.524579757874
 24
274.000889747587
 34
0.0
100
AcDbRotatedDimension
1001
ACAD
1000
DSTYLE
1002
{
1070
   286
1070
     0
1070
   284
1070
     8
1070
   274
1070
     2
1070
   272
1070
     4
1070
    47
1040
0.0
1070
    41
1040
6.0
1070
    48
1040
0.3
1070
   140
1040
6.0
1070
   147
1040
2.0
1002
}
1001
ACAD_DSTYLE_DIMINSPECT
1070
   396
1000
100%
1070
   395
1000

1070
   394
1070
    33
1070
   393
1070
     0
1001
GENIUS_GENDTOL_13
1000
TolSmPm
1000

1000
{\H0.71x;$2$+$P}
1040
75.0
  0
ENDSEC
  0
SECTION
  2
OBJECTS
  0
DICTIONARY
  5
1B
330
0
100
AcDbDictionary
281
     1
  3
ACAD_COLOR
350
5F
  3
ACAD_GROUP
350
19
  3
ACAD_LAYOUT
350
60
  3
ACAD_MATERIAL
350
5E
  3
ACAD_MLEADERSTYLE
350
38AB
  3
ACAD_MLINESTYLE
350
1A
  3
ACAD_PLOTSETTINGS
350
61
  3
ACAD_PLOTSTYLENAME
350
5C
  3
ACAD_SCALELIST
350
3889
  3
ACAD_TABLESTYLE
350
141
  3
ACAD_VISUALSTYLE
350
3364
  3
ACDB_RECOMPOSE_DATA
350
38F1
  3
ACDBVARIABLEDICTIONARY
350
4D
  3
AcmDictionary
350
BC
  3
AMG
350
68
  3
AMGSNAPSETTINGS
350
F9
  3
ASE_INDEX_DICTIONARY
350
7F1B
  0
DICTIONARY
  5
8352
330
B
100
AcDbDictionary
280
     1
281
     1
  3
ACAD_LAYERSTATES
360
8353
  0
DICTIONARY
  5
38E0
330
5
100
AcDbDictionary
280
     1
281
     1
  3
ADSK_XREC_LAYER_RECONCILED
360
38E1
  0
DICTIONARY
  5
38E2
330
26
100
AcDbDictionary
280
     1
281
     1
  3
ADSK_XREC_LAYER_RECONCILED
360
38E3
  0
DICTIONARY
  5
38E4
330
28
100
AcDbDictionary
280
     1
281
     1
  3
ADSK_XREC_LAYER_RECONCILED
360
38E5
  0
DICTIONARY
  5
38E6
330
22
100
AcDbDictionary
280
     1
281
     1
  3
ADSK_XREC_LAYER_RECONCILED
360
38E7
  0
DICTIONARY
  5
38E8
330
24
100
AcDbDictionary
280
     1
281
     1
  3
ADSK_XREC_LAYER_RECONCILED
360
38E9
  0
DICTIONARY
  5
68ED
330
68EC
100
AcDbDictionary
280
     1
281
     1
  0
DICTIONARY
  5
3
330
2
100
AcDbDictionary
280
     1
281
     1
  3
ACAD_SORTENTS
360
23F
  0
DICTIONARY
  5
8929
330
71C9
100
AcDbDictionary
280
     1
281
     1
  3
ACMDIMBREAKPERSREACTOR
360
892A
  0
DICTIONARY
  5
88B7
330
71CA
100
AcDbDictionary
280
     1
281
     1
  3
ACMDIMBREAKPERSREACTOR
360
88B8
  0
DICTIONARY
  5
8BA6
330
71D0
100
AcDbDictionary
280
     1
281
     1
  3
ACMDIMBREAKPERSREACTOR
360
8BA7
  0
DICTIONARY
  5
8BFE
330
71FF
100
AcDbDictionary
280
     1
281
     1
  3
ACMDIMBREAKPERSREACTOR
360
8BFF
  0
DICTIONARY
  5
8BE9
330
7200
100
AcDbDictionary
280
     1
281
     1
  3
ACMDIMBREAKPERSREACTOR
360
8BEA
  0
DICTIONARY
  5
87E6
330
7202
100
AcDbDictionary
280
     1
281
     1
  3
ACMDIMBREAKPERSREACTOR
360
87E7
  0
DICTIONARY
  5
8D05
330
7203
100
AcDbDictionary
280
     1
281
     1
  3
ACMDIMBREAKPERSREACTOR
360
8D06
  0
DICTIONARY
  5
8BD4
330
7204
100
AcDbDictionary
280
     1
281
     1
  3
ACMDIMBREAKPERSREACTOR
360
8BD5
  0
DICTIONARY
  5
8C96
330
7205
100
AcDbDictionary
280
     1
281
     1
  3
ACMDIMBREAKPERSREACTOR
360
8C97
  0
DICTIONARY
  5
8BBF
330
76F7
100
AcDbDictionary
280
     1
281
     1
  3
ACMDIMBREAKPERSREACTOR
360
8BC0
  0
DICTIONARY
  5
5F
102
{ACAD_REACTORS
330
1B
102
}
330
1B
100
AcDbDictionary
281
     1
  0
DICTIONARY
  5
19
102
{ACAD_REACTORS
330
1B
102
}
330
1B
100
AcDbDictionary
281
     1
  0
DICTIONARY
  5
60
102
{ACAD_REACTORS
330
1B
102
}
330
1B
100
AcDbDictionary
281
     1
  3
Layout1
350
63
  3
Model
350
62
  0
DICTIONARY
  5
5E
102
{ACAD_REACTORS
330
1B
102
}
330
1B
100
AcDbDictionary
281
     1
  3
ByBlock
350
3362
  3
ByLayer
350
3361
  3
Global
350
3363
  0
DICTIONARY
  5
38AB
102
{ACAD_REACTORS
330
1B
102
}
330
1B
100
AcDbDictionary
281
     1
  3
Standard
350
38AC
  0
DICTIONARY
  5
1A
102
{ACAD_REACTORS
330
1B
102
}
330
1B
100
AcDbDictionary
281
     1
  3
STANDARD
350
1D
  0
DICTIONARY
  5
61
102
{ACAD_REACTORS
330
1B
102
}
330
1B
100
AcDbDictionary
281
     1
  0
ACDBDICTIONARYWDFLT
  5
5C
102
{ACAD_REACTORS
330
1B
102
}
330
1B
100
AcDbDictionary
281
     1
  3
Normal
350
5D
100
AcDbDictionaryWithDefault
340
5D
  0
DICTIONARY
  5
3889
102
{ACAD_REACTORS
330
1B
102
}
330
1B
100
AcDbDictionary
281
     1
  3
A0
350
388A
  3
A1
350
388B
  3
A2
350
388C
  3
A3
350
388D
  3
A4
350
388E
  3
A5
350
388F
  3
A6
350
3890
  3
A7
350
3891
  3
A8
350
3892
  3
A9
350
3893
  3
B0
350
3894
  3
B1
350
3895
  3
B2
350
3896
  3
B3
350
3897
  3
B4
350
3898
  3
B5
350
3899
  3
B6
350
389A
  3
B7
350
389B
  3
B8
350
389C
  3
B9
350
389D
  3
C0
350
389E
  3
C1
350
389F
  3
C2
350
38A0
  3
C3
350
38A1
  3
C4
350
38A2
  3
C5
350
38A3
  3
C6
350
38A4
  3
C7
350
38A5
  3
C8
350
38A6
  3
C9
350
38A7
  3
D0
350
38A8
  3
D1
350
38A9
  3
D2
350
38AA
  0
DICTIONARY
  5
141
102
{ACAD_REACTORS
330
1B
102
}
330
1B
100
AcDbDictionary
281
     1
  3
Standard
350
142
  0
DICTIONARY
  5
3364
102
{ACAD_REACTORS
330
1B
102
}
330
1B
100
AcDbDictionary
281
     1
  3
2dWireframe
350
336A
  3
3D Hidden
350
336C
  3
3dWireframe
350
336B
  3
Basic
350
3369
  3
Brighten
350
3370
  3
ColorChange
350
3374
  3
Conceptual
350
336D
  3
Dim
350
336F
  3
Facepattern
350
3373
  3
Flat
350
3365
  3
FlatWithEdges
350
3366
  3
Gouraud
350
3367
  3
GouraudWithEdges
350
3368
  3
Linepattern
350
3372
  3
Realistic
350
336E
  3
Thicken
350
3371
  0
XRECORD
  5
38F1
102
{ACAD_REACTORS
330
1B
102
}
330
1B
100
AcDbXrecord
280
     1
 90
        1
330
142
  0
DICTIONARY
  5
4D
102
{ACAD_REACTORS
330
1B
102
}
330
1B
100
AcDbDictionary
281
     1
  3
CANNOSCALE
350
38F4
  3
CMLEADERSTYLE
350
38F2
  3
CTABLESTYLE
350
161
  3
INDEXCTL
350
4E
  3
LIGHTINGUNITS
350
38F5
  3
MSLTSCALE
350
38F3
  0
DICTIONARY
  5
BC
102
{ACAD_REACTORS
330
1B
102
}
330
1B
100
AcDbDictionary
281
     1
  3
AcmStdDictionary
350
C7
  3
AMDTSECTSYM_ARROWCOLOR
350
14A
  0
DICTIONARY
  5
68
102
{ACAD_REACTORS
330
1B
102
}
330
1B
100
AcDbDictionary
281
     1
  0
DICTIONARY
  5
F9
102
{ACAD_REACTORS
330
1B
102
}
330
1B
100
AcDbDictionary
281
     1
  0
DICTIONARY
  5
7F1B
102
{ACAD_REACTORS
330
1B
102
}
330
1B
100
AcDbDictionary
281
     1
  3
ASEBlockHierarchyIndexRecord
350
7F1C
1001
DCO15
1040
1749800942.632
  0
DICTIONARY
  5
8353
102
{ACAD_REACTORS
330
8352
102
}
330
8352
100
AcDbDictionary
281
     1
  0
XRECORD
  5
38E1
102
{ACAD_REACTORS
330
38E0
102
}
330
38E0
100
AcDbXrecord
280
     1
290
     1
  0
XRECORD
  5
38E3
102
{ACAD_REACTORS
330
38E2
102
}
330
38E2
100
AcDbXrecord
280
     1
290
     1
  0
XRECORD
  5
38E5
102
{ACAD_REACTORS
330
38E4
102
}
330
38E4
100
AcDbXrecord
280
     1
290
     1
  0
XRECORD
  5
38E7
102
{ACAD_REACTORS
330
38E6
102
}
330
38E6
100
AcDbXrecord
280
     1
290
     1
  0
XRECORD
  5
38E9
102
{ACAD_REACTORS
330
38E8
102
}
330
38E8
100
AcDbXrecord
280
     1
290
     1
  0
SORTENTSTABLE
  5
23F
102
{ACAD_REACTORS
330
3
102
}
330
3
100
AcDbSortentsTable
330
2
331
71EA
  5
71F3
331
71B3
  5
71BC
331
7241
  5
767F
331
71F2
  5
71FB
331
71BB
  5
71C4
331
717C
  5
7185
331
71FA
  5
7203
331
71C3
  5
71CC
331
7184
  5
718D
331
7202
  5
720D
331
718C
  5
7195
331
7851
  5
7856
331
7859
  5
785E
331
780A
  5
7811
331
7812
  5
783B
331
7194
  5
719D
331
71D3
  5
71DC
331
719C
  5
71A5
331
751E
  5
779F
331
71DB
  5
71E4
331
71A4
  5
71AD
331
7222
  5
7521
331
71E3
  5
71EC
331
71AC
  5
71B5
331
7861
  5
7866
331
77DB
  5
780D
331
7889
  5
78AA
331
71EB
  5
71F4
331
71B4
  5
71BD
331
71F3
  5
71FC
331
71BC
  5
71C5
331
717D
  5
7186
331
71FB
  5
7204
331
71C4
  5
71CD
331
7185
  5
718E
331
7203
  5
7216
331
718D
  5
7196
331
77AC
  5
77D9
331
7852
  5
7857
331
785A
  5
785F
331
780B
  5
7812
331
7813
  5
7852
331
7BB3
  5
7BE7
331
720B
  5
7221
331
71CC
  5
71D5
331
7195
  5
719E
331
71D4
  5
71DD
331
719D
  5
71A6
331
751F
  5
77A0
331
71DC
  5
71E5
331
71A5
  5
71AE
331
71E4
  5
71ED
331
71AD
  5
71B6
331
716E
  5
716E
331
7862
  5
7178
331
77D4
  5
77DB
331
71EC
  5
71F5
331
71B5
  5
71BE
331
7176
  5
717F
331
71F4
  5
71FD
331
71BD
  5
71C6
331
717E
  5
7187
331
71FC
  5
7205
331
71C5
  5
71CE
331
7186
  5
718F
331
7204
  5
721C
331
718E
  5
7197
331
78AA
  5
78CC
331
77AD
  5
7241
331
7853
  5
7858
331
767F
  5
77A9
331
780C
  5
7813
331
785B
  5
7860
331
7814
  5
717A
331
71CD
  5
71D6
331
7196
  5
719F
331
71D5
  5
71DE
331
719E
  5
71A7
331
7520
  5
77A1
331
721C
  5
750A
331
71DD
  5
71E6
331
71A6
  5
71AF
331
7530
  5
717B
331
71E5
  5
71EE
331
716F
  5
716F
331
71AE
  5
71B7
331
7863
  5
7179
331
77D5
  5
77DC
331
76F7
  5
77AE
331
71ED
  5
71F6
331
71B6
  5
71BF
331
7177
  5
7180
331
71F5
  5
71FE
331
71BE
  5
71C7
331
717F
  5
7188
331
71FD
  5
7206
331
71C6
  5
71CF
331
7187
  5
7190
331
7205
  5
721D
331
718F
  5
7198
331
77AE
  5
7240
331
7854
  5
7859
331
785C
  5
7861
331
780D
  5
7814
331
720D
  5
7222
331
71CE
  5
71D7
331
7197
  5
71A0
331
71D6
  5
71DF
331
719F
  5
71A8
331
7521
  5
77A3
331
721D
  5
751A
331
71DE
  5
71E7
331
71A7
  5
71B0
331
7531
  5
7177
331
71E6
  5
71EF
331
71AF
  5
71B8
331
7864
  5
717D
331
77D6
  5
77F6
331
787C
  5
7889
331
779F
  5
77AF
331
71EE
  5
71F7
331
71B7
  5
71C0
331
7178
  5
7181
331
71F6
  5
71FF
331
71BF
  5
71C8
331
7180
  5
7189
331
71FE
  5
7207
331
71C7
  5
71D0
331
7188
  5
7191
331
7206
  5
721E
331
77AF
  5
77DA
331
78CC
  5
7A39
331
7855
  5
785A
331
785D
  5
7862
331
780E
  5
7818
331
7190
  5
7199
331
71CF
  5
71D8
331
7198
  5
71A1
331
751A
  5
76B9
331
7216
  5
723D
331
71D7
  5
71E0
331
71A0
  5
71A9
331
7522
  5
77A8
331
721E
  5
751D
331
71A8
  5
71B1
331
71DF
  5
71E8
331
71E7
  5
71F0
331
76B9
  5
77AA
331
76E1
  5
77AC
331
7865
  5
717C
331
77D7
  5
77F7
331
77A0
  5
77D4
331
71B0
  5
71B9
331
723E
  5
7522
331
71EF
  5
71F8
331
71B8
  5
71C1
331
7179
  5
7182
331
71F7
  5
7200
331
71C0
  5
71C9
331
7181
  5
718A
331
71FF
  5
7208
331
7189
  5
7192
331
7207
  5
721F
331
77A8
  5
77A2
331
784E
  5
7853
331
7856
  5
785B
331
785E
  5
7863
331
780F
  5
7837
331
71C8
  5
71D1
331
7191
  5
719A
331
71D0
  5
71D9
331
7199
  5
71A2
331
751B
  5
76E1
331
7217
  5
723E
331
71A1
  5
71AA
331
721F
  5
751E
331
71E0
  5
71E9
331
71A9
  5
71B2
331
7866
  5
787C
331
77D8
  5
780A
331
77A1
  5
77D5
331
71E8
  5
71F1
331
71B1
  5
71BA
331
1005
  5
1AED
331
723F
  5
7523
331
71F0
  5
71F9
331
71B9
  5
71C2
331
717A
  5
7183
331
71F8
  5
7201
331
71C1
  5
71CA
331
7182
  5
718B
331
7200
  5
7209
331
718A
  5
7193
331
784F
  5
7854
331
7857
  5
785C
331
7808
  5
780F
331
785F
  5
7864
331
7810
  5
7839
331
7BB0
  5
7BB1
331
7208
  5
7220
331
71C9
  5
71D2
331
7192
  5
719B
331
71D1
  5
71DA
331
719A
  5
71A3
331
71A2
  5
71AB
331
7220
  5
751F
331
71E1
  5
71EA
331
71AA
  5
71B3
331
7818
  5
717E
331
77D9
  5
780B
331
77A2
  5
77D6
331
FFE
  5
1AEB
331
71E9
  5
71F2
331
71B2
  5
71BB
331
7240
  5
7530
331
71F1
  5
71FA
331
71BA
  5
71C3
331
717B
  5
7184
331
71F9
  5
7202
331
71C2
  5
71CB
331
7183
  5
718C
331
7201
  5
720A
331
718B
  5
7194
331
77AA
  5
77D8
331
7850
  5
7855
331
7858
  5
785D
331
7809
  5
7810
331
7811
  5
783A
331
71CA
  5
71D3
331
7193
  5
719C
331
71D2
  5
71DB
331
719B
  5
71A4
331
751D
  5
76F7
331
71DA
  5
71E3
331
71A3
  5
71AC
331
7221
  5
7520
331
71E2
  5
71EB
331
71AB
  5
71B4
331
7860
  5
7865
331
77DA
  5
780C
331
77A3
  5
77D7
  0
LAYOUT
  5
63
102
{ACAD_REACTORS
330
60
102
}
330
60
100
AcDbPlotSettings
  1

  2
HP LaserJet 5000 Series PCL6
  4

  6

 40
0.0
 41
0.0
 42
0.0
 43
0.0
 44
0.0
 45
0.0
 46
0.0
 47
0.0
 48
0.0
 49
0.0
140
0.0
141
0.0
142
1.0
143
1.0
 70
   688
 72
     0
 73
     0
 74
     5
  7
Zeich.ctb
 75
    16
147
1.0
 76
     0
 77
     2
 78
   300
148
0.0
149
0.0
100
AcDbLayout
  1
Layout1
 70
     0
 71
     1
 10
0.0
 20
0.0
 11
420.0
 21
297.0
 12
0.0
 22
0.0
 32
0.0
 14
1.000000000000000E+20
 24
1.000000000000000E+20
 34
1.000000000000000E+20
 15
-1.000000000000000E+20
 25
-1.000000000000000E+20
 35
-1.000000000000000E+20
146
0.0
 13
0.0
 23
0.0
 33
0.0
 16
1.0
 26
0.0
 36
0.0
 17
0.0
 27
1.0
 37
0.0
 76
     0
330
8
  0
LAYOUT
  5
62
102
{ACAD_REACTORS
330
60
102
}
330
60
100
AcDbPlotSettings
  1

  2
HP LaserJet 5000 Series PCL6
  4
A4
  6

 40
6.720416545867919
 41
6.741602420806884
 42
7.715240478515625
 43
4.011077880859375
 44
209.9944915771484
 45
296.989501953125
 46
0.0
 47
0.0
 48
0.0
 49
0.0
140
0.0
141
0.0
142
1.0
143
98.76279259746761
 70
 11952
 72
     0
 73
     1
 74
     0
  7
Zeich.ctb
 75
     0
147
0.0101252705973569
 76
     0
 77
     2
 78
   300
148
4908.170098774271
149
4913.918673782864
100
AcDbLayout
  1
Model
 70
     1
 71
     0
 10
0.0
 20
0.0
 11
12.0
 21
9.0
 12
0.0
 22
0.0
 32
0.0
 14
0.0
 24
0.0
 34
0.0
 15
0.0
 25
0.0
 35
0.0
146
0.0
 13
0.0
 23
0.0
 33
0.0
 16
1.0
 26
0.0
 36
0.0
 17
0.0
 27
1.0
 37
0.0
 76
     0
330
2
331
335F
1001
ACAD_PSEXT
1000
HP LaserJet 5000 Series PCL6
1000
HP LaserJet 5000 Series PCL6
1000
LPT1:
1000

1070
     0
  0
MATERIAL
  5
3362
102
{ACAD_REACTORS
330
5E
102
}
330
5E
100
AcDbMaterial
  1
ByBlock
 73
     1
 78
     1
172
     1
176
     1
270
     1
274
     1
 94
       63
  0
MATERIAL
  5
3361
102
{ACAD_REACTORS
330
5E
102
}
330
5E
100
AcDbMaterial
  1
ByLayer
 73
     1
 78
     1
172
     1
176
     1
270
     1
274
     1
 94
       63
  0
MATERIAL
  5
3363
102
{ACAD_REACTORS
330
5E
102
}
330
5E
100
AcDbMaterial
  1
Global
 73
     1
 78
     1
172
     1
176
     1
270
     1
274
     1
 94
       63
  0
MLEADERSTYLE
  5
38AC
102
{ACAD_REACTORS
330
38AB
102
}
330
38AB
100
AcDbMLeaderStyle
170
     2
171
     1
172
     0
 90
        2
 40
0.0
 41
0.0
173
     1
 91
-1056964608
340
F
 92
       -2
290
     1
 42
0.09
291
     1
 43
0.36
  3
Standard
 44
0.18
300

342
D
174
     1
178
     6
175
     1
176
     0
 93
-1056964608
 45
0.18
292
     0
297
     0
 46
0.18
 94
-1056964608
 47
1.0
 49
1.0
140
1.0
293
     1
141
0.0
294
     1
177
     0
142
1.0
295
     0
296
     0
143
0.125
1001
ACAD_MLEADERVER
1070
     2
  0
MLINESTYLE
  5
1D
102
{ACAD_REACTORS
330
1A
102
}
330
1A
100
AcDbMlineStyle
  2
STANDARD
 70
     0
  3

 62
     0
 51
90.0
 52
90.0
 71
     2
 49
0.5
 62
   256
  6
BYLAYER
 49
-0.5
 62
   256
  6
BYLAYER
  0
ACDBPLACEHOLDER
  5
5D
102
{ACAD_REACTORS
330
5C
102
}
330
5C
  0
SCALE
  5
388A
102
{ACAD_REACTORS
330
3889
102
}
330
3889
100
AcDbScale
 70
     0
300
1:1
140
1.0
141
1.0
290
     1
  0
SCALE
  5
388B
102
{ACAD_REACTORS
330
3889
102
}
330
3889
100
AcDbScale
 70
     0
300
1:2
140
1.0
141
2.0
290
     0
  0
SCALE
  5
388C
102
{ACAD_REACTORS
330
3889
102
}
330
3889
100
AcDbScale
 70
     0
300
1:4
140
1.0
141
4.0
290
     0
  0
SCALE
  5
388D
102
{ACAD_REACTORS
330
3889
102
}
330
3889
100
AcDbScale
 70
     0
300
1:5
140
1.0
141
5.0
290
     0
  0
SCALE
  5
388E
102
{ACAD_REACTORS
330
3889
102
}
330
3889
100
AcDbScale
 70
     0
300
1:8
140
1.0
141
8.0
290
     0
  0
SCALE
  5
388F
102
{ACAD_REACTORS
330
3889
102
}
330
3889
100
AcDbScale
 70
     0
300
1:10
140
1.0
141
10.0
290
     0
  0
SCALE
  5
3890
102
{ACAD_REACTORS
330
3889
102
}
330
3889
100
AcDbScale
 70
     0
300
1:16
140
1.0
141
16.0
290
     0
  0
SCALE
  5
3891
102
{ACAD_REACTORS
330
3889
102
}
330
3889
100
AcDbScale
 70
     0
300
1:20
140
1.0
141
20.0
290
     0
  0
SCALE
  5
3892
102
{ACAD_REACTORS
330
3889
102
}
330
3889
100
AcDbScale
 70
     0
300
1:30
140
1.0
141
30.0
290
     0
  0
SCALE
  5
3893
102
{ACAD_REACTORS
330
3889
102
}
330
3889
100
AcDbScale
 70
     0
300
1:40
140
1.0
141
40.0
290
     0
  0
SCALE
  5
3894
102
{ACAD_REACTORS
330
3889
102
}
330
3889
100
AcDbScale
 70
     0
300
1:50
140
1.0
141
50.0
290
     0
  0
SCALE
  5
3895
102
{ACAD_REACTORS
330
3889
102
}
330
3889
100
AcDbScale
 70
     0
300
1:100
140
1.0
141
100.0
290
     0
  0
SCALE
  5
3896
102
{ACAD_REACTORS
330
3889
102
}
330
3889
100
AcDbScale
 70
     0
300
2:1
140
2.0
141
1.0
290
     0
  0
SCALE
  5
3897
102
{ACAD_REACTORS
330
3889
102
}
330
3889
100
AcDbScale
 70
     0
300
4:1
140
4.0
141
1.0
290
     0
  0
SCALE
  5
3898
102
{ACAD_REACTORS
330
3889
102
}
330
3889
100
AcDbScale
 70
     0
300
8:1
140
8.0
141
1.0
290
     0
  0
SCALE
  5
3899
102
{ACAD_REACTORS
330
3889
102
}
330
3889
100
AcDbScale
 70
     0
300
10:1
140
10.0
141
1.0
290
     0
  0
SCALE
  5
389A
102
{ACAD_REACTORS
330
3889
102
}
330
3889
100
AcDbScale
 70
     0
300
100:1
140
100.0
141
1.0
290
     0
  0
SCALE
  5
389B
102
{ACAD_REACTORS
330
3889
102
}
330
3889
100
AcDbScale
 70
     0
300
1/128" = 1'-0"
140
0.0078125
141
12.0
290
     0
  0
SCALE
  5
389C
102
{ACAD_REACTORS
330
3889
102
}
330
3889
100
AcDbScale
 70
     0
300
1/64" = 1'-0"
140
0.015625
141
12.0
290
     0
  0
SCALE
  5
389D
102
{ACAD_REACTORS
330
3889
102
}
330
3889
100
AcDbScale
 70
     0
300
1/32" = 1'-0"
140
0.03125
141
12.0
290
     0
  0
SCALE
  5
389E
102
{ACAD_REACTORS
330
3889
102
}
330
3889
100
AcDbScale
 70
     0
300
1/16" = 1'-0"
140
0.0625
141
12.0
290
     0
  0
SCALE
  5
389F
102
{ACAD_REACTORS
330
3889
102
}
330
3889
100
AcDbScale
 70
     0
300
3/32" = 1'-0"
140
0.09375
141
12.0
290
     0
  0
SCALE
  5
38A0
102
{ACAD_REACTORS
330
3889
102
}
330
3889
100
AcDbScale
 70
     0
300
1/8" = 1'-0"
140
0.125
141
12.0
290
     0
  0
SCALE
  5
38A1
102
{ACAD_REACTORS
330
3889
102
}
330
3889
100
AcDbScale
 70
     0
300
3/16" = 1'-0"
140
0.1875
141
12.0
290
     0
  0
SCALE
  5
38A2
102
{ACAD_REACTORS
330
3889
102
}
330
3889
100
AcDbScale
 70
     0
300
1/4" = 1'-0"
140
0.25
141
12.0
290
     0
  0
SCALE
  5
38A3
102
{ACAD_REACTORS
330
3889
102
}
330
3889
100
AcDbScale
 70
     0
300
3/8" = 1'-0"
140
0.375
141
12.0
290
     0
  0
SCALE
  5
38A4
102
{ACAD_REACTORS
330
3889
102
}
330
3889
100
AcDbScale
 70
     0
300
1/2" = 1'-0"
140
0.5
141
12.0
290
     0
  0
SCALE
  5
38A5
102
{ACAD_REACTORS
330
3889
102
}
330
3889
100
AcDbScale
 70
     0
300
3/4" = 1'-0"
140
0.75
141
12.0
290
     0
  0
SCALE
  5
38A6
102
{ACAD_REACTORS
330
3889
102
}
330
3889
100
AcDbScale
 70
     0
300
1" = 1'-0"
140
1.0
141
12.0
290
     0
  0
SCALE
  5
38A7
102
{ACAD_REACTORS
330
3889
102
}
330
3889
100
AcDbScale
 70
     0
300
1-1/2" = 1'-0"
140
1.5
141
12.0
290
     0
  0
SCALE
  5
38A8
102
{ACAD_REACTORS
330
3889
102
}
330
3889
100
AcDbScale
 70
     0
300
3" = 1'-0"
140
3.0
141
12.0
290
     0
  0
SCALE
  5
38A9
102
{ACAD_REACTORS
330
3889
102
}
330
3889
100
AcDbScale
 70
     0
300
6" = 1'-0"
140
6.0
141
12.0
290
     0
  0
SCALE
  5
38AA
102
{ACAD_REACTORS
330
3889
102
}
330
3889
100
AcDbScale
 70
     0
300
1'-0" = 1'-0"
140
12.0
141
12.0
290
     0
  0
TABLESTYLE
  5
142
102
{ACAD_XDICTIONARY
360
38EF
102
}
102
{ACAD_REACTORS
330
141
102
}
330
141
100
AcDbTableStyle
  3
Standard
 70
     0
 71
     0
 40
0.06
 41
0.06
280
     0
281
     0
  7
STANDARD
140
0.18
170
     2
 62
     0
 63
     7
283
     0
 90
        4
 91
        0
  1

274
    -2
284
     1
 64
     0
275
    -2
285
     1
 65
     0
276
    -2
286
     1
 66
     0
277
    -2
287
     1
 67
     0
278
    -2
288
     1
 68
     0
279
    -2
289
     1
 69
     0
  7
STANDARD
140
0.25
170
     5
 62
     0
 63
     7
283
     0
 90
        4
 91
        0
  1

274
    -2
284
     1
 64
     0
275
    -2
285
     1
 65
     0
276
    -2
286
     1
 66
     0
277
    -2
287
     1
 67
     0
278
    -2
288
     1
 68
     0
279
    -2
289
     1
 69
     0
  7
STANDARD
140
0.18
170
     5
 62
     0
 63
     7
283
     0
 90
        4
 91
        0
  1

274
    -2
284
     1
 64
     0
275
    -2
285
     1
 65
     0
276
    -2
286
     1
 66
     0
277
    -2
287
     1
 67
     0
278
    -2
288
     1
 68
     0
279
    -2
289
     1
 69
     0
  0
VISUALSTYLE
  5
336A
102
{ACAD_REACTORS
330
3364
102
}
330
3364
100
AcDbVisualStyle
  2
2dWireframe
 70
     4
 71
     0
 72
     2
 73
     0
 90
        0
 40
-0.6
 41
-30.0
 62
     5
 63
     7
421
 16777215
 74
     1
 91
        4
 64
     7
 65
   257
 75
     1
175
     1
 42
1.0
 92
        0
 66
   257
 43
1.0
 76
     1
 77
     6
 78
     2
 67
     7
 79
     5
170
     0
171
     0
290
     0
174
     0
 93
        1
 44
0.0
173
     0
291
     0
 45
0.0
  0
VISUALSTYLE
  5
336C
102
{ACAD_REACTORS
330
3364
102
}
330
3364
100
AcDbVisualStyle
  2
3D Hidden
 70
     6
 71
     1
 72
     2
 73
     2
 90
        0
 40
-0.6
 41
-30.0
 62
     5
 63
     7
421
 16777215
 74
     2
 91
        2
 64
     7
 65
   257
 75
     2
175
     1
 42
40.0
 92
        0
 66
   257
 43
1.0
 76
     1
 77
     6
 78
     2
 67
     7
 79
     3
170
     0
171
     0
290
     0
174
     0
 93
        1
 44
0.0
173
     0
291
     0
 45
0.0
  0
VISUALSTYLE
  5
336B
102
{ACAD_REACTORS
330
3364
102
}
330
3364
100
AcDbVisualStyle
  2
3dWireframe
 70
     5
 71
     0
 72
     2
 73
     0
 90
        0
 40
-0.6
 41
-30.0
 62
     5
 63
     7
421
 16777215
 74
     1
 91
        4
 64
     7
 65
   257
 75
     1
175
     1
 42
1.0
 92
        0
 66
   257
 43
1.0
 76
     1
 77
     6
 78
     2
 67
     7
 79
     5
170
     0
171
     0
290
     0
174
     0
 93
        1
 44
0.0
173
     0
291
     0
 45
0.0
  0
VISUALSTYLE
  5
3369
102
{ACAD_REACTORS
330
3364
102
}
330
3364
100
AcDbVisualStyle
  2
Basic
 70
     7
 71
     1
 72
     0
 73
     1
 90
        0
 40
-0.6
 41
-30.0
 62
     5
 63
     7
421
 16777215
 74
     0
 91
        4
 64
     7
 65
   257
 75
     1
175
     1
 42
1.0
 92
        8
 66
     7
 43
1.0
 76
     1
 77
     6
 78
     2
 67
     7
 79
     5
170
     0
171
     0
290
     0
174
     0
 93
        1
 44
0.0
173
     0
291
     1
 45
0.0
  0
VISUALSTYLE
  5
3370
102
{ACAD_REACTORS
330
3364
102
}
330
3364
100
AcDbVisualStyle
  2
Brighten
 70
    12
 71
     2
 72
     2
 73
     0
 90
        0
 40
-0.6
 41
-30.0
 62
     5
 63
     7
421
 16777215
 74
     1
 91
        4
 64
     7
 65
   257
 75
     1
175
     1
 42
1.0
 92
        8
 66
     7
 43
1.0
 76
     1
 77
     6
 78
     2
 67
     7
 79
     5
170
     0
171
     0
290
     0
174
     0
 93
        1
 44
50.0
173
     0
291
     1
 45
0.0
  0
VISUALSTYLE
  5
3374
102
{ACAD_REACTORS
330
3364
102
}
330
3364
100
AcDbVisualStyle
  2
ColorChange
 70
    16
 71
     2
 72
     2
 73
     3
 90
        0
 40
-0.6
 41
-30.0
 62
     5
 63
     8
421
  8421504
 74
     1
 91
        4
 64
     7
 65
   257
 75
     1
175
     1
 42
1.0
 92
        8
 66
     8
424
  8421504
 43
1.0
 76
     1
 77
     6
 78
     2
 67
     7
 79
     5
170
     0
171
     0
290
     0
174
     0
 93
        1
 44
0.0
173
     0
291
     1
 45
0.0
  0
VISUALSTYLE
  5
336D
102
{ACAD_REACTORS
330
3364
102
}
330
3364
100
AcDbVisualStyle
  2
Conceptual
 70
     9
 71
     3
 72
     2
 73
     0
 90
        0
 40
-0.6
 41
-30.0
 62
     5
 63
     7
421
 16777215
 74
     2
 91
        2
 64
     7
 65
   257
 75
     1
175
     1
 42
40.0
 92
        8
 66
     7
 43
1.0
 76
     1
 77
     6
 78
     2
 67
     7
 79
     3
170
     0
171
     0
290
     0
174
     0
 93
        1
 44
0.0
173
     0
291
     0
 45
0.0
  0
VISUALSTYLE
  5
336F
102
{ACAD_REACTORS
330
3364
102
}
330
3364
100
AcDbVisualStyle
  2
Dim
 70
    11
 71
     2
 72
     2
 73
     0
 90
        0
 40
-0.6
 41
-30.0
 62
     5
 63
     7
421
 16777215
 74
     1
 91
        4
 64
     7
 65
   257
 75
     1
175
     1
 42
1.0
 92
        8
 66
     7
 43
1.0
 76
     1
 77
     6
 78
     2
 67
     7
 79
     5
170
     0
171
     0
290
     0
174
     0
 93
        1
 44
-50.0
173
     0
291
     1
 45
0.0
  0
VISUALSTYLE
  5
3373
102
{ACAD_REACTORS
330
3364
102
}
330
3364
100
AcDbVisualStyle
  2
Facepattern
 70
    15
 71
     2
 72
     2
 73
     0
 90
        0
 40
-0.6
 41
-30.0
 62
     5
 63
     7
421
 16777215
 74
     1
 91
        4
 64
     7
 65
   257
 75
     1
175
     1
 42
1.0
 92
        8
 66
     7
 43
1.0
 76
     1
 77
     6
 78
     2
 67
     7
 79
     5
170
     0
171
     0
290
     0
174
     0
 93
        1
 44
0.0
173
     0
291
     1
 45
0.0
  0
VISUALSTYLE
  5
3365
102
{ACAD_REACTORS
330
3364
102
}
330
3364
100
AcDbVisualStyle
  2
Flat
 70
     0
 71
     2
 72
     1
 73
     1
 90
        2
 40
-0.6
 41
30.0
 62
     5
 63
     7
421
 16777215
 74
     0
 91
        4
 64
     7
 65
   257
 75
     1
175
     1
 42
1.0
 92
        8
 66
     7
 43
1.0
 76
     1
 77
     6
 78
     2
 67
     7
 79
     5
170
     0
171
     0
290
     0
174
     0
 93
       13
 44
0.0
173
     0
291
     1
 45
0.0
  0
VISUALSTYLE
  5
3366
102
{ACAD_REACTORS
330
3364
102
}
330
3364
100
AcDbVisualStyle
  2
FlatWithEdges
 70
     1
 71
     2
 72
     1
 73
     1
 90
        2
 40
-0.6
 41
30.0
 62
     5
 63
     7
421
 16777215
 74
     1
 91
        4
 64
     7
 65
   257
 75
     1
175
     1
 42
1.0
 92
        0
 66
   257
 43
1.0
 76
     1
 77
     6
 78
     2
 67
     7
 79
     5
170
     0
171
     0
290
     0
174
     0
 93
       13
 44
0.0
173
     0
291
     1
 45
0.0
  0
VISUALSTYLE
  5
3367
102
{ACAD_REACTORS
330
3364
102
}
330
3364
100
AcDbVisualStyle
  2
Gouraud
 70
     2
 71
     2
 72
     2
 73
     1
 90
        2
 40
-0.6
 41
30.0
 62
     5
 63
     7
421
 16777215
 74
     0
 91
        4
 64
     7
 65
   257
 75
     1
175
     1
 42
1.0
 92
        0
 66
     7
 43
1.0
 76
     1
 77
     6
 78
     2
 67
     7
 79
     5
170
     0
171
     0
290
     0
174
     0
 93
       13
 44
0.0
173
     0
291
     1
 45
0.0
  0
VISUALSTYLE
  5
3368
102
{ACAD_REACTORS
330
3364
102
}
330
3364
100
AcDbVisualStyle
  2
GouraudWithEdges
 70
     3
 71
     2
 72
     2
 73
     1
 90
        2
 40
-0.6
 41
30.0
 62
     5
 63
     7
421
 16777215
 74
     1
 91
        4
 64
     7
 65
   257
 75
     1
175
     1
 42
1.0
 92
        0
 66
   257
 43
1.0
 76
     1
 77
     6
 78
     2
 67
     7
 79
     5
170
     0
171
     0
290
     0
174
     0
 93
       13
 44
0.0
173
     0
291
     1
 45
0.0
  0
VISUALSTYLE
  5
3372
102
{ACAD_REACTORS
330
3364
102
}
330
3364
100
AcDbVisualStyle
  2
Linepattern
 70
    14
 71
     2
 72
     2
 73
     0
 90
        0
 40
-0.6
 41
-30.0
 62
     5
 63
     7
421
 16777215
 74
     1
 91
        4
 64
     7
 65
   257
 75
     7
175
     7
 42
1.0
 92
        8
 66
     7
 43
1.0
 76
     1
 77
     6
 78
     2
 67
     7
 79
     5
170
     0
171
     0
290
     0
174
     0
 93
        1
 44
0.0
173
     0
291
     1
 45
0.0
  0
VISUALSTYLE
  5
336E
102
{ACAD_REACTORS
330
3364
102
}
330
3364
100
AcDbVisualStyle
  2
Realistic
 70
     8
 71
     2
 72
     2
 73
     0
 90
        0
 40
-0.6
 41
-30.0
 62
     5
 63
     7
421
 16777215
 74
     1
 91
        0
 64
     7
 65
   257
 75
     1
175
     1
 42
1.0
 92
        8
 66
     8
424
  7895160
 43
1.0
 76
     1
 77
     6
 78
     2
 67
     7
 79
     5
170
     0
171
     0
290
     0
174
     0
 93
       13
 44
0.0
173
     0
291
     0
 45
0.0
  0
VISUALSTYLE
  5
3371
102
{ACAD_REACTORS
330
3364
102
}
330
3364
100
AcDbVisualStyle
  2
Thicken
 70
    13
 71
     2
 72
     2
 73
     0
 90
        0
 40
-0.6
 41
-30.0
 62
     5
 63
     7
421
 16777215
 74
     1
 91
        4
 64
     7
 65
   257
 75
     1
175
     1
 42
1.0
 92
       12
 66
     7
 43
1.0
 76
     1
 77
     6
 78
     2
 67
     7
 79
     5
170
     0
171
     0
290
     0
174
     0
 93
        1
 44
0.0
173
     0
291
     1
 45
0.0
  0
DICTIONARYVAR
  5
38F4
102
{ACAD_REACTORS
330
4D
102
}
330
4D
100
DictionaryVariables
280
     0
  1
1:1
  0
DICTIONARYVAR
  5
38F2
102
{ACAD_REACTORS
330
4D
102
}
330
4D
100
DictionaryVariables
280
     0
  1
STANDARD
  0
DICTIONARYVAR
  5
161
102
{ACAD_REACTORS
330
4D
102
}
330
4D
100
DictionaryVariables
280
     0
  1
STANDARD
  0
DICTIONARYVAR
  5
4E
102
{ACAD_REACTORS
330
4D
102
}
330
4D
100
DictionaryVariables
280
     0
  1
1
  0
DICTIONARYVAR
  5
38F5
102
{ACAD_REACTORS
330
4D
102
}
330
4D
100
DictionaryVariables
280
     0
  1
0
  0
DICTIONARYVAR
  5
38F3
102
{ACAD_REACTORS
330
4D
102
}
330
4D
100
DictionaryVariables
280
     0
  1
0
  0
DICTIONARY
  5
C7
102
{ACAD_REACTORS
330
BC
102
}
330
BC
100
AcDbDictionary
281
     1
  0
XRECORD
  5
14A
102
{ACAD_REACTORS
330
BC
102
}
330
BC
100
AcDbXrecord
280
     1
 90
-1023410169
  0
XRECORD
  5
7F1C
102
{ACAD_REACTORS
330
7F1B
102
}
330
7F1B
100
AcDbXrecord
280
     1
330
7BB1
  0
DICTIONARY
  5
38EF
330
142
100
AcDbDictionary
280
     1
281
     1
  3
ACAD_ROUNDTRIP_2008_TABLESTYLE_CELLSTYLEMAP
360
8F05
  0
CELLSTYLEMAP
  5
8F05
102
{ACAD_REACTORS
330
38EF
102
}
330
38EF
100
AcDbCellStyleMap
 90
        3
300
CELLSTYLE
  1
TABLEFORMAT_BEGIN
 90
        5
170
     1
 91
        0
 92
    32768
 62
   257
 93
        1
300
CONTENTFORMAT
  1
CONTENTFORMAT_BEGIN
 90
        0
 91
        0
 92
        4
 93
        0
300

 40
0.0
140
1.0
 94
        5
 62
     0
340
D
144
0.25
309
CONTENTFORMAT_END
171
     0
 94
        6
 95
        1
302
GRIDFORMAT
  1
GRIDFORMAT_BEGIN
 90
        0
 91
        1
 62
     0
 92
       -2
340
0
 93
        0
 40
0.045
309
GRIDFORMAT_END
 95
        2
302
GRIDFORMAT
  1
GRIDFORMAT_BEGIN
 90
        0
 91
        1
 62
     0
 92
       -2
340
0
 93
        0
 40
0.045
309
GRIDFORMAT_END
 95
        4
302
GRIDFORMAT
  1
GRIDFORMAT_BEGIN
 90
        0
 91
        1
 62
     0
 92
       -2
340
0
 93
        0
 40
0.045
309
GRIDFORMAT_END
 95
        8
302
GRIDFORMAT
  1
GRIDFORMAT_BEGIN
 90
        0
 91
        1
 62
     0
 92
       -2
340
0
 93
        0
 40
0.045
309
GRIDFORMAT_END
 95
       16
302
GRIDFORMAT
  1
GRIDFORMAT_BEGIN
 90
        0
 91
        1
 62
     0
 92
       -2
340
0
 93
        0
 40
0.045
309
GRIDFORMAT_END
 95
       32
302
GRIDFORMAT
  1
GRIDFORMAT_BEGIN
 90
        0
 91
        1
 62
     0
 92
       -2
340
0
 93
        0
 40
0.045
309
GRIDFORMAT_END
309
TABLEFORMAT_END
  1
CELLSTYLE_BEGIN
 90
        1
 91
        1
300
_TITLE
309
CELLSTYLE_END
300
CELLSTYLE
  1
TABLEFORMAT_BEGIN
 90
        5
170
     1
 91
        0
 92
        0
 62
   257
 93
        1
300
CONTENTFORMAT
  1
CONTENTFORMAT_BEGIN
 90
        0
 91
        0
 92
        4
 93
        0
300

 40
0.0
140
1.0
 94
        5
 62
     0
340
D
144
0.18
309
CONTENTFORMAT_END
171
     0
 94
        6
 95
        1
302
GRIDFORMAT
  1
GRIDFORMAT_BEGIN
 90
        0
 91
        1
 62
     0
 92
       -2
340
0
 93
        0
 40
0.045
309
GRIDFORMAT_END
 95
        2
302
GRIDFORMAT
  1
GRIDFORMAT_BEGIN
 90
        0
 91
        1
 62
     0
 92
       -2
340
0
 93
        0
 40
0.045
309
GRIDFORMAT_END
 95
        4
302
GRIDFORMAT
  1
GRIDFORMAT_BEGIN
 90
        0
 91
        1
 62
     0
 92
       -2
340
0
 93
        0
 40
0.045
309
GRIDFORMAT_END
 95
        8
302
GRIDFORMAT
  1
GRIDFORMAT_BEGIN
 90
        0
 91
        1
 62
     0
 92
       -2
340
0
 93
        0
 40
0.045
309
GRIDFORMAT_END
 95
       16
302
GRIDFORMAT
  1
GRIDFORMAT_BEGIN
 90
        0
 91
        1
 62
     0
 92
       -2
340
0
 93
        0
 40
0.045
309
GRIDFORMAT_END
 95
       32
302
GRIDFORMAT
  1
GRIDFORMAT_BEGIN
 90
        0
 91
        1
 62
     0
 92
       -2
340
0
 93
        0
 40
0.045
309
GRIDFORMAT_END
309
TABLEFORMAT_END
  1
CELLSTYLE_BEGIN
 90
        2
 91
        1
300
_HEADER
309
CELLSTYLE_END
300
CELLSTYLE
  1
TABLEFORMAT_BEGIN
 90
        5
170
     1
 91
        0
 92
        0
 62
   257
 93
        1
300
CONTENTFORMAT
  1
CONTENTFORMAT_BEGIN
 90
        0
 91
        0
 92
        4
 93
        0
300

 40
0.0
140
1.0
 94
        2
 62
     0
340
D
144
0.18
309
CONTENTFORMAT_END
171
     0
 94
        6
 95
        1
302
GRIDFORMAT
  1
GRIDFORMAT_BEGIN
 90
        0
 91
        1
 62
     0
 92
       -2
340
0
 93
        0
 40
0.045
309
GRIDFORMAT_END
 95
        2
302
GRIDFORMAT
  1
GRIDFORMAT_BEGIN
 90
        0
 91
        1
 62
     0
 92
       -2
340
0
 93
        0
 40
0.045
309
GRIDFORMAT_END
 95
        4
302
GRIDFORMAT
  1
GRIDFORMAT_BEGIN
 90
        0
 91
        1
 62
     0
 92
       -2
340
0
 93
        0
 40
0.045
309
GRIDFORMAT_END
 95
        8
302
GRIDFORMAT
  1
GRIDFORMAT_BEGIN
 90
        0
 91
        1
 62
     0
 92
       -2
340
0
 93
        0
 40
0.045
309
GRIDFORMAT_END
 95
       16
302
GRIDFORMAT
  1
GRIDFORMAT_BEGIN
 90
        0
 91
        1
 62
     0
 92
       -2
340
0
 93
        0
 40
0.045
309
GRIDFORMAT_END
 95
       32
302
GRIDFORMAT
  1
GRIDFORMAT_BEGIN
 90
        0
 91
        1
 62
     0
 92
       -2
340
0
 93
        0
 40
0.045
309
GRIDFORMAT_END
309
TABLEFORMAT_END
  1
CELLSTYLE_BEGIN
 90
        3
 91
        2
300
_DATA
309
CELLSTYLE_END
  0
ENDSEC
  0
EOF
