  0
SECTION
  2
HEADER
  9
$ACADVER
  1
AC1018
  9
$ACADMAINTVER
 70
   104
  9
$DWGCODEPAGE
  3
ANSI_1252
  9
$LASTSAVEDBY
  1
ibasyouni
  9
$CUSTOMPROPERTYTAG
  1
AmdtFileType
  9
$CUSTOMPROPERTY
  1
84
  9
$INSBASE
 10
0.0
 20
0.0
 30
0.0
  9
$EXTMIN
 10
16.27947439575711
 20
25.79059042598788
 30
0.0
  9
$EXTMAX
 10
1041.664321553022
 20
670.8622777148194
 30
0.0
  9
$LIMMIN
 10
0.0
 20
0.0
  9
$LIMMAX
 10
1100.0
 20
700.0
  9
$ORTHOMODE
 70
     1
  9
$REGENMODE
 70
     1
  9
$FILLMODE
 70
     1
  9
$QTEXTMODE
 70
     0
  9
$MIRRTEXT
 70
     1
  9
$LTSCALE
 40
1.0
  9
$ATTMODE
 70
     1
  9
$TEXTSIZE
 40
10.0
  9
$TRACEWID
 40
1.0
  9
$TEXTSTYLE
  7
STANDARD
  9
$CLAYER
  8
0
  9
$CELTYPE
  6
BYLAYER
  9
$CECOLOR
 62
   256
  9
$CELTSCALE
 40
10.0
  9
$DISPSILH
 70
     0
  9
$DIMSCALE
 40
1.0
  9
$DIMASZ
 40
7.0
  9
$DIMEXO
 40
0.0
  9
$DIMDLI
 40
7.0
  9
$DIMRND
 40
0.0
  9
$DIMDLE
 40
0.0
  9
$DIMEXE
 40
1.25
  9
$DIMTP
 40
0.0
  9
$DIMTM
 40
0.0
  9
$DIMTXT
 40
10.0
  9
$DIMCEN
 40
0.0
  9
$DIMTSZ
 40
0.0
  9
$DIMTOL
 70
     0
  9
$DIMLIM
 70
     0
  9
$DIMTIH
 70
     0
  9
$DIMTOH
 70
     0
  9
$DIMSE1
 70
     0
  9
$DIMSE2
 70
     0
  9
$DIMTAD
 70
     1
  9
$DIMZIN
 70
     8
  9
$DIMBLK
  1

  9
$DIMASO
 70
     1
  9
$DIMSHO
 70
     1
  9
$DIMPOST
  1

  9
$DIMAPOST
  1

  9
$DIMALT
 70
     0
  9
$DIMALTD
 70
     2
  9
$DIMALTF
 40
25.4
  9
$DIMLFAC
 40
1.0
  9
$DIMTOFL
 70
     1
  9
$DIMTVP
 40
0.0
  9
$DIMTIX
 70
     0
  9
$DIMSOXD
 70
     0
  9
$DIMSAH
 70
     0
  9
$DIMBLK1
  1

  9
$DIMBLK2
  1

  9
$DIMSTYLE
  2
ISO-25
  9
$DIMCLRD
 70
   256
  9
$DIMCLRE
 70
   256
  9
$DIMCLRT
 70
   256
  9
$DIMTFAC
 40
1.0
  9
$DIMGAP
 40
4.0
  9
$DIMJUST
 70
     0
  9
$DIMSD1
 70
     0
  9
$DIMSD2
 70
     0
  9
$DIMTOLJ
 70
     1
  9
$DIMTZIN
 70
     8
  9
$DIMALTZ
 70
     0
  9
$DIMALTTZ
 70
     0
  9
$DIMUPT
 70
     1
  9
$DIMDEC
 70
     4
  9
$DIMTDEC
 70
     4
  9
$DIMALTU
 70
     2
  9
$DIMALTTD
 70
     2
  9
$DIMTXSTY
  7
STANDARD
  9
$DIMAUNIT
 70
     0
  9
$DIMADEC
 70
     0
  9
$DIMALTRND
 40
0.0
  9
$DIMAZIN
 70
     0
  9
$DIMDSEP
 70
    46
  9
$DIMATFIT
 70
     0
  9
$DIMFRAC
 70
     0
  9
$DIMLDRBLK
  1

  9
$DIMLUNIT
 70
     2
  9
$DIMLWD
 70
    -2
  9
$DIMLWE
 70
    -2
  9
$DIMTMOVE
 70
     0
  9
$LUNITS
 70
     2
  9
$LUPREC
 70
     4
  9
$SKETCHINC
 40
1.0
  9
$FILLETRAD
 40
2.5
  9
$AUNITS
 70
     0
  9
$AUPREC
 70
     0
  9
$MENU
  1
.
  9
$ELEVATION
 40
0.0
  9
$PELEVATION
 40
0.0
  9
$THICKNESS
 40
0.0
  9
$LIMCHECK
 70
     0
  9
$CHAMFERA
 40
2.0
  9
$CHAMFERB
 40
2.0
  9
$CHAMFERC
 40
0.0
  9
$CHAMFERD
 40
0.0
  9
$SKPOLY
 70
     0
  9
$TDCREATE
 40
2450848.795139884
  9
$TDUCREATE
 40
2450848.711806551
  9
$TDUPDATE
 40
2455798.663889664
  9
$TDUUPDATE
 40
2455798.580556332
  9
$TDINDWG
 40
2.2838247801
  9
$TDUSRTIMER
 40
2.2838247801
  9
$USRTIMER
 70
     1
  9
$ANGBASE
 50
0.0
  9
$ANGDIR
 70
     0
  9
$PDMODE
 70
     0
  9
$PDSIZE
 40
0.0
  9
$PLINEWID
 40
0.5
  9
$SPLFRAME
 70
     0
  9
$SPLINETYPE
 70
     6
  9
$SPLINESEGS
 70
     8
  9
$HANDSEED
  5
EB5
  9
$SURFTAB1
 70
     6
  9
$SURFTAB2
 70
     6
  9
$SURFTYPE
 70
     6
  9
$SURFU
 70
     6
  9
$SURFV
 70
     6
  9
$UCSBASE
  2

  9
$UCSNAME
  2

  9
$UCSORG
 10
0.0
 20
0.0
 30
0.0
  9
$UCSXDIR
 10
1.0
 20
0.0
 30
0.0
  9
$UCSYDIR
 10
0.0
 20
1.0
 30
0.0
  9
$UCSORTHOREF
  2

  9
$UCSORTHOVIEW
 70
     0
  9
$UCSORGTOP
 10
0.0
 20
0.0
 30
0.0
  9
$UCSORGBOTTOM
 10
0.0
 20
0.0
 30
0.0
  9
$UCSORGLEFT
 10
0.0
 20
0.0
 30
0.0
  9
$UCSORGRIGHT
 10
0.0
 20
0.0
 30
0.0
  9
$UCSORGFRONT
 10
0.0
 20
0.0
 30
0.0
  9
$UCSORGBACK
 10
0.0
 20
0.0
 30
0.0
  9
$PUCSBASE
  2

  9
$PUCSNAME
  2

  9
$PUCSORG
 10
0.0
 20
0.0
 30
0.0
  9
$PUCSXDIR
 10
1.0
 20
0.0
 30
0.0
  9
$PUCSYDIR
 10
0.0
 20
1.0
 30
0.0
  9
$PUCSORTHOREF
  2

  9
$PUCSORTHOVIEW
 70
     0
  9
$PUCSORGTOP
 10
0.0
 20
0.0
 30
0.0
  9
$PUCSORGBOTTOM
 10
0.0
 20
0.0
 30
0.0
  9
$PUCSORGLEFT
 10
0.0
 20
0.0
 30
0.0
  9
$PUCSORGRIGHT
 10
0.0
 20
0.0
 30
0.0
  9
$PUCSORGFRONT
 10
0.0
 20
0.0
 30
0.0
  9
$PUCSORGBACK
 10
0.0
 20
0.0
 30
0.0
  9
$USERI1
 70
     0
  9
$USERI2
 70
     0
  9
$USERI3
 70
     0
  9
$USERI4
 70
     0
  9
$USERI5
 70
     0
  9
$USERR1
 40
0.0
  9
$USERR2
 40
0.0
  9
$USERR3
 40
0.0
  9
$USERR4
 40
0.0
  9
$USERR5
 40
0.0
  9
$WORLDVIEW
 70
     1
  9
$SHADEDGE
 70
     3
  9
$SHADEDIF
 70
    70
  9
$TILEMODE
 70
     1
  9
$MAXACTVP
 70
    16
  9
$PINSBASE
 10
0.0
 20
0.0
 30
0.0
  9
$PLIMCHECK
 70
     0
  9
$PEXTMIN
 10
1.000000000000000E+20
 20
1.000000000000000E+20
 30
1.000000000000000E+20
  9
$PEXTMAX
 10
-1.000000000000000E+20
 20
-1.000000000000000E+20
 30
-1.000000000000000E+20
  9
$PLIMMIN
 10
0.0
 20
0.0
  9
$PLIMMAX
 10
420.0
 20
297.0
  9
$UNITMODE
 70
     0
  9
$VISRETAIN
 70
     0
  9
$PLINEGEN
 70
     0
  9
$PSLTSCALE
 70
     0
  9
$TREEDEPTH
 70
  3020
  9
$CMLSTYLE
  2
STANDARD
  9
$CMLJUST
 70
     0
  9
$CMLSCALE
 40
1.0
  9
$PROXYGRAPHICS
 70
     1
  9
$MEASUREMENT
 70
     0
  9
$CELWEIGHT
370
    -1
  9
$ENDCAPS
280
     0
  9
$JOINSTYLE
280
     0
  9
$LWDISPLAY
290
     0
  9
$INSUNITS
 70
     0
  9
$HYPERLINKBASE
  1

  9
$STYLESHEET
  1
Zeich.ctb
  9
$XEDIT
290
     1
  9
$CEPSNTYPE
380
     0
  9
$PSTYLEMODE
290
     1
  9
$FINGERPRINTGUID
  2
{A053E1E1-3D1F-4D7D-827F-44743462AF72}
  9
$VERSIONGUID
  2
{0335DDED-9E0F-45C6-B03E-18A257C83A72}
  9
$EXTNAMES
290
     1
  9
$PSVPSCALE
 40
0.0
  9
$OLESTARTUP
290
     0
  9
$SORTENTS
280
   127
  9
$INDEXCTL
280
     0
  9
$HIDETEXT
280
     0
  9
$XCLIPFRAME
290
     0
  9
$HALOGAP
280
     0
  9
$OBSCOLOR
 70
   257
  9
$OBSLTYPE
280
     0
  9
$INTERSECTIONDISPLAY
280
     0
  9
$INTERSECTIONCOLOR
 70
   257
  9
$DIMASSOC
280
     1
  9
$PROJECTNAME
  1

  0
ENDSEC
  0
SECTION
  2
CLASSES
  0
CLASS
  1
IDBUFFER
  2
AcDbIdBuffer
  3
ObjectDBX Classes
 90
        0
 91
        0
280
     0
281
     0
  0
CLASS
  1
DICTIONARYVAR
  2
AcDbDictionaryVar
  3
ObjectDBX Classes
 90
        0
 91
        7
280
     0
281
     0
  0
CLASS
  1
ACMESTATEMGR
  2
AcMeStateMgr
  3
AcMeServices
 90
     1024
 91
        1
280
     0
281
     0
  0
CLASS
  1
ACMESCOPE
  2
AcMeScope
  3
AcMeServices
 90
     1024
 91
        1
280
     0
281
     0
  0
CLASS
  1
ACMECOMMANDHISTORY
  2
AcMeCommandHistory
  3
AcMeServices
 90
     1024
 91
        1
280
     0
281
     0
  0
CLASS
  1
ACRFINSADJUSTERMGR
  2
AcRfInsAdjusterMgr
  3
AcMeServices
 90
     1024
 91
        1
280
     0
281
     0
  0
CLASS
  1
ACMEDRAWINGMAN
  2
AcMeDrawingMan
  3
AcMeServices
 90
     1024
 91
        1
280
     0
281
     0
  0
CLASS
  1
AMATTR
  2
AcMeAttribute
  3
AcMeServices
 90
     1024
 91
        0
280
     0
281
     0
  0
CLASS
  1
ACMEBOMCOLUMN
  2
AcMeBOMColumn
  3
AcMeServices
 90
     1024
 91
        0
280
     0
281
     0
  0
CLASS
  1
ACMEBOMCONF
  2
AcMeBOMConf
  3
AcMeServices
 90
     1024
 91
        0
280
     0
281
     0
  0
CLASS
  1
ACMEBOMTABLE
  2
AcMeBOMTable
  3
AcMeServices
 90
     1024
 91
        0
280
     0
281
     0
  0
CLASS
  1
ACMEBOMENTRY
  2
AcMeBOMEntry
  3
AcMeServices
 90
     1024
 91
        0
280
     0
281
     0
  0
CLASS
  1
ACMEVIEW
  2
AcMeView
  3
AcMeServices
 90
     1024
 91
        0
280
     0
281
     0
  0
CLASS
  1
LAYER_INDEX
  2
AcDbLayerIndex
  3
ObjectDBX Classes
 90
        0
 91
        0
280
     0
281
     0
  0
CLASS
  1
ACIMSYSVARMAN
  2
AcImSysVarManager
  3
AcMeServices
 90
     1024
 91
        5
280
     0
281
     0
  0
CLASS
  1
ACIMINTSYSVAR
  2
AcImIntSysVar
  3
AcMeServices
 90
     1024
 91
       27
280
     0
281
     0
  0
CLASS
  1
ACIMSTRSYSVAR
  2
AcImStrSysVar
  3
AcMeServices
 90
     1024
 91
        5
280
     0
281
     0
  0
CLASS
  1
ACMSTANDARDJIS
  2
AcmStandardJIS
  3
"Amdt_StdImp|Product Description: AutoCAD Mechanical|Company: Autodesk, Inc."
 90
     1024
 91
        1
280
     0
281
     0
  0
CLASS
  1
ACMSTANDARDANSI
  2
AcmStandardANSI
  3
"Amdt_StdImp|Product Description: AutoCAD Mechanical|Company: Autodesk, Inc."
 90
     1024
 91
        1
280
     0
281
     0
  0
CLASS
  1
ACMSTANDARDBSI
  2
AcmStandardBSI
  3
"Amdt_StdImp|Product Description: AutoCAD Mechanical|Company: Autodesk, Inc."
 90
     1024
 91
        1
280
     0
281
     0
  0
CLASS
  1
ACMSTANDARDDIN
  2
AcmStandardDIN
  3
"Amdt_StdImp|Product Description: AutoCAD Mechanical|Company: Autodesk, Inc."
 90
     1024
 91
        1
280
     0
281
     0
  0
CLASS
  1
ACMSTANDARDISO
  2
AcmStandardISO
  3
"Amdt_StdImp|Product Description: AutoCAD Mechanical|Company: Autodesk, Inc."
 90
     1024
 91
        1
280
     0
281
     0
  0
CLASS
  1
ACDBDICTIONARYWDFLT
  2
AcDbDictionaryWithDefault
  3
ObjectDBX Classes
 90
        0
 91
        1
280
     0
281
     0
  0
CLASS
  1
ACME_DOCUMENT
  2
AcMeDbDoc
  3
AcMeServices
 90
     1024
 91
        2
280
     0
281
     0
  0
CLASS
  1
AMGSETTINGSOBJ
  2
AmgSettingsObj
  3
"AcadM|Product Description: AutoCAD Mechanical|Company: Autodesk, Inc."
 90
     1024
 91
        2
280
     0
281
     0
  0
CLASS
  1
ACIMREALSYSVAR
  2
AcImRealSysVar
  3
AcMeServices
 90
     1024
 91
        3
280
     0
281
     0
  0
CLASS
  1
ACDBENTITYCACHE
  2
AcMeEntityCache
  3
AcMeServices
 90
     1024
 91
        1
280
     0
281
     0
  0
CLASS
  1
GSMANAGER
  2
AcMeGSManager
  3
AcMeServices
 90
     1024
 91
        1
280
     0
281
     0
  0
CLASS
  1
AMDTINTERNALREACTOR
  2
AmdtInternalReactor
  3
AcMeServices
 90
     1024
 91
        2
280
     0
281
     0
  0
CLASS
  1
ACME_DATABASE
  2
AcMeDbDatabase
  3
AcMeServices
 90
     1024
 91
        1
280
     0
281
     0
  0
CLASS
  1
ACMDATADICTIONARY
  2
AcmDataDictionary
  3
"AcmSymBB|Product Description: AutoCAD Mechanical|Company: Autodesk, Inc."
 90
     1024
 91
        1
280
     0
281
     0
  0
CLASS
  1
ACMDATAENTRYBLOCK
  2
AcmDataEntryBlock
  3
AcmSymBB|Product Description: AutoCAD Mechanical|Company: Autodesk, Inc.
 90
     1024
 91
        1
280
     0
281
     0
  0
CLASS
  1
ACMSURFSTANDARDJIS
  2
AcmSurfTextStdJIS
  3
"Amdt_StdImp|Product Description: AutoCAD Mechanical|Company: Autodesk, Inc."
 90
     1024
 91
        2
280
     0
281
     0
  0
CLASS
  1
ACMFCFSTANDARDJIS
  2
AcmFCFStdJIS
  3
"Amdt_StdImp|Product Description: AutoCAD Mechanical|Company: Autodesk, Inc."
 90
     1024
 91
        2
280
     0
281
     0
  0
CLASS
  1
ACMWELDSTANDARDJIS
  2
AcmWeldingStdJIS
  3
"Amdt_StdImp|Product Description: AutoCAD Mechanical|Company: Autodesk, Inc."
 90
     1024
 91
        2
280
     0
281
     0
  0
CLASS
  1
ACMIDSTANDARDJIS
  2
AcmIdStdJIS
  3
"Amdt_StdImp|Product Description: AutoCAD Mechanical|Company: Autodesk, Inc."
 90
     1024
 91
        2
280
     0
281
     0
  0
CLASS
  1
ACMDATUMSTANDARDJIS
  2
AcmDatumStdJIS
  3
"Amdt_StdImp|Product Description: AutoCAD Mechanical|Company: Autodesk, Inc."
 90
     1024
 91
        2
280
     0
281
     0
  0
CLASS
  1
ACMBOMSTANDARDJIS
  2
AcmBOMStdJIS
  3
"Amdt_StdImp|Product Description: AutoCAD Mechanical|Company: Autodesk, Inc."
 90
     1024
 91
        2
280
     0
281
     0
  0
CLASS
  1
AMGOBJPROPCFG
  2
AmgObjPropCfg
  3
"AmgLay|Product Description: AutoCAD Mechanical|Company: Autodesk, Inc."
 90
     1025
 91
        1
280
     0
281
     0
  0
CLASS
  1
ACMSURFSTANDARDANSI
  2
AcmSurfTextStdANSI
  3
"Amdt_StdImp|Product Description: AutoCAD Mechanical|Company: Autodesk, Inc."
 90
     1024
 91
        2
280
     0
281
     0
  0
CLASS
  1
ACMFCFSTANDARDANSI
  2
AcmFCFStdANSI
  3
"Amdt_StdImp|Product Description: AutoCAD Mechanical|Company: Autodesk, Inc."
 90
     1024
 91
        2
280
     0
281
     0
  0
CLASS
  1
ACMWELDSTANDARDANSI
  2
AcmWeldingStdANSI
  3
"Amdt_StdImp|Product Description: AutoCAD Mechanical|Company: Autodesk, Inc."
 90
     1024
 91
        2
280
     0
281
     0
  0
CLASS
  1
ACMIDSTANDARDANSI
  2
AcmIdStdANSI
  3
"Amdt_StdImp|Product Description: AutoCAD Mechanical|Company: Autodesk, Inc."
 90
     1024
 91
        2
280
     0
281
     0
  0
CLASS
  1
ACMDATUMSTANDARDANSI
  2
AcmDatumStdANSI
  3
"Amdt_StdImp|Product Description: AutoCAD Mechanical|Company: Autodesk, Inc."
 90
     1024
 91
        2
280
     0
281
     0
  0
CLASS
  1
ACMBOMSTANDARDANSI
  2
AcmBOMStdANSI
  3
"Amdt_StdImp|Product Description: AutoCAD Mechanical|Company: Autodesk, Inc."
 90
     1024
 91
        2
280
     0
281
     0
  0
CLASS
  1
ACMSURFSTANDARDBSI
  2
AcmSurfTextStdBSI
  3
"Amdt_StdImp|Product Description: AutoCAD Mechanical|Company: Autodesk, Inc."
 90
     1024
 91
        2
280
     0
281
     0
  0
CLASS
  1
ACMFCFSTANDARDBSI
  2
AcmFCFStdBSI
  3
"Amdt_StdImp|Product Description: AutoCAD Mechanical|Company: Autodesk, Inc."
 90
     1024
 91
        2
280
     0
281
     0
  0
CLASS
  1
ACMWELDSTANDARDBSI
  2
AcmWeldingStdBSI
  3
"Amdt_StdImp|Product Description: AutoCAD Mechanical|Company: Autodesk, Inc."
 90
     1024
 91
        2
280
     0
281
     0
  0
CLASS
  1
ACMIDSTANDARDBSI
  2
AcmIdStdBSI
  3
"Amdt_StdImp|Product Description: AutoCAD Mechanical|Company: Autodesk, Inc."
 90
     1024
 91
        2
280
     0
281
     0
  0
CLASS
  1
ACMDATUMSTANDARDBSI
  2
AcmDatumStdBSI
  3
"Amdt_StdImp|Product Description: AutoCAD Mechanical|Company: Autodesk, Inc."
 90
     1024
 91
        2
280
     0
281
     0
  0
CLASS
  1
ACMBOMSTANDARDBSI
  2
AcmBOMStdBSI
  3
"Amdt_StdImp|Product Description: AutoCAD Mechanical|Company: Autodesk, Inc."
 90
     1024
 91
        2
280
     0
281
     0
  0
CLASS
  1
AMDTEDGESTANDARDDIN
  2
AmdtEdgeStdDIN
  3
"Amdt_StdImp|Product Description: AutoCAD Mechanical|Company: Autodesk, Inc."
 90
     1024
 91
        2
280
     0
281
     0
  0
CLASS
  1
ACMSURFSTANDARDDIN
  2
AcmSurfTextStdDIN
  3
"Amdt_StdImp|Product Description: AutoCAD Mechanical|Company: Autodesk, Inc."
 90
     1024
 91
        2
280
     0
281
     0
  0
CLASS
  1
ACMFCFSTANDARDDIN
  2
AcmFCFStdDIN
  3
"Amdt_StdImp|Product Description: AutoCAD Mechanical|Company: Autodesk, Inc."
 90
     1024
 91
        2
280
     0
281
     0
  0
CLASS
  1
ACMWELDSTANDARDDIN
  2
AcmWeldingStdDIN
  3
"Amdt_StdImp|Product Description: AutoCAD Mechanical|Company: Autodesk, Inc."
 90
     1024
 91
        2
280
     0
281
     0
  0
CLASS
  1
ACMIDSTANDARDDIN
  2
AcmIdStdDIN
  3
"Amdt_StdImp|Product Description: AutoCAD Mechanical|Company: Autodesk, Inc."
 90
     1024
 91
        2
280
     0
281
     0
  0
CLASS
  1
ACMDATUMSTANDARDDIN
  2
AcmDatumStdDIN
  3
"Amdt_StdImp|Product Description: AutoCAD Mechanical|Company: Autodesk, Inc."
 90
     1024
 91
        2
280
     0
281
     0
  0
CLASS
  1
ACMBOMSTANDARDDIN
  2
AcmBOMStdDIN
  3
"Amdt_StdImp|Product Description: AutoCAD Mechanical|Company: Autodesk, Inc."
 90
     1024
 91
        2
280
     0
281
     0
  0
CLASS
  1
AMDTEDGESTANDARDISO
  2
AmdtEdgeStdISO
  3
"Amdt_StdImp|Product Description: AutoCAD Mechanical|Company: Autodesk, Inc."
 90
     1024
 91
        2
280
     0
281
     0
  0
CLASS
  1
ACMSURFSTANDARDISO
  2
AcmSurfTextStdISO
  3
"Amdt_StdImp|Product Description: AutoCAD Mechanical|Company: Autodesk, Inc."
 90
     1024
 91
        2
280
     0
281
     0
  0
CLASS
  1
ACMFCFSTANDARDISO
  2
AcmFCFStdISO
  3
"Amdt_StdImp|Product Description: AutoCAD Mechanical|Company: Autodesk, Inc."
 90
     1024
 91
        2
280
     0
281
     0
  0
CLASS
  1
ACMWELDSTANDARDISO
  2
AcmWeldingStdISO
  3
"Amdt_StdImp|Product Description: AutoCAD Mechanical|Company: Autodesk, Inc."
 90
     1024
 91
        2
280
     0
281
     0
  0
CLASS
  1
ACMIDSTANDARDISO
  2
AcmIdStdISO
  3
"Amdt_StdImp|Product Description: AutoCAD Mechanical|Company: Autodesk, Inc."
 90
     1024
 91
        2
280
     0
281
     0
  0
CLASS
  1
ACMDATUMSTANDARDISO
  2
AcmDatumStdISO
  3
"Amdt_StdImp|Product Description: AutoCAD Mechanical|Company: Autodesk, Inc."
 90
     1024
 91
        2
280
     0
281
     0
  0
CLASS
  1
ACMBOMSTANDARDISO
  2
AcmBOMStdISO
  3
"Amdt_StdImp|Product Description: AutoCAD Mechanical|Company: Autodesk, Inc."
 90
     1024
 91
        2
280
     0
281
     0
  0
CLASS
  1
ACAMGFILTERDAT
  2
AcAmgFilterDat
  3
"AcadM|Product Description: AutoCAD Mechanical|Company: Autodesk, Inc."
 90
     1024
 91
        5
280
     0
281
     0
  0
CLASS
  1
ACMDIMBREAKPERSREACTOR
  2
AcmDimBreakPersReactor
  3
AmgDim|Product Description: AutoCAD Mechanical|Company: Autodesk, Inc.
 90
     4095
 91
        0
280
     0
281
     0
  0
CLASS
  1
ACGREFMASTER
  2
AcGrefMaster
  3
AcAttribServices
 90
     1024
 91
        1
280
     0
281
     0
  0
CLASS
  1
AM_DRAWING_MGR
  2
AcDmDwgMgr
  3
AcMechDwgViewMgmt
 90
     1024
 91
        1
280
     0
281
     0
  0
CLASS
  1
AM_DWG_DOCUMENT
  2
AcDmDwgDocument
  3
AcMechDwgViewMgmt
 90
     1024
 91
        1
280
     0
281
     0
  0
CLASS
  1
AM_DWG_SHEET
  2
AcDmSheet
  3
AcMechDwgViewMgmt
 90
     1024
 91
        1
280
     0
281
     0
  0
CLASS
  1
AM_VIEWDIMPARMAP
  2
AcDmViewDimParMap
  3
AcMechDwgViewMgmt
 90
     1024
 91
        1
280
     0
281
     0
  0
CLASS
  1
AM_DWGMGR_NAME
  2
AcDmDwgMgrName
  3
AcMechDwgViewMgmt
 90
     1024
 91
        1
280
     0
281
     0
  0
CLASS
  1
ACGREFACADMASTER
  2
AcGrefacadMaster
  3
AcGrefServices
 90
     1024
 91
        1
280
     0
281
     0
  0
CLASS
  1
AMDTMENUSTATEMGR
  2
AmdtMenuStateMgr
  3
McadcomServices
 90
     1024
 91
        1
280
     0
281
     0
  0
CLASS
  1
AMDTMCOMMENUSTATE
  2
AmdtMcomMenuState
  3
McadcomServices
 90
     1024
 91
        1
280
     0
281
     0
  0
CLASS
  1
AMIMASTER
  2
AmiMaster
  3
AmiServices
 90
     1024
 91
        1
280
     0
281
     0
  0
CLASS
  1
MAPIAMMOUDLE
  2
MApiAmModule
  3
MApiAmServices
 90
     1024
 91
        1
280
     0
281
     0
  0
CLASS
  1
AMDTADMENUSTATE
  2
AmdtAdMenuState
  3
DesignerServices
 90
     1024
 91
        1
280
     0
281
     0
  0
CLASS
  1
ADAPPL
  2
AcAdAppl
  3
DesignerServices
 90
     1024
 91
        1
280
     0
281
     0
  0
CLASS
  1
DEPMGR
  2
AcAdDepMgr
  3
DesignerServices
 90
     1024
 91
        1
280
     0
281
     0
  0
CLASS
  1
PARAMMGR
  2
AcAdParamMgr
  3
DesignerServices
 90
     1024
 91
        1
280
     0
281
     0
  0
CLASS
  1
PARAMSCOPE
  2
AcAdParamScope
  3
DesignerServices
 90
     1024
 91
        1
280
     0
281
     0
  0
CLASS
  1
NAMEDAPPL
  2
AcAdNamedAppl
  3
DesignerServices
 90
     1024
 91
        1
280
     0
281
     0
  0
CLASS
  1
AMDTDMMENUSTATE
  2
AmdtDmMenuState
  3
AcMechDwgViewMgmt
 90
     1024
 91
        1
280
     0
281
     0
  0
CLASS
  1
AMDTAMMENUSTATE
  2
AmdtAmMenuState
  3
DesignerAssemblies
 90
     1024
 91
        1
280
     0
281
     0
  0
CLASS
  1
ACAMPROJECT
  2
AcAmProject
  3
DesignerAssemblies
 90
     1024
 91
        1
280
     0
281
     0
  0
CLASS
  1
ACAMGRCOMPDEF
  2
AcAmGrCompDef
  3
DesignerAssemblies
 90
     1024
 91
        1
280
     0
281
     0
  0
CLASS
  1
ACCMCONTEXT
  2
AcCmContext
  3
DesignerAssemblies
 90
     1024
 91
        1
280
     0
281
     0
  0
CLASS
  1
ACAMCOMPDEF
  2
AcAmCompDef
  3
DesignerAssemblies
 90
     1024
 91
        1
280
     0
281
     0
  0
CLASS
  1
ACAMCOMPDEFMGR
  2
AcAmCompDefMgr
  3
DesignerAssemblies
 90
     1024
 91
        1
280
     0
281
     0
  0
CLASS
  1
AMCONTEXTMGR
  2
AcAmContextMgr
  3
DesignerAssemblies
 90
     1024
 91
        1
280
     0
281
     0
  0
CLASS
  1
ACAMCONTEXTMODELER
  2
AcAmContextModeler
  3
DesignerAssemblies
 90
     1024
 91
        1
280
     0
281
     0
  0
CLASS
  1
ACAMGTITLESTD
  2
AcAmgTitleStd
  3
"AmgTitle|Product Description: AutoCAD Mechanical|Company: Autodesk, Inc."
 90
     4095
 91
        5
280
     0
281
     0
  0
CLASS
  1
ACMDETAILSTANDARDJIS
  2
AmdtDetailSymStdJIS
  3
"Amdt_StdImp|Product Description: AutoCAD Mechanical|Company: Autodesk, Inc."
 90
     1024
 91
        1
280
     0
281
     0
  0
CLASS
  1
ACMSECTIONSTANDARDJIS
  2
AmdtSectionSymStdJIS
  3
"Amdt_StdImp|Product Description: AutoCAD Mechanical|Company: Autodesk, Inc."
 90
     1024
 91
        1
280
     0
281
     0
  0
CLASS
  1
ACMCENTERLINESTANDARDJIS
  2
AmdtCenterLineStdJIS
  3
"Amdt_StdImp|Product Description: AutoCAD Mechanical|Company: Autodesk, Inc."
 90
     1024
 91
        1
280
     0
281
     0
  0
CLASS
  1
ACMTHREADLINESTANDARDJIS
  2
AmdtThreadLineStdJIS
  3
"Amdt_StdImp|Product Description: AutoCAD Mechanical|Company: Autodesk, Inc."
 90
     1024
 91
        1
280
     0
281
     0
  0
CLASS
  1
ACMNOTESTANDARDJIS
  2
AmdtNoteStdJIS
  3
"Amdt_StdImp|Product Description: AutoCAD Mechanical|Company: Autodesk, Inc."
 90
     1024
 91
        1
280
     0
281
     0
  0
CLASS
  1
AMDTNOTETEMPLATEDB
  2
AmdtNoteTemplateDB
  3
AcmSymBB|Product Description: AutoCAD Mechanical|Company: Autodesk, Inc.
 90
     1024
 91
       20
280
     0
281
     0
  0
CLASS
  1
ACMDETAILSTANDARDANSI
  2
AmdtDetailSymStdANSI
  3
"Amdt_StdImp|Product Description: AutoCAD Mechanical|Company: Autodesk, Inc."
 90
     1024
 91
        1
280
     0
281
     0
  0
CLASS
  1
ACMSECTIONSTANDARDANSI
  2
AmdtSectionSymStdANSI
  3
"Amdt_StdImp|Product Description: AutoCAD Mechanical|Company: Autodesk, Inc."
 90
     1024
 91
        1
280
     0
281
     0
  0
CLASS
  1
ACMCENTERLINESTANDARDANSI
  2
AmdtCenterLineStdANSI
  3
"Amdt_StdImp|Product Description: AutoCAD Mechanical|Company: Autodesk, Inc."
 90
     1024
 91
        1
280
     0
281
     0
  0
CLASS
  1
ACMTHREADLINESTANDARDANSI
  2
AmdtThreadLineStdANSI
  3
"Amdt_StdImp|Product Description: AutoCAD Mechanical|Company: Autodesk, Inc."
 90
     1024
 91
        1
280
     0
281
     0
  0
CLASS
  1
ACMNOTESTANDARDANSI
  2
AmdtNoteStdANSI
  3
"Amdt_StdImp|Product Description: AutoCAD Mechanical|Company: Autodesk, Inc."
 90
     1024
 91
        1
280
     0
281
     0
  0
CLASS
  1
ACMDETAILSTANDARDBSI
  2
AmdtDetailSymStdBSI
  3
"Amdt_StdImp|Product Description: AutoCAD Mechanical|Company: Autodesk, Inc."
 90
     1024
 91
        1
280
     0
281
     0
  0
CLASS
  1
ACMSECTIONSTANDARDBSI
  2
AmdtSectionSymStdBSI
  3
"Amdt_StdImp|Product Description: AutoCAD Mechanical|Company: Autodesk, Inc."
 90
     1024
 91
        1
280
     0
281
     0
  0
CLASS
  1
ACMCENTERLINESTANDARDBSI
  2
AmdtCenterLineStdBSI
  3
"Amdt_StdImp|Product Description: AutoCAD Mechanical|Company: Autodesk, Inc."
 90
     1024
 91
        1
280
     0
281
     0
  0
CLASS
  1
ACMTHREADLINESTANDARDBSI
  2
AmdtThreadLineStdBSI
  3
"Amdt_StdImp|Product Description: AutoCAD Mechanical|Company: Autodesk, Inc."
 90
     1024
 91
        1
280
     0
281
     0
  0
CLASS
  1
ACMNOTESTANDARDBSI
  2
AmdtNoteStdBSI
  3
"Amdt_StdImp|Product Description: AutoCAD Mechanical|Company: Autodesk, Inc."
 90
     1024
 91
        1
280
     0
281
     0
  0
CLASS
  1
ACMDETAILSTANDARDDIN
  2
AmdtDetailSymStdDIN
  3
"Amdt_StdImp|Product Description: AutoCAD Mechanical|Company: Autodesk, Inc."
 90
     1024
 91
        1
280
     0
281
     0
  0
CLASS
  1
ACMSECTIONSTANDARDDIN
  2
AmdtSectionSymStdDIN
  3
"Amdt_StdImp|Product Description: AutoCAD Mechanical|Company: Autodesk, Inc."
 90
     1024
 91
        1
280
     0
281
     0
  0
CLASS
  1
ACMCENTERLINESTANDARDDIN
  2
AmdtCenterLineStdDIN
  3
"Amdt_StdImp|Product Description: AutoCAD Mechanical|Company: Autodesk, Inc."
 90
     1024
 91
        1
280
     0
281
     0
  0
CLASS
  1
ACMTHREADLINESTANDARDDIN
  2
AmdtThreadLineStdDIN
  3
"Amdt_StdImp|Product Description: AutoCAD Mechanical|Company: Autodesk, Inc."
 90
     1024
 91
        1
280
     0
281
     0
  0
CLASS
  1
ACMNOTESTANDARDDIN
  2
AmdtNoteStdDIN
  3
"Amdt_StdImp|Product Description: AutoCAD Mechanical|Company: Autodesk, Inc."
 90
     1024
 91
        1
280
     0
281
     0
  0
CLASS
  1
ACMDETAILSTANDARDISO
  2
AmdtDetailSymStdISO
  3
"Amdt_StdImp|Product Description: AutoCAD Mechanical|Company: Autodesk, Inc."
 90
     1024
 91
        1
280
     0
281
     0
  0
CLASS
  1
ACMSECTIONSTANDARDISO
  2
AmdtSectionSymStdISO
  3
"Amdt_StdImp|Product Description: AutoCAD Mechanical|Company: Autodesk, Inc."
 90
     1024
 91
        1
280
     0
281
     0
  0
CLASS
  1
ACMCENTERLINESTANDARDISO
  2
AmdtCenterLineStdISO
  3
"Amdt_StdImp|Product Description: AutoCAD Mechanical|Company: Autodesk, Inc."
 90
     1024
 91
        1
280
     0
281
     0
  0
CLASS
  1
ACMTHREADLINESTANDARDISO
  2
AmdtThreadLineStdISO
  3
"Amdt_StdImp|Product Description: AutoCAD Mechanical|Company: Autodesk, Inc."
 90
     1024
 91
        1
280
     0
281
     0
  0
CLASS
  1
ACMNOTESTANDARDISO
  2
AmdtNoteStdISO
  3
"Amdt_StdImp|Product Description: AutoCAD Mechanical|Company: Autodesk, Inc."
 90
     1024
 91
        1
280
     0
281
     0
  0
CLASS
  1
ACAMGLAYSTD
  2
AcAmgLayStd
  3
"AmgLay|Product Description: AutoCAD Mechanical|Company: Autodesk, Inc."
 90
     1024
 91
        5
280
     0
281
     0
  0
CLASS
  1
ACAMGDIMSTD
  2
AcAmgDimStd
  3
"AmgDim|Product Description: AutoCAD Mechanical|Company: Autodesk, Inc."
 90
     1024
 91
        5
280
     0
281
     0
  0
CLASS
  1
ACAMGHOLECHARTSTDANSI
  2
AcAmgHoleChartStdANSI
  3
AmgDim|Product Description: AutoCAD Mechanical|Company: Autodesk, Inc.
 90
     1024
 91
        1
280
     0
281
     0
  0
CLASS
  1
ACAMGHOLECHARTSTDBSI
  2
AcAmgHoleChartStdBSI
  3
AmgDim|Product Description: AutoCAD Mechanical|Company: Autodesk, Inc.
 90
     1024
 91
        1
280
     0
281
     0
  0
CLASS
  1
ACAMGHOLECHARTSTDDIN
  2
AcAmgHoleChartStdDIN
  3
AmgDim|Product Description: AutoCAD Mechanical|Company: Autodesk, Inc.
 90
     1024
 91
        1
280
     0
281
     0
  0
CLASS
  1
ACAMGHOLECHARTSTDISO
  2
AcAmgHoleChartStdISO
  3
AmgDim|Product Description: AutoCAD Mechanical|Company: Autodesk, Inc.
 90
     1024
 91
        1
280
     0
281
     0
  0
CLASS
  1
ACAMGHOLECHARTSTDJIS
  2
AcAmgHoleChartStdJIS
  3
AmgDim|Product Description: AutoCAD Mechanical|Company: Autodesk, Inc.
 90
     1024
 91
        1
280
     0
281
     0
  0
CLASS
  1
CATALOGSTATE
  2
AcAmCatalogState
  3
DesignerAssemblies
 90
     1024
 91
        1
280
     0
281
     0
  0
CLASS
  1
ACAMGRCOMPDEFSET
  2
AcAmGrCompDefSet
  3
DesignerAssemblies
 90
     1024
 91
        1
280
     0
281
     0
  0
CLASS
  1
AMDTBROWSERDBTAB
  2
AmdtBrowserDbTab
  3
McadcomServices
 90
     1024
 91
        1
280
     0
281
     0
  0
CLASS
  1
CBROWSERAPPOBJECT
  2
CBrowserAppObject
  3
McadcomServices
 90
     1024
 91
        3
280
     0
281
     0
  0
CLASS
  1
DM_PLACEHOLDER
  2
AcDmSelsetPlaceholder
  3
AcMechDwgViewMgmt
 90
     1024
 91
        1
280
     0
281
     0
  0
CLASS
  1
TABLESTYLE
  2
AcDbTableStyle
  3
ObjectDBX Classes
 90
     4095
 91
        1
280
     0
281
     0
  0
CLASS
  1
VAACXREFPANELOBJECT
  2
VaAcXREFPanelObject
  3
VAAC_ADDIN
 90
        0
 91
        0
280
     0
281
     0
  0
CLASS
  1
VAACIMAGEINVENTORY
  2
VaAcImageInventory
  3
VAAC_ADDIN
 90
        0
 91
        0
280
     0
281
     0
  0
CLASS
  1
MATERIAL
  2
AcDbMaterial
  3
ObjectDBX Classes
 90
     1153
 91
        3
280
     0
281
     0
  0
CLASS
  1
VISUALSTYLE
  2
AcDbVisualStyle
  3
ObjectDBX Classes
 90
     4095
 91
       16
280
     0
281
     0
  0
CLASS
  1
SCALE
  2
AcDbScale
  3
ObjectDBX Classes
 90
     1153
 91
       33
280
     0
281
     0
  0
CLASS
  1
MLEADERSTYLE
  2
AcDbMLeaderStyle
  3
ACDB_MLEADERSTYLE_CLASS
 90
     4095
 91
        1
280
     0
281
     0
  0
CLASS
  1
ACRFATTGENMGR
  2
AcRfAttGeneralMgr
  3
AcAttribServices
 90
     1024
 91
        1
280
     0
281
     0
  0
CLASS
  1
ACRFOBJATTMGR
  2
AcRfObjAttGroupMgr
  3
AcAttribServices
 90
     1024
 91
        1
280
     0
281
     0
  0
CLASS
  1
ACRFMCADAPIATTHOLDER
  2
AcRfMCADAPIAttHolder
  3
AcAttribServices
 90
     1024
 91
        1
280
     0
281
     0
  0
CLASS
  1
AMDTSYSATTR
  2
AmdtSystemAttribute
  3
AcAttribServices
 90
     1024
 91
        1
280
     0
281
     0
  0
CLASS
  1
ACMTAPERSTANDARDJIS
  2
AcmTaperStdJIS
  3
"Amdt_StdImp|Product Description: AutoCAD Mechanical|Company: Autodesk, Inc."
 90
     1024
 91
        1
280
     0
281
     0
  0
CLASS
  1
ACMANOOTATIONVIEWSTANDARDJIS
  2
AmdtAnViewStdJIS
  3
"Amdt_StdImp|Product Description: AutoCAD Mechanical|Company: Autodesk, Inc."
 90
     1024
 91
        1
280
     0
281
     0
  0
CLASS
  1
ACMTAPERSTANDARDANSI
  2
AcmTaperStdANSI
  3
"Amdt_StdImp|Product Description: AutoCAD Mechanical|Company: Autodesk, Inc."
 90
     1024
 91
        1
280
     0
281
     0
  0
CLASS
  1
ACMANOOTATIONVIEWSTANDARDANSI
  2
AmdtAnViewStdANSI
  3
"Amdt_StdImp|Product Description: AutoCAD Mechanical|Company: Autodesk, Inc."
 90
     1024
 91
        1
280
     0
281
     0
  0
CLASS
  1
ACMTAPERSTANDARDBSI
  2
AcmTaperStdBSI
  3
"Amdt_StdImp|Product Description: AutoCAD Mechanical|Company: Autodesk, Inc."
 90
     1024
 91
        1
280
     0
281
     0
  0
CLASS
  1
ACMANOOTATIONVIEWSTANDARDBSI
  2
AmdtAnViewStdBSI
  3
"Amdt_StdImp|Product Description: AutoCAD Mechanical|Company: Autodesk, Inc."
 90
     1024
 91
        1
280
     0
281
     0
  0
CLASS
  1
ACMTAPERSTANDARDDIN
  2
AcmTaperStdDIN
  3
"Amdt_StdImp|Product Description: AutoCAD Mechanical|Company: Autodesk, Inc."
 90
     1024
 91
        1
280
     0
281
     0
  0
CLASS
  1
ACMANOOTATIONVIEWSTANDARDDIN
  2
AmdtAnViewStdDIN
  3
"Amdt_StdImp|Product Description: AutoCAD Mechanical|Company: Autodesk, Inc."
 90
     1024
 91
        1
280
     0
281
     0
  0
CLASS
  1
ACMTAPERSTANDARDISO
  2
AcmTaperStdISO
  3
"Amdt_StdImp|Product Description: AutoCAD Mechanical|Company: Autodesk, Inc."
 90
     1024
 91
        1
280
     0
281
     0
  0
CLASS
  1
ACMANOOTATIONVIEWSTANDARDISO
  2
AmdtAnViewStdISO
  3
"Amdt_StdImp|Product Description: AutoCAD Mechanical|Company: Autodesk, Inc."
 90
     1024
 91
        1
280
     0
281
     0
  0
CLASS
  1
CAMSSTRUCTBTNSTATE
  2
StructBtnState
  3
DesignerAssemblies
 90
     1024
 91
        1
280
     0
281
     0
  0
CLASS
  1
CELLSTYLEMAP
  2
AcDbCellStyleMap
  3
ObjectDBX Classes
 90
     1152
 91
        2
280
     0
281
     0
  0
CLASS
  1
SORTENTSTABLE
  2
AcDbSortentsTable
  3
ObjectDBX Classes
 90
        0
 91
        1
280
     0
281
     0
  0
ENDSEC
  0
SECTION
  2
TABLES
  0
TABLE
  2
VPORT
  5
13
330
0
100
AcDbSymbolTable
 70
     1
  0
VPORT
  5
CDC
330
13
100
AcDbSymbolTableRecord
100
AcDbViewportTableRecord
  2
*Active
 70
     0
 10
0.0
 20
0.0
 11
1.0
 21
1.0
 12
525.1898027958252
 22
400.5370654426293
 13
0.0
 23
0.0
 14
10.0
 24
10.0
 15
10.0
 25
10.0
 16
0.0
 26
0.0
 36
1.0
 17
0.0
 27
0.0
 37
0.0
 40
566.5321474515065
 41
1.518518518518518
 42
50.0
 43
0.0
 44
0.0
 50
0.0
 51
0.0
 71
     0
 72
   100
 73
     1
 74
     0
 75
     0
 76
     0
 77
     0
 78
     0
281
     0
 65
     1
110
0.0
120
0.0
130
0.0
111
1.0
121
0.0
131
0.0
112
0.0
122
1.0
132
0.0
 79
     0
146
0.0
  0
ENDTAB
  0
TABLE
  2
LTYPE
  5
E
330
0
100
AcDbSymbolTable
 70
    21
  0
LTYPE
  5
F
330
E
100
AcDbSymbolTableRecord
100
AcDbLinetypeTableRecord
  2
BYBLOCK
 70
     0
  3

 72
    65
 73
     0
 40
0.0
  0
LTYPE
  5
10
330
E
100
AcDbSymbolTableRecord
100
AcDbLinetypeTableRecord
  2
BYLAYER
 70
     0
  3

 72
    65
 73
     0
 40
0.0
  0
LTYPE
  5
6
330
E
100
AcDbSymbolTableRecord
100
AcDbLinetypeTableRecord
  2
CONTINUOUS
 70
     0
  3
Solid line
 72
    65
 73
     0
 40
0.0
  0
LTYPE
  5
3E
330
E
100
AcDbSymbolTableRecord
100
AcDbLinetypeTableRecord
  2
MITTE
 70
     0
  3
____ _ ____ _ ____ _ ____ _ ____ _ ____ _ ____ 
 72
    65
 73
     4
 40
2.0
 49
1.25
 74
     0
 49
-0.25
 74
     0
 49
0.25
 74
     0
 49
-0.25
 74
     0
  0
LTYPE
  5
EA
330
E
100
AcDbSymbolTableRecord
100
AcDbLinetypeTableRecord
  2
GESTRICHELT
 70
     0
  3
__ __ __ __ __ __ __ __ __ __ __ __ __ __ __ __
 72
    65
 73
     2
 40
0.75
 49
0.5
 74
     0
 49
-0.25
 74
     0
  0
LTYPE
  5
2EF
330
E
100
AcDbSymbolTableRecord
100
AcDbLinetypeTableRecord
  2
ACJISTGB
 70
     0
  3
__ . . __ . .
 72
    65
 73
     6
 40
9.0
 49
4.0
 74
     0
 49
-1.0
 74
     0
 49
1.0
 74
     0
 49
-1.0
 74
     0
 49
1.0
 74
     0
 49
-1.0
 74
     0
  0
LTYPE
  5
2F0
330
E
100
AcDbSymbolTableRecord
100
AcDbLinetypeTableRecord
  2
ACJISTGL
 70
     0
  3
_ _ _ _ _
 72
    65
 73
     2
 40
3.0
 49
2.0
 74
     0
 49
-1.0
 74
     0
  0
LTYPE
  5
2F3
330
E
100
AcDbSymbolTableRecord
100
AcDbLinetypeTableRecord
  2
ACANSTGB
 70
     0
  3
__ . . __ . .
 72
    65
 73
     6
 40
0.35433070866
 49
0.15748031496
 74
     0
 49
-0.03937007874
 74
     0
 49
0.03937007874
 74
     0
 49
-0.03937007874
 74
     0
 49
0.03937007874
 74
     0
 49
-0.03937007874
 74
     0
  0
LTYPE
  5
2F4
330
E
100
AcDbSymbolTableRecord
100
AcDbLinetypeTableRecord
  2
ACANSTGL
 70
     0
  3
_ _ _ _ _
 72
    65
 73
     2
 40
0.11811023622
 49
0.07874015748
 74
     0
 49
-0.03937007874
 74
     0
  0
LTYPE
  5
2F7
330
E
100
AcDbSymbolTableRecord
100
AcDbLinetypeTableRecord
  2
ACBSIWELD
 70
     0
  3
_ _ _ _ _
 72
    65
 73
     2
 40
2.0
 49
2.0
 74
     0
 49
-1.0
 74
     0
  0
LTYPE
  5
2F8
330
E
100
AcDbSymbolTableRecord
100
AcDbLinetypeTableRecord
  2
ACBSITGB
 70
     0
  3
__ . . __ . .
 72
    65
 73
     6
 40
9.0
 49
4.0
 74
     0
 49
-1.0
 74
     0
 49
1.0
 74
     0
 49
-1.0
 74
     0
 49
1.0
 74
     0
 49
-1.0
 74
     0
  0
LTYPE
  5
2F9
330
E
100
AcDbSymbolTableRecord
100
AcDbLinetypeTableRecord
  2
ACBSITGL
 70
     0
  3
_ _ _ _ _
 72
    65
 73
     2
 40
3.0
 49
2.0
 74
     0
 49
-1.0
 74
     0
  0
LTYPE
  5
2FC
330
E
100
AcDbSymbolTableRecord
100
AcDbLinetypeTableRecord
  2
ACDINWELD
 70
     0
  3
_ _ _ _ _
 72
    65
 73
     2
 40
2.0
 49
2.0
 74
     0
 49
-1.0
 74
     0
  0
LTYPE
  5
2FD
330
E
100
AcDbSymbolTableRecord
100
AcDbLinetypeTableRecord
  2
ACDINTGB
 70
     0
  3
__ . . __ . .
 72
    65
 73
     6
 40
9.0
 49
4.0
 74
     0
 49
-1.0
 74
     0
 49
1.0
 74
     0
 49
-1.0
 74
     0
 49
1.0
 74
     0
 49
-1.0
 74
     0
  0
LTYPE
  5
2FE
330
E
100
AcDbSymbolTableRecord
100
AcDbLinetypeTableRecord
  2
ACDINTGL
 70
     0
  3
_ _ _ _ _
 72
    65
 73
     2
 40
3.0
 49
2.0
 74
     0
 49
-1.0
 74
     0
  0
LTYPE
  5
301
330
E
100
AcDbSymbolTableRecord
100
AcDbLinetypeTableRecord
  2
ACISOWELD
 70
     0
  3
_ _ _ _ _
 72
    65
 73
     2
 40
2.0
 49
2.0
 74
     0
 49
-1.0
 74
     0
  0
LTYPE
  5
302
330
E
100
AcDbSymbolTableRecord
100
AcDbLinetypeTableRecord
  2
ACISOTGB
 70
     0
  3
__ . . __ . .
 72
    65
 73
     6
 40
9.0
 49
4.0
 74
     0
 49
-1.0
 74
     0
 49
1.0
 74
     0
 49
-1.0
 74
     0
 49
1.0
 74
     0
 49
-1.0
 74
     0
  0
LTYPE
  5
303
330
E
100
AcDbSymbolTableRecord
100
AcDbLinetypeTableRecord
  2
ACISOTGL
 70
     0
  3
_ _ _ _ _
 72
    65
 73
     2
 40
3.0
 49
2.0
 74
     0
 49
-1.0
 74
     0
  0
LTYPE
  5
33C
330
E
100
AcDbSymbolTableRecord
100
AcDbLinetypeTableRecord
  2
Amconstr
 70
     0
  3
_______________________
 72
    65
 73
     2
 40
9999.0
 49
9999.0
 74
     0
 49
0.0
 74
     0
  0
LTYPE
  5
342
330
E
100
AcDbSymbolTableRecord
100
AcDbLinetypeTableRecord
  2
PHANTOM2
 70
     0
  3
Phantom (.5x) ___ _ _ ___ _ _ ___ _ _ ___ _ _
 72
    65
 73
     6
 40
1.25
 49
0.625
 74
     0
 49
-0.125
 74
     0
 49
0.125
 74
     0
 49
-0.125
 74
     0
 49
0.125
 74
     0
 49
-0.125
 74
     0
  0
LTYPE
  5
343
330
E
100
AcDbSymbolTableRecord
100
AcDbLinetypeTableRecord
  2
Amzigzag2
 70
     0
  3
/\/-/\/-/\/-/\/-/\/-/\/
 72
    65
 73
     2
 40
0.4401
 49
0.0001
 74
     4
 75
   135
340
340
 46
0.0016
 50
0.0
 44
0.0
 45
0.0
 49
-0.4400000000000001
 74
     0
  0
LTYPE
  5
C09
330
E
100
AcDbSymbolTableRecord
100
AcDbLinetypeTableRecord
  2
HIDDEN
 70
     0
  3
Verdeckt
 72
    65
 73
     2
 40
0.375
 49
0.25
 74
     0
 49
-0.125
 74
     0
  0
LTYPE
  5
C0A
330
E
100
AcDbSymbolTableRecord
100
AcDbLinetypeTableRecord
  2
CENTER
 70
     0
  3
Mitte ____ _ ____ _ ____ _ ____ _ ____ _ ____
 72
    65
 73
     4
 40
2.0
 49
1.25
 74
     0
 49
-0.25
 74
     0
 49
0.25
 74
     0
 49
-0.25
 74
     0
  0
ENDTAB
  0
TABLE
  2
LAYER
  5
B
330
0
100
AcDbSymbolTable
 70
     5
  0
LAYER
  5
5
102
{ACAD_XDICTIONARY
360
D56
102
}
330
B
100
AcDbSymbolTableRecord
100
AcDbLayerTableRecord
  2
0
 70
     0
 62
     7
  6
CONTINUOUS
370
    -3
390
311
  0
LAYER
  5
21
102
{ACAD_XDICTIONARY
360
D58
102
}
330
B
100
AcDbSymbolTableRecord
100
AcDbLayerTableRecord
  2
BEM
 70
     1
 62
     1
  6
CONTINUOUS
370
    -3
390
311
  0
LAYER
  5
3D
102
{ACAD_XDICTIONARY
360
D5A
102
}
330
B
100
AcDbSymbolTableRecord
100
AcDbLayerTableRecord
  2
MITTE
 70
     0
 62
     6
  6
MITTE
370
    -3
390
311
  0
LAYER
  5
62
102
{ACAD_XDICTIONARY
360
D5C
102
}
330
B
100
AcDbSymbolTableRecord
100
AcDbLayerTableRecord
  2
LINIE
 70
     0
 62
     6
  6
CONTINUOUS
370
    -3
390
311
  0
LAYER
  5
2A
330
B
100
AcDbSymbolTableRecord
100
AcDbLayerTableRecord
  2
Defpoints
 70
     0
 62
     7
  6
CONTINUOUS
290
     0
370
    -3
390
311
  0
ENDTAB
  0
TABLE
  2
STYLE
  5
C
330
0
100
AcDbSymbolTable
 70
    12
  0
STYLE
  5
D
330
C
100
AcDbSymbolTableRecord
100
AcDbTextStyleTableRecord
  2
STANDARD
 70
     0
 40
0.0
 41
1.0
 50
0.0
 71
     0
 42
10.0
  3
romans.shx
  4

  0
STYLE
  5
2ED
330
C
100
AcDbSymbolTableRecord
100
AcDbTextStyleTableRecord
  2
ACJISTS
 70
     0
 40
1.0
 41
1.0
 50
0.0
 71
     0
 42
10.0
  3
isocp.shx
  4
bigfont.shx
  0
STYLE
  5
2EE
330
C
100
AcDbSymbolTableRecord
100
AcDbTextStyleTableRecord
  2
ACJISGDT
 70
     0
 40
0.0
 41
1.0
 50
0.0
 71
     0
 42
10.0
  3
amgdt.shx
  4

  0
STYLE
  5
2F1
330
C
100
AcDbSymbolTableRecord
100
AcDbTextStyleTableRecord
  2
ACANSTSB
 70
     0
 40
1.0
 41
1.0
 50
0.0
 71
     0
 42
10.0
  3
romans.shx
  4

  0
STYLE
  5
2F2
330
C
100
AcDbSymbolTableRecord
100
AcDbTextStyleTableRecord
  2
ACANSGDT
 70
     0
 40
0.0
 41
1.0
 50
0.0
 71
     0
 42
10.0
  3
amgdt.shx
  4

  0
STYLE
  5
2F5
330
C
100
AcDbSymbolTableRecord
100
AcDbTextStyleTableRecord
  2
ACBSITS
 70
     0
 40
1.0
 41
1.0
 50
0.0
 71
     0
 42
10.0
  3
isocp.shx
  4

  0
STYLE
  5
2F6
330
C
100
AcDbSymbolTableRecord
100
AcDbTextStyleTableRecord
  2
ACBSIGDT
 70
     0
 40
0.0
 41
1.0
 50
0.0
 71
     0
 42
10.0
  3
amgdt.shx
  4

  0
STYLE
  5
2FA
330
C
100
AcDbSymbolTableRecord
100
AcDbTextStyleTableRecord
  2
ACDINTS
 70
     0
 40
1.0
 41
1.0
 50
0.0
 71
     0
 42
10.0
  3
isocp.shx
  4

  0
STYLE
  5
2FB
330
C
100
AcDbSymbolTableRecord
100
AcDbTextStyleTableRecord
  2
ACDINGDT
 70
     0
 40
0.0
 41
1.0
 50
0.0
 71
     0
 42
10.0
  3
amgdt.shx
  4

  0
STYLE
  5
2FF
330
C
100
AcDbSymbolTableRecord
100
AcDbTextStyleTableRecord
  2
ACISOTS
 70
     0
 40
1.0
 41
1.0
 50
0.0
 71
     0
 42
10.0
  3
isocp.shx
  4

  0
STYLE
  5
300
330
C
100
AcDbSymbolTableRecord
100
AcDbTextStyleTableRecord
  2
ACISOGDT
 70
     0
 40
0.0
 41
1.0
 50
0.0
 71
     0
 42
10.0
  3
amgdt.shx
  4

  0
STYLE
  5
340
330
C
100
AcDbSymbolTableRecord
100
AcDbTextStyleTableRecord
  2

 70
     1
 40
0.0
 41
1.0
 50
0.0
 71
     0
 42
10.0
  3
ltypeshp.shx
  4

  0
ENDTAB
  0
TABLE
  2
VIEW
  5
11
330
0
100
AcDbSymbolTable
 70
     0
  0
ENDTAB
  0
TABLE
  2
UCS
  5
12
330
0
100
AcDbSymbolTable
 70
     0
  0
ENDTAB
  0
TABLE
  2
APPID
  5
15
330
0
100
AcDbSymbolTable
 70
    13
  0
APPID
  5
16
330
15
100
AcDbSymbolTableRecord
100
AcDbRegAppTableRecord
  2
ACAD
 70
     0
  0
APPID
  5
2BA
330
15
100
AcDbSymbolTableRecord
100
AcDbRegAppTableRecord
  2
MCAD_NO_VIS
 70
     0
  0
APPID
  5
320
330
15
100
AcDbSymbolTableRecord
100
AcDbRegAppTableRecord
  2
ACAD_TEMP_GRAPHIC
 70
     0
  0
APPID
  5
6DD
330
15
100
AcDbSymbolTableRecord
100
AcDbRegAppTableRecord
  2
GENIUS_GENODEF_13
 70
     0
  0
APPID
  5
6DE
330
15
100
AcDbSymbolTableRecord
100
AcDbRegAppTableRecord
  2
GENIUS_GENOBJ-N-FIL_13
 70
     0
  0
APPID
  5
C1F
330
15
100
AcDbSymbolTableRecord
100
AcDbRegAppTableRecord
  2
AD_DRAW
 70
     0
  0
APPID
  5
C22
330
15
100
AcDbSymbolTableRecord
100
AcDbRegAppTableRecord
  2
ACATTRIBSERVICES
 70
     0
  0
APPID
  5
C40
330
15
100
AcDbSymbolTableRecord
100
AcDbRegAppTableRecord
  2
DESIGNERASSEMBLIES
 70
     0
  0
APPID
  5
CB3
330
15
100
AcDbSymbolTableRecord
100
AcDbRegAppTableRecord
  2
ACADM_DIM_EDIT
 70
     0
  0
APPID
  5
CB4
330
15
100
AcDbSymbolTableRecord
100
AcDbRegAppTableRecord
  2
AMDT_DM_ADJ
 70
     0
  0
APPID
  5
D2C
330
15
100
AcDbSymbolTableRecord
100
AcDbRegAppTableRecord
  2
ACAD_MLEADERVER
 70
     0
  0
APPID
  5
D67
330
15
100
AcDbSymbolTableRecord
100
AcDbRegAppTableRecord
  2
ACAD_PSEXT
 70
     0
  0
APPID
  5
D6B
330
15
100
AcDbSymbolTableRecord
100
AcDbRegAppTableRecord
  2
DCO15
 70
     0
  0
ENDTAB
  0
TABLE
  2
DIMSTYLE
  5
17
330
0
100
AcDbSymbolTable
 70
    36
100
AcDbDimStyleTable
 71
     1
340
1D
  0
DIMSTYLE
105
1D
102
{ACAD_REACTORS
330
85F
330
860
330
864
330
865
330
868
330
86D
330
88C
330
8D1
330
8D3
330
8E5
330
90E
330
91D
330
923
330
950
330
954
330
955
330
956
330
957
330
963
330
965
330
984
330
9C1
330
9D1
102
}
330
17
100
AcDbSymbolTableRecord
100
AcDbDimStyleTableRecord
  2
ISO-25
 70
     0
 41
7.0
 42
0.0
 43
7.0
 44
1.25
 73
     0
 74
     0
 77
     1
 78
     8
140
10.0
141
0.0
144
0.5
147
4.0
172
     1
176
   256
177
   256
178
   256
284
     8
288
     1
340
D
  0
DIMSTYLE
105
CE
330
17
100
AcDbSymbolTableRecord
100
AcDbDimStyleTableRecord
  2
STANDARD
 70
     0
  4
"
 41
7.0
 42
0.0
 43
7.0
 44
1.25
 47
0.1
 48
0.1
 73
     0
 74
     0
 77
     1
 78
     8
140
10.0
141
0.0
143
0.0393701
144
0.5
147
4.0
172
     1
176
   256
177
   256
178
   256
271
     2
272
     3
274
     4
283
     0
284
     8
288
     1
340
D
  0
DIMSTYLE
105
C7B
330
17
100
AcDbSymbolTableRecord
100
AcDbDimStyleTableRecord
  2
AM_ANSI
 70
     0
  4
mm
 41
0.1
 42
0.05
 43
0.5
 44
0.1
 47
0.1
 48
0.1
 78
     7
 79
     2
140
0.12
141
0.0
146
0.71
147
0.06
176
   256
177
   256
178
     2
274
     4
284
     7
340
D
371
    -1
372
    -1
  0
DIMSTYLE
105
C7C
330
17
100
AcDbSymbolTableRecord
100
AcDbDimStyleTableRecord
  2
AM_ANSI$3
 70
     0
  4
mm
 41
0.1
 42
0.05
 43
0.5
 44
0.1
 47
0.1
 48
0.1
 78
     7
 79
     2
140
0.12
141
0.0
146
0.71
147
0.06
176
   256
177
   256
178
     2
274
     4
284
     7
288
     1
289
     0
340
D
371
    -1
372
    -1
  0
DIMSTYLE
105
C7D
330
17
100
AcDbSymbolTableRecord
100
AcDbDimStyleTableRecord
  2
AM_ANSI$4
 70
     0
  4
mm
 41
0.1
 42
0.05
 43
0.5
 44
0.1
 47
0.1
 48
0.1
 78
     7
 79
     2
140
0.12
141
0.0
146
0.71
147
0.06
176
   256
177
   256
178
     2
274
     4
284
     7
288
     1
289
     0
340
D
371
    -1
372
    -1
  0
DIMSTYLE
105
C7E
330
17
100
AcDbSymbolTableRecord
100
AcDbDimStyleTableRecord
  2
AM_ANSI$7
 70
     0
  4
mm
 41
0.1
 42
0.05
 43
0.5
 44
0.1
 47
0.1
 48
0.1
 78
     7
 79
     2
140
0.24
141
0.0
146
0.71
147
0.06
176
   256
177
   256
178
     2
274
     4
284
     7
340
D
371
    -1
372
    -1
  0
DIMSTYLE
105
C7F
330
17
100
AcDbSymbolTableRecord
100
AcDbDimStyleTableRecord
  2
AM_ANSI$SF
 70
     0
  4
mm
 41
0.1
 42
0.05
 43
0.5
 44
0.1
 47
0.1
 48
0.1
 75
     1
 76
     1
 78
     7
 79
     2
140
0.12
141
0.0
146
0.71
147
0.06
176
   256
177
   256
178
     2
274
     4
284
     7
340
D
371
    -1
372
    -1
  0
DIMSTYLE
105
C84
330
17
100
AcDbSymbolTableRecord
100
AcDbDimStyleTableRecord
  2
AM_ANSI$SH
 70
     0
  4
mm
 41
0.1
 42
0.05
 43
0.5
 44
0.1
 47
0.1
 48
0.1
 75
     1
 76
     1
 78
     7
 79
     2
140
0.12
141
0.0
146
0.71
147
0.06
173
     1
176
   256
177
   256
178
     2
274
     4
284
     7
340
D
343
C80
371
    -1
372
    -1
  0
DIMSTYLE
105
C87
330
17
100
AcDbSymbolTableRecord
100
AcDbDimStyleTableRecord
  2
AM_BSI
 70
     0
  4
mm
 41
0.1574803149606299
 42
0.05
 43
0.5
 44
0.1
 47
0.1
 48
0.1
 73
     0
 74
     0
 77
     1
 78
     7
 79
     2
140
0.12
141
0.0
146
0.71
147
0.06
172
     1
176
   256
177
   256
178
     2
274
     4
283
     0
284
     7
340
D
371
    -1
372
    -1
  0
DIMSTYLE
105
C88
330
17
100
AcDbSymbolTableRecord
100
AcDbDimStyleTableRecord
  2
AM_BSI$3
 70
     0
  4
mm
 41
0.1574803149606299
 42
0.05
 43
0.5
 44
0.1
 47
0.1
 48
0.1
 73
     0
 77
     1
 78
     7
 79
     2
140
0.12
141
0.0
146
0.71
147
0.06
176
   256
177
   256
178
     2
274
     4
283
     0
284
     7
288
     1
289
     0
340
D
371
    -1
372
    -1
  0
DIMSTYLE
105
C89
330
17
100
AcDbSymbolTableRecord
100
AcDbDimStyleTableRecord
  2
AM_BSI$4
 70
     0
  4
mm
 41
0.1574803149606299
 42
0.05
 43
0.5
 44
0.1
 47
0.1
 48
0.1
 73
     0
 77
     1
 78
     7
 79
     2
140
0.12
141
0.0
146
0.71
147
0.06
176
   256
177
   256
178
     2
274
     4
283
     0
284
     7
288
     1
289
     0
340
D
371
    -1
372
    -1
  0
DIMSTYLE
105
C8A
330
17
100
AcDbSymbolTableRecord
100
AcDbDimStyleTableRecord
  2
AM_BSI$6
 70
     0
  4
mm
 41
0.1574803149606299
 42
0.05
 43
0.5
 44
0.1
 47
0.1
 48
0.1
 73
     0
 74
     0
 78
     7
 79
     2
140
0.12
141
0.0
146
0.71
147
0.06
172
     1
176
   256
177
   256
178
     2
274
     4
283
     0
284
     7
340
D
371
    -1
372
    -1
  0
DIMSTYLE
105
C8B
330
17
100
AcDbSymbolTableRecord
100
AcDbDimStyleTableRecord
  2
AM_BSI$7
 70
     0
  4
mm
 41
0.1
 42
0.05
 43
0.5
 44
0.1
 47
0.1
 48
0.1
 73
     0
 74
     0
 77
     1
 78
     7
 79
     2
140
0.24
141
0.0
146
0.71
147
0.06
172
     1
176
   256
177
   256
178
     2
274
     4
283
     0
284
     7
340
D
371
    -1
372
    -1
  0
DIMSTYLE
105
C8C
330
17
100
AcDbSymbolTableRecord
100
AcDbDimStyleTableRecord
  2
AM_BSI$SF
 70
     0
  4
mm
 41
0.1574803149606299
 42
0.05
 43
0.5
 44
0.1
 47
0.1
 48
0.1
 73
     0
 74
     0
 75
     1
 76
     1
 77
     1
 78
     7
 79
     2
140
0.12
141
0.0
146
0.71
147
0.06
172
     1
176
   256
177
   256
178
     2
274
     4
283
     0
284
     7
340
D
371
    -1
372
    -1
  0
DIMSTYLE
105
C8D
330
17
100
AcDbSymbolTableRecord
100
AcDbDimStyleTableRecord
  2
AM_BSI$SH
 70
     0
  4
mm
 41
0.1574803149606299
 42
0.05
 43
0.5
 44
0.1
 47
0.1
 48
0.1
 73
     0
 74
     0
 75
     1
 76
     1
 77
     1
 78
     7
 79
     2
140
0.12
141
0.0
144
2.0
146
0.71
147
0.06
172
     1
173
     1
176
   256
177
   256
178
     2
274
     4
283
     0
284
     7
340
D
343
C80
371
    -1
372
    -1
  0
DIMSTYLE
105
C90
330
17
100
AcDbSymbolTableRecord
100
AcDbDimStyleTableRecord
  2
AM_DIN
 70
     0
  4
mm
 41
0.1
 42
0.05
 43
0.5
 44
0.1
 47
0.1
 48
0.1
 73
     0
 74
     0
 77
     1
 78
     7
 79
     2
140
0.12
141
0.0
146
0.71
147
0.06
172
     1
176
   256
177
   256
178
     2
274
     4
283
     0
284
     7
340
D
371
    -1
372
    -1
  0
DIMSTYLE
105
C91
330
17
100
AcDbSymbolTableRecord
100
AcDbDimStyleTableRecord
  2
AM_DIN$3
 70
     0
  4
mm
 41
0.1
 42
0.05
 43
0.5
 44
0.1
 47
0.1
 48
0.1
 73
     0
 77
     1
 78
     7
 79
     2
140
0.12
141
0.0
146
0.71
147
0.06
176
   256
177
   256
178
     2
274
     4
283
     0
284
     7
288
     1
289
     0
340
D
371
    -1
372
    -1
  0
DIMSTYLE
105
C92
330
17
100
AcDbSymbolTableRecord
100
AcDbDimStyleTableRecord
  2
AM_DIN$4
 70
     0
  4
mm
 41
0.1
 42
0.05
 43
0.5
 44
0.1
 47
0.1
 48
0.1
 73
     0
 77
     1
 78
     7
 79
     2
140
0.12
141
0.0
146
0.71
147
0.06
176
   256
177
   256
178
     2
274
     4
283
     0
284
     7
288
     1
289
     0
340
D
371
    -1
372
    -1
  0
DIMSTYLE
105
C93
330
17
100
AcDbSymbolTableRecord
100
AcDbDimStyleTableRecord
  2
AM_DIN$6
 70
     0
  4
mm
 41
0.1
 42
0.05
 43
0.5
 44
0.1
 47
0.1
 48
0.1
 73
     0
 74
     0
 78
     7
 79
     2
140
0.12
141
0.0
146
0.71
147
0.06
172
     1
176
   256
177
   256
178
     2
274
     4
283
     0
284
     7
340
D
371
    -1
372
    -1
  0
DIMSTYLE
105
C94
330
17
100
AcDbSymbolTableRecord
100
AcDbDimStyleTableRecord
  2
AM_DIN$7
 70
     0
  4
mm
 41
0.1
 42
0.05
 43
0.5
 44
0.1
 47
0.1
 48
0.1
 73
     0
 74
     0
 77
     1
 78
     7
 79
     2
140
0.24
141
0.0
146
0.71
147
0.06
172
     1
176
   256
177
   256
178
     2
274
     4
283
     0
284
     7
340
D
371
    -1
372
    -1
  0
DIMSTYLE
105
C95
330
17
100
AcDbSymbolTableRecord
100
AcDbDimStyleTableRecord
  2
AM_DIN$SF
 70
     0
  4
mm
 41
0.1
 42
0.05
 43
0.5
 44
0.1
 47
0.1
 48
0.1
 73
     0
 74
     0
 75
     1
 76
     1
 77
     1
 78
     7
 79
     2
140
0.12
141
0.0
146
0.71
147
0.06
172
     1
176
   256
177
   256
178
     2
274
     4
283
     0
284
     7
340
D
371
    -1
372
    -1
  0
DIMSTYLE
105
C96
330
17
100
AcDbSymbolTableRecord
100
AcDbDimStyleTableRecord
  2
AM_DIN$SH
 70
     0
  4
mm
 41
0.1
 42
0.05
 43
0.5
 44
0.1
 47
0.1
 48
0.1
 73
     0
 74
     0
 75
     1
 76
     1
 77
     1
 78
     7
 79
     2
140
0.12
141
0.0
144
2.0
146
0.71
147
0.06
172
     1
173
     1
176
   256
177
   256
178
     2
274
     4
283
     0
284
     7
340
D
343
C80
371
    -1
372
    -1
  0
DIMSTYLE
105
C99
330
17
100
AcDbSymbolTableRecord
100
AcDbDimStyleTableRecord
  2
AM_ISO
 70
     0
  4
mm
 41
0.1
 42
0.05
 43
0.5
 44
0.1
 47
0.1
 48
0.1
 73
     0
 74
     0
 77
     1
 78
     7
 79
     2
140
0.12
141
0.0
146
0.71
147
0.06
172
     1
176
   256
177
   256
178
     2
274
     4
283
     0
284
     7
340
D
371
    -1
372
    -1
  0
DIMSTYLE
105
C9A
330
17
100
AcDbSymbolTableRecord
100
AcDbDimStyleTableRecord
  2
AM_ISO$3
 70
     0
  4
mm
 41
0.1
 42
0.05
 43
0.5
 44
0.1
 47
0.1
 48
0.1
 73
     0
 77
     1
 78
     7
 79
     2
140
0.12
141
0.0
146
0.71
147
0.06
176
   256
177
   256
178
     2
274
     4
283
     0
284
     7
288
     1
289
     0
340
D
371
    -1
372
    -1
  0
DIMSTYLE
105
C9B
330
17
100
AcDbSymbolTableRecord
100
AcDbDimStyleTableRecord
  2
AM_ISO$4
 70
     0
  4
mm
 41
0.1
 42
0.05
 43
0.5
 44
0.1
 47
0.1
 48
0.1
 73
     0
 77
     1
 78
     7
 79
     2
140
0.12
141
0.0
146
0.71
147
0.06
176
   256
177
   256
178
     2
274
     4
283
     0
284
     7
288
     1
289
     0
340
D
371
    -1
372
    -1
  0
DIMSTYLE
105
C9C
330
17
100
AcDbSymbolTableRecord
100
AcDbDimStyleTableRecord
  2
AM_ISO$6
 70
     0
  4
mm
 41
0.1
 42
0.05
 43
0.5
 44
0.1
 47
0.1
 48
0.1
 73
     0
 74
     0
 78
     7
 79
     2
140
0.12
141
0.0
146
0.71
147
0.06
172
     1
176
   256
177
   256
178
     2
274
     4
283
     0
284
     7
340
D
371
    -1
372
    -1
  0
DIMSTYLE
105
C9D
330
17
100
AcDbSymbolTableRecord
100
AcDbDimStyleTableRecord
  2
AM_ISO$7
 70
     0
  4
mm
 41
0.1
 42
0.05
 43
0.5
 44
0.1
 47
0.1
 48
0.1
 73
     0
 74
     0
 77
     1
 78
     7
 79
     2
140
0.24
141
0.0
146
0.71
147
0.06
172
     1
176
   256
177
   256
178
     2
274
     4
283
     0
284
     7
340
D
371
    -1
372
    -1
  0
DIMSTYLE
105
C9E
330
17
100
AcDbSymbolTableRecord
100
AcDbDimStyleTableRecord
  2
AM_ISO$SF
 70
     0
  4
mm
 41
0.1
 42
0.05
 43
0.5
 44
0.1
 47
0.1
 48
0.1
 73
     0
 74
     0
 75
     1
 76
     1
 77
     1
 78
     7
 79
     2
140
0.12
141
0.0
146
0.71
147
0.06
172
     1
176
   256
177
   256
178
     2
274
     4
283
     0
284
     7
340
D
371
    -1
372
    -1
  0
DIMSTYLE
105
C9F
330
17
100
AcDbSymbolTableRecord
100
AcDbDimStyleTableRecord
  2
AM_ISO$SH
 70
     0
  4
mm
 41
0.1
 42
0.05
 43
0.5
 44
0.1
 47
0.1
 48
0.1
 73
     0
 74
     0
 75
     1
 76
     1
 77
     1
 78
     7
 79
     2
140
0.12
141
0.0
144
2.0
146
0.71
147
0.06
172
     1
173
     1
176
   256
177
   256
178
     2
274
     4
283
     0
284
     7
340
D
343
C80
371
    -1
372
    -1
  0
DIMSTYLE
105
CA2
330
17
100
AcDbSymbolTableRecord
100
AcDbDimStyleTableRecord
  2
AM_JIS
 70
     0
  4
mm
 41
0.1
 42
0.05
 43
0.5
 44
0.1
 47
0.1
 48
0.1
 73
     0
 74
     0
 77
     3
 78
     7
 79
     2
140
0.12
141
0.0
146
0.71
147
0.06
172
     1
176
   256
177
   256
178
     2
274
     4
283
     0
284
     7
340
D
341
CA3
342
CA3
343
CA3
344
CA3
371
    -1
372
    -1
  0
DIMSTYLE
105
CA9
330
17
100
AcDbSymbolTableRecord
100
AcDbDimStyleTableRecord
  2
AM_JIS$3
 70
     0
  4
mm
 41
0.1
 42
0.05
 43
0.5
 44
0.1
 47
0.1
 48
0.1
 73
     0
 77
     3
 78
     7
 79
     2
140
0.12
141
0.0
146
0.71
147
0.06
176
   256
177
   256
178
     2
274
     4
283
     0
284
     7
288
     1
289
     0
340
D
341
CA3
342
CA3
343
CA3
344
CA3
371
    -1
372
    -1
  0
DIMSTYLE
105
CAA
330
17
100
AcDbSymbolTableRecord
100
AcDbDimStyleTableRecord
  2
AM_JIS$4
 70
     0
  4
mm
 41
0.1
 42
0.05
 43
0.5
 44
0.1
 47
0.1
 48
0.1
 73
     0
 77
     3
 78
     7
 79
     2
140
0.12
141
0.0
146
0.71
147
0.06
176
   256
177
   256
178
     2
274
     4
283
     0
284
     7
288
     1
289
     0
340
D
341
CA3
342
CA3
343
CA3
344
CA3
371
    -1
372
    -1
  0
DIMSTYLE
105
CAB
330
17
100
AcDbSymbolTableRecord
100
AcDbDimStyleTableRecord
  2
AM_JIS$6
 70
     0
  4
mm
 41
0.1
 42
0.05
 43
0.5
 44
0.1
 47
0.1
 48
0.1
 73
     0
 74
     0
 78
     7
 79
     2
140
0.12
141
0.0
146
0.71
147
0.06
172
     1
176
   256
177
   256
178
     2
274
     4
283
     0
284
     7
340
D
341
CA3
342
CA3
343
CA3
344
CA3
371
    -1
372
    -1
  0
DIMSTYLE
105
CAC
330
17
100
AcDbSymbolTableRecord
100
AcDbDimStyleTableRecord
  2
AM_JIS$7
 70
     0
  4
mm
 41
0.1
 42
0.05
 43
0.5
 44
0.1
 47
0.1
 48
0.1
 73
     0
 74
     0
 77
     3
 78
     7
 79
     2
140
0.24
141
0.0
146
0.71
147
0.06
172
     1
176
   256
177
   256
178
     2
274
     4
283
     0
284
     7
340
D
341
CA3
342
CA3
343
CA3
344
CA3
371
    -1
372
    -1
  0
DIMSTYLE
105
CAD
330
17
100
AcDbSymbolTableRecord
100
AcDbDimStyleTableRecord
  2
AM_JIS$SF
 70
     0
  4
mm
 41
0.1
 42
0.05
 43
0.5
 44
0.1
 47
0.1
 48
0.1
 73
     0
 74
     0
 75
     1
 76
     1
 77
     3
 78
     7
 79
     2
140
0.12
141
0.0
146
0.71
147
0.06
172
     1
176
   256
177
   256
178
     2
274
     4
283
     0
284
     7
340
D
341
CA3
342
CA3
343
CA3
344
CA3
371
    -1
372
    -1
  0
DIMSTYLE
105
CAE
330
17
100
AcDbSymbolTableRecord
100
AcDbDimStyleTableRecord
  2
AM_JIS$SH
 70
     0
  4
mm
 41
0.1
 42
0.05
 43
0.5
 44
0.1
 47
0.1
 48
0.1
 73
     0
 74
     0
 75
     1
 76
     1
 77
     3
 78
     7
 79
     2
140
0.12
141
0.0
144
2.0
146
0.71
147
0.06
172
     1
173
     1
176
   256
177
   256
178
     2
274
     4
283
     0
284
     7
340
D
341
CA3
342
CA3
343
C80
344
CA3
371
    -1
372
    -1
  0
ENDTAB
  0
TABLE
  2
BLOCK_RECORD
  5
1
330
0
100
AcDbSymbolTable
 70
    26
  0
BLOCK_RECORD
  5
2
102
{ACAD_XDICTIONARY
360
3
102
}
330
1
100
AcDbSymbolTableRecord
100
AcDbBlockTableRecord
  2
*MODEL_SPACE
340
314
  0
BLOCK_RECORD
  5
8
330
1
100
AcDbSymbolTableRecord
100
AcDbBlockTableRecord
  2
*PAPER_SPACE
340
315
  0
BLOCK_RECORD
  5
9D7
330
1
100
AcDbSymbolTableRecord
100
AcDbBlockTableRecord
  2
*D0
340
0
  0
BLOCK_RECORD
  5
9E3
330
1
100
AcDbSymbolTableRecord
100
AcDbBlockTableRecord
  2
*D1
340
0
  0
BLOCK_RECORD
  5
9EF
330
1
100
AcDbSymbolTableRecord
100
AcDbBlockTableRecord
  2
*D2
340
0
  0
BLOCK_RECORD
  5
9FD
330
1
100
AcDbSymbolTableRecord
100
AcDbBlockTableRecord
  2
*D3
340
0
  0
BLOCK_RECORD
  5
A05
330
1
100
AcDbSymbolTableRecord
100
AcDbBlockTableRecord
  2
*D4
340
0
  0
BLOCK_RECORD
  5
A11
330
1
100
AcDbSymbolTableRecord
100
AcDbBlockTableRecord
  2
*D5
340
0
  0
BLOCK_RECORD
  5
A1F
330
1
100
AcDbSymbolTableRecord
100
AcDbBlockTableRecord
  2
*D6
340
0
  0
BLOCK_RECORD
  5
A2D
330
1
100
AcDbSymbolTableRecord
100
AcDbBlockTableRecord
  2
*D7
340
0
  0
BLOCK_RECORD
  5
A3B
330
1
100
AcDbSymbolTableRecord
100
AcDbBlockTableRecord
  2
*D8
340
0
  0
BLOCK_RECORD
  5
A47
330
1
100
AcDbSymbolTableRecord
100
AcDbBlockTableRecord
  2
*D9
340
0
  0
BLOCK_RECORD
  5
A55
330
1
100
AcDbSymbolTableRecord
100
AcDbBlockTableRecord
  2
*D10
340
0
  0
BLOCK_RECORD
  5
A5E
330
1
100
AcDbSymbolTableRecord
100
AcDbBlockTableRecord
  2
*D11
340
0
  0
BLOCK_RECORD
  5
A6A
330
1
100
AcDbSymbolTableRecord
100
AcDbBlockTableRecord
  2
*D12
340
0
  0
BLOCK_RECORD
  5
A76
330
1
100
AcDbSymbolTableRecord
100
AcDbBlockTableRecord
  2
*D13
340
0
  0
BLOCK_RECORD
  5
A82
330
1
100
AcDbSymbolTableRecord
100
AcDbBlockTableRecord
  2
*D14
340
0
  0
BLOCK_RECORD
  5
A8E
330
1
100
AcDbSymbolTableRecord
100
AcDbBlockTableRecord
  2
*D15
340
0
  0
BLOCK_RECORD
  5
A9C
330
1
100
AcDbSymbolTableRecord
100
AcDbBlockTableRecord
  2
*D16
340
0
  0
BLOCK_RECORD
  5
AA8
330
1
100
AcDbSymbolTableRecord
100
AcDbBlockTableRecord
  2
*D17
340
0
  0
BLOCK_RECORD
  5
AB6
330
1
100
AcDbSymbolTableRecord
100
AcDbBlockTableRecord
  2
*D18
340
0
  0
BLOCK_RECORD
  5
AC2
330
1
100
AcDbSymbolTableRecord
100
AcDbBlockTableRecord
  2
*D19
340
0
  0
BLOCK_RECORD
  5
AEA
330
1
100
AcDbSymbolTableRecord
100
AcDbBlockTableRecord
  2
*D20
340
0
  0
BLOCK_RECORD
  5
AF6
330
1
100
AcDbSymbolTableRecord
100
AcDbBlockTableRecord
  2
*D21
340
0
  0
BLOCK_RECORD
  5
B31
330
1
100
AcDbSymbolTableRecord
100
AcDbBlockTableRecord
  2
*D22
340
0
  0
BLOCK_RECORD
  5
C80
330
1
100
AcDbSymbolTableRecord
100
AcDbBlockTableRecord
  2
GENAXEH
340
0
  0
BLOCK_RECORD
  5
CA3
330
1
100
AcDbSymbolTableRecord
100
AcDbBlockTableRecord
  2
_Open30
340
0
  0
ENDTAB
  0
ENDSEC
  0
SECTION
  2
BLOCKS
  0
BLOCK
  5
4
330
2
100
AcDbEntity
  8
0
100
AcDbBlockBegin
  2
*MODEL_SPACE
 70
     0
 10
0.0
 20
0.0
 30
0.0
  3
*MODEL_SPACE
  1

  0
ENDBLK
  5
7
330
2
100
AcDbEntity
  8
0
100
AcDbBlockEnd
  0
BLOCK
  5
9
330
8
100
AcDbEntity
 67
     1
  8
0
100
AcDbBlockBegin
  2
*PAPER_SPACE
 70
     0
 10
0.0
 20
0.0
 30
0.0
  3
*PAPER_SPACE
  1

  0
ENDBLK
  5
A
330
8
100
AcDbEntity
 67
     1
  8
0
100
AcDbBlockEnd
  0
BLOCK
  5
9E1
330
9D7
100
AcDbEntity
  8
0
 48
10.0
100
AcDbBlockBegin
  2
*D0
 70
     1
 10
0.0
 20
0.0
 30
0.0
  3
*D0
  1

  0
LINE
  5
DA4
330
9D7
100
AcDbEntity
  8
BEM
370
    -2
100
AcDbLine
 10
650.6876913534421
 20
317.5633447212856
 30
0.0
 11
650.6876913534421
 21
223.0357699702718
 31
0.0
  0
LINE
  5
DA5
330
9D7
100
AcDbEntity
  8
BEM
370
    -2
100
AcDbLine
 10
427.7876913534419
 20
343.9601746674592
 30
0.0
 11
427.7876913534419
 21
223.0357699702718
 31
0.0
  0
LINE
  5
DA6
330
9D7
100
AcDbEntity
  8
BEM
370
    -2
100
AcDbLine
 10
643.6876913534421
 20
224.2857699702717
 30
0.0
 11
434.7876913534419
 21
224.2857699702717
 31
0.0
  0
SOLID
  5
DA7
330
9D7
100
AcDbEntity
  8
BEM
100
AcDbTrace
 10
643.6876913534421
 20
225.4524366369384
 30
0.0
 11
643.6876913534421
 21
223.1191033036051
 31
0.0
 12
650.6876913534421
 22
224.2857699702717
 32
0.0
 13
650.6876913534421
 23
224.2857699702717
 33
0.0
  0
SOLID
  5
DA8
330
9D7
100
AcDbEntity
  8
BEM
100
AcDbTrace
 10
434.7876913534419
 20
225.4524366369384
 30
0.0
 11
434.7876913534419
 21
223.1191033036051
 31
0.0
 12
427.7876913534419
 22
224.2857699702717
 32
0.0
 13
427.7876913534419
 23
224.2857699702717
 33
0.0
  0
MTEXT
  5
DA9
330
9D7
100
AcDbEntity
  8
BEM
100
AcDbMText
 10
539.2376913534419
 20
233.2857699702718
 30
0.0
 40
10.0
 41
0.0
 71
     5
 72
     1
  1
\A1;223
 73
     1
 44
1.0
  0
POINT
  5
DAA
330
9D7
100
AcDbEntity
  8
Defpoints
 62
     0
100
AcDbPoint
 10
650.6876913534421
 20
317.5633447212856
 30
0.0
  0
POINT
  5
DAB
330
9D7
100
AcDbEntity
  8
Defpoints
 62
     0
100
AcDbPoint
 10
427.7876913534419
 20
343.9601746674592
 30
0.0
  0
POINT
  5
DAC
330
9D7
100
AcDbEntity
  8
Defpoints
 62
     0
100
AcDbPoint
 10
427.7876913534419
 20
224.2857699702717
 30
0.0
  0
ENDBLK
  5
9E2
330
9D7
100
AcDbEntity
  8
0
 48
10.0
100
AcDbBlockEnd
  0
BLOCK
  5
9ED
330
9E3
100
AcDbEntity
  8
0
 48
10.0
100
AcDbBlockBegin
  2
*D1
 70
     1
 10
0.0
 20
0.0
 30
0.0
  3
*D1
  1

  0
LINE
  5
DAD
330
9E3
100
AcDbEntity
  8
BEM
370
    -2
100
AcDbLine
 10
723.187691353442
 20
384.0305358435236
 30
0.0
 11
723.187691353442
 21
598.0052955660767
 31
0.0
  0
LINE
  5
DAE
330
9E3
100
AcDbEntity
  8
BEM
370
    -2
100
AcDbLine
 10
427.7876913534417
 20
523.9601746674592
 30
0.0
 11
427.7876913534417
 21
598.0052955660767
 31
0.0
  0
LINE
  5
DAF
330
9E3
100
AcDbEntity
  8
BEM
370
    -2
100
AcDbLine
 10
716.187691353442
 20
596.7552955660766
 30
0.0
 11
434.7876913534418
 21
596.7552955660766
 31
0.0
  0
SOLID
  5
DB0
330
9E3
100
AcDbEntity
  8
BEM
100
AcDbTrace
 10
716.187691353442
 20
597.9219622327433
 30
0.0
 11
716.187691353442
 21
595.5886288994101
 31
0.0
 12
723.187691353442
 22
596.7552955660766
 32
0.0
 13
723.187691353442
 23
596.7552955660766
 33
0.0
  0
SOLID
  5
DB1
330
9E3
100
AcDbEntity
  8
BEM
100
AcDbTrace
 10
434.7876913534418
 20
597.9219622327433
 30
0.0
 11
434.7876913534418
 21
595.5886288994101
 31
0.0
 12
427.7876913534417
 22
596.7552955660766
 32
0.0
 13
427.7876913534417
 23
596.7552955660766
 33
0.0
  0
MTEXT
  5
DB2
330
9E3
100
AcDbEntity
  8
BEM
100
AcDbMText
 10
575.4876913534419
 20
605.7552955660767
 30
0.0
 40
10.0
 41
0.0
 71
     5
 72
     1
  1
\A1;295.5
 73
     1
 44
1.0
  0
POINT
  5
DB3
330
9E3
100
AcDbEntity
  8
Defpoints
 62
     0
100
AcDbPoint
 10
723.187691353442
 20
384.0305358435236
 30
0.0
  0
POINT
  5
DB4
330
9E3
100
AcDbEntity
  8
Defpoints
 62
     0
100
AcDbPoint
 10
427.7876913534417
 20
523.9601746674592
 30
0.0
  0
POINT
  5
DB5
330
9E3
100
AcDbEntity
  8
Defpoints
 62
     0
100
AcDbPoint
 10
427.7876913534417
 20
596.7552955660766
 30
0.0
  0
ENDBLK
  5
9EE
330
9E3
100
AcDbEntity
  8
0
 48
10.0
100
AcDbBlockEnd
  0
BLOCK
  5
9FB
330
9EF
100
AcDbEntity
  8
0
 48
10.0
100
AcDbBlockBegin
  2
*D2
 70
     1
 10
0.0
 20
0.0
 30
0.0
  3
*D2
  1

  0
LINE
  5
DB6
330
9EF
100
AcDbEntity
  8
BEM
 48
10.0
370
    -2
100
AcDbLine
 10
164.8961525882521
 20
510.592033406258
 30
0.0
 11
178.9730258603217
 21
549.2679248577945
 31
0.0
  0
LINE
  5
DB7
330
9EF
100
AcDbEntity
  8
BEM
 48
10.0
370
    -2
100
AcDbLine
 10
137.0044370108375
 20
532.9673544463998
 30
0.0
 11
137.0044370108375
 21
556.6681194142188
 31
0.0
  0
ARC
  5
DB8
330
9EF
100
AcDbEntity
  8
BEM
 48
10.0
370
    -2
100
AcDbCircle
 10
137.0044370108375
 20
433.9601746674576
 30
0.0
 40
121.4579447467611
100
AcDbArc
 50
73.30259157549753
 51
86.69740842450309
  0
SOLID
  5
DB9
330
9EF
100
AcDbEntity
  8
BEM
 48
10.0
100
AcDbTrace
 10
172.2686590683154
 20
551.4042561484858
 30
0.0
 11
171.5341271338725
 21
549.1895536217956
 31
0.0
 12
178.5455006811646
 22
548.0933090818122
 32
0.0
 13
178.5455006811646
 23
548.0933090818122
 33
0.0
  0
SOLID
  5
DBA
330
9EF
100
AcDbEntity
  8
BEM
 48
10.0
100
AcDbTrace
 10
143.9679107094866
 20
554.0502213334637
 30
0.0
 11
144.0351493465613
 21
556.3825856725257
 31
0.0
 12
137.0044370108375
 22
555.4181194142188
 32
0.0
 13
137.0044370108375
 23
555.4181194142188
 33
0.0
  0
MTEXT
  5
DBB
330
9EF
100
AcDbEntity
  8
BEM
 48
10.0
100
AcDbMText
 10
162.4798031077794
 20
561.9065738734366
 30
0.0
 40
10.0
 41
0.0
 71
     5
 72
     1
  1
\A1;20\U+00B0
 11
0.9807482361794265
 21
-0.1952764635867406
 31
0.0
 73
     1
 44
1.0
  0
POINT
  5
DBC
330
9EF
100
AcDbEntity
  8
Defpoints
 62
     0
 48
10.0
100
AcDbPoint
 10
151.1048437601498
 20
554.5968642424424
 30
0.0
  0
POINT
  5
DBD
330
9EF
100
AcDbEntity
  8
Defpoints
 62
     0
 48
10.0
100
AcDbPoint
 10
137.0044370108375
 20
532.9673544463998
 30
0.0
  0
POINT
  5
DBE
330
9EF
100
AcDbEntity
  8
Defpoints
 62
     0
 48
10.0
100
AcDbPoint
 10
158.6671120509561
 20
493.477885185169
 30
0.0
  0
POINT
  5
DBF
330
9EF
100
AcDbEntity
  8
Defpoints
 62
     0
 48
10.0
100
AcDbPoint
 10
164.8961525882521
 20
510.592033406258
 30
0.0
  0
POINT
  5
DC0
330
9EF
100
AcDbEntity
  8
Defpoints
 62
     0
 48
10.0
100
AcDbPoint
 10
137.0044370108375
 20
319.1150289188813
 30
0.0
  0
ENDBLK
  5
9FC
330
9EF
100
AcDbEntity
  8
0
 48
10.0
100
AcDbBlockEnd
  0
BLOCK
  5
A03
330
9FD
100
AcDbEntity
  8
0
 48
10.0
100
AcDbBlockBegin
  2
*D3
 70
     1
 10
0.0
 20
0.0
 30
0.0
  3
*D3
  1

  0
LINE
  5
DD3
330
9FD
100
AcDbEntity
  8
BEM
370
    -2
100
AcDbLine
 10
373.2077594034661
 20
376.6380346693819
 30
0.0
 11
420.7030081435285
 21
411.3070485936407
 31
0.0
  0
MTEXT
  5
DD4
330
9FD
100
AcDbEntity
  8
BEM
100
AcDbMText
 10
383.4402587564106
 20
395.2498659973843
 30
0.0
 40
10.0
 41
0.0
 71
     5
 72
     1
  1
\A1;R2.5
 11
0.8077073799807122
 21
0.5895835719596444
 31
0.0
 73
     1
 44
1.0
  0
SOLID
  5
DD5
330
9FD
100
AcDbEntity
  8
BEM
100
AcDbTrace
 10
420.015160642909
 20
412.2493738702848
 30
0.0
 11
421.3908556441481
 21
410.3647233169964
 31
0.0
 12
426.3569598033935
 22
415.4341335973581
 32
0.0
 13
426.3569598033935
 23
415.4341335973581
 33
0.0
  0
POINT
  5
DD6
330
9FD
100
AcDbEntity
  8
Defpoints
 62
     0
100
AcDbPoint
 10
426.3569598033935
 20
415.4341335973581
 30
0.0
  0
POINT
  5
DD7
330
9FD
100
AcDbEntity
  8
Defpoints
 62
     0
100
AcDbPoint
 10
424.3376913534417
 20
413.9601746674591
 30
0.0
  0
ENDBLK
  5
A04
330
9FD
100
AcDbEntity
  8
0
 48
10.0
100
AcDbBlockEnd
  0
BLOCK
  5
A0F
330
A05
100
AcDbEntity
  8
0
 48
10.0
100
AcDbBlockBegin
  2
*D4
 70
     1
 10
0.0
 20
0.0
 30
0.0
  3
*D4
  1

  0
LINE
  5
DD8
330
A05
100
AcDbEntity
  8
BEM
370
    -2
100
AcDbLine
 10
170.5279642256645
 20
368.2901957384589
 30
0.0
 11
170.5279642256645
 21
288.9582139931749
 31
0.0
  0
LINE
  5
DD9
330
A05
100
AcDbEntity
  8
BEM
370
    -2
100
AcDbLine
 10
133.5279642256645
 20
368.1294658815226
 30
0.0
 11
133.5279642256645
 21
288.9582139931749
 31
0.0
  0
LINE
  5
DDA
330
A05
100
AcDbEntity
  8
BEM
370
    -2
100
AcDbLine
 10
163.5279642256645
 20
290.2082139931749
 30
0.0
 11
140.5279642256645
 21
290.2082139931749
 31
0.0
  0
SOLID
  5
DDB
330
A05
100
AcDbEntity
  8
BEM
100
AcDbTrace
 10
163.5279642256645
 20
291.3748806598416
 30
0.0
 11
163.5279642256645
 21
289.0415473265083
 31
0.0
 12
170.5279642256645
 22
290.2082139931749
 32
0.0
 13
170.5279642256645
 23
290.2082139931749
 33
0.0
  0
SOLID
  5
DDC
330
A05
100
AcDbEntity
  8
BEM
100
AcDbTrace
 10
140.5279642256645
 20
291.3748806598416
 30
0.0
 11
140.5279642256645
 21
289.0415473265083
 31
0.0
 12
133.5279642256645
 22
290.2082139931749
 32
0.0
 13
133.5279642256645
 23
290.2082139931749
 33
0.0
  0
MTEXT
  5
DDD
330
A05
100
AcDbEntity
  8
BEM
100
AcDbMText
 10
152.0279642256645
 20
299.2082139931749
 30
0.0
 40
10.0
 41
0.0
 71
     5
 72
     1
  1
\A1;37
 73
     1
 44
1.0
  0
POINT
  5
DDE
330
A05
100
AcDbEntity
  8
Defpoints
 62
     0
100
AcDbPoint
 10
170.5279642256645
 20
368.2901957384589
 30
0.0
  0
POINT
  5
DDF
330
A05
100
AcDbEntity
  8
Defpoints
 62
     0
100
AcDbPoint
 10
133.5279642256645
 20
368.1294658815226
 30
0.0
  0
POINT
  5
DE0
330
A05
100
AcDbEntity
  8
Defpoints
 62
     0
100
AcDbPoint
 10
133.5279642256645
 20
290.2082139931749
 30
0.0
  0
ENDBLK
  5
A10
330
A05
100
AcDbEntity
  8
0
 48
10.0
100
AcDbBlockEnd
  0
BLOCK
  5
A1D
330
A11
100
AcDbEntity
  8
0
 48
10.0
100
AcDbBlockBegin
  2
*D5
 70
     1
 10
0.0
 20
0.0
 30
0.0
  3
*D5
  1

  0
LINE
  5
DE1
330
A11
100
AcDbEntity
  8
BEM
370
    -2
100
AcDbLine
 10
427.787691353442
 20
343.9601746674592
 30
0.0
 11
427.787691353442
 21
260.3743098061532
 31
0.0
  0
LINE
  5
DE2
330
A11
100
AcDbEntity
  8
BEM
370
    -2
100
AcDbLine
 10
441.2876913534417
 20
345.9601746674592
 30
0.0
 11
441.2876913534417
 21
260.3743098061532
 31
0.0
  0
LINE
  5
DE3
330
A11
100
AcDbEntity
  8
BEM
370
    -2
100
AcDbLine
 10
420.787691353442
 20
261.6243098061532
 30
0.0
 11
413.7876913534419
 21
261.6243098061532
 31
0.0
  0
LINE
  5
DE4
330
A11
100
AcDbEntity
  8
BEM
370
    -2
100
AcDbLine
 10
448.2876913534417
 20
261.6243098061532
 30
0.0
 11
492.3353104010608
 21
261.6243098061532
 31
0.0
  0
LINE
  5
DE5
330
A11
100
AcDbEntity
  8
BEM
370
    -2
100
AcDbLine
 10
427.787691353442
 20
261.6243098061532
 30
0.0
 11
441.2876913534417
 21
261.6243098061532
 31
0.0
  0
SOLID
  5
DE6
330
A11
100
AcDbEntity
  8
BEM
100
AcDbTrace
 10
420.787691353442
 20
262.7909764728199
 30
0.0
 11
420.787691353442
 21
260.4576431394865
 31
0.0
 12
427.787691353442
 22
261.6243098061532
 32
0.0
 13
427.787691353442
 23
261.6243098061532
 33
0.0
  0
SOLID
  5
DE7
330
A11
100
AcDbEntity
  8
BEM
100
AcDbTrace
 10
448.2876913534417
 20
262.7909764728199
 30
0.0
 11
448.2876913534417
 21
260.4576431394865
 31
0.0
 12
441.2876913534417
 22
261.6243098061532
 32
0.0
 13
441.2876913534417
 23
261.6243098061532
 33
0.0
  0
MTEXT
  5
DE8
330
A11
100
AcDbEntity
  8
BEM
100
AcDbMText
 10
473.8115008772513
 20
270.6243098061532
 30
0.0
 40
10.0
 41
0.0
 71
     5
 72
     1
  1
\A1;13.5
 73
     1
 44
1.0
  0
POINT
  5
DE9
330
A11
100
AcDbEntity
  8
Defpoints
 62
     0
100
AcDbPoint
 10
427.787691353442
 20
343.9601746674592
 30
0.0
  0
POINT
  5
DEA
330
A11
100
AcDbEntity
  8
Defpoints
 62
     0
100
AcDbPoint
 10
441.2876913534417
 20
345.9601746674592
 30
0.0
  0
POINT
  5
DEB
330
A11
100
AcDbEntity
  8
Defpoints
 62
     0
100
AcDbPoint
 10
441.2876913534417
 20
261.6243098061532
 30
0.0
  0
ENDBLK
  5
A1E
330
A11
100
AcDbEntity
  8
0
 48
10.0
100
AcDbBlockEnd
  0
BLOCK
  5
A2B
330
A1F
100
AcDbEntity
  8
0
 48
10.0
100
AcDbBlockBegin
  2
*D6
 70
     1
 10
0.0
 20
0.0
 30
0.0
  3
*D6
  1

  0
LINE
  5
DEC
330
A1F
100
AcDbEntity
  8
BEM
370
    -2
100
AcDbLine
 10
432.787691353442
 20
371.6601746674593
 30
0.0
 11
432.787691353442
 21
301.2764874050418
 31
0.0
  0
LINE
  5
DED
330
A1F
100
AcDbEntity
  8
BEM
370
    -2
100
AcDbLine
 10
427.7876913534419
 20
343.9601746674592
 30
0.0
 11
427.7876913534419
 21
301.2764874050418
 31
0.0
  0
LINE
  5
DEE
330
A1F
100
AcDbEntity
  8
BEM
370
    -2
100
AcDbLine
 10
420.7876913534419
 20
302.5264874050417
 30
0.0
 11
413.7876913534419
 21
302.5264874050417
 31
0.0
  0
LINE
  5
DEF
330
A1F
100
AcDbEntity
  8
BEM
370
    -2
100
AcDbLine
 10
439.787691353442
 20
302.5264874050417
 30
0.0
 11
461.4543580201087
 21
302.5264874050417
 31
0.0
  0
LINE
  5
DF0
330
A1F
100
AcDbEntity
  8
BEM
370
    -2
100
AcDbLine
 10
427.7876913534419
 20
302.5264874050417
 30
0.0
 11
432.787691353442
 21
302.5264874050417
 31
0.0
  0
SOLID
  5
DF1
330
A1F
100
AcDbEntity
  8
BEM
100
AcDbTrace
 10
420.7876913534419
 20
303.6931540717084
 30
0.0
 11
420.7876913534419
 21
301.3598207383751
 31
0.0
 12
427.7876913534419
 22
302.5264874050417
 32
0.0
 13
427.7876913534419
 23
302.5264874050417
 33
0.0
  0
SOLID
  5
DF2
330
A1F
100
AcDbEntity
  8
BEM
100
AcDbTrace
 10
439.787691353442
 20
303.6931540717084
 30
0.0
 11
439.787691353442
 21
301.3598207383751
 31
0.0
 12
432.787691353442
 22
302.5264874050417
 32
0.0
 13
432.787691353442
 23
302.5264874050417
 33
0.0
  0
MTEXT
  5
DF3
330
A1F
100
AcDbEntity
  8
BEM
100
AcDbMText
 10
454.1210246867754
 20
311.5264874050418
 30
0.0
 40
10.0
 41
0.0
 71
     5
 72
     1
  1
\A1;5
 73
     1
 44
1.0
  0
POINT
  5
DF4
330
A1F
100
AcDbEntity
  8
Defpoints
 62
     0
100
AcDbPoint
 10
432.787691353442
 20
371.6601746674593
 30
0.0
  0
POINT
  5
DF5
330
A1F
100
AcDbEntity
  8
Defpoints
 62
     0
100
AcDbPoint
 10
427.7876913534419
 20
343.9601746674592
 30
0.0
  0
POINT
  5
DF6
330
A1F
100
AcDbEntity
  8
Defpoints
 62
     0
100
AcDbPoint
 10
427.7876913534419
 20
302.5264874050417
 30
0.0
  0
ENDBLK
  5
A2C
330
A1F
100
AcDbEntity
  8
0
 48
10.0
100
AcDbBlockEnd
  0
BLOCK
  5
A39
330
A2D
100
AcDbEntity
  8
0
 48
10.0
100
AcDbBlockBegin
  2
*D7
 70
     1
 10
0.0
 20
0.0
 30
0.0
  3
*D7
  1

  0
LINE
  5
DF7
330
A2D
100
AcDbEntity
  8
BEM
370
    -2
100
AcDbLine
 10
57.57941777335611
 20
433.9601746674592
 30
0.0
 11
29.02947439575719
 21
433.9601746674592
 31
0.0
  0
LINE
  5
DF8
330
A2D
100
AcDbEntity
  8
BEM
370
    -2
100
AcDbLine
 10
91.6518349519514
 20
427.1726714672544
 30
0.0
 11
29.02947439575719
 21
427.1726714672544
 31
0.0
  0
LINE
  5
DF9
330
A2D
100
AcDbEntity
  8
BEM
370
    -2
100
AcDbLine
 10
30.27947439575719
 20
440.9601746674592
 30
0.0
 11
30.27947439575719
 21
447.9601746674592
 31
0.0
  0
LINE
  5
DFA
330
A2D
100
AcDbEntity
  8
BEM
370
    -2
100
AcDbLine
 10
30.27947439575719
 20
420.1726714672544
 30
0.0
 11
30.27947439575719
 21
413.1726714672543
 31
0.0
  0
LINE
  5
DFB
330
A2D
100
AcDbEntity
  8
BEM
370
    -2
100
AcDbLine
 10
30.27947439575719
 20
433.9601746674592
 30
0.0
 11
30.27947439575719
 21
427.1726714672544
 31
0.0
  0
SOLID
  5
DFC
330
A2D
100
AcDbEntity
  8
BEM
100
AcDbTrace
 10
29.11280772909053
 20
440.9601746674592
 30
0.0
 11
31.44614106242386
 21
440.9601746674592
 31
0.0
 12
30.27947439575719
 22
433.9601746674592
 32
0.0
 13
30.27947439575719
 23
433.9601746674592
 33
0.0
  0
SOLID
  5
DFD
330
A2D
100
AcDbEntity
  8
BEM
100
AcDbTrace
 10
29.11280772909052
 20
420.1726714672544
 30
0.0
 11
31.44614106242386
 21
420.1726714672544
 31
0.0
 12
30.27947439575719
 22
427.1726714672544
 32
0.0
 13
30.27947439575719
 23
427.1726714672544
 33
0.0
  0
MTEXT
  5
DFE
330
A2D
100
AcDbEntity
  8
BEM
100
AcDbMText
 10
21.27947439575712
 20
430.5664230673568
 30
0.0
 40
10.0
 41
0.0
 71
     5
 72
     1
  1
\A1;6.7
 11
0.0000000000000001
 21
1.0
 31
0.0
 73
     1
 44
1.0
  0
POINT
  5
DFF
330
A2D
100
AcDbEntity
  8
Defpoints
 62
     0
100
AcDbPoint
 10
57.57941777335611
 20
433.9601746674592
 30
0.0
  0
POINT
  5
E00
330
A2D
100
AcDbEntity
  8
Defpoints
 62
     0
100
AcDbPoint
 10
91.6518349519514
 20
427.1726714672544
 30
0.0
  0
POINT
  5
E01
330
A2D
100
AcDbEntity
  8
Defpoints
 62
     0
100
AcDbPoint
 10
30.27947439575719
 20
427.1726714672544
 30
0.0
  0
ENDBLK
  5
A3A
330
A2D
100
AcDbEntity
  8
0
 48
10.0
100
AcDbBlockEnd
  0
BLOCK
  5
A45
330
A3B
100
AcDbEntity
  8
0
 48
10.0
100
AcDbBlockBegin
  2
*D8
 70
     1
 10
0.0
 20
0.0
 30
0.0
  3
*D8
  1

  0
LINE
  5
E0B
330
A3B
100
AcDbEntity
  8
BEM
370
    -2
100
AcDbLine
 10
358.837691353442
 20
451.4601746674592
 30
0.0
 11
325.166645588655
 21
451.4601746674592
 31
0.0
  0
LINE
  5
E0C
330
A3B
100
AcDbEntity
  8
BEM
370
    -2
100
AcDbLine
 10
358.837691353442
 20
416.4601746674592
 30
0.0
 11
325.166645588655
 21
416.4601746674592
 31
0.0
  0
LINE
  5
E0D
330
A3B
100
AcDbEntity
  8
BEM
370
    -2
100
AcDbLine
 10
326.416645588655
 20
444.4601746674591
 30
0.0
 11
326.416645588655
 21
423.4601746674591
 31
0.0
  0
SOLID
  5
E0E
330
A3B
100
AcDbEntity
  8
BEM
100
AcDbTrace
 10
325.2499789219883
 20
444.4601746674591
 30
0.0
 11
327.5833122553217
 21
444.4601746674591
 31
0.0
 12
326.416645588655
 22
451.4601746674592
 32
0.0
 13
326.416645588655
 23
451.4601746674592
 33
0.0
  0
SOLID
  5
E0F
330
A3B
100
AcDbEntity
  8
BEM
100
AcDbTrace
 10
325.2499789219883
 20
423.4601746674591
 30
0.0
 11
327.5833122553217
 21
423.4601746674591
 31
0.0
 12
326.416645588655
 22
416.4601746674592
 32
0.0
 13
326.416645588655
 23
416.4601746674592
 33
0.0
  0
MTEXT
  5
E10
330
A3B
100
AcDbEntity
  8
BEM
100
AcDbMText
 10
317.4166455886549
 20
434.4987893031802
 30
0.0
 40
10.0
 41
0.0
 71
     5
 72
     1
  1
\A1;%%c35
 11
0.0000000000000001
 21
1.0
 31
0.0
 73
     1
 44
1.0
  0
POINT
  5
E11
330
A3B
100
AcDbEntity
  8
Defpoints
 62
     0
100
AcDbPoint
 10
358.837691353442
 20
451.4601746674592
 30
0.0
  0
POINT
  5
E12
330
A3B
100
AcDbEntity
  8
Defpoints
 62
     0
100
AcDbPoint
 10
358.837691353442
 20
416.4601746674592
 30
0.0
  0
POINT
  5
E13
330
A3B
100
AcDbEntity
  8
Defpoints
 62
     0
100
AcDbPoint
 10
326.416645588655
 20
416.4601746674592
 30
0.0
  0
ENDBLK
  5
A46
330
A3B
100
AcDbEntity
  8
0
 48
10.0
100
AcDbBlockEnd
  0
BLOCK
  5
A53
330
A47
100
AcDbEntity
  8
0
 48
10.0
100
AcDbBlockBegin
  2
*D9
 70
     1
 10
0.0
 20
0.0
 30
0.0
  3
*D9
  1

  0
LINE
  5
E14
330
A47
100
AcDbEntity
  8
BEM
370
    -2
100
AcDbLine
 10
427.7876913534417
 20
456.4601746674592
 30
0.0
 11
427.7876913534417
 21
557.636079026593
 31
0.0
  0
LINE
  5
E15
330
A47
100
AcDbEntity
  8
BEM
370
    -2
100
AcDbLine
 10
426.8376913534419
 20
456.1137645059455
 30
0.0
 11
426.8376913534419
 21
557.636079026593
 31
0.0
  0
LINE
  5
E16
330
A47
100
AcDbEntity
  8
BEM
370
    -2
100
AcDbLine
 10
419.837691353442
 20
556.386079026593
 30
0.0
 11
412.8376913534419
 21
556.386079026593
 31
0.0
  0
LINE
  5
E17
330
A47
100
AcDbEntity
  8
BEM
370
    -2
100
AcDbLine
 10
434.7876913534418
 20
556.386079026593
 30
0.0
 11
452.1686437343942
 21
556.386079026593
 31
0.0
  0
LINE
  5
E18
330
A47
100
AcDbEntity
  8
BEM
370
    -2
100
AcDbLine
 10
426.8376913534419
 20
556.386079026593
 30
0.0
 11
427.7876913534417
 21
556.386079026593
 31
0.0
  0
SOLID
  5
E19
330
A47
100
AcDbEntity
  8
BEM
100
AcDbTrace
 10
419.837691353442
 20
557.5527456932596
 30
0.0
 11
419.837691353442
 21
555.2194123599264
 31
0.0
 12
426.8376913534419
 22
556.386079026593
 32
0.0
 13
426.8376913534419
 23
556.386079026593
 33
0.0
  0
SOLID
  5
E1A
330
A47
100
AcDbEntity
  8
BEM
100
AcDbTrace
 10
434.7876913534418
 20
557.5527456932596
 30
0.0
 11
434.7876913534418
 21
555.2194123599264
 31
0.0
 12
427.7876913534417
 22
556.386079026593
 32
0.0
 13
427.7876913534417
 23
556.386079026593
 33
0.0
  0
MTEXT
  5
E1B
330
A47
100
AcDbEntity
  8
BEM
100
AcDbMText
 10
446.978167543918
 20
565.386079026593
 30
0.0
 40
10.0
 41
0.0
 71
     5
 72
     1
  1
\A1;1
 73
     1
 44
1.0
  0
POINT
  5
E1C
330
A47
100
AcDbEntity
  8
Defpoints
 62
     0
100
AcDbPoint
 10
427.7876913534417
 20
456.4601746674592
 30
0.0
  0
POINT
  5
E1D
330
A47
100
AcDbEntity
  8
Defpoints
 62
     0
100
AcDbPoint
 10
426.8376913534419
 20
456.1137645059455
 30
0.0
  0
POINT
  5
E1E
330
A47
100
AcDbEntity
  8
Defpoints
 62
     0
100
AcDbPoint
 10
426.8376913534419
 20
556.386079026593
 30
0.0
  0
ENDBLK
  5
A54
330
A47
100
AcDbEntity
  8
0
 48
10.0
100
AcDbBlockEnd
  0
BLOCK
  5
A5C
330
A55
100
AcDbEntity
  8
0
 48
10.0
100
AcDbBlockBegin
  2
*D10
 70
     1
 10
0.0
 20
0.0
 30
0.0
  3
*D10
  1

  0
LINE
  5
E1F
330
A55
100
AcDbEntity
  8
BEM
370
    -2
100
AcDbLine
 10
871.0500626735063
 20
482.2436942857303
 30
0.0
 11
959.5701560596308
 21
385.6766550491879
 31
0.0
  0
SOLID
  5
E20
330
A55
100
AcDbEntity
  8
BEM
100
AcDbTrace
 10
871.9100744733228
 20
483.0320411733929
 30
0.0
 11
870.1900508736898
 21
481.4553473980676
 31
0.0
 12
866.3199813475301
 22
487.4037650846294
 32
0.0
 13
866.3199813475301
 23
487.4037650846294
 33
0.0
  0
SOLID
  5
E21
330
A55
100
AcDbEntity
  8
BEM
100
AcDbTrace
 10
960.4301678594474
 20
386.4650019368505
 30
0.0
 11
958.7101442598145
 21
384.8883081615253
 31
0.0
 12
964.300237385607
 22
380.5165842502887
 32
0.0
 13
964.300237385607
 23
380.5165842502887
 33
0.0
  0
MTEXT
  5
E22
102
{ACAD_XDICTIONARY
360
EB1
102
}
330
A55
100
AcDbEntity
  8
BEM
100
AcDbMText
 10
946.2434488144692
 20
413.5338405435718
 30
0.0
 40
10.0
 41
0.0
 71
     5
 72
     1
  1
\A1;\U+2205145
 11
0.6757259037108714
 21
-0.7371529712713137
 31
0.0
 73
     1
 44
1.0
  0
POINT
  5
E23
330
A55
100
AcDbEntity
  8
Defpoints
 62
     0
100
AcDbPoint
 10
964.300237385607
 20
380.5165842502887
 30
0.0
  0
POINT
  5
E24
330
A55
100
AcDbEntity
  8
Defpoints
 62
     0
100
AcDbPoint
 10
866.3199813475301
 20
487.4037650846294
 30
0.0
  0
ENDBLK
  5
A5D
330
A55
100
AcDbEntity
  8
0
 48
10.0
100
AcDbBlockEnd
  0
BLOCK
  5
A68
330
A5E
100
AcDbEntity
  8
0
 48
10.0
100
AcDbBlockBegin
  2
*D11
 70
     1
 10
0.0
 20
0.0
 30
0.0
  3
*D11
  1

  0
LINE
  5
E25
330
A5E
100
AcDbEntity
  8
BEM
370
    -2
100
AcDbLine
 10
538.8376913534419
 20
433.9601746674592
 30
0.0
 11
550.4857838060771
 21
433.9601746674592
 31
0.0
  0
LINE
  5
E26
330
A5E
100
AcDbEntity
  8
BEM
370
    -2
100
AcDbLine
 10
547.7081779184392
 20
331.9601746674592
 30
0.0
 11
550.4857838060771
 21
331.9601746674592
 31
0.0
  0
LINE
  5
E27
330
A5E
100
AcDbEntity
  8
BEM
370
    -2
100
AcDbLine
 10
549.2357838060772
 20
426.9601746674592
 30
0.0
 11
549.2357838060772
 21
338.9601746674592
 31
0.0
  0
SOLID
  5
E28
330
A5E
100
AcDbEntity
  8
BEM
100
AcDbTrace
 10
548.0691171394105
 20
426.9601746674592
 30
0.0
 11
550.4024504727437
 21
426.9601746674592
 31
0.0
 12
549.2357838060772
 22
433.9601746674592
 32
0.0
 13
549.2357838060772
 23
433.9601746674592
 33
0.0
  0
SOLID
  5
E29
330
A5E
100
AcDbEntity
  8
BEM
100
AcDbTrace
 10
548.0691171394105
 20
338.9601746674592
 30
0.0
 11
550.4024504727437
 21
338.9601746674592
 31
0.0
 12
549.2357838060772
 22
331.9601746674592
 32
0.0
 13
549.2357838060772
 23
331.9601746674592
 33
0.0
  0
MTEXT
  5
E2A
330
A5E
100
AcDbEntity
  8
BEM
100
AcDbMText
 10
540.235783806077
 20
382.9601746674593
 30
0.0
 40
10.0
 41
0.0
 71
     5
 72
     1
  1
\A1;102
 11
0.0000000000000001
 21
1.0
 31
0.0
 73
     1
 44
1.0
  0
POINT
  5
E2B
330
A5E
100
AcDbEntity
  8
Defpoints
 62
     0
100
AcDbPoint
 10
538.8376913534419
 20
433.9601746674592
 30
0.0
  0
POINT
  5
E2C
330
A5E
100
AcDbEntity
  8
Defpoints
 62
     0
100
AcDbPoint
 10
547.7081779184392
 20
331.9601746674592
 30
0.0
  0
POINT
  5
E2D
330
A5E
100
AcDbEntity
  8
Defpoints
 62
     0
100
AcDbPoint
 10
549.2357838060772
 20
331.9601746674592
 30
0.0
  0
ENDBLK
  5
A69
330
A5E
100
AcDbEntity
  8
0
 48
10.0
100
AcDbBlockEnd
  0
BLOCK
  5
A74
330
A6A
100
AcDbEntity
  8
0
 48
10.0
100
AcDbBlockBegin
  2
*D12
 70
     1
 10
0.0
 20
0.0
 30
0.0
  3
*D12
  1

  0
LINE
  5
E2E
330
A6A
100
AcDbEntity
  8
BEM
370
    -2
100
AcDbLine
 10
709.8448027002064
 20
481.1726714672544
 30
0.0
 11
787.2393101539302
 21
481.1726714672544
 31
0.0
  0
LINE
  5
E2F
330
A6A
100
AcDbEntity
  8
BEM
370
    -2
100
AcDbLine
 10
720.6876913534422
 20
362.1726714672547
 30
0.0
 11
787.2393101539302
 21
362.1726714672547
 31
0.0
  0
LINE
  5
E30
330
A6A
100
AcDbEntity
  8
BEM
370
    -2
100
AcDbLine
 10
785.9893101539301
 20
474.1726714672544
 30
0.0
 11
785.9893101539301
 21
369.1726714672546
 31
0.0
  0
SOLID
  5
E31
330
A6A
100
AcDbEntity
  8
BEM
100
AcDbTrace
 10
784.8226434872636
 20
474.1726714672544
 30
0.0
 11
787.1559768205968
 21
474.1726714672544
 31
0.0
 12
785.9893101539301
 22
481.1726714672544
 32
0.0
 13
785.9893101539301
 23
481.1726714672544
 33
0.0
  0
SOLID
  5
E32
330
A6A
100
AcDbEntity
  8
BEM
100
AcDbTrace
 10
784.8226434872636
 20
369.1726714672546
 30
0.0
 11
787.1559768205968
 21
369.1726714672546
 31
0.0
 12
785.9893101539301
 22
362.1726714672547
 32
0.0
 13
785.9893101539301
 23
362.1726714672547
 33
0.0
  0
MTEXT
  5
E33
330
A6A
100
AcDbEntity
  8
BEM
100
AcDbMText
 10
776.9893101539301
 20
421.6726714672546
 30
0.0
 40
10.0
 41
0.0
 71
     5
 72
     1
  1
\A1;119
 11
0.0000000000000001
 21
1.0
 31
0.0
 73
     1
 44
1.0
  0
POINT
  5
E34
330
A6A
100
AcDbEntity
  8
Defpoints
 62
     0
100
AcDbPoint
 10
709.8448027002064
 20
481.1726714672544
 30
0.0
  0
POINT
  5
E35
330
A6A
100
AcDbEntity
  8
Defpoints
 62
     0
100
AcDbPoint
 10
720.6876913534422
 20
362.1726714672547
 30
0.0
  0
POINT
  5
E36
330
A6A
100
AcDbEntity
  8
Defpoints
 62
     0
100
AcDbPoint
 10
785.9893101539301
 20
362.1726714672547
 30
0.0
  0
ENDBLK
  5
A75
330
A6A
100
AcDbEntity
  8
0
 48
10.0
100
AcDbBlockEnd
  0
BLOCK
  5
A80
330
A76
100
AcDbEntity
  8
0
 48
10.0
100
AcDbBlockBegin
  2
*D13
 70
     1
 10
0.0
 20
0.0
 30
0.0
  3
*D13
  1

  0
LINE
  5
E37
330
A76
100
AcDbEntity
  8
BEM
370
    -2
100
AcDbLine
 10
722.7104524213874
 20
427.1726714672544
 30
0.0
 11
760.3168095994647
 21
427.1726714672544
 31
0.0
  0
LINE
  5
E38
330
A76
100
AcDbEntity
  8
BEM
370
    -2
100
AcDbLine
 10
720.6876913534422
 20
362.1726714672547
 30
0.0
 11
760.3168095994647
 21
362.1726714672547
 31
0.0
  0
LINE
  5
E39
330
A76
100
AcDbEntity
  8
BEM
370
    -2
100
AcDbLine
 10
759.0668095994648
 20
420.1726714672544
 30
0.0
 11
759.0668095994648
 21
369.1726714672546
 31
0.0
  0
SOLID
  5
E3A
330
A76
100
AcDbEntity
  8
BEM
100
AcDbTrace
 10
757.9001429327981
 20
420.1726714672544
 30
0.0
 11
760.2334762661314
 21
420.1726714672544
 31
0.0
 12
759.0668095994648
 22
427.1726714672544
 32
0.0
 13
759.0668095994648
 23
427.1726714672544
 33
0.0
  0
SOLID
  5
E3B
330
A76
100
AcDbEntity
  8
BEM
100
AcDbTrace
 10
757.9001429327981
 20
369.1726714672546
 30
0.0
 11
760.2334762661314
 21
369.1726714672546
 31
0.0
 12
759.0668095994648
 22
362.1726714672547
 32
0.0
 13
759.0668095994648
 23
362.1726714672547
 33
0.0
  0
MTEXT
  5
E3C
330
A76
100
AcDbEntity
  8
BEM
100
AcDbMText
 10
750.0668095994647
 20
394.6726714672546
 30
0.0
 40
10.0
 41
0.0
 71
     5
 72
     1
  1
\A1;65
 11
0.0000000000000001
 21
1.0
 31
0.0
 73
     1
 44
1.0
  0
POINT
  5
E3D
330
A76
100
AcDbEntity
  8
Defpoints
 62
     0
100
AcDbPoint
 10
722.7104524213874
 20
427.1726714672544
 30
0.0
  0
POINT
  5
E3E
330
A76
100
AcDbEntity
  8
Defpoints
 62
     0
100
AcDbPoint
 10
720.6876913534422
 20
362.1726714672547
 30
0.0
  0
POINT
  5
E3F
330
A76
100
AcDbEntity
  8
Defpoints
 62
     0
100
AcDbPoint
 10
759.0668095994648
 20
362.1726714672547
 30
0.0
  0
ENDBLK
  5
A81
330
A76
100
AcDbEntity
  8
0
 48
10.0
100
AcDbBlockEnd
  0
BLOCK
  5
A8C
330
A82
100
AcDbEntity
  8
0
 48
10.0
100
AcDbBlockBegin
  2
*D14
 70
     1
 10
0.0
 20
0.0
 30
0.0
  3
*D14
  1

  0
LINE
  5
E40
330
A82
100
AcDbEntity
  8
BEM
370
    -2
100
AcDbLine
 10
915.3101093665679
 20
523.960174667459
 30
0.0
 11
1041.664321553022
 21
523.960174667459
 31
0.0
  0
LINE
  5
E41
330
A82
100
AcDbEntity
  8
BEM
370
    -2
100
AcDbLine
 10
967.577730029183
 20
319.6328689116031
 30
0.0
 11
1041.664321553022
 21
319.6328689116031
 31
0.0
  0
LINE
  5
E42
330
A82
100
AcDbEntity
  8
BEM
370
    -2
100
AcDbLine
 10
1040.414321553022
 20
516.9601746674591
 30
0.0
 11
1040.414321553022
 21
326.6328689116031
 31
0.0
  0
SOLID
  5
E43
330
A82
100
AcDbEntity
  8
BEM
100
AcDbTrace
 10
1039.247654886355
 20
516.9601746674591
 30
0.0
 11
1041.580988219689
 21
516.9601746674591
 31
0.0
 12
1040.414321553022
 22
523.960174667459
 32
0.0
 13
1040.414321553022
 23
523.960174667459
 33
0.0
  0
SOLID
  5
E44
330
A82
100
AcDbEntity
  8
BEM
100
AcDbTrace
 10
1039.247654886355
 20
326.6328689116031
 30
0.0
 11
1041.580988219689
 21
326.6328689116031
 31
0.0
 12
1040.414321553022
 22
319.6328689116031
 32
0.0
 13
1040.414321553022
 23
319.6328689116031
 33
0.0
  0
MTEXT
  5
E45
330
A82
100
AcDbEntity
  8
BEM
100
AcDbMText
 10
1031.414321553022
 20
420.4152643549464
 30
0.0
 40
10.0
 41
0.0
 71
     5
 72
     1
  1
\A1;204
 11
0.0000000000000001
 21
1.0
 31
0.0
 73
     1
 44
1.0
  0
POINT
  5
E46
330
A82
100
AcDbEntity
  8
Defpoints
 62
     0
100
AcDbPoint
 10
915.3101093665679
 20
523.960174667459
 30
0.0
  0
POINT
  5
E47
330
A82
100
AcDbEntity
  8
Defpoints
 62
     0
100
AcDbPoint
 10
967.577730029183
 20
319.6328689116031
 30
0.0
  0
POINT
  5
E48
330
A82
100
AcDbEntity
  8
Defpoints
 62
     0
100
AcDbPoint
 10
1040.414321553022
 20
319.6328689116031
 30
0.0
  0
ENDBLK
  5
A8D
330
A82
100
AcDbEntity
  8
0
 48
10.0
100
AcDbBlockEnd
  0
BLOCK
  5
A9A
330
A8E
100
AcDbEntity
  8
0
 48
10.0
100
AcDbBlockBegin
  2
*D15
 70
     1
 10
0.0
 20
0.0
 30
0.0
  3
*D15
  1

  0
LINE
  5
E49
330
A8E
100
AcDbEntity
  8
BEM
370
    -2
100
AcDbLine
 10
915.3101093665679
 20
535.5995370467086
 30
0.0
 11
915.3101093665679
 21
576.1405068194052
 31
0.0
  0
LINE
  5
E4A
330
A8E
100
AcDbEntity
  8
BEM
370
    -2
100
AcDbLine
 10
886.8326899877118
 20
512.2012413752034
 30
0.0
 11
866.6815717858673
 21
567.5659836115321
 31
0.0
  0
ARC
  5
E4B
330
A8E
100
AcDbEntity
  8
BEM
370
    -2
100
AcDbCircle
 10
915.310109366568
 20
433.9601746674576
 30
0.0
 40
140.9303321519476
100
AcDbArc
 50
92.84617009213958
 51
107.1538299078606
  0
SOLID
  5
E4C
330
A8E
100
AcDbEntity
  8
BEM
100
AcDbTrace
 10
908.2832942869599
 20
575.8829688832158
 30
0.0
 11
908.3412425408379
 21
573.550355232326
 31
0.0
 12
915.310109366568
 22
574.8905068194052
 32
0.0
 13
915.310109366568
 23
574.8905068194052
 33
0.0
  0
SOLID
  5
E4D
330
A8E
100
AcDbEntity
  8
BEM
100
AcDbTrace
 10
874.1160485342934
 20
567.5155301089906
 30
0.0
 11
873.3727012256494
 21
569.727289413973
 31
0.0
 12
867.1090969650244
 22
566.3913678355497
 32
0.0
 13
867.1090969650244
 23
566.3913678355497
 33
0.0
  0
MTEXT
  5
E4E
330
A8E
100
AcDbEntity
  8
BEM
100
AcDbMText
 10
889.1830380065519
 20
581.5964867364806
 30
0.0
 40
10.0
 41
0.0
 71
     5
 72
     1
  1
\A1;20\U+00B0
 11
0.984699426393589
 21
0.174261411850521
 31
0.0
 73
     1
 44
1.0
  0
POINT
  5
E4F
330
A8E
100
AcDbEntity
  8
Defpoints
 62
     0
100
AcDbPoint
 10
898.9490964184115
 20
573.9375863300844
 30
0.0
  0
POINT
  5
E50
330
A8E
100
AcDbEntity
  8
Defpoints
 62
     0
100
AcDbPoint
 10
893.5964702290295
 20
493.6179078920298
 30
0.0
  0
POINT
  5
E51
330
A8E
100
AcDbEntity
  8
Defpoints
 62
     0
100
AcDbPoint
 10
915.3101093665679
 20
535.5995370467086
 30
0.0
  0
POINT
  5
E52
330
A8E
100
AcDbEntity
  8
Defpoints
 62
     0
100
AcDbPoint
 10
915.310109366568
 20
321.725165831783
 30
0.0
  0
POINT
  5
E53
330
A8E
100
AcDbEntity
  8
Defpoints
 62
     0
100
AcDbPoint
 10
886.8326899877118
 20
512.2012413752034
 30
0.0
  0
ENDBLK
  5
A9B
330
A8E
100
AcDbEntity
  8
0
 48
10.0
100
AcDbBlockEnd
  0
BLOCK
  5
AA6
330
A9C
100
AcDbEntity
  8
0
 48
10.0
100
AcDbBlockBegin
  2
*D16
 70
     1
 10
0.0
 20
0.0
 30
0.0
  3
*D16
  1

  0
LINE
  5
E54
330
A9C
100
AcDbEntity
  8
BEM
370
    -2
100
AcDbLine
 10
705.1876913534421
 20
350.6726714672544
 30
0.0
 11
705.1876913534421
 21
223.0357699702718
 31
0.0
  0
LINE
  5
E55
330
A9C
100
AcDbEntity
  8
BEM
370
    -2
100
AcDbLine
 10
650.6876913534421
 20
317.5633447212856
 30
0.0
 11
650.6876913534421
 21
223.0357699702718
 31
0.0
  0
LINE
  5
E56
330
A9C
100
AcDbEntity
  8
BEM
370
    -2
100
AcDbLine
 10
698.1876913534421
 20
224.2857699702717
 30
0.0
 11
657.687691353442
 21
224.2857699702717
 31
0.0
  0
SOLID
  5
E57
330
A9C
100
AcDbEntity
  8
BEM
100
AcDbTrace
 10
698.1876913534421
 20
225.4524366369384
 30
0.0
 11
698.1876913534421
 21
223.1191033036051
 31
0.0
 12
705.1876913534421
 22
224.2857699702717
 32
0.0
 13
705.1876913534421
 23
224.2857699702717
 33
0.0
  0
SOLID
  5
E58
330
A9C
100
AcDbEntity
  8
BEM
100
AcDbTrace
 10
657.687691353442
 20
225.4524366369384
 30
0.0
 11
657.687691353442
 21
223.1191033036051
 31
0.0
 12
650.6876913534421
 22
224.2857699702717
 32
0.0
 13
650.6876913534421
 23
224.2857699702717
 33
0.0
  0
MTEXT
  5
E59
330
A9C
100
AcDbEntity
  8
BEM
100
AcDbMText
 10
678.9495961153469
 20
233.2857699702718
 30
0.0
 40
10.0
 41
0.0
 71
     5
 72
     1
  1
\A1;54.5
 73
     1
 44
1.0
  0
POINT
  5
E5A
330
A9C
100
AcDbEntity
  8
Defpoints
 62
     0
100
AcDbPoint
 10
705.1876913534421
 20
350.6726714672544
 30
0.0
  0
POINT
  5
E5B
330
A9C
100
AcDbEntity
  8
Defpoints
 62
     0
100
AcDbPoint
 10
650.6876913534421
 20
317.5633447212856
 30
0.0
  0
POINT
  5
E5C
330
A9C
100
AcDbEntity
  8
Defpoints
 62
     0
100
AcDbPoint
 10
650.6876913534421
 20
224.2857699702717
 30
0.0
  0
ENDBLK
  5
AA7
330
A9C
100
AcDbEntity
  8
0
 48
10.0
100
AcDbBlockEnd
  0
BLOCK
  5
AB4
330
AA8
100
AcDbEntity
  8
0
 48
10.0
100
AcDbBlockBegin
  2
*D17
 70
     1
 10
0.0
 20
0.0
 30
0.0
  3
*D17
  1

  0
LINE
  5
E5D
330
AA8
100
AcDbEntity
  8
BEM
370
    -2
100
AcDbLine
 10
659.6876913534421
 20
327.2391622973754
 30
0.0
 11
659.6876913534421
 21
324.3923262272118
 31
0.0
  0
LINE
  5
E5E
330
AA8
100
AcDbEntity
  8
BEM
370
    -2
100
AcDbLine
 10
641.6876913534421
 20
327.6695540781658
 30
0.0
 11
641.6876913534421
 21
324.3923262272118
 31
0.0
  0
LINE
  5
E5F
330
AA8
100
AcDbEntity
  8
BEM
370
    -2
100
AcDbLine
 10
666.6876913534421
 20
325.6423262272118
 30
0.0
 11
673.6876913534421
 21
325.6423262272118
 31
0.0
  0
LINE
  5
E60
330
AA8
100
AcDbEntity
  8
BEM
370
    -2
100
AcDbLine
 10
634.6876913534421
 20
325.6423262272118
 30
0.0
 11
627.6876913534421
 21
325.6423262272118
 31
0.0
  0
LINE
  5
E61
330
AA8
100
AcDbEntity
  8
BEM
370
    -2
100
AcDbLine
 10
659.6876913534421
 20
325.6423262272118
 30
0.0
 11
641.6876913534421
 21
325.6423262272118
 31
0.0
  0
SOLID
  5
E62
330
AA8
100
AcDbEntity
  8
BEM
100
AcDbTrace
 10
666.6876913534421
 20
326.8089928938785
 30
0.0
 11
666.6876913534421
 21
324.4756595605451
 31
0.0
 12
659.6876913534421
 22
325.6423262272118
 32
0.0
 13
659.6876913534421
 23
325.6423262272118
 33
0.0
  0
SOLID
  5
E63
330
AA8
100
AcDbEntity
  8
BEM
100
AcDbTrace
 10
634.6876913534421
 20
326.8089928938785
 30
0.0
 11
634.6876913534421
 21
324.4756595605451
 31
0.0
 12
641.6876913534421
 22
325.6423262272118
 32
0.0
 13
641.6876913534421
 23
325.6423262272118
 33
0.0
  0
MTEXT
  5
E64
330
AA8
100
AcDbEntity
  8
BEM
100
AcDbMText
 10
650.6876913534421
 20
334.6423262272118
 30
0.0
 40
10.0
 41
0.0
 71
     5
 72
     1
  1
\A1;M18x1.5
 73
     1
 44
1.0
  0
POINT
  5
E65
330
AA8
100
AcDbEntity
  8
Defpoints
 62
     0
100
AcDbPoint
 10
659.6876913534421
 20
327.2391622973754
 30
0.0
  0
POINT
  5
E66
330
AA8
100
AcDbEntity
  8
Defpoints
 62
     0
100
AcDbPoint
 10
641.6876913534421
 20
327.6695540781658
 30
0.0
  0
POINT
  5
E67
330
AA8
100
AcDbEntity
  8
Defpoints
 62
     0
100
AcDbPoint
 10
641.6876913534421
 20
325.6423262272118
 30
0.0
  0
ENDBLK
  5
AB5
330
AA8
100
AcDbEntity
  8
0
 48
10.0
100
AcDbBlockEnd
  0
BLOCK
  5
AC0
330
AB6
100
AcDbEntity
  8
0
 48
10.0
100
AcDbBlockBegin
  2
*D18
 70
     1
 10
0.0
 20
0.0
 30
0.0
  3
*D18
  1

  0
LINE
  5
E68
330
AB6
100
AcDbEntity
  8
BEM
370
    -2
100
AcDbLine
 10
556.2876913534418
 20
488.9601746674592
 30
0.0
 11
547.9857838060771
 21
488.9601746674592
 31
0.0
  0
LINE
  5
E69
330
AB6
100
AcDbEntity
  8
BEM
370
    -2
100
AcDbLine
 10
556.2118610226554
 20
433.9601746674592
 30
0.0
 11
547.9857838060771
 21
433.9601746674592
 31
0.0
  0
LINE
  5
E6A
330
AB6
100
AcDbEntity
  8
BEM
370
    -2
100
AcDbLine
 10
549.2357838060772
 20
481.9601746674591
 30
0.0
 11
549.2357838060772
 21
440.9601746674592
 31
0.0
  0
SOLID
  5
E6B
330
AB6
100
AcDbEntity
  8
BEM
100
AcDbTrace
 10
548.0691171394105
 20
481.9601746674591
 30
0.0
 11
550.4024504727437
 21
481.9601746674591
 31
0.0
 12
549.2357838060772
 22
488.9601746674592
 32
0.0
 13
549.2357838060772
 23
488.9601746674592
 33
0.0
  0
SOLID
  5
E6C
330
AB6
100
AcDbEntity
  8
BEM
100
AcDbTrace
 10
548.0691171394105
 20
440.9601746674592
 30
0.0
 11
550.4024504727437
 21
440.9601746674592
 31
0.0
 12
549.2357838060772
 22
433.9601746674592
 32
0.0
 13
549.2357838060772
 23
433.9601746674592
 33
0.0
  0
MTEXT
  5
E6D
330
AB6
100
AcDbEntity
  8
BEM
100
AcDbMText
 10
540.235783806077
 20
461.4601746674592
 30
0.0
 40
10.0
 41
0.0
 71
     5
 72
     1
  1
\A1;55
 11
0.0000000000000001
 21
1.0
 31
0.0
 73
     1
 44
1.0
  0
POINT
  5
E6E
330
AB6
100
AcDbEntity
  8
Defpoints
 62
     0
100
AcDbPoint
 10
556.2876913534418
 20
488.9601746674592
 30
0.0
  0
POINT
  5
E6F
330
AB6
100
AcDbEntity
  8
Defpoints
 62
     0
100
AcDbPoint
 10
556.2118610226554
 20
433.9601746674592
 30
0.0
  0
POINT
  5
E70
330
AB6
100
AcDbEntity
  8
Defpoints
 62
     0
100
AcDbPoint
 10
549.2357838060772
 20
433.9601746674592
 30
0.0
  0
ENDBLK
  5
AC1
330
AB6
100
AcDbEntity
  8
0
 48
10.0
100
AcDbBlockEnd
  0
BLOCK
  5
ACB
330
AC2
100
AcDbEntity
  8
0
 48
10.0
100
AcDbBlockBegin
  2
*D19
 70
     1
 10
0.0
 20
0.0
 30
0.0
  3
*D19
  1

  0
LINE
  5
E71
330
AC2
100
AcDbEntity
  8
BEM
370
    -2
100
AcDbLine
 10
974.8639301749319
 20
449.3199598882056
 30
0.0
 11
970.1566941443202
 21
444.1390401868291
 31
0.0
  0
LINE
  5
E72
330
AC2
100
AcDbEntity
  8
BEM
370
    -2
100
AcDbLine
 10
992.0117185721604
 20
468.1933102289342
 30
0.0
 11
1030.102000360591
 21
510.1165726413817
 31
0.0
  0
LINE
  5
E73
330
AC2
100
AcDbEntity
  8
BEM
370
    -2
100
AcDbLine
 10
979.5711662055436
 20
454.5008795895821
 30
0.0
 11
987.3044825415487
 21
463.0123905275576
 31
0.0
  0
SOLID
  5
E74
330
AC2
100
AcDbEntity
  8
BEM
100
AcDbTrace
 10
974.0004435580358
 20
450.1044992266409
 30
0.0
 11
975.727416791828
 21
448.5354205497704
 31
0.0
 12
979.5711662055436
 22
454.5008795895821
 32
0.0
 13
979.5711662055436
 23
454.5008795895821
 33
0.0
  0
SOLID
  5
E75
330
AC2
100
AcDbEntity
  8
BEM
100
AcDbTrace
 10
991.1482319552643
 20
468.9778495673694
 30
0.0
 11
992.8752051890564
 21
467.4087708904989
 31
0.0
 12
987.3044825415487
 22
463.0123905275576
 32
0.0
 13
987.3044825415487
 23
463.0123905275576
 33
0.0
  0
MTEXT
  5
E76
102
{ACAD_XDICTIONARY
360
EB3
102
}
330
AC2
100
AcDbEntity
  8
BEM
100
AcDbMText
 10
1007.461832994364
 20
498.5818017488563
 30
0.0
 40
10.0
 41
0.0
 71
     5
 72
     1
  1
\A1;\U+220511.5
 11
0.6724622900873884
 21
0.7401313859109243
 31
0.0
 73
     1
 44
1.0
  0
POINT
  5
E77
330
AC2
100
AcDbEntity
  8
Defpoints
 62
     0
100
AcDbPoint
 10
987.3044825415487
 20
463.0123905275576
 30
0.0
  0
POINT
  5
E78
330
AC2
100
AcDbEntity
  8
Defpoints
 62
     0
100
AcDbPoint
 10
979.5711662055436
 20
454.5008795895821
 30
0.0
  0
ENDBLK
  5
ACC
330
AC2
100
AcDbEntity
  8
0
 48
10.0
100
AcDbBlockEnd
  0
BLOCK
  5
AF4
330
AEA
100
AcDbEntity
  8
0
 48
10.0
100
AcDbBlockBegin
  2
*D20
 70
     1
 10
0.0
 20
0.0
 30
0.0
  3
*D20
  1

  0
LINE
  5
DC1
330
AEA
100
AcDbEntity
  8
BEM
370
    -2
100
AcDbLine
 10
427.7876913534419
 20
496.4601746674592
 30
0.0
 11
290.5884713118418
 21
496.4601746674593
 31
0.0
  0
LINE
  5
DC2
330
AEA
100
AcDbEntity
  8
BEM
370
    -2
100
AcDbLine
 10
427.787691353442
 20
371.4601746674592
 30
0.0
 11
290.5884713118418
 21
371.4601746674593
 31
0.0
  0
LINE
  5
DC3
330
AEA
100
AcDbEntity
  8
BEM
370
    -2
100
AcDbLine
 10
291.8384713118418
 20
489.4601746674593
 30
0.0
 11
291.8384713118418
 21
378.4601746674593
 31
0.0
  0
SOLID
  5
DC4
330
AEA
100
AcDbEntity
  8
BEM
100
AcDbTrace
 10
290.6718046451752
 20
489.4601746674593
 30
0.0
 11
293.0051379785085
 21
489.4601746674593
 31
0.0
 12
291.8384713118418
 22
496.4601746674593
 32
0.0
 13
291.8384713118418
 23
496.4601746674593
 33
0.0
  0
SOLID
  5
DC5
330
AEA
100
AcDbEntity
  8
BEM
100
AcDbTrace
 10
290.6718046451751
 20
378.4601746674593
 30
0.0
 11
293.0051379785084
 21
378.4601746674593
 31
0.0
 12
291.8384713118418
 22
371.4601746674593
 32
0.0
 13
291.8384713118418
 23
371.4601746674593
 33
0.0
  0
MTEXT
  5
DC6
330
AEA
100
AcDbEntity
  8
BEM
100
AcDbMText
 10
282.8384713118417
 20
433.9601746674593
 30
0.0
 40
10.0
 41
0.0
 71
     5
 72
     1
  1
\A1;%%c125
 11
0.0000000000000001
 21
1.0
 31
0.0
 73
     1
 44
1.0
  0
POINT
  5
DC7
330
AEA
100
AcDbEntity
  8
Defpoints
 62
     0
100
AcDbPoint
 10
427.7876913534419
 20
496.4601746674592
 30
0.0
  0
POINT
  5
DC8
330
AEA
100
AcDbEntity
  8
Defpoints
 62
     0
100
AcDbPoint
 10
427.787691353442
 20
371.4601746674592
 30
0.0
  0
POINT
  5
DC9
330
AEA
100
AcDbEntity
  8
Defpoints
 62
     0
100
AcDbPoint
 10
291.8384713118418
 20
371.4601746674593
 30
0.0
  0
ENDBLK
  5
AF5
330
AEA
100
AcDbEntity
  8
0
 48
10.0
100
AcDbBlockEnd
  0
BLOCK
  5
B00
330
AF6
100
AcDbEntity
  8
0
 48
10.0
100
AcDbBlockBegin
  2
*D21
 70
     1
 10
0.0
 20
0.0
 30
0.0
  3
*D21
  1

  0
LINE
  5
DCA
330
AF6
100
AcDbEntity
  8
BEM
370
    -2
100
AcDbLine
 10
427.7876913534417
 20
523.9601746674592
 30
0.0
 11
265.5580082323019
 21
523.9601746674592
 31
0.0
  0
LINE
  5
DCB
330
AF6
100
AcDbEntity
  8
BEM
370
    -2
100
AcDbLine
 10
427.7876913534419
 20
343.9601746674592
 30
0.0
 11
265.5580082323019
 21
343.9601746674593
 31
0.0
  0
LINE
  5
DCC
330
AF6
100
AcDbEntity
  8
BEM
370
    -2
100
AcDbLine
 10
266.8080082323019
 20
516.9601746674592
 30
0.0
 11
266.8080082323019
 21
350.9601746674593
 31
0.0
  0
SOLID
  5
DCD
330
AF6
100
AcDbEntity
  8
BEM
100
AcDbTrace
 10
265.6413415656352
 20
516.9601746674592
 30
0.0
 11
267.9746748989686
 21
516.9601746674592
 31
0.0
 12
266.8080082323019
 22
523.9601746674592
 32
0.0
 13
266.8080082323019
 23
523.9601746674592
 33
0.0
  0
SOLID
  5
DCE
330
AF6
100
AcDbEntity
  8
BEM
100
AcDbTrace
 10
265.6413415656352
 20
350.9601746674593
 30
0.0
 11
267.9746748989686
 21
350.9601746674593
 31
0.0
 12
266.8080082323019
 22
343.9601746674593
 32
0.0
 13
266.8080082323019
 23
343.9601746674593
 33
0.0
  0
MTEXT
  5
DCF
330
AF6
100
AcDbEntity
  8
BEM
100
AcDbMText
 10
257.8080082323018
 20
433.9601746674593
 30
0.0
 40
10.0
 41
0.0
 71
     5
 72
     1
  1
\A1;%%c180
 11
0.0000000000000001
 21
1.0
 31
0.0
 73
     1
 44
1.0
  0
POINT
  5
DD0
330
AF6
100
AcDbEntity
  8
Defpoints
 62
     0
100
AcDbPoint
 10
427.7876913534417
 20
523.9601746674592
 30
0.0
  0
POINT
  5
DD1
330
AF6
100
AcDbEntity
  8
Defpoints
 62
     0
100
AcDbPoint
 10
427.7876913534419
 20
343.9601746674592
 30
0.0
  0
POINT
  5
DD2
330
AF6
100
AcDbEntity
  8
Defpoints
 62
     0
100
AcDbPoint
 10
266.8080082323019
 20
343.9601746674593
 30
0.0
  0
ENDBLK
  5
B01
330
AF6
100
AcDbEntity
  8
0
 48
10.0
100
AcDbBlockEnd
  0
BLOCK
  5
B3B
330
B31
100
AcDbEntity
  8
0
 48
10.0
100
AcDbBlockBegin
  2
*D22
 70
     1
 10
0.0
 20
0.0
 30
0.0
  3
*D22
  1

  0
LINE
  5
E02
330
B31
100
AcDbEntity
  8
BEM
370
    -2
100
AcDbLine
 10
356.837691353442
 20
449.4601746674592
 30
0.0
 11
356.837691353442
 21
598.0052955660767
 31
0.0
  0
LINE
  5
E03
330
B31
100
AcDbEntity
  8
BEM
370
    -2
100
AcDbLine
 10
426.8376913534419
 20
456.1137645059455
 30
0.0
 11
426.8376913534419
 21
598.0052955660767
 31
0.0
  0
LINE
  5
E04
330
B31
100
AcDbEntity
  8
BEM
370
    -2
100
AcDbLine
 10
363.837691353442
 20
596.7552955660766
 30
0.0
 11
419.837691353442
 21
596.7552955660766
 31
0.0
  0
SOLID
  5
E05
330
B31
100
AcDbEntity
  8
BEM
100
AcDbTrace
 10
363.837691353442
 20
597.9219622327433
 30
0.0
 11
363.837691353442
 21
595.5886288994101
 31
0.0
 12
356.837691353442
 22
596.7552955660766
 32
0.0
 13
356.837691353442
 23
596.7552955660766
 33
0.0
  0
SOLID
  5
E06
330
B31
100
AcDbEntity
  8
BEM
100
AcDbTrace
 10
419.837691353442
 20
597.9219622327433
 30
0.0
 11
419.837691353442
 21
595.5886288994101
 31
0.0
 12
426.8376913534419
 22
596.7552955660766
 32
0.0
 13
426.8376913534419
 23
596.7552955660766
 33
0.0
  0
MTEXT
  5
E07
330
B31
100
AcDbEntity
  8
BEM
100
AcDbMText
 10
391.837691353442
 20
605.7552955660767
 30
0.0
 40
10.0
 41
0.0
 71
     5
 72
     1
  1
\A1;70
 73
     1
 44
1.0
  0
POINT
  5
E08
330
B31
100
AcDbEntity
  8
Defpoints
 62
     0
100
AcDbPoint
 10
356.837691353442
 20
449.4601746674592
 30
0.0
  0
POINT
  5
E09
330
B31
100
AcDbEntity
  8
Defpoints
 62
     0
100
AcDbPoint
 10
426.8376913534419
 20
456.1137645059455
 30
0.0
  0
POINT
  5
E0A
330
B31
100
AcDbEntity
  8
Defpoints
 62
     0
100
AcDbPoint
 10
426.8376913534419
 20
596.7552955660766
 30
0.0
  0
ENDBLK
  5
B3C
330
B31
100
AcDbEntity
  8
0
 48
10.0
100
AcDbBlockEnd
  0
BLOCK
  5
C82
330
C80
100
AcDbEntity
  8
0
 48
10.0
100
AcDbBlockBegin
  2
GENAXEH
 70
     0
 10
0.0
 20
0.0
 30
0.0
  3
GENAXEH
  1

  0
LINE
  5
C81
330
C80
100
AcDbEntity
  8
0
100
AcDbLine
 10
-1.0
 20
0.0
 30
0.0
 11
1.0
 21
0.0
 31
0.0
  0
ENDBLK
  5
C83
330
C80
100
AcDbEntity
  8
0
 48
10.0
100
AcDbBlockEnd
  0
BLOCK
  5
CA7
330
CA3
100
AcDbEntity
  8
0
 48
10.0
100
AcDbBlockBegin
  2
_Open30
 70
     0
 10
0.0
 20
0.0
 30
0.0
  3
_Open30
  1

  0
LINE
  5
CA4
330
CA3
100
AcDbEntity
  8
0
  6
ByBlock
 62
     0
370
    -2
100
AcDbLine
 10
-1.0
 20
0.26794919
 30
0.0
 11
0.0
 21
0.0
 31
0.0
  0
LINE
  5
CA5
330
CA3
100
AcDbEntity
  8
0
  6
ByBlock
 62
     0
370
    -2
100
AcDbLine
 10
0.0
 20
0.0
 30
0.0
 11
-1.0
 21
-0.26794919
 31
0.0
  0
LINE
  5
CA6
330
CA3
100
AcDbEntity
  8
0
  6
ByBlock
 62
     0
370
    -2
100
AcDbLine
 10
0.0
 20
0.0
 30
0.0
 11
-1.0
 21
0.0
 31
0.0
  0
ENDBLK
  5
CA8
330
CA3
100
AcDbEntity
  8
0
 48
10.0
100
AcDbBlockEnd
  0
ENDSEC
  0
SECTION
  2
ENTITIES
  0
ARC
  5
85D
330
2
100
AcDbEntity
  8
0
100
AcDbCircle
 10
534.2876913534418
 20
337.9601746674592
 30
0.0
 40
6.0
100
AcDbArc
 50
180.0
 51
270.0
1001
ACAD
1000
ASC_BOUNDS
1002
{
1070
    19
1002
}
  0
LINE
  5
85E
330
2
100
AcDbEntity
  8
MITTE
 48
10.0
100
AcDbLine
 10
352.643654069929
 20
433.9601746674592
 30
0.0
 11
593.3020652554529
 21
433.9601746674592
 31
0.0
  0
DIMENSION
  5
85F
330
2
100
AcDbEntity
  8
BEM
100
AcDbDimension
  2
*D0
 10
427.7876913534419
 20
224.2857699702717
 30
0.0
 11
539.2376913534419
 21
233.2857699702718
 31
0.0
 70
    32
  1
223
 71
     5
 42
222.9000000000002
  3
ISO-25
100
AcDbAlignedDimension
 13
650.6876913534421
 23
317.5633447212856
 33
0.0
 14
427.7876913534419
 24
343.9601746674592
 34
0.0
100
AcDbRotatedDimension
1001
ACAD
1000
DSTYLE
1002
{
1070
   144
1040
1.0
1070
   289
1070
     0
1002
}
  0
DIMENSION
  5
860
330
2
100
AcDbEntity
  8
BEM
100
AcDbDimension
  2
*D1
 10
427.7876913534417
 20
596.7552955660766
 30
0.0
 11
575.4876913534419
 21
605.7552955660767
 31
0.0
 70
    32
  1
295.5
 71
     5
 42
295.4000000000002
  3
ISO-25
100
AcDbAlignedDimension
 13
723.187691353442
 23
384.0305358435236
 33
0.0
 14
427.7876913534417
 24
523.9601746674592
 34
0.0
100
AcDbRotatedDimension
1001
ACAD
1000
DSTYLE
1002
{
1070
   144
1040
1.0
1070
   289
1070
     0
1002
}
  0
LINE
  5
861
330
2
100
AcDbEntity
  8
0
100
AcDbLine
 10
507.2876913534417
 20
488.9601746674592
 30
0.0
 11
556.2876913534418
 21
488.9601746674592
 31
0.0
1001
ACAD
1000
ASC_BOUNDS
1002
{
1070
    19
1002
}
  0
LINE
  5
862
330
2
100
AcDbEntity
  8
0
100
AcDbLine
 10
505.287691353442
 20
353.9601746674592
 30
0.0
 11
530.4854967179075
 21
333.3186968905532
 31
0.0
  0
ARC
  5
863
330
2
100
AcDbEntity
  8
0
100
AcDbCircle
 10
518.2876913534419
 20
343.9601746674592
 30
0.0
 40
10.0
100
AcDbArc
 50
0.0
 51
90.0
1001
ACAD
1000
ASC_BOUNDS
1002
{
1070
    19
1002
}
  0
DIMENSION
  5
864
330
2
100
AcDbEntity
  8
BEM
 48
10.0
100
AcDbDimension
  2
*D2
 10
137.0044370108375
 20
319.1150289188813
 30
0.0
 11
160.7223149354987
 21
553.0798397478219
 31
0.0
 70
   162
 71
     5
 42
0.3490658503988546
  3
ISO-25
100
AcDb2LineAngularDimension
 13
158.6671120509561
 23
493.477885185169
 33
0.0
 14
164.8961525882521
 24
510.5920334062578
 34
0.0
 15
137.0044370108375
 25
532.9673544463998
 35
0.0
 16
151.1048437601498
 26
554.5968642424424
 36
0.0
1001
ACAD
1000
DSTYLE
1002
{
1070
   144
1040
1.0
1070
   289
1070
     0
1002
}
  0
DIMENSION
  5
865
330
2
100
AcDbEntity
  8
BEM
100
AcDbDimension
  2
*D20
 10
291.8384713118418
 20
371.4601746674593
 30
0.0
 11
282.8384713118417
 21
433.9601746674593
 31
0.0
 70
    32
  1
%%c<>
 71
     5
 42
125.0
  3
ISO-25
100
AcDbAlignedDimension
 13
427.7876913534419
 23
496.4601746674592
 33
0.0
 14
427.787691353442
 24
371.4601746674592
 34
0.0
 50
90.0
100
AcDbRotatedDimension
1001
ACAD
1000
DSTYLE
1002
{
1070
   144
1040
1.0
1070
   289
1070
     0
1002
}
  0
DIMENSION
  5
868
330
2
100
AcDbEntity
  8
BEM
100
AcDbDimension
  2
*D21
 10
266.8080082323019
 20
343.9601746674593
 30
0.0
 11
257.8080082323018
 21
433.9601746674593
 31
0.0
 70
    32
  1
%%c<>
 71
     5
 42
180.0
  3
ISO-25
100
AcDbAlignedDimension
 13
427.7876913534417
 23
523.9601746674592
 33
0.0
 14
427.7876913534419
 24
343.9601746674592
 34
0.0
 50
90.0
100
AcDbRotatedDimension
1001
ACAD
1000
DSTYLE
1002
{
1070
   144
1040
1.0
1070
   289
1070
     0
1002
}
  0
ARC
  5
86B
330
2
100
AcDbEntity
  8
0
100
AcDbCircle
 10
446.584752332616
 20
402.3993712703641
 30
0.0
 40
10.0
100
AcDbArc
 50
283.600285190082
 51
315.0000000000001
1001
ACAD
1000
ASC_BOUNDS
1002
{
1070
    19
1002
}
  0
ARC
  5
86C
330
2
100
AcDbEntity
  8
0
100
AcDbCircle
 10
476.2876913534418
 20
390.4601746674592
 30
0.0
 40
10.0
100
AcDbArc
 50
0.0
 51
90.0
1001
ACAD
1000
ASC_BOUNDS
1002
{
1070
    19
1002
}
  0
DIMENSION
  5
86D
330
2
100
AcDbEntity
  8
BEM
100
AcDbDimension
  2
*D3
 10
424.3376913534417
 20
413.9601746674591
 30
0.0
 11
388.7465109040474
 21
387.9804995775579
 31
0.0
 70
   164
 71
     5
 42
2.5
  3
ISO-25
100
AcDbRadialDimension
 15
426.3569598033935
 25
415.4341335973581
 35
0.0
 40
0.0
1001
ACAD
1000
DSTYLE
1002
{
1070
   144
1040
1.0
1070
   279
1070
     1
1002
}
  0
ARC
  5
86E
330
2
100
AcDbEntity
  8
0
100
AcDbCircle
 10
451.2876913534418
 20
382.9601746674592
 30
0.0
 40
10.0
100
AcDbArc
 50
103.600285190082
 51
180.0
1001
ACAD
1000
ASC_BOUNDS
1002
{
1070
    19
1002
}
  0
LINE
  5
86F
330
2
100
AcDbEntity
  8
LINIE
  6
GESTRICHELT
 48
10.0
100
AcDbLine
 10
432.7876913534419
 20
496.2601746674591
 30
0.0
 11
432.787691353442
 21
371.6601746674593
 31
0.0
1001
ACAD
1000
ASC_BOUNDS
1002
{
1070
    19
1002
}
  0
LINE
  5
870
330
2
100
AcDbEntity
  8
0
100
AcDbLine
 10
501.2876913534418
 20
482.9601746674592
 30
0.0
 11
501.2876913534418
 21
390.4269314075755
 31
0.0
  0
LINE
  5
871
330
2
100
AcDbEntity
  8
0
100
AcDbLine
 10
309.40648769592
 20
427.1726714672544
 30
0.0
 11
309.40648769592
 21
380.1726714672545
 31
0.0
  0
LINE
  5
872
330
2
100
AcDbEntity
  8
0
100
AcDbLine
 10
310.40648769592
 20
427.1726714672544
 30
0.0
 11
310.40648769592
 21
387.1285880923526
 31
0.0
  0
LINE
  5
873
330
2
100
AcDbEntity
  8
LINIE
  6
GESTRICHELT
 48
7.0
100
AcDbLine
 10
265.7184876959199
 20
390.6726714672544
 30
0.0
 11
273.90648769592
 21
395.4000154713791
 31
0.0
  0
LINE
  5
874
330
2
100
AcDbEntity
  8
LINIE
  6
GESTRICHELT
 48
7.0
100
AcDbLine
 10
273.90648769592
 20
395.4000154713791
 30
0.0
 11
282.0944876959199
 21
390.6726714672544
 31
0.0
  0
ARC
  5
875
330
2
100
AcDbEntity
  8
0
100
AcDbCircle
 10
279.4064876959202
 20
395.9963837787279
 30
0.0
 40
10.0
100
AcDbArc
 50
180.0
 51
219.3842076829996
  0
LINE
  5
876
330
2
100
AcDbEntity
  8
LINIE
  6
GESTRICHELT
 48
7.0
100
AcDbLine
 10
228.7184876959198
 20
390.6726714672544
 30
0.0
 11
236.90648769592
 21
395.4000154713791
 31
0.0
  0
LINE
  5
877
330
2
100
AcDbEntity
  8
LINIE
  6
GESTRICHELT
 48
7.0
100
AcDbLine
 10
236.90648769592
 20
395.4000154713791
 30
0.0
 11
245.0944876959198
 21
390.6726714672544
 31
0.0
  0
ARC
  5
878
330
2
100
AcDbEntity
  8
0
100
AcDbCircle
 10
231.4064876959197
 20
395.9963837787279
 30
0.0
 40
10.0
100
AcDbArc
 50
320.6157923170004
 51
0.0
  0
LINE
  5
879
330
2
100
AcDbEntity
  8
0
100
AcDbLine
 10
201.40648769592
 20
427.1726714672544
 30
0.0
 11
201.40648769592
 21
380.1726714672545
 31
0.0
  0
LINE
  5
87A
330
2
100
AcDbEntity
  8
0
100
AcDbLine
 10
200.4064876959199
 20
427.1726714672544
 30
0.0
 11
200.4064876959197
 21
387.1285880923526
 31
0.0
  0
LINE
  5
87B
330
2
100
AcDbEntity
  8
0
100
AcDbLine
 10
427.7876913534417
 20
523.9601746674592
 30
0.0
 11
427.7876913534419
 21
343.9601746674592
 31
0.0
1001
ACAD
1000
ASC_BOUNDS
1002
{
1070
    19
1002
}
  0
LINE
  5
87C
330
2
100
AcDbEntity
  8
0
100
AcDbLine
 10
441.2876913534419
 20
521.9601746674592
 30
0.0
 11
441.2876913534413
 21
345.9601746674588
 31
0.0
1001
ACAD
1000
ASC_BOUNDS
1002
{
1070
    19
1002
}
  0
LINE
  5
87D
330
2
100
AcDbEntity
  8
0
100
AcDbLine
 10
486.2876913534416
 20
428.9601746674592
 30
0.0
 11
486.287691353442
 21
359.9601746674593
 31
0.0
1001
ACAD
1000
ASC_BOUNDS
1002
{
1070
    19
1002
}
  0
LINE
  5
87E
330
2
100
AcDbEntity
  8
0
100
AcDbLine
 10
439.2876913534419
 20
523.9601746674592
 30
0.0
 11
439.2876913534418
 21
343.9601746674592
 31
0.0
  0
LINE
  5
87F
330
2
100
AcDbEntity
  8
MITTE
 48
20.0
100
AcDbLine
 10
255.40648769592
 20
486.8581979122531
 30
0.0
 11
255.40648769592
 21
347.7410782661309
 31
0.0
  0
ARC
  5
880
330
2
100
AcDbEntity
  8
0
100
AcDbCircle
 10
240.3829604810929
 20
433.9601746674592
 30
0.0
 40
90.0
100
AcDbArc
 50
342.170826285421
 51
229.4415405741457
  0
LINE
  5
881
330
2
100
AcDbEntity
  8
0
100
AcDbLine
 10
164.7963739620403
 20
430.8843335107719
 30
0.0
 11
191.5288252293767
 21
328.5985766858871
 31
0.0
  0
ARC
  5
882
330
2
100
AcDbEntity
  8
0
100
AcDbCircle
 10
240.3829604810929
 20
433.9601746674592
 30
0.0
 40
88.0
100
AcDbArc
 50
189.5202251796866
 51
227.5209141936002
  0
ARC
  5
883
330
2
100
AcDbEntity
  8
0
100
AcDbCircle
 10
253.0615083333139
 20
406.7709410563597
 30
0.0
 40
73.0
100
AcDbArc
 50
294.9999999999997
 51
28.59399549309629
  0
LINE
  5
884
330
2
100
AcDbEntity
  8
MITTE
 48
5.0
100
AcDbLine
 10
273.90648769592
 20
399.9286593783487
 30
0.0
 11
273.90648769592
 21
368.2901957384589
 31
0.0
  0
LINE
  5
885
330
2
100
AcDbEntity
  8
MITTE
 48
5.0
100
AcDbLine
 10
236.90648769592
 20
399.9286593783487
 30
0.0
 11
236.90648769592
 21
368.1294658815226
 31
0.0
  0
HATCH
  5
886
330
2
100
AcDbEntity
  8
LINIE
 48
10.0
100
AcDbHatch
 10
0.0
 20
0.0
 30
0.0
210
0.0
220
0.0
230
1.0
  2
AR-CONC
 70
     0
 71
     0
 91
        7
 92
        7
 72
     1
 73
     1
 93
        3
 10
255.40648769592
 20
481.1726714672544
 42
0.0
 10
255.40648769592
 20
427.1726714672544
 42
0.0
 10
309.40648769592
 20
427.1726714672544
 42
0.4142135623730951
 97
        0
 92
        7
 72
     1
 73
     1
 93
        3
 10
255.40648769592
 20
481.1726714672544
 42
0.3777644791310694
 10
201.834761941496
 20
433.9601746674592
 42
0.0
 10
255.40648769592
 20
433.9601746674592
 42
0.0
 97
        0
 92
        7
 72
     1
 73
     1
 93
        4
 10
255.40648769592
 20
427.1726714672544
 42
0.0
 10
255.40648769592
 20
433.9601746674592
 42
0.0
 10
201.834761941496
 20
433.9601746674592
 42
0.0315173936867916
 10
201.40648769592
 20
427.1726714672544
 42
0.0
 97
        0
 92
        7
 72
     1
 73
     1
 93
       16
 10
255.40648769592
 20
427.1726714672544
 42
0.0
 10
201.40648769592
 20
427.1726714672544
 42
0.0
 10
201.40648769592
 20
380.1726714672544
 42
0.4142135623730907
 10
209.40648769592
 20
372.1726714672545
 42
0.0
 10
227.90648769592
 20
372.1726714672545
 42
0.0
 10
227.90648769592
 20
385.6726714672544
 42
0.0
 10
228.71848769592
 20
385.6726714672544
 42
0.0
 10
228.7184876959198
 20
390.6726714672544
 42
0.0
 10
236.90648769592
 20
395.4000154713791
 42
0.0
 10
245.0944876959198
 20
390.6726714672544
 42
0.0
 10
245.0944876959198
 20
385.6726714672544
 42
0.0
 10
245.90648769592
 20
385.6726714672544
 42
0.0
 10
245.90648769592
 20
371.6726714672544
 42
0.0
 10
250.90648769592
 20
371.6726714672544
 42
0.0
 10
250.90648769592
 20
370.1726714672544
 42
0.0
 10
255.40648769592
 20
370.1726714672544
 42
0.0
 97
        0
 92
        7
 72
     1
 73
     1
 93
       16
 10
309.40648769592
 20
427.1726714672544
 42
0.0
 10
255.40648769592
 20
427.1726714672544
 42
0.0
 10
255.40648769592
 20
370.1726714672544
 42
0.0
 10
259.90648769592
 20
370.1726714672544
 42
0.0
 10
259.90648769592
 20
371.6726714672544
 42
0.0
 10
264.90648769592
 20
371.6726714672544
 42
0.0
 10
264.90648769592
 20
385.6726714672544
 42
0.0
 10
265.7184876959201
 20
385.6726714672544
 42
0.0
 10
265.7184876959201
 20
390.6726714672545
 42
0.0
 10
273.90648769592
 20
395.4000154713791
 42
0.0
 10
282.0944876959199
 20
390.6726714672544
 42
0.0
 10
282.0944876959199
 20
385.6726714672544
 42
0.0
 10
282.90648769592
 20
385.6726714672544
 42
0.0
 10
282.90648769592
 20
372.1726714672545
 42
0.0
 10
301.4064876959202
 20
372.1726714672545
 42
0.4142135623730857
 10
309.40648769592
 20
380.1726714672545
 42
0.0
 97
        0
 92
        7
 72
     1
 73
     1
 93
        5
 10
255.40648769592
 20
362.1726714672545
 42
0.0
 10
255.40648769592
 20
370.1726714672544
 42
0.0
 10
237.4064876959196
 20
370.1726714672544
 42
0.0
 10
237.4064876959197
 20
363.6726714672545
 42
0.1622776601683737
 10
237.9064876959197
 20
362.1726714672545
 42
0.0
 97
        0
 92
        7
 72
     1
 73
     1
 93
        5
 10
255.40648769592
 20
370.1726714672544
 42
0.0
 10
255.40648769592
 20
362.1726714672545
 42
0.0
 10
272.9064876959201
 20
362.1726714672545
 42
0.1622776601683939
 10
273.4064876959202
 20
363.6726714672546
 42
0.0
 10
273.4064876959202
 20
370.1726714672544
 42
0.0
 97
        0
 75
     0
 76
     1
 52
0.0
 41
3.0
 77
     0
 78
    13
 53
50.0
 43
247.8837277609556
 44
56.92377565896913
 45
21.5178054780226
 46
-1.882564049477853
 79
     2
 49
2.25
 49
-24.75
 53
355.0
 43
247.8837277609556
 44
56.92377565896913
 45
-4.162540008389999
 46
22.56576401100035
 79
     2
 49
1.799999999999999
 49
-19.8
 53
100.4514
 43
249.6768781609556
 44
56.76689545896914
 45
17.35528145142065
 46
20.68318626182861
 79
     2
 49
1.912205699999996
 49
-21.03426335999994
 53
46.1842
 43
247.8837277609556
 44
62.92377565896913
 45
32.01723145876933
 46
-4.965570429870542
 79
     2
 49
3.375
 49
-37.125
 53
96.63559999999996
 43
250.5518301109556
 44
62.50997644896916
 45
28.0398811664611
 46
29.22353612701325
 79
     2
 49
2.868308639999992
 49
-31.55138999999994
 53
351.1842000000001
 43
247.8837277609556
 44
62.92377565896913
 45
28.03985835400882
 46
29.22355802775974
 79
     2
 49
2.7
 49
-29.7
 53
21.0
 43
250.8837277609556
 44
61.42377565896913
 45
17.90721156355385
 46
-12.07856671996016
 79
     2
 49
2.25
 49
-24.75
 53
326.0
 43
250.8837277609556
 44
61.42377565896913
 45
7.299459957647451
 46
21.75450135140559
 79
     2
 49
1.799999999999999
 49
-19.8
 53
71.45140000000001
 43
252.3759947509556
 44
60.41722747896915
 45
25.2066788574447
 46
9.675914901298572
 79
     2
 49
1.9122057
 49
-21.03426336
 53
37.5
 43
247.8837277609556
 44
56.92377565896913
 45
0.3647956595187201
 46
9.986815614939345
 79
     6
 49
0.0
 49
-19.56
 49
0.0
 49
-20.1
 49
0.0
 49
-19.875
 53
7.499999999999999
 43
247.8837277609556
 44
56.92377565896913
 45
7.892086123264458
 46
11.8323513564708
 79
     6
 49
0.0
 49
-11.46
 49
0.0
 49
-19.11
 49
0.0
 49
-7.574999999999999
 53
327.5
 43
241.1937277609557
 44
56.92377565896913
 45
16.01467308517227
 46
-0.676646152031394
 79
     6
 49
0.0
 49
-7.5
 49
0.0
 49
-23.4
 49
0.0
 49
-31.05
 53
317.5
 43
238.1937277609556
 44
56.92377565896913
 45
17.49558508027159
 46
3.003149469969529
 79
     6
 49
0.0
 49
-9.75
 49
0.0
 49
-15.54
 49
0.0
 49
-22.05
 47
0.3771958435050378
 98
        7
 10
279.6976206949299
 20
462.2960164444318
 10
241.5877031502692
 20
455.1292949498781
 10
243.097006721514
 20
428.7255849786515
 10
244.6063102927584
 20
407.9798141823703
 10
303.846477834844
 20
407.2254221800408
 10
247.624917435248
 20
365.7338789024279
 10
265.3592343973725
 20
366.4882709047574
  0
ARC
  5
887
330
2
100
AcDbEntity
  8
0
100
AcDbCircle
 10
301.4064876959202
 20
380.1726714672544
 30
0.0
 40
8.0
100
AcDbArc
 50
269.9999999999935
 51
0.0
  0
LINE
  5
88A
330
2
100
AcDbEntity
  8
BEM
100
AcDbLine
 10
174.1195419409058
 20
377.5392035141424
 30
0.0
 11
203.1049809982617
 21
289.1722617430487
 31
0.0
  0
LINE
  5
88B
330
2
100
AcDbEntity
  8
0
100
AcDbLine
 10
305.5634059797366
 20
372.9129918918482
 30
0.0
 11
276.2000277954304
 21
356.1811835539061
 31
0.0
  0
DIMENSION
  5
88C
330
2
100
AcDbEntity
  8
BEM
100
AcDbDimension
  2
*D4
 10
133.5279642256645
 20
290.2082139931749
 30
0.0
 11
152.0279642256645
 21
299.2082139931749
 31
0.0
 70
    32
 71
     5
 42
37.0
  3
ISO-25
100
AcDbAlignedDimension
 13
170.5279642256645
 23
368.2901957384589
 33
0.0
 14
133.5279642256645
 24
368.1294658815226
 34
0.0
100
AcDbRotatedDimension
1001
ACAD
1000
DSTYLE
1002
{
1070
   144
1040
1.0
1070
   289
1070
     0
1002
}
  0
LINE
  5
88D
330
2
100
AcDbEntity
  8
BEM
100
AcDbLine
 10
129.9363865104233
 20
377.5392035141425
 30
0.0
 11
100.9509474530668
 21
289.172261743049
 31
0.0
  0
LINE
  5
891
330
2
100
AcDbEntity
  8
LINIE
  6
GESTRICHELT
 48
10.0
100
AcDbLine
 10
215.3559774387032
 20
370.1726714672544
 30
0.0
 11
295.4569979531367
 21
370.1726714672544
 31
0.0
  0
LINE
  5
892
330
2
100
AcDbEntity
  8
0
100
AcDbLine
 10
209.40648769592
 20
372.1726714672545
 30
0.0
 11
234.9064876959197
 21
372.1726714672545
 31
0.0
  0
LINE
  5
893
330
2
100
AcDbEntity
  8
0
100
AcDbLine
 10
242.5750415761076
 20
324.3673243738831
 30
0.0
 11
204.5958669711314
 21
319.721649361063
 31
0.0
  0
LINE
  5
894
330
2
100
AcDbEntity
  8
0
100
AcDbLine
 10
215.40648769592
 20
369.1726714672543
 30
0.0
 11
237.4064876959197
 21
369.1726714672543
 31
0.0
  0
LINE
  5
895
330
2
100
AcDbEntity
  8
0
100
AcDbLine
 10
205.2495694121034
 20
372.9129918918482
 30
0.0
 11
234.6129475964095
 21
356.1811835539061
 31
0.0
  0
ARC
  5
896
330
2
100
AcDbEntity
  8
0
100
AcDbCircle
 10
203.1388670333048
 20
331.6328689116033
 30
0.0
 40
12.0
100
AcDbArc
 50
194.6466799560688
 51
276.9738691867131
  0
LWPOLYLINE
  5
897
330
2
100
AcDbEntity
  8
0
 48
10.0
100
AcDbPolyline
 90
        6
 70
     1
 43
0.0
 10
204.3094365254711
 20
334.9313181023609
 10
200.8676109870997
 20
334.2958364240932
 10
199.6970414949334
 20
330.9973872333356
 10
201.9682975411385
 20
328.3344197208458
 10
205.41012307951
 20
328.9699013991134
 10
206.5806925716763
 20
332.268350589871
  0
LINE
  5
898
330
2
100
AcDbEntity
  8
MITTE
 48
4.0
100
AcDbLine
 10
199.3700849875163
 20
339.7150480906889
 30
0.0
 11
206.9076490790933
 21
323.5506897325176
 31
0.0
  0
LINE
  5
899
330
2
100
AcDbEntity
  8
MITTE
 48
4.0
100
AcDbLine
 10
211.2210462123904
 20
335.4016509573918
 30
0.0
 11
195.0566878542191
 21
327.8640868658148
 31
0.0
  0
CIRCLE
  5
89A
330
2
100
AcDbEntity
  8
0
 48
10.0
100
AcDbCircle
 10
203.1388670333048
 20
331.6328689116033
 30
0.0
 40
7.4
  0
CIRCLE
  5
89B
330
2
100
AcDbEntity
  8
0
 48
10.0
100
AcDbCircle
 10
203.1388670333048
 20
331.6328689116033
 30
0.0
 40
6.5
  0
LINE
  5
89C
330
2
100
AcDbEntity
  8
0
100
AcDbLine
 10
215.4064876959197
 20
369.6726714672545
 30
0.0
 11
215.40648769592
 21
369.1726714672543
 31
0.0
  0
ARC
  5
89D
330
2
100
AcDbEntity
  8
0
100
AcDbCircle
 10
206.40648769592
 20
380.9641740893836
 30
0.0
 40
8.0
100
AcDbArc
 50
144.0494323803783
 51
256.8171228859242
  0
ARC
  5
89E
330
2
100
AcDbEntity
  8
0
100
AcDbCircle
 10
209.4064876959197
 20
380.1726714672544
 30
0.0
 40
8.0
100
AcDbArc
 50
180.0
 51
270.0
  0
ARC
  5
89F
330
2
100
AcDbEntity
  8
0
100
AcDbCircle
 10
197.9064876959199
 20
387.1285880923526
 30
0.0
 40
2.5
100
AcDbArc
 50
324.0494323803791
 51
0.0
  0
ARC
  5
8A0
330
2
100
AcDbEntity
  8
0
100
AcDbCircle
 10
204.0118586918944
 20
370.7408795160536
 30
0.0
 40
2.5
100
AcDbArc
 50
60.32469145801069
 51
76.81712288592416
  0
ARC
  5
8A1
330
2
100
AcDbEntity
  8
0
100
AcDbCircle
 10
212.9064876959199
 20
369.6726714672545
 30
0.0
 40
2.5
100
AcDbArc
 50
0.0
 51
90.0
  0
LINE
  5
8A2
330
2
100
AcDbEntity
  8
0
100
AcDbLine
 10
283.9126414403848
 20
340.6104726026842
 30
0.0
 11
259.4423311903953
 21
329.1997795356853
 31
0.0
  0
ARC
  5
8A3
330
2
100
AcDbEntity
  8
0
100
AcDbCircle
 10
235.7757085329163
 20
379.9530156097377
 30
0.0
 40
56.0
100
AcDbArc
 50
276.9738691867131
 51
294.9999999999997
  0
LINE
  5
8A4
330
2
100
AcDbEntity
  8
LINIE
  6
GESTRICHELT
 48
7.0
100
AcDbLine
 10
259.90648769592
 20
371.6726714672544
 30
0.0
 11
287.9064876959199
 21
371.6726714672544
 31
0.0
  0
LINE
  5
8A5
330
2
100
AcDbEntity
  8
0
100
AcDbLine
 10
237.9064876959197
 20
362.1726714672545
 30
0.0
 11
272.9064876959202
 21
362.1726714672545
 31
0.0
  0
ARC
  5
8A6
330
2
100
AcDbEntity
  8
0
100
AcDbCircle
 10
255.40648769592
 20
392.6726714672544
 30
0.0
 40
42.0
100
AcDbArc
 50
240.32469145801
 51
299.6753085419893
  0
LINE
  5
8A7
330
2
100
AcDbEntity
  8
0
100
AcDbLine
 10
237.4064876959193
 20
384.0305358435232
 30
0.0
 11
237.4064876959197
 21
363.6726714672545
 31
0.0
  0
ARC
  5
8A8
330
2
100
AcDbEntity
  8
0
100
AcDbCircle
 10
239.9064876959197
 20
363.6726714672545
 30
0.0
 40
2.5
100
AcDbArc
 50
180.0
 51
216.8698976458401
  0
LINE
  5
8A9
330
2
100
AcDbEntity
  8
LINIE
  6
GESTRICHELT
 48
7.0
100
AcDbLine
 10
228.7184876959201
 20
372.4846714672545
 30
0.0
 11
245.0944876959198
 21
372.4846714672545
 31
0.0
  0
LINE
  5
8AA
330
2
100
AcDbEntity
  8
LINIE
  6
GESTRICHELT
 48
7.0
100
AcDbLine
 10
222.90648769592
 20
371.6726714672544
 30
0.0
 11
250.90648769592
 21
371.6726714672544
 31
0.0
  0
LINE
  5
8AB
330
2
100
AcDbEntity
  8
LINIE
  6
GESTRICHELT
 48
7.0
100
AcDbLine
 10
227.90648769592
 20
385.6726714672544
 30
0.0
 11
245.90648769592
 21
385.6726714672544
 31
0.0
  0
LINE
  5
8AC
330
2
100
AcDbEntity
  8
LINIE
  6
GESTRICHELT
 48
7.0
100
AcDbLine
 10
228.7184876959198
 20
390.6726714672544
 30
0.0
 11
245.0944876959198
 21
390.6726714672544
 31
0.0
  0
LINE
  5
8AD
330
2
100
AcDbEntity
  8
LINIE
  6
GESTRICHELT
 48
7.0
100
AcDbLine
 10
227.90648769592
 20
385.6726714672544
 30
0.0
 11
227.90648769592
 21
371.6726714672544
 31
0.0
  0
LINE
  5
8AE
330
2
100
AcDbEntity
  8
LINIE
  6
GESTRICHELT
 48
7.0
100
AcDbLine
 10
228.7184876959198
 20
390.6726714672544
 30
0.0
 11
228.7184876959201
 21
372.4846714672545
 31
0.0
  0
LINE
  5
8AF
330
2
100
AcDbEntity
  8
LINIE
  6
GESTRICHELT
 48
7.0
100
AcDbLine
 10
228.7184876959201
 20
372.4846714672545
 30
0.0
 11
227.90648769592
 21
371.6726714672544
 31
0.0
  0
LINE
  5
8B0
330
2
100
AcDbEntity
  8
LINIE
  6
GESTRICHELT
 48
7.0
100
AcDbLine
 10
222.90648769592
 20
371.6726714672544
 30
0.0
 11
222.90648769592
 21
370.1726714672544
 31
0.0
  0
ARC
  5
8B1
330
2
100
AcDbEntity
  8
0
100
AcDbCircle
 10
234.9064876959197
 20
369.6726714672545
 30
0.0
 40
2.5
100
AcDbArc
 50
0.0
 51
90.0
  0
LWPOLYLINE
  5
8B2
330
2
100
AcDbEntity
  8
BEM
100
AcDbPolyline
 90
        2
 70
     1
 43
1.0
 10
130.320021137994
 20
377.5674216474087
 42
-1.0
 10
129.320021137994
 20
377.5674216474087
 42
-1.0
  0
ARC
  5
8B3
330
2
100
AcDbEntity
  8
0
100
AcDbCircle
 10
247.4064876959197
 20
384.0305358435235
 30
0.0
 40
10.0
100
AcDbArc
 50
145.8011143785778
 51
180.0
  0
LINE
  5
8B4
330
2
100
AcDbEntity
  8
LINIE
  6
GESTRICHELT
 48
7.0
100
AcDbLine
 10
245.0944876959198
 20
390.6726714672544
 30
0.0
 11
245.0944876959198
 21
372.4846714672543
 31
0.0
  0
LINE
  5
8B5
330
2
100
AcDbEntity
  8
LINIE
  6
GESTRICHELT
 48
7.0
100
AcDbLine
 10
245.90648769592
 20
385.6726714672544
 30
0.0
 11
245.90648769592
 21
371.6726714672544
 31
0.0
  0
LINE
  5
8B6
330
2
100
AcDbEntity
  8
LINIE
  6
GESTRICHELT
 48
7.0
100
AcDbLine
 10
250.90648769592
 20
371.6726714672544
 30
0.0
 11
250.90648769592
 21
370.1726714672544
 31
0.0
  0
LINE
  5
8B7
330
2
100
AcDbEntity
  8
LINIE
  6
GESTRICHELT
 48
7.0
100
AcDbLine
 10
245.0944876959198
 20
372.4846714672545
 30
0.0
 11
245.90648769592
 21
371.6726714672544
 31
0.0
  0
LINE
  5
8B8
330
2
100
AcDbEntity
  8
LINIE
  6
GESTRICHELT
 48
7.0
100
AcDbLine
 10
259.90648769592
 20
371.6726714672544
 30
0.0
 11
259.90648769592
 21
370.1726714672544
 31
0.0
  0
LINE
  5
8B9
330
2
100
AcDbEntity
  8
0
100
AcDbLine
 10
273.4064876959202
 20
384.0305358435235
 30
0.0
 11
273.4064876959202
 21
363.6726714672546
 31
0.0
  0
LINE
  5
8BA
330
2
100
AcDbEntity
  8
0
100
AcDbLine
 10
295.4064876959202
 20
369.6726714672545
 30
0.0
 11
295.40648769592
 21
369.1726714672543
 31
0.0
  0
LINE
  5
8BB
330
2
100
AcDbEntity
  8
0
100
AcDbLine
 10
273.4064876959202
 20
369.1726714672543
 30
0.0
 11
295.40648769592
 21
369.1726714672543
 31
0.0
  0
ARC
  5
8BC
330
2
100
AcDbEntity
  8
0
100
AcDbCircle
 10
270.9064876959202
 20
363.6726714672546
 30
0.0
 40
2.5
100
AcDbArc
 50
323.1301023541532
 51
0.0
  0
LINE
  5
8BD
330
2
100
AcDbEntity
  8
0
100
AcDbLine
 10
275.9064876959202
 20
372.1726714672544
 30
0.0
 11
301.40648769592
 21
372.1726714672545
 31
0.0
  0
LINE
  5
8BE
330
2
100
AcDbEntity
  8
LINIE
  6
GESTRICHELT
 48
7.0
100
AcDbLine
 10
282.0944876959199
 20
372.4846714672545
 30
0.0
 11
282.90648769592
 21
371.6726714672544
 31
0.0
  0
LINE
  5
8BF
330
2
100
AcDbEntity
  8
LINIE
  6
GESTRICHELT
 48
7.0
100
AcDbLine
 10
264.90648769592
 20
385.6726714672544
 30
0.0
 11
282.90648769592
 21
385.6726714672544
 31
0.0
  0
LINE
  5
8C0
330
2
100
AcDbEntity
  8
LINIE
  6
GESTRICHELT
 48
7.0
100
AcDbLine
 10
264.90648769592
 20
385.6726714672544
 30
0.0
 11
264.90648769592
 21
371.6726714672544
 31
0.0
  0
LINE
  5
8C1
330
2
100
AcDbEntity
  8
LINIE
  6
GESTRICHELT
 48
7.0
100
AcDbLine
 10
265.7184876959201
 20
390.6726714672544
 30
0.0
 11
265.7184876959201
 21
372.4846714672545
 31
0.0
  0
LINE
  5
8C2
330
2
100
AcDbEntity
  8
LINIE
  6
GESTRICHELT
 48
7.0
100
AcDbLine
 10
282.0944876959199
 20
390.6726714672544
 30
0.0
 11
282.0944876959199
 21
372.4846714672545
 31
0.0
  0
LINE
  5
8C3
330
2
100
AcDbEntity
  8
LINIE
  6
GESTRICHELT
 48
7.0
100
AcDbLine
 10
265.7184876959199
 20
372.4846714672543
 30
0.0
 11
282.0944876959199
 21
372.4846714672545
 31
0.0
  0
LINE
  5
8C4
330
2
100
AcDbEntity
  8
LINIE
  6
GESTRICHELT
 48
7.0
100
AcDbLine
 10
265.7184876959201
 20
372.4846714672545
 30
0.0
 11
264.90648769592
 21
371.6726714672544
 31
0.0
  0
LWPOLYLINE
  5
8C5
330
2
100
AcDbEntity
  8
BEM
100
AcDbPolyline
 90
        2
 70
     1
 43
1.0
 10
173.735907313335
 20
377.5674216474087
 42
1.0
 10
174.735907313335
 20
377.5674216474087
 42
1.0
  0
ARC
  5
8C6
330
2
100
AcDbEntity
  8
0
100
AcDbCircle
 10
275.9064876959202
 20
369.6726714672545
 30
0.0
 40
2.5
100
AcDbArc
 50
90.0
 51
180.0
  0
LINE
  5
8C7
330
2
100
AcDbEntity
  8
LINIE
  6
GESTRICHELT
 48
7.0
100
AcDbLine
 10
265.7184876959201
 20
390.6726714672544
 30
0.0
 11
282.0944876959199
 21
390.6726714672544
 31
0.0
  0
ARC
  5
8C8
330
2
100
AcDbEntity
  8
0
100
AcDbCircle
 10
263.4064876959202
 20
384.0305358435235
 30
0.0
 40
10.0
100
AcDbArc
 50
0.0
 51
34.1988856214222
  0
LINE
  5
8C9
330
2
100
AcDbEntity
  8
MITTE
 48
10.0
100
AcDbLine
 10
282.4064876959198
 20
389.6677055822612
 30
0.0
 11
282.4064876959198
 21
381.7938768067084
 31
0.0
  0
LINE
  5
8CA
330
2
100
AcDbEntity
  8
LINIE
  6
GESTRICHELT
 48
7.0
100
AcDbLine
 10
282.90648769592
 20
385.6726714672544
 30
0.0
 11
282.90648769592
 21
371.6726714672544
 31
0.0
  0
LINE
  5
8CB
330
2
100
AcDbEntity
  8
LINIE
  6
GESTRICHELT
 48
7.0
100
AcDbLine
 10
287.9064876959199
 20
371.6726714672544
 30
0.0
 11
287.9064876959199
 21
370.1726714672544
 31
0.0
  0
ARC
  5
8CC
330
2
100
AcDbEntity
  8
0
100
AcDbCircle
 10
297.9064876959197
 20
369.6726714672545
 30
0.0
 40
2.5
100
AcDbArc
 50
90.0
 51
180.0
  0
ARC
  5
8CE
330
2
100
AcDbEntity
  8
0
100
AcDbCircle
 10
304.40648769592
 20
380.9641740893836
 30
0.0
 40
8.0
100
AcDbArc
 50
283.1828771140758
 51
35.95056761962162
  0
ARC
  5
8CF
330
2
100
AcDbEntity
  8
0
100
AcDbCircle
 10
306.8011166999455
 20
370.7408795160536
 30
0.0
 40
2.5
100
AcDbArc
 50
103.1828771140758
 51
119.6753085419893
  0
ARC
  5
8D0
330
2
100
AcDbEntity
  8
0
100
AcDbCircle
 10
312.9064876959199
 20
387.1285880923526
 30
0.0
 40
2.5
100
AcDbArc
 50
180.0
 51
215.9505676196216
  0
DIMENSION
  5
8D1
330
2
100
AcDbEntity
  8
BEM
100
AcDbDimension
  2
*D5
 10
441.2876913534417
 20
261.6243098061532
 30
0.0
 11
473.8115008772513
 21
261.6243098061532
 31
0.0
 70
   160
 71
     5
 42
13.49999999999977
  3
ISO-25
100
AcDbAlignedDimension
 13
427.787691353442
 23
343.9601746674592
 33
0.0
 14
441.2876913534417
 24
345.9601746674592
 34
0.0
100
AcDbRotatedDimension
1001
ACAD
1000
DSTYLE
1002
{
1070
   144
1040
1.0
1070
   289
1070
     0
1002
}
  0
LINE
  5
8D2
330
2
100
AcDbEntity
  8
0
100
AcDbLine
 10
487.8155553984425
 20
355.9601746674592
 30
0.0
 11
441.2876913534419
 21
355.9601746674592
 31
0.0
  0
DIMENSION
  5
8D3
330
2
100
AcDbEntity
  8
BEM
100
AcDbDimension
  2
*D6
 10
427.7876913534419
 20
302.5264874050417
 30
0.0
 11
454.1210246867754
 21
302.5264874050417
 31
0.0
 70
   160
 71
     5
 42
5.000000000000113
  3
ISO-25
100
AcDbAlignedDimension
 13
432.787691353442
 23
371.6601746674593
 33
0.0
 14
427.7876913534419
 24
343.9601746674592
 34
0.0
100
AcDbRotatedDimension
1001
ACAD
1000
DSTYLE
1002
{
1070
   144
1040
1.0
1070
   289
1070
     0
1002
}
  0
LINE
  5
8D4
330
2
100
AcDbEntity
  8
0
100
AcDbLine
 10
441.2876913534417
 20
345.9601746674592
 30
0.0
 11
439.2876913534418
 21
343.9601746674592
 31
0.0
  0
LINE
  5
8D5
330
2
100
AcDbEntity
  8
0
100
AcDbLine
 10
427.787691353442
 20
343.9601746674592
 30
0.0
 11
439.2876913534418
 21
343.9601746674592
 31
0.0
  0
ARC
  5
8D6
330
2
100
AcDbEntity
  8
LINIE
  6
GESTRICHELT
 48
10.0
100
AcDbCircle
 10
432.5876913534419
 20
371.6601746674593
 30
0.0
 40
0.2
100
AcDbArc
 50
270.0
 51
0.0
1001
ACAD
1000
ASC_BOUNDS
1002
{
1070
    19
1002
}
  0
LINE
  5
8D7
330
2
100
AcDbEntity
  8
LINIE
  6
GESTRICHELT
 48
10.0
100
AcDbLine
 10
427.787691353442
 20
371.4601746674592
 30
0.0
 11
432.5876913534419
 21
371.4601746674592
 31
0.0
  0
ARC
  5
8D8
330
2
100
AcDbEntity
  8
0
100
AcDbCircle
 10
492.287691353442
 20
359.9601746674593
 30
0.0
 40
6.0
100
AcDbArc
 50
180.0
 51
270.0
1001
ACAD
1000
ASC_BOUNDS
1002
{
1070
    19
1002
}
  0
LINE
  5
8D9
330
2
100
AcDbEntity
  8
0
100
AcDbLine
 10
492.2876913534419
 20
353.9601746674593
 30
0.0
 11
518.2876913534419
 21
353.9601746674592
 31
0.0
1001
ACAD
1000
ASC_BOUNDS
1002
{
1070
    19
1002
}
  0
LINE
  5
8DA
330
2
100
AcDbEntity
  8
MITTE
 48
4.0
100
AcDbLine
 10
319.0154482311808
 20
465.3794271111116
 30
0.0
 11
301.3218719346493
 21
467.6241345318744
 31
0.0
  0
CIRCLE
  5
8DB
330
2
100
AcDbEntity
  8
0
 48
10.0
100
AcDbCircle
 10
310.168660082915
 20
466.5017808214929
 30
0.0
 40
7.4
  0
LINE
  5
8DC
330
2
100
AcDbEntity
  8
MITTE
 48
10.0
100
AcDbLine
 10
334.0615788549814
 20
433.9601746674592
 30
0.0
 11
145.9344140287846
 21
433.9601746674592
 31
0.0
  0
LEADER
  5
8DD
330
2
100
AcDbEntity
  8
BEM
100
AcDbLeader
  3
STANDARD
 73
     0
 75
     1
 40
78.57142857142858
 41
162.8571428571428
 76
     3
 10
386.4553847473568
 20
454.7601746674591
 30
0.0
 10
323.6514706814233
 20
588.2493275301083
 30
0.0
 10
316.6514706814233
 20
588.2493275301083
 30
0.0
340
8DE
213
-0.8206305724136768
223
-0.0415216132826188
233
0.0
  0
MTEXT
  5
8DE
102
{ACAD_REACTORS
330
8DD
102
}
330
2
100
AcDbEntity
  8
BEM
100
AcDbMText
 10
150.6149583966941
 20
670.8622777148194
 30
0.0
 40
10.0
 41
0.0
 71
     1
 72
     1
  1
Paßfeder\PFitting key\PClavette d'ajustage\PLinguetta\PA 10x8x50 DIN 6885
 73
     1
 44
1.0
  0
ARC
  5
8DF
330
2
100
AcDbEntity
  8
0
100
AcDbCircle
 10
255.40648769592
 20
427.1726714672544
 30
0.0
 40
54.0
100
AcDbArc
 50
0.0
 51
180.0
  0
LINE
  5
8E0
330
2
100
AcDbEntity
  8
MITTE
 48
10.0
100
AcDbLine
 10
191.5880010289475
 20
427.1726714672544
 30
0.0
 11
318.8213119471638
 21
427.1726714672544
 31
0.0
  0
ARC
  5
8E1
330
2
100
AcDbEntity
  8
0
100
AcDbCircle
 10
255.40648769592
 20
427.1726714672544
 30
0.0
 40
55.0
100
AcDbArc
 50
0.0
 51
37.69136182995636
  0
ARC
  5
8E2
330
2
100
AcDbEntity
  8
0
100
AcDbCircle
 10
240.3829604810929
 20
433.9601746674592
 30
0.0
 40
89.0
100
AcDbArc
 50
40.26856469884806
 51
99.73143530115821
  0
LINE
  5
8E3
330
2
100
AcDbEntity
  8
0
100
AcDbLine
 10
315.3399987558188
 20
477.3303197963559
 30
0.0
 11
295.4671792877139
 21
486.8208965116093
 31
0.0
  0
ARC
  5
8E4
330
2
100
AcDbEntity
  8
0
100
AcDbCircle
 10
283.1354783968016
 20
551.4217522656975
 30
0.0
 40
65.0
100
AcDbArc
 50
279.7469712997371
 51
292.7694271590542
  0
DIMENSION
  5
8E5
330
2
100
AcDbEntity
  8
BEM
100
AcDbDimension
  2
*D7
 10
30.27947439575719
 20
427.1726714672544
 30
0.0
 11
30.27947439575712
 21
430.5664230673568
 31
0.0
 70
   160
  1
6.7
 71
     5
 42
6.78750320020481
  3
ISO-25
100
AcDbAlignedDimension
 13
57.57941777335611
 23
433.9601746674592
 33
0.0
 14
91.6518349519514
 24
427.1726714672544
 34
0.0
 50
90.0
100
AcDbRotatedDimension
1001
ACAD
1000
DSTYLE
1002
{
1070
   144
1040
1.0
1070
   289
1070
     0
1002
}
  0
ARC
  5
8E6
330
2
100
AcDbEntity
  8
0
100
AcDbCircle
 10
283.1354783968016
 20
551.4217522656975
 30
0.0
 40
65.0
100
AcDbArc
 50
207.2305728409485
 51
253.7467412799676
  0
LINE
  5
8E7
330
2
100
AcDbEntity
  8
0
100
AcDbLine
 10
203.9437427844869
 20
500.2733212800229
 30
0.0
 11
212.279322082082
 21
482.3976137898739
 31
0.0
  0
ARC
  5
8E8
330
2
100
AcDbEntity
  8
0
100
AcDbCircle
 10
240.3829604810929
 20
433.9601746674592
 30
0.0
 40
56.0
100
AcDbArc
 50
87.70168236141797
 51
133.4896255071043
  0
LINE
  5
8E9
330
2
100
AcDbEntity
  8
0
100
AcDbLine
 10
213.0068206548535
 20
504.4995038974298
 30
0.0
 11
221.3423999524485
 21
486.6237964072809
 31
0.0
  0
LINE
  5
8EA
330
2
100
AcDbEntity
  8
MITTE
 48
20.0
100
AcDbLine
 10
240.3829604810929
 20
532.9673544463998
 30
0.0
 11
240.3829604810929
 21
406.5142166347871
 31
0.0
  0
ARC
  5
8EB
330
2
100
AcDbEntity
  8
0
100
AcDbCircle
 10
122.9213828828544
 20
476.7126925831678
 30
0.0
 40
65.0
100
AcDbArc
 50
344.2477660926274
 51
22.76942715904981
  0
ARC
  5
8EC
330
2
100
AcDbEntity
  8
0
100
AcDbCircle
 10
240.3829604810929
 20
433.9601746674592
 30
0.0
 40
89.0
100
AcDbArc
 50
130.2685646988434
 51
189.7314353011545
  0
ARC
  5
8ED
330
2
100
AcDbEntity
  8
0
100
AcDbCircle
 10
220.2505423693957
 20
472.6733253988018
 30
0.0
 40
2.5
100
AcDbArc
 50
270.8412395351307
 51
307.6913618299517
  0
ARC
  5
8EE
330
2
100
AcDbEntity
  8
0
100
AcDbCircle
 10
255.40648769592
 20
427.1726714672544
 30
0.0
 40
55.0
100
AcDbArc
 50
142.3086381700436
 51
180.0
  0
ARC
  5
8EF
330
2
100
AcDbEntity
  8
0
100
AcDbCircle
 10
176.4064157659684
 20
433.9186257364881
 30
0.0
 40
12.0
100
AcDbArc
 50
133.4896255071043
 51
194.6466799560688
  0
LINE
  5
8F0
330
2
100
AcDbEntity
  8
0
100
AcDbLine
 10
168.1477371073042
 20
442.6246137225198
 30
0.0
 11
201.842460073994
 21
474.5881186022734
 31
0.0
  0
LINE
  5
8F1
330
2
100
AcDbEntity
  8
MITTE
 48
4.0
100
AcDbLine
 10
170.2048431422931
 20
440.2817580943092
 30
0.0
 11
182.6452957519816
 21
427.5014414929057
 31
0.0
  0
LINE
  5
8F2
330
2
100
AcDbEntity
  8
MITTE
 48
4.0
100
AcDbLine
 10
182.8152277478391
 20
440.1118260984516
 30
0.0
 11
170.0349111464356
 21
427.6713734887632
 31
0.0
  0
CIRCLE
  5
8F3
330
2
100
AcDbEntity
  8
0
 48
10.0
100
AcDbCircle
 10
176.4064157659684
 20
433.9186257364881
 30
0.0
 40
6.5
  0
CIRCLE
  5
8F4
330
2
100
AcDbEntity
  8
0
 48
10.0
100
AcDbCircle
 10
176.4064157659684
 20
433.9186257364881
 30
0.0
 40
7.4
  0
CIRCLE
  5
8F5
330
2
100
AcDbEntity
  8
0
100
AcDbCircle
 10
179.9656950674136
 20
416.8209203099023
 30
0.0
 40
1.95
  0
LINE
  5
8F6
330
2
100
AcDbEntity
  8
MITTE
 48
5.0
100
AcDbLine
 10
178.150918550766
 20
420.7127211090315
 30
0.0
 11
181.7933949630292
 21
412.9014052351402
 31
0.0
  0
LINE
  5
8F7
330
2
100
AcDbEntity
  8
MITTE
 48
5.0
100
AcDbLine
 10
184.2350025966445
 20
418.8117311058014
 30
0.0
 11
176.3849937699143
 21
415.1512118733128
 31
0.0
  0
ARC
  5
8F8
330
2
100
AcDbEntity
  8
0
100
AcDbCircle
 10
122.9213828828544
 20
476.7126925831678
 30
0.0
 40
65.0
100
AcDbArc
 50
297.2305728409513
 51
311.07114766721
  0
LWPOLYLINE
  5
8F9
330
2
100
AcDbEntity
  8
0
 48
10.0
100
AcDbPolyline
 90
        6
 70
     1
 43
0.0
 10
173.0492409343202
 20
433.2947262712075
 10
175.2674871527317
 20
430.5874428145849
 10
178.7211865106181
 20
431.1548586632668
 10
179.9566396500929
 20
434.4295579685714
 10
177.7383934316813
 20
437.1368414251939
 10
174.284694073795
 20
436.5694255765121
  0
LINE
  5
8FA
330
2
100
AcDbEntity
  8
MITTE
 48
10.0
100
AcDbLine
 10
180.7252272565218
 20
455.6738138049964
 30
0.0
 11
162.1418937733483
 21
462.437594046314
 31
0.0
  0
ARC
  5
8FB
330
2
100
AcDbEntity
  8
MITTE
 48
15.0
100
AcDbCircle
 10
240.3829604810929
 20
433.9601746674592
 30
0.0
 40
72.5
100
AcDbArc
 50
151.5931189888069
 51
169.1811683713776
  0
CIRCLE
  5
8FC
330
2
100
AcDbEntity
  8
0
100
AcDbCircle
 10
172.2552454741146
 20
458.7566350585701
 30
0.0
 40
5.75
  0
ARC
  5
8FD
330
2
100
AcDbEntity
  8
0
100
AcDbCircle
 10
220.4047020271858
 20
462.1744571359884
 30
0.0
 40
8.0
100
AcDbArc
 50
90.84123953513069
 51
179.158760464866
  0
ARC
  5
8FE
330
2
100
AcDbEntity
  8
0
100
AcDbCircle
 10
209.9058337643725
 20
462.3286167937792
 30
0.0
 40
2.5
100
AcDbArc
 50
322.3086381700436
 51
359.158760464866
  0
LINE
  5
8FF
330
2
100
AcDbEntity
  8
LINIE
100
AcDbLine
 10
242.7579268402984
 20
395.9963837787281
 30
0.0
 11
268.3718993152546
 21
395.9963837787281
 31
0.0
  0
LINE
  5
900
330
2
100
AcDbEntity
  8
MITTE
 48
20.0
100
AcDbLine
 10
255.40648769592
 20
439.5389971553425
 30
0.0
 11
255.40648769592
 21
423.1235317862358
 31
0.0
  0
LINE
  5
901
330
2
100
AcDbEntity
  8
0
100
AcDbLine
 10
290.7770700558979
 20
487.9827044135063
 30
0.0
 11
242.6286978728365
 21
489.9151267590062
 31
0.0
  0
ARC
  5
902
330
2
100
AcDbEntity
  8
0
100
AcDbCircle
 10
255.40648769592
 20
427.1726714672544
 30
0.0
 40
55.0
100
AcDbArc
 50
52.30863817004829
 51
127.6913618299517
  0
ARC
  5
903
330
2
100
AcDbEntity
  8
0
100
AcDbCircle
 10
290.4082733646541
 20
462.1744571359884
 30
0.0
 40
8.0
100
AcDbArc
 50
0.8412395351339505
 51
89.1587604648693
  0
ARC
  5
904
330
2
100
AcDbEntity
  8
0
100
AcDbCircle
 10
300.9071416274675
 20
462.3286167937792
 30
0.0
 40
2.5
100
AcDbArc
 50
180.8412395351339
 51
217.6913618299563
  0
ARC
  5
905
330
2
100
AcDbEntity
  8
0
100
AcDbCircle
 10
290.5624330224442
 20
472.6733253988018
 30
0.0
 40
2.5
100
AcDbArc
 50
232.3086381700483
 51
269.1587604648693
  0
ARC
  5
906
330
2
100
AcDbEntity
  8
0
100
AcDbCircle
 10
290.29584061481
 20
475.9923575367463
 30
0.0
 40
12.0
100
AcDbArc
 50
64.4724598483414
 51
87.70168236141797
  0
ARC
  5
907
330
2
100
AcDbEntity
  8
0
100
AcDbCircle
 10
240.3829604810929
 20
433.9601746674592
 30
0.0
 40
88.0
100
AcDbArc
 50
99.52022517967961
 51
130.4797748203127
  0
LINE
  5
908
330
2
100
AcDbEntity
  8
0
100
AcDbLine
 10
205.1529665977267
 20
503.5956364019662
 30
0.0
 11
209.68450553291
 21
505.7087277106695
 31
0.0
  0
ARC
  5
909
330
2
100
AcDbEntity
  8
0
100
AcDbCircle
 10
206.2095122520785
 20
501.3298669343746
 30
0.0
 40
2.5
100
AcDbArc
 50
114.9999999999996
 51
204.9999999999994
  0
ARC
  5
90A
330
2
100
AcDbEntity
  8
0
100
AcDbCircle
 10
210.7410511872617
 20
503.442958243078
 30
0.0
 40
2.5
100
AcDbArc
 50
24.99999999999934
 51
114.9999999999996
  0
CIRCLE
  5
90B
330
2
100
AcDbEntity
  8
0
100
AcDbCircle
 10
265.179420872204
 20
502.0878896744375
 30
0.0
 40
5.75
  0
LINE
  5
90C
330
2
100
AcDbEntity
  8
MITTE
 48
10.0
100
AcDbLine
 10
262.0456355212116
 20
493.477885185169
 30
0.0
 11
268.2746760585076
 21
510.5920334062578
 31
0.0
  0
ARC
  5
90D
330
2
100
AcDbEntity
  8
MITTE
 48
15.0
100
AcDbCircle
 10
240.3829604810929
 20
433.9601746674592
 30
0.0
 40
72.5
100
AcDbArc
 50
61.4233442256215
 51
78.5117163400897
  0
DIMENSION
  5
90E
330
2
100
AcDbEntity
  8
BEM
100
AcDbDimension
  2
*D22
 10
426.8376913534419
 20
596.7552955660766
 30
0.0
 11
391.837691353442
 21
605.7552955660767
 31
0.0
 70
    32
 71
     5
 42
70.0
  3
ISO-25
100
AcDbAlignedDimension
 13
356.837691353442
 23
449.4601746674592
 33
0.0
 14
426.8376913534419
 24
456.1137645059455
 34
0.0
100
AcDbRotatedDimension
1001
ACAD
1000
DSTYLE
1002
{
1070
   144
1040
1.0
1070
   289
1070
     0
1002
}
  0
LINE
  5
911
330
2
100
AcDbEntity
  8
0
100
AcDbLine
 10
358.837691353442
 20
451.4601746674592
 30
0.0
 11
424.337691353442
 21
451.4601746674592
 31
0.0
  0
LINE
  5
912
330
2
100
AcDbEntity
  8
0
100
AcDbLine
 10
358.837691353442
 20
416.4601746674592
 30
0.0
 11
424.337691353442
 21
416.4601746674592
 31
0.0
  0
ARC
  5
914
330
2
100
AcDbEntity
  8
0
100
AcDbCircle
 10
325.0602255472048
 20
446.016128271535
 30
0.0
 40
9.0
100
AcDbArc
 50
159.9999999999995
 51
208.5939954930963
  0
ARC
  5
915
330
2
100
AcDbEntity
  8
0
100
AcDbCircle
 10
240.3829604810929
 20
433.9601746674592
 30
0.0
 40
88.0
100
AcDbArc
 50
346.108992245929
 51
21.66142379757164
  0
LINE
  5
916
330
2
100
AcDbEntity
  8
MITTE
 48
4.0
100
AcDbLine
 10
311.2910137932965
 20
475.3485689697587
 30
0.0
 11
309.0463063725335
 21
457.6549926732272
 31
0.0
  0
LWPOLYLINE
  5
917
330
2
100
AcDbEntity
  8
0
 48
10.0
100
AcDbPolyline
 90
        6
 70
     1
 43
0.0
 10
309.8791101739529
 20
469.9897832369479
 10
307.0031864281884
 20
467.9950244523957
 10
307.2927363371506
 20
464.5070220369406
 10
310.4582099918772
 20
463.0137784060378
 10
313.3341337376417
 20
465.0085371905901
 10
313.0445838286795
 20
468.4965396060451
  0
CIRCLE
  5
918
330
2
100
AcDbEntity
  8
0
 48
10.0
100
AcDbCircle
 10
310.168660082915
 20
466.5017808214929
 30
0.0
 40
6.5
  0
ARC
  5
919
330
2
100
AcDbEntity
  8
0
100
AcDbCircle
 10
310.168660082915
 20
466.5017808214929
 30
0.0
 40
12.0
100
AcDbArc
 50
339.9999999999995
 51
64.4724598483414
  0
LINE
  5
91A
330
2
100
AcDbEntity
  8
0
100
AcDbLine
 10
321.4449715323459
 20
462.397539101585
 30
0.0
 11
316.6029919601318
 21
449.0943095614661
 31
0.0
  0
ARC
  5
91B
330
2
100
AcDbEntity
  8
0
100
AcDbCircle
 10
240.3829604810929
 20
433.9601746674592
 30
0.0
 40
88.0
100
AcDbArc
 50
28.3385762024294
 51
40.47977482031507
  0
LINE
  5
91C
330
2
100
AcDbEntity
  8
0
100
AcDbLine
 10
356.837691353442
 20
449.4601746674592
 30
0.0
 11
356.837691353442
 21
418.4601746674593
 31
0.0
  0
DIMENSION
  5
91D
330
2
100
AcDbEntity
  8
BEM
100
AcDbDimension
  2
*D8
 10
326.416645588655
 20
416.4601746674592
 30
0.0
 11
326.4166455886549
 21
434.4987893031802
 31
0.0
 70
   160
  1
%%c<>
 71
     5
 42
35.0
  3
ISO-25
100
AcDbAlignedDimension
 13
358.837691353442
 23
451.4601746674592
 33
0.0
 14
358.837691353442
 24
416.4601746674592
 34
0.0
 50
90.0
100
AcDbRotatedDimension
1001
ACAD
1000
DSTYLE
1002
{
1070
   144
1040
1.0
1070
   289
1070
     0
1002
}
  0
LINE
  5
91E
330
2
100
AcDbEntity
  8
0
100
AcDbLine
 10
358.837691353442
 20
451.4601746674592
 30
0.0
 11
358.837691353442
 21
416.4601746674592
 31
0.0
  0
LINE
  5
91F
330
2
100
AcDbEntity
  8
0
100
AcDbLine
 10
358.837691353442
 20
416.4601746674592
 30
0.0
 11
356.837691353442
 21
418.4601746674592
 31
0.0
  0
LINE
  5
921
330
2
100
AcDbEntity
  8
0
100
AcDbLine
 10
358.837691353442
 20
451.4601746674592
 30
0.0
 11
356.837691353442
 21
449.4601746674592
 31
0.0
  0
LINE
  5
922
330
2
100
AcDbEntity
  8
0
100
AcDbLine
 10
441.2876913534419
 20
511.9601746674592
 30
0.0
 11
502.2264197175997
 21
488.0519401749766
 31
0.0
  0
DIMENSION
  5
923
330
2
100
AcDbEntity
  8
BEM
100
AcDbDimension
  2
*D9
 10
426.8376913534419
 20
556.386079026593
 30
0.0
 11
446.978167543918
 21
556.386079026593
 31
0.0
 70
   160
  1
1
 71
     5
 42
0.9499999999998181
  3
ISO-25
100
AcDbAlignedDimension
 13
427.7876913534417
 23
456.4601746674592
 33
0.0
 14
426.8376913534419
 24
456.1137645059455
 34
0.0
100
AcDbRotatedDimension
1001
ACAD
1000
DSTYLE
1002
{
1070
   144
1040
1.0
1070
   289
1070
     0
1002
}
  0
ARC
  5
924
330
2
100
AcDbEntity
  8
0
100
AcDbCircle
 10
451.2876913534418
 20
484.9601746674592
 30
0.0
 40
10.0
100
AcDbArc
 50
180.0
 51
256.399714809918
1001
ACAD
1000
ASC_BOUNDS
1002
{
1070
    19
1002
}
  0
ARC
  5
925
330
2
100
AcDbEntity
  8
0
100
AcDbCircle
 10
451.2876913534417
 20
448.9601746674592
 30
0.0
 40
10.0
100
AcDbArc
 50
180.0
 51
270.0
  0
ARC
  5
926
330
2
100
AcDbEntity
  8
0
100
AcDbCircle
 10
451.2876913534415
 20
418.9601746674591
 30
0.0
 40
10.0
100
AcDbArc
 50
90.0
 51
180.0
  0
LINE
  5
927
330
2
100
AcDbEntity
  8
0
100
AcDbLine
 10
426.8376913534419
 20
456.1137645059455
 30
0.0
 11
426.8376913534419
 21
411.8065848289729
 31
0.0
  0
LINE
  5
928
330
2
100
AcDbEntity
  8
0
100
AcDbLine
 10
427.4376913534419
 20
456.4601746674592
 30
0.0
 11
427.4376913534419
 21
411.4601746674592
 31
0.0
  0
ARC
  5
929
330
2
100
AcDbEntity
  8
0
100
AcDbCircle
 10
424.337691353442
 20
413.9601746674592
 30
0.0
 40
2.5
100
AcDbArc
 50
0.0
 51
90.0
  0
LINE
  5
92A
330
2
100
AcDbEntity
  8
0
100
AcDbLine
 10
427.4376913534421
 20
411.4601746674592
 30
0.0
 11
426.8376913534419
 21
411.8065848289729
 31
0.0
  0
LINE
  5
92B
330
2
100
AcDbEntity
  8
0
100
AcDbLine
 10
427.4376913534419
 20
411.4601746674592
 30
0.0
 11
427.7876913534419
 21
411.4601746674592
 31
0.0
  0
LINE
  5
92C
330
2
100
AcDbEntity
  8
0
100
AcDbLine
 10
366.837691353442
 20
454.7601746674591
 30
0.0
 11
416.8376913534419
 21
454.7601746674591
 31
0.0
  0
LINE
  5
92D
330
2
100
AcDbEntity
  8
0
100
AcDbLine
 10
366.837691353442
 20
451.4601746674593
 30
0.0
 11
366.837691353442
 21
454.7601746674591
 31
0.0
  0
ARC
  5
92E
330
2
100
AcDbEntity
  8
0
100
AcDbCircle
 10
424.337691353442
 20
453.9601746674592
 30
0.0
 40
2.5
100
AcDbArc
 50
270.0
 51
0.0
  0
LINE
  5
92F
330
2
100
AcDbEntity
  8
0
100
AcDbLine
 10
416.8376913534419
 20
451.4601746674592
 30
0.0
 11
416.8376913534419
 21
454.7601746674593
 31
0.0
  0
LINE
  5
930
330
2
100
AcDbEntity
  8
0
100
AcDbLine
 10
427.4376913534419
 20
456.4601746674592
 30
0.0
 11
426.8376913534419
 21
456.1137645059455
 31
0.0
  0
LINE
  5
931
330
2
100
AcDbEntity
  8
0
100
AcDbLine
 10
427.4376913534419
 20
456.4601746674592
 30
0.0
 11
427.7876913534417
 21
456.4601746674592
 31
0.0
  0
ARC
  5
932
330
2
100
AcDbEntity
  8
0
100
AcDbCircle
 10
491.2876913534417
 20
448.9601746674592
 30
0.0
 40
10.0
100
AcDbArc
 50
270.0
 51
0.0
  0
LINE
  5
933
330
2
100
AcDbEntity
  8
0
100
AcDbLine
 10
491.2876913534417
 20
428.9601746674592
 30
0.0
 11
451.2876913534417
 21
428.960174667459
 31
0.0
  0
LINE
  5
934
330
2
100
AcDbEntity
  8
0
100
AcDbLine
 10
491.2876913534417
 20
438.9601746674592
 30
0.0
 11
451.2876913534417
 21
438.9601746674592
 31
0.0
  0
LINE
  5
935
330
2
100
AcDbEntity
  8
0
100
AcDbLine
 10
476.2876913534418
 20
400.4601746674592
 30
0.0
 11
462.9298269771728
 21
400.4601746674592
 31
0.0
1001
ACAD
1000
ASC_BOUNDS
1002
{
1070
    19
1002
}
  0
ARC
  5
936
330
2
100
AcDbEntity
  8
0
100
AcDbCircle
 10
462.9298269771728
 20
390.4601746674592
 30
0.0
 40
10.0
100
AcDbArc
 50
90.0
 51
135.0
1001
ACAD
1000
ASC_BOUNDS
1002
{
1070
    19
1002
}
  0
LINE
  5
937
330
2
100
AcDbEntity
  8
0
100
AcDbLine
 10
453.6558201444815
 20
395.3283034584987
 30
0.0
 11
455.8587591653074
 21
397.5312424793248
 31
0.0
1001
ACAD
1000
ASC_BOUNDS
1002
{
1070
    19
1002
}
  0
ARC
  5
938
330
2
100
AcDbEntity
  8
0
100
AcDbCircle
 10
491.2876913534417
 20
418.9601746674592
 30
0.0
 40
10.0
100
AcDbArc
 50
0.0
 51
90.0
  0
LINE
  5
939
330
2
100
AcDbEntity
  8
0
100
AcDbLine
 10
491.2876913534417
 20
467.4601746674592
 30
0.0
 11
462.9298269771728
 21
467.4601746674592
 31
0.0
1001
ACAD
1000
ASC_BOUNDS
1002
{
1070
    19
1002
}
  0
LINE
  5
93A
330
2
100
AcDbEntity
  8
0
100
AcDbLine
 10
487.7876913534418
 20
472.9601746674593
 30
0.0
 11
477.7876913534417
 21
472.9601746674593
 31
0.0
  0
LINE
  5
93B
330
2
100
AcDbEntity
  8
0
100
AcDbLine
 10
491.7876913534418
 20
470.9601746674592
 30
0.0
 11
475.7876913534418
 21
470.9601746674592
 31
0.0
  0
LINE
  5
93C
330
2
100
AcDbEntity
  8
0
100
AcDbLine
 10
487.7876913534418
 20
472.9601746674593
 30
0.0
 11
486.7876913534417
 21
473.9601746674592
 31
0.0
  0
ARC
  5
93D
330
2
100
AcDbEntity
  8
0
100
AcDbCircle
 10
473.2876913534417
 20
469.9601746674592
 30
0.0
 40
2.5
100
AcDbArc
 50
270.0
 51
0.0
  0
ARC
  5
93E
330
2
100
AcDbEntity
  8
0
100
AcDbCircle
 10
462.9298269771728
 20
477.4601746674592
 30
0.0
 40
10.0
100
AcDbArc
 50
225.0
 51
270.0
1001
ACAD
1000
ASC_BOUNDS
1002
{
1070
    19
1002
}
  0
LINE
  5
93F
330
2
100
AcDbEntity
  8
0
100
AcDbLine
 10
453.6558201444815
 20
472.5920458764195
 30
0.0
 11
455.8587591653074
 21
470.3891068555937
 31
0.0
1001
ACAD
1000
ASC_BOUNDS
1002
{
1070
    19
1002
}
  0
ARC
  5
940
330
2
100
AcDbEntity
  8
0
100
AcDbCircle
 10
446.584752332616
 20
465.5209780645542
 30
0.0
 40
10.0
100
AcDbArc
 50
44.99999999999994
 51
76.39971480991798
1001
ACAD
1000
ASC_BOUNDS
1002
{
1070
    19
1002
}
  0
LINE
  5
941
330
2
100
AcDbEntity
  8
0
100
AcDbLine
 10
475.7876913534419
 20
470.9601746674592
 30
0.0
 11
475.7876913534419
 21
469.9601746674592
 31
0.0
1001
ACAD
1000
ASC_BOUNDS
1002
{
1070
    19
1005
0
1002
}
  0
LINE
  5
942
330
2
100
AcDbEntity
  8
0
100
AcDbLine
 10
486.7876913534417
 20
473.9601746674592
 30
0.0
 11
478.7876913534417
 21
473.9601746674592
 31
0.0
  0
LINE
  5
943
330
2
100
AcDbEntity
  8
0
100
AcDbLine
 10
477.7876913534417
 20
472.9601746674593
 30
0.0
 11
477.7876913534417
 21
470.9601746674592
 31
0.0
1001
ACAD
1000
ASC_BOUNDS
1002
{
1070
    19
1002
}
  0
LINE
  5
944
330
2
100
AcDbEntity
  8
0
100
AcDbLine
 10
478.7876913534417
 20
473.9601746674592
 30
0.0
 11
477.7876913534417
 21
472.9601746674593
 31
0.0
  0
ARC
  5
945
330
2
100
AcDbEntity
  8
0
100
AcDbCircle
 10
491.2876913534417
 20
477.4601746674592
 30
0.0
 40
10.0
100
AcDbArc
 50
270.0
 51
0.0
1001
ACAD
1000
ASC_BOUNDS
1002
{
1070
    19
1002
}
  0
ARC
  5
946
330
2
100
AcDbEntity
  8
0
100
AcDbCircle
 10
494.2876913534417
 20
469.9601746674592
 30
0.0
 40
2.5
100
AcDbArc
 50
180.0
 51
246.6828661559623
  0
LINE
  5
947
330
2
100
AcDbEntity
  8
0
100
AcDbLine
 10
491.7876913534418
 20
470.9601746674592
 30
0.0
 11
491.7876913534418
 21
469.9601746674592
 31
0.0
1001
ACAD
1000
ASC_BOUNDS
1002
{
1070
    19
1005
0
1002
}
  0
LINE
  5
948
330
2
100
AcDbEntity
  8
0
100
AcDbLine
 10
487.7876913534418
 20
472.9601746674593
 30
0.0
 11
487.7876913534418
 21
470.9601746674593
 31
0.0
1001
ACAD
1000
ASC_BOUNDS
1002
{
1070
    19
1002
}
  0
ARC
  5
949
330
2
100
AcDbEntity
  8
0
100
AcDbCircle
 10
507.2876913534417
 20
482.9601746674592
 30
0.0
 40
6.0
100
AcDbArc
 50
90.0
 51
119.2107476043123
1001
ACAD
1000
ASC_BOUNDS
1002
{
1070
    19
1002
}
  0
ARC
  5
94A
330
2
100
AcDbEntity
  8
0
100
AcDbCircle
 10
503.1394925025514
 20
490.3792343311546
 30
0.0
 40
2.5
100
AcDbArc
 50
248.5783165533332
 51
299.2107476043123
  0
ARC
  5
94B
330
2
100
AcDbEntity
  8
0
100
AcDbCircle
 10
507.2876913534417
 20
482.9601746674592
 30
0.0
 40
6.0
100
AcDbArc
 50
119.2107476043123
 51
180.0
1001
ACAD
1000
ASC_BOUNDS
1002
{
1070
    19
1002
}
  0
ARC
  5
94C
330
2
100
AcDbEntity
  8
LINIE
  6
GESTRICHELT
 48
10.0
100
AcDbCircle
 10
432.5876913534419
 20
496.2601746674591
 30
0.0
 40
0.2
100
AcDbArc
 50
0.0
 51
90.0
  0
LINE
  5
94D
330
2
100
AcDbEntity
  8
LINIE
  6
GESTRICHELT
 48
10.0
100
AcDbLine
 10
427.7876913534419
 20
496.4601746674592
 30
0.0
 11
432.5876913534419
 21
496.4601746674592
 31
0.0
  0
LINE
  5
94E
330
2
100
AcDbEntity
  8
0
100
AcDbLine
 10
427.7876913534417
 20
523.9601746674592
 30
0.0
 11
439.2876913534419
 21
523.9601746674592
 31
0.0
  0
LINE
  5
94F
330
2
100
AcDbEntity
  8
0
100
AcDbLine
 10
441.2876913534419
 20
521.9601746674592
 30
0.0
 11
439.2876913534419
 21
523.9601746674592
 31
0.0
  0
DIMENSION
  5
950
330
2
100
AcDbEntity
  8
BEM
100
AcDbDimension
  2
*D10
 10
866.3199813475301
 20
487.4037650846294
 30
0.0
 11
939.6090720730272
 21
407.4523074101739
 31
0.0
 70
   163
 71
     5
 42
145.0000000000006
  3
ISO-25
100
AcDbDiametricDimension
 15
964.300237385607
 25
380.5165842502887
 35
0.0
 40
0.0
1001
ACAD
1000
DSTYLE
1002
{
1070
   144
1040
1.0
1070
   289
1070
     0
1002
}
  0
ARC
  5
951
330
2
100
AcDbEntity
  8
0
100
AcDbCircle
 10
729.1876913534421
 20
395.9963837787281
 30
0.0
 40
10.0
100
AcDbArc
 50
180.0
 51
219.384207682993
  0
LINE
  5
952
330
2
100
AcDbEntity
  8
0
100
AcDbLine
 10
719.1876913534421
 20
458.1726714672543
 30
0.0
 11
719.187691353442
 21
380.1726714672545
 31
0.0
  0
LINE
  5
953
330
2
100
AcDbEntity
  8
LINIE
100
AcDbLine
 10
595.5465902969827
 20
461.341111408198
 30
0.0
 11
595.5465902969826
 21
386.8972089306228
 31
0.0
  0
DIMENSION
  5
954
330
2
100
AcDbEntity
  8
BEM
100
AcDbDimension
  2
*D11
 10
549.2357838060772
 20
331.9601746674592
 30
0.0
 11
540.235783806077
 21
382.9601746674593
 31
0.0
 70
    32
 71
     5
 42
102.0
  3
ISO-25
100
AcDbAlignedDimension
 13
538.8376913534419
 23
433.9601746674592
 33
0.0
 14
547.7081779184392
 24
331.9601746674592
 34
0.0
 50
90.0
100
AcDbRotatedDimension
1001
ACAD
1000
DSTYLE
1002
{
1070
   144
1040
1.0
1070
   289
1070
     0
1002
}
  0
DIMENSION
  5
955
330
2
100
AcDbEntity
  8
BEM
100
AcDbDimension
  2
*D12
 10
785.9893101539301
 20
362.1726714672547
 30
0.0
 11
776.9893101539301
 21
421.6726714672546
 31
0.0
 70
    32
 71
     5
 42
118.9999999999997
  3
ISO-25
100
AcDbAlignedDimension
 13
709.8448027002064
 23
481.1726714672544
 33
0.0
 14
720.6876913534422
 24
362.1726714672547
 34
0.0
 50
90.0
100
AcDbRotatedDimension
1001
ACAD
1000
DSTYLE
1002
{
1070
   144
1040
1.0
1070
   289
1070
     0
1002
}
  0
DIMENSION
  5
956
330
2
100
AcDbEntity
  8
BEM
100
AcDbDimension
  2
*D13
 10
759.0668095994648
 20
362.1726714672547
 30
0.0
 11
750.0668095994647
 21
394.6726714672546
 31
0.0
 70
    32
 71
     5
 42
64.99999999999977
  3
ISO-25
100
AcDbAlignedDimension
 13
722.7104524213874
 23
427.1726714672544
 33
0.0
 14
720.6876913534422
 24
362.1726714672547
 34
0.0
 50
90.0
100
AcDbRotatedDimension
1001
ACAD
1000
DSTYLE
1002
{
1070
   144
1040
1.0
1070
   289
1070
     0
1002
}
  0
DIMENSION
  5
957
330
2
100
AcDbEntity
  8
BEM
100
AcDbDimension
  2
*D14
 10
1040.414321553022
 20
319.6328689116031
 30
0.0
 11
1040.414321553022
 21
420.4152643549464
 31
0.0
 70
   160
  1
204
 71
     5
 42
204.327305755856
  3
ISO-25
100
AcDbAlignedDimension
 13
915.3101093665679
 23
523.960174667459
 33
0.0
 14
967.577730029183
 24
319.6328689116031
 34
0.0
 50
90.0
100
AcDbRotatedDimension
1001
ACAD
1000
DSTYLE
1002
{
1070
   144
1040
1.0
1070
   289
1070
     0
1002
}
  0
LINE
  5
958
330
2
100
AcDbEntity
  8
LINIE
 48
10.0
100
AcDbLine
 10
528.2876913534419
 20
343.9601746674592
 30
0.0
 11
528.2876913534419
 21
447.5639507733376
 31
0.0
  0
LINE
  5
959
330
2
100
AcDbEntity
  8
MITTE
 48
20.0
100
AcDbLine
 10
841.8144416375104
 20
535.5995370467085
 30
0.0
 11
841.8144416375104
 21
321.725165831783
 31
0.0
  0
LINE
  5
95A
330
2
100
AcDbEntity
  8
LINIE
 48
10.0
100
AcDbLine
 10
558.2876913534418
 20
484.7908561393321
 30
0.0
 11
558.2876913534418
 21
335.5758936951922
 31
0.0
  0
ARC
  5
95B
330
2
100
AcDbEntity
  8
0
100
AcDbCircle
 10
841.8144416375104
 20
433.9601746674591
 30
0.0
 40
90.0
100
AcDbArc
 50
346.7968803211822
 51
218.3212863366493
  0
ARC
  5
95C
330
2
100
AcDbEntity
  8
0
100
AcDbCircle
 10
841.8144416375104
 20
433.9601746674591
 30
0.0
 40
90.0
100
AcDbArc
 50
218.3212863366493
 51
346.7968803211822
  0
LINE
  5
95D
330
2
100
AcDbEntity
  8
0
100
AcDbLine
 10
591.1876913534419
 20
489.9601746674592
 30
0.0
 11
591.1876913534412
 21
319.7216493610631
 31
0.0
1001
ACAD
1000
ASC_BOUNDS
1002
{
1070
    19
1002
}
  0
LINE
  5
95E
330
2
100
AcDbEntity
  8
0
100
AcDbLine
 10
584.7876913534425
 20
489.9601746674591
 30
0.0
 11
584.7876913534419
 21
319.7216493610631
 31
0.0
1001
ACAD
1000
ASC_BOUNDS
1002
{
1070
    19
1002
}
  0
LINE
  5
95F
330
2
100
AcDbEntity
  8
0
100
AcDbLine
 10
591.1876913534419
 20
479.4038254813552
 30
0.0
 11
591.1876913534416
 21
347.4038254813554
 31
0.0
1001
ACAD
1000
ASC_BOUNDS
1002
{
1070
    19
1005
0
1002
}
  0
LINE
  5
960
330
2
100
AcDbEntity
  8
0
100
AcDbLine
 10
591.187691353442
 20
482.1726714672543
 30
0.0
 11
591.187691353442
 21
350.6726714672544
 31
0.0
  0
ARC
  5
961
330
2
100
AcDbEntity
  8
MITTE
 48
15.0
100
AcDbCircle
 10
841.8144416375103
 20
433.9601746674588
 30
0.0
 40
72.5
100
AcDbArc
 50
281.4882836599036
 51
327.5671739695385
  0
LINE
  5
962
330
2
100
AcDbEntity
  8
0
100
AcDbLine
 10
923.1694277503271
 20
395.4716538517235
 30
0.0
 11
905.6921041040537
 21
328.5985766858869
 31
0.0
  0
DIMENSION
  5
963
330
2
100
AcDbEntity
  8
BEM
100
AcDbDimension
  2
*D15
 10
886.8326899877118
 20
512.2012413752032
 30
0.0
 11
890.7513907132065
 21
572.7341918989384
 31
0.0
 70
   162
 71
     5
 42
0.3490658503988682
  3
ISO-25
100
AcDb2LineAngularDimension
 13
915.3101093665679
 23
535.5995370467085
 33
0.0
 14
915.3101093665679
 24
321.725165831783
 34
0.0
 15
893.5964702290295
 25
493.6179078920298
 35
0.0
 16
898.9490964184115
 26
573.9375863300844
 36
0.0
1001
ACAD
1000
DSTYLE
1002
{
1070
    79
1070
     2
1070
   144
1040
1.0
1070
   179
1070
     4
1070
   289
1070
     0
1002
}
  0
LINE
  5
964
330
2
100
AcDbEntity
  8
0
100
AcDbLine
 10
671.2278767112276
 20
372.1726714672544
 30
0.0
 11
711.187691353442
 21
372.1726714672545
 31
0.0
  0
DIMENSION
  5
965
330
2
100
AcDbEntity
  8
BEM
100
AcDbDimension
  2
*D16
 10
650.6876913534421
 20
224.2857699702717
 30
0.0
 11
678.9495961153469
 21
224.2857699702717
 31
0.0
 70
   160
 71
     5
 42
54.5
  3
ISO-25
100
AcDbAlignedDimension
 13
705.1876913534421
 23
350.6726714672544
 33
0.0
 14
650.6876913534421
 24
317.5633447212856
 34
0.0
100
AcDbRotatedDimension
1001
ACAD
1000
DSTYLE
1002
{
1070
   144
1040
1.0
1070
   289
1070
     0
1002
}
  0
HATCH
  5
966
330
2
100
AcDbEntity
  8
LINIE
 48
10.0
100
AcDbHatch
 10
0.0
 20
0.0
 30
0.0
210
0.0
220
0.0
230
1.0
  2
ANSI31
 70
     0
 71
     0
 91
        4
 92
        5
 93
        5
 72
     1
 10
718.4081913534421
 20
362.1726714672547
 11
720.6876913534422
 21
362.1726714672547
 72
     2
 10
720.6876913534422
 20
364.6726714672547
 40
2.499999999999999
 50
270.0
 51
360.0000000000013
 73
     1
 72
     1
 10
723.1876913534422
 20
364.6726714672547
 11
723.1876913534421
 21
366.4246774078629
 72
     4
 94
        3
 73
     0
 74
     0
 95
        9
 96
        5
 40
31.73585995709382
 40
31.73585995709382
 40
31.73585995709382
 40
31.73585995709382
 40
33.63609640649291
 40
36.857751855649
 40
36.857751855649
 40
36.857751855649
 40
36.857751855649
 10
723.1876913534422
 20
366.424677407863
 10
722.6293841258843
 20
366.7275891331975
 10
721.1245244192736
 20
367.5440565325354
 10
719.4715348492361
 20
367.9947014917142
 10
718.4081913534405
 20
368.1917327385919
 72
     1
 10
718.4081913534421
 20
368.1917327385914
 11
718.4081913534421
 21
362.1726714672547
 97
        0
 92
        5
 93
        4
 72
     4
 94
        3
 73
     0
 74
     0
 95
        8
 96
        4
 40
30.57003609658486
 40
30.57003609658486
 40
30.57003609658486
 40
30.57003609658486
 40
31.73585995709381
 40
31.73585995709381
 40
31.73585995709381
 40
31.73585995709381
 10
718.4081913534406
 20
368.1917327385919
 10
718.0233981193782
 20
368.2630326440291
 10
717.635512124862
 20
368.3230153805724
 10
717.246191353442
 20
368.3744440941053
 72
     1
 10
717.246191353442
 20
368.3744440941053
 11
717.2461913534419
 21
363.3346714672545
 72
     1
 10
717.2461913534419
 20
363.3346714672545
 11
718.4081913534422
 21
362.1726714672547
 72
     1
 10
718.4081913534422
 20
362.1726714672547
 11
718.4081913534421
 21
368.1917327385917
 97
        0
 92
        5
 93
        4
 72
     1
 10
691.9671913534422
 20
362.1726714672544
 11
693.1291913534421
 21
363.3346714672545
 72
     1
 10
693.1291913534421
 20
363.3346714672545
 11
693.1291913534421
 21
368.2094977264443
 72
     4
 94
        3
 73
     0
 74
     0
 95
        8
 96
        4
 40
5.132474026507138
 40
5.132474026507138
 40
5.132474026507138
 40
5.132474026507138
 40
6.360436656674873
 40
6.360436656674873
 40
6.360436656674873
 40
6.360436656674873
 10
693.1291913534588
 20
368.2094977264495
 10
692.7400098221222
 20
368.0922675356391
 10
692.3528036088338
 20
367.9640891023581
 10
691.9671913534958
 20
367.827076123094
 72
     1
 10
691.9671913534419
 20
367.8270761230756
 11
691.9671913534422
 21
362.1726714672544
 97
        0
 92
        5
 93
        5
 72
     4
 94
        3
 73
     0
 74
     0
 95
        8
 96
        4
 40
0.0
 40
0.0
 40
0.0
 40
0.0
 40
5.132474026507137
 40
5.132474026507137
 40
5.132474026507137
 40
5.132474026507137
 10
691.9671913534958
 20
367.827076123094
 10
690.3554608038826
 20
367.2544075906069
 10
688.7715760786623
 20
366.5274029817045
 10
687.1876913534419
 20
365.8003983728021
 72
     1
 10
687.1876913534419
 20
365.8003983728021
 11
687.1876913534419
 21
364.6726714672547
 72
     2
 10
689.687691353442
 20
364.6726714672545
 40
2.5
 50
180.0
 51
270.0
 73
     1
 72
     1
 10
689.687691353442
 20
362.1726714672545
 11
691.9671913534421
 21
362.1726714672545
 72
     1
 10
691.9671913534421
 20
362.1726714672545
 11
691.9671913534419
 21
367.8270761230726
 97
        0
 75
     0
 76
     1
 52
0.0
 41
20.0
 77
     0
 78
     1
 53
45.0
 43
131.7881665606352
 44
138.0430253317089
 45
-1.767766952966368
 46
1.767766952966368
 79
     0
 47
0.1218544639141766
 98
        4
 10
719.6282191749411
 20
364.6592875672251
 10
717.9216806616851
 20
365.3904130576224
 10
692.4454989522502
 20
365.0248512691263
 10
690.9827524177959
 20
364.6592875672251
  0
SPLINE
  5
967
330
2
100
AcDbEntity
  8
LINIE
 48
10.0
100
AcDbSpline
210
0.0
220
0.0
230
1.0
 70
     8
 71
     3
 72
    12
 73
     8
 74
     6
 42
0.0000000001
 43
0.0000000001
 44
0.0000000001
 40
0.0
 40
0.0
 40
0.0
 40
0.0
 40
8.823504819814441
 40
17.17642179202402
 40
29.12386730704584
 40
34.9575154062499
 40
36.85775185564901
 40
36.85775185564901
 40
36.85775185564901
 40
36.85775185564901
 10
687.1876913534419
 20
365.8003983728021
 30
0.0
 10
689.9106305119909
 20
367.0502300597328
 30
0.0
 10
695.2112851221892
 20
369.4832356127589
 30
0.0
 10
705.1080101407806
 20
368.5699709110197
 30
0.0
 10
713.7150615036484
 20
368.9752086235714
 30
0.0
 10
720.3570965682231
 20
367.9604274533421
 30
0.0
 10
722.6293841258843
 20
366.7275891331974
 30
0.0
 10
723.1876913534422
 20
366.424677407863
 30
0.0
 11
687.1876913534419
 21
365.8003983728021
 31
0.0
 11
695.4979914775764
 21
368.7657228326378
 31
0.0
 11
703.850543936369
 21
368.8437572336692
 31
0.0
 11
715.79391126958
 21
368.5316177161388
 31
0.0
 11
721.4923806158942
 21
367.2830596460175
 31
0.0
 11
723.1876913534422
 21
366.424677407863
 31
0.0
  0
LINE
  5
968
330
2
100
AcDbEntity
  8
0
100
AcDbLine
 10
689.687691353442
 20
362.1726714672545
 30
0.0
 11
720.6876913534422
 21
362.1726714672547
 31
0.0
  0
LINE
  5
969
330
2
100
AcDbEntity
  8
0
100
AcDbLine
 10
693.1291913534421
 20
363.3346714672545
 30
0.0
 11
691.9671913534421
 21
362.1726714672545
 31
0.0
  0
LINE
  5
96A
330
2
100
AcDbEntity
  8
0
100
AcDbLine
 10
600.6876913534422
 20
372.1726714672543
 30
0.0
 11
631.4243142471139
 21
372.1726714672544
 31
0.0
  0
LINE
  5
96B
330
2
100
AcDbEntity
  8
0
100
AcDbLine
 10
591.187691353442
 20
385.6608704725981
 30
0.0
 11
613.6876913534421
 21
385.6608704725981
 31
0.0
  0
LINE
  5
96C
330
2
100
AcDbEntity
  8
0
100
AcDbLine
 10
591.187691353442
 20
373.1749972716084
 30
0.0
 11
613.6876913534421
 21
373.1749972716084
 31
0.0
  0
LINE
  5
96D
330
2
100
AcDbEntity
  8
0
100
AcDbLine
 10
600.6876913534422
 20
369.1726714672542
 30
0.0
 11
615.6876913534421
 21
369.1726714672542
 31
0.0
  0
ARC
  5
96E
330
2
100
AcDbEntity
  8
0
100
AcDbCircle
 10
570.458128259495
 20
322.2216493610646
 30
0.0
 40
2.5
100
AcDbArc
 50
205.2429158870734
 51
269.999999999987
1001
GENIUS_GENODEF_13
1002
{
1000
HIER
1070
     0
1002
}
1002
{
1000
MANEDIT
1070
     0
1002
}
1002
{
1000
NOSEL
1070
     0
1002
}
1002
{
1000
BEHIND
1070
     0
1002
}
1002
{
1000
REACTOR
1002
}
1001
GENIUS_GENOBJ-N-FIL_13
1002
{
1000
OWNER
1000
GEN
1002
}
  0
LINE
  5
96F
330
2
100
AcDbEntity
  8
0
100
AcDbLine
 10
534.2876913534418
 20
331.9601746674592
 30
0.0
 11
556.2876913534418
 21
331.9601746674592
 31
0.0
1001
ACAD
1000
ASC_BOUNDS
1002
{
1070
    19
1002
}
  0
LINE
  5
970
330
2
100
AcDbEntity
  8
0
100
AcDbLine
 10
528.2876913534417
 20
343.9601746674592
 30
0.0
 11
528.2876913534417
 21
337.9601746674592
 31
0.0
1001
ACAD
1000
ASC_BOUNDS
1002
{
1070
    19
1002
}
  0
ARC
  5
971
330
2
100
AcDbEntity
  8
0
100
AcDbCircle
 10
549.8175629664999
 20
312.4900462805173
 30
0.0
 40
20.31966332204827
100
AcDbArc
 50
25.24291588704693
 51
65.36450845374807
1001
ACAD
1000
ASC_BOUNDS
1002
{
1070
    19
1002
}
  0
ARC
  5
972
330
2
100
AcDbEntity
  8
0
100
AcDbCircle
 10
556.2876913534418
 20
329.4601746674592
 30
0.0
 40
2.5
100
AcDbArc
 50
36.86989764584666
 51
90.0
1001
ACAD
1000
ASC_BOUNDS
1002
{
1070
    19
1002
}
  0
LINE
  5
973
330
2
100
AcDbEntity
  8
0
100
AcDbLine
 10
570.4581282594944
 20
319.7216493610631
 30
0.0
 11
591.1876913534412
 21
319.7216493610631
 31
0.0
  0
LINE
  5
974
330
2
100
AcDbEntity
  8
MITTE
 48
5.0
100
AcDbLine
 10
602.6853926715469
 20
331.6328689116033
 30
0.0
 11
586.3652546050627
 21
331.6328689116033
 31
0.0
  0
LINE
  5
975
330
2
100
AcDbEntity
  8
0
 48
10.0
100
AcDbLine
 10
601.1876913534412
 20
325.9328689116033
 30
0.0
 11
601.1876913534412
 21
337.3328689116033
 31
0.0
  0
LINE
  5
976
330
2
100
AcDbEntity
  8
0
 48
10.0
100
AcDbLine
 10
593.1876913534412
 20
324.2328689116033
 30
0.0
 11
593.1876913534412
 21
339.0328689116032
 31
0.0
  0
LINE
  5
977
330
2
100
AcDbEntity
  8
0
 48
10.0
100
AcDbLine
 10
593.1876913534412
 20
325.1328689116033
 30
0.0
 11
593.1876913534412
 21
338.1328689116033
 31
0.0
  0
LINE
  5
978
330
2
100
AcDbEntity
  8
0
 48
10.0
100
AcDbLine
 10
593.1876913534412
 20
325.1328689116033
 30
0.0
 11
600.3876913534412
 21
325.1328689116033
 31
0.0
  0
LINE
  5
979
330
2
100
AcDbEntity
  8
0
 48
10.0
100
AcDbLine
 10
593.1876913534412
 20
324.2328689116033
 30
0.0
 11
591.1876913534412
 21
324.2328689116033
 31
0.0
  0
ARC
  5
97A
330
2
100
AcDbEntity
  8
0
 48
10.0
100
AcDbCircle
 10
600.3876913534412
 20
325.9328689116033
 30
0.0
 40
0.8
100
AcDbArc
 50
270.0
 51
0.0
1001
GENIUS_GENODEF_13
1002
{
1000
HIER
1070
     0
1002
}
1002
{
1000
MANEDIT
1070
     0
1002
}
1002
{
1000
NOSEL
1070
     0
1002
}
1002
{
1000
BEHIND
1070
     0
1002
}
1002
{
1000
REACTOR
1002
}
1001
GENIUS_GENOBJ-N-FIL_13
1002
{
1000
OWNER
1000
GEN
1002
}
  0
LINE
  5
97B
330
2
100
AcDbEntity
  8
0
 48
10.0
100
AcDbLine
 10
593.1876913534412
 20
338.1328689116033
 30
0.0
 11
600.3876913534412
 21
338.1328689116033
 31
0.0
  0
LINE
  5
97C
330
2
100
AcDbEntity
  8
0
 48
10.0
100
AcDbLine
 10
593.1876913534412
 20
339.0328689116032
 30
0.0
 11
591.1876913534412
 21
339.0328689116032
 31
0.0
  0
ARC
  5
97D
330
2
100
AcDbEntity
  8
0
 48
10.0
100
AcDbCircle
 10
600.3876913534412
 20
337.3328689116033
 30
0.0
 40
0.8
100
AcDbArc
 50
0.0
 51
90.0
1001
GENIUS_GENODEF_13
1002
{
1000
HIER
1070
     0
1002
}
1002
{
1000
MANEDIT
1070
     0
1002
}
1002
{
1000
NOSEL
1070
     0
1002
}
1002
{
1000
BEHIND
1070
     0
1002
}
1002
{
1000
REACTOR
1002
}
1001
GENIUS_GENOBJ-N-FIL_13
1002
{
1000
OWNER
1000
GEN
1002
}
  0
ARC
  5
97E
330
2
100
AcDbEntity
  8
0
100
AcDbCircle
 10
600.6876913534422
 20
366.6726714672542
 30
0.0
 40
2.5
100
AcDbArc
 50
90.0
 51
180.0
  0
LINE
  5
97F
330
2
100
AcDbEntity
  8
0
100
AcDbLine
 10
598.1876913534423
 20
369.6726714672543
 30
0.0
 11
598.1876913534421
 21
353.6726714672543
 31
0.0
  0
ARC
  5
980
330
2
100
AcDbEntity
  8
0
100
AcDbCircle
 10
595.187691353442
 20
353.6726714672543
 30
0.0
 40
3.0
100
AcDbArc
 50
270.0
 51
0.0
  0
LINE
  5
981
330
2
100
AcDbEntity
  8
0
100
AcDbLine
 10
591.187691353442
 20
350.6726714672544
 30
0.0
 11
595.187691353442
 21
350.6726714672543
 31
0.0
  0
LINE
  5
982
330
2
100
AcDbEntity
  8
0
100
AcDbLine
 10
591.1876913534418
 20
347.4038254813553
 30
0.0
 11
591.1876913534418
 21
347.4038254813553
 31
0.0
1001
ACAD
1000
ASC_BOUNDS
1002
{
1070
    19
1005
0
1002
}
  0
ARC
  5
983
330
2
100
AcDbEntity
  8
0
100
AcDbCircle
 10
600.6876913534422
 20
369.6726714672543
 30
0.0
 40
2.5
100
AcDbArc
 50
90.0
 51
180.0
  0
DIMENSION
  5
984
330
2
100
AcDbEntity
  8
BEM
100
AcDbDimension
  2
*D17
 10
641.6876913534421
 20
325.6423262272118
 30
0.0
 11
650.6876913534421
 21
325.6423262272118
 31
0.0
 70
   160
  1
M<>x1.5
 71
     5
 42
18.0
  3
ISO-25
100
AcDbAlignedDimension
 13
659.6876913534421
 23
327.2391622973754
 33
0.0
 14
641.6876913534421
 24
327.6695540781658
 34
0.0
100
AcDbRotatedDimension
1001
ACAD
1000
DSTYLE
1002
{
1070
   144
1040
1.0
1070
   289
1070
     0
1002
}
  0
HATCH
  5
985
330
2
100
AcDbEntity
  8
LINIE
 48
10.0
100
AcDbHatch
 10
0.0
 20
0.0
 30
0.0
210
0.0
220
0.0
230
1.0
  2
ANSI31
 70
     0
 71
     0
 91
        4
 92
        5
 93
        5
 72
     4
 94
        3
 73
     0
 74
     0
 95
       10
 96
        6
 40
32.20332906069053
 40
32.20332906069053
 40
32.20332906069053
 40
32.20332906069053
 40
36.07354258304438
 40
41.88446131772932
 40
47.39498654027875
 40
47.39498654027875
 40
47.39498654027875
 40
47.39498654027875
 10
671.6621606916366
 20
370.1726714672544
 10
671.4165178654929
 20
371.5196720995448
 10
670.8020554658982
 20
374.8891221818717
 10
665.2359563611085
 20
376.6087103015644
 10
661.4916210262225
 20
376.9485066248027
 10
659.6876913534428
 20
377.0455275212841
 72
     1
 10
659.6876913534421
 20
377.0455275212841
 11
659.6876913534421
 21
371.6726714672544
 72
     1
 10
659.6876913534421
 20
371.6726714672544
 11
664.6876913534421
 21
371.6726714672544
 72
     1
 10
664.6876913534421
 20
371.6726714672544
 11
664.6876913534421
 21
370.1726714672544
 72
     1
 10
664.6876913534421
 20
370.1726714672544
 11
671.6621606916366
 21
370.1726714672544
 97
        0
 92
        5
 93
        4
 72
     1
 10
658.8756913534421
 20
372.4846714672545
 11
659.687691353442
 21
371.6726714672544
 72
     1
 10
659.687691353442
 20
371.6726714672544
 11
659.6876913534421
 21
377.0455275212841
 72
     4
 94
        3
 73
     0
 74
     0
 95
        8
 96
        4
 40
31.37550076964246
 40
31.37550076964246
 40
31.37550076964246
 40
31.37550076964246
 40
32.20332906069053
 40
32.20332906069053
 40
32.20332906069053
 40
32.20332906069053
 10
659.6876913534428
 20
377.0455275212841
 10
659.4166928627586
 20
377.0601026551752
 10
659.1461133145301
 20
377.0731348247584
 10
658.8756913534419
 20
377.0851486186026
 72
     1
 10
658.8756913534421
 20
377.0851486186026
 11
658.8756913534421
 21
372.4846714672545
 97
        0
 92
        5
 93
        4
 72
     1
 10
641.6876913534421
 20
371.6726714672544
 11
642.4996913534421
 21
372.4846714672543
 72
     1
 10
642.4996913534421
 20
372.4846714672545
 11
642.4996913534421
 21
377.1156072042365
 72
     4
 94
        3
 73
     0
 74
     0
 95
        8
 96
        4
 40
14.07287279079752
 40
14.07287279079752
 40
14.07287279079752
 40
14.07287279079752
 40
14.88854677267786
 40
14.88854677267786
 40
14.88854677267786
 40
14.88854677267786
 10
642.4996913534415
 20
377.1156072042364
 10
642.2295946550246
 20
377.0852821433869
 10
641.958984099468
 20
377.0533038109115
 10
641.6876913534402
 20
377.0197831174812
 72
     1
 10
641.6876913534421
 20
377.0197831174814
 11
641.6876913534421
 21
371.6726714672544
 97
        0
 92
        5
 93
        5
 72
     1
 10
641.6876913534421
 20
371.6726714672544
 11
641.6876913534421
 21
377.0197831174816
 72
     4
 94
        3
 73
     0
 74
     0
 95
       10
 96
        6
 40
0.0
 40
0.0
 40
0.0
 40
0.0
 40
2.557235650529396
 40
7.727877917640146
 40
14.07287279079752
 40
14.07287279079752
 40
14.07287279079752
 40
14.07287279079752
 10
641.6876913534402
 20
377.0197831174812
 10
640.8371560939079
 20
376.914691727815
 10
638.2466048954865
 20
376.5512966932142
 10
633.3312993888378
 20
375.6942596573416
 10
631.3573126131887
 20
372.1342173258475
 10
630.2696666741395
 20
370.1726714672544
 72
     1
 10
630.2696666741397
 20
370.1726714672544
 11
636.687691353442
 21
370.1726714672544
 72
     1
 10
636.687691353442
 20
370.1726714672544
 11
636.687691353442
 21
371.6726714672544
 72
     1
 10
636.687691353442
 20
371.6726714672544
 11
641.6876913534421
 21
371.6726714672544
 97
        0
 75
     0
 76
     1
 52
0.0
 41
20.0
 77
     0
 78
     1
 53
45.0
 43
131.7881665606352
 44
138.0430253317089
 45
-1.767766952966368
 46
1.767766952966368
 79
     0
 47
0.1339110804423528
 98
        4
 10
665.7680833553241
 20
374.1181368980696
 10
659.2042240182169
 20
375.0555159800311
 10
642.0578213467639
 20
373.7164040991746
 10
638.7089140119662
 20
373.8503156699413
  0
SPLINE
  5
986
330
2
100
AcDbEntity
  8
LINIE
 48
10.0
100
AcDbSpline
210
0.0
220
0.0
230
1.0
 70
     8
 71
     3
 72
    14
 73
    10
 74
     8
 42
0.0000000001
 43
0.0000000001
 44
0.0000000001
 40
0.0
 40
0.0
 40
0.0
 40
0.0
 40
6.344994873157406
 40
11.51563714026816
 40
20.12640737688697
 40
28.43601387734805
 40
37.71385428324001
 40
43.52477301792495
 40
47.39498654027879
 40
47.39498654027879
 40
47.39498654027879
 40
47.39498654027879
 10
630.2696666741395
 20
370.1726714672544
 30
0.0
 10
631.3573126131887
 20
372.1342173258475
 30
0.0
 10
633.331299388838
 20
375.6942596573417
 30
0.0
 10
640.3609544194263
 20
376.9199565550162
 30
0.0
 10
647.5231454646027
 20
377.7186419431611
 30
0.0
 10
656.3947812254106
 20
377.089774154995
 30
0.0
 10
663.8556428767084
 20
377.0351437201112
 30
0.0
 10
670.8020554658983
 20
374.8891221818718
 30
0.0
 10
671.4165178654929
 20
371.5196720995448
 30
0.0
 10
671.6621606916366
 20
370.1726714672544
 30
0.0
 11
630.2696666741395
 21
370.1726714672544
 31
0.0
 11
634.1543980080665
 21
375.1894256373927
 31
0.0
 11
639.1107826786079
 21
376.6624471756107
 31
0.0
 11
647.6839853489228
 21
377.4659146868056
 31
0.0
 11
655.9892746850847
 21
377.1980915452722
 31
0.0
 11
665.2322593561945
 21
376.3946259474825
 31
0.0
 11
670.4565546917121
 21
373.8503156699413
 31
0.0
 11
671.6621606916366
 21
370.1726714672544
 31
0.0
  0
LINE
  5
987
330
2
100
AcDbEntity
  8
0
100
AcDbLine
 10
615.6876913534421
 20
370.1726714672544
 30
0.0
 11
685.6876913534421
 21
370.1726714672544
 31
0.0
  0
LINE
  5
988
330
2
100
AcDbEntity
  8
0
100
AcDbLine
 10
636.687691353442
 20
371.6726714672544
 30
0.0
 11
664.6876913534421
 21
371.6726714672544
 31
0.0
  0
LINE
  5
989
330
2
100
AcDbEntity
  8
0
100
AcDbLine
 10
642.499691353442
 20
372.4846714672543
 30
0.0
 11
658.8756913534421
 21
372.4846714672545
 31
0.0
  0
LINE
  5
98A
330
2
100
AcDbEntity
  8
BEM
100
AcDbLine
 10
641.6876913534421
 20
371.6726714672544
 30
0.0
 11
641.6876913534421
 21
347.6963044426369
 31
0.0
  0
LINE
  5
98B
330
2
100
AcDbEntity
  8
MITTE
 48
10.0
100
AcDbLine
 10
650.6876913534421
 20
382.2063299512403
 30
0.0
 11
650.6876913534421
 21
357.8089145546395
 31
0.0
  0
LINE
  5
98C
330
2
100
AcDbEntity
  8
0
100
AcDbLine
 10
615.6876913534422
 20
370.1726714672544
 30
0.0
 11
615.6876913534421
 21
369.1726714672542
 31
0.0
  0
LINE
  5
98D
330
2
100
AcDbEntity
  8
BEM
100
AcDbLine
 10
650.6876913534421
 20
357.8089145546395
 30
0.0
 11
650.6876913534421
 21
345.5570651232706
 31
0.0
  0
LINE
  5
98E
330
2
100
AcDbEntity
  8
LINIE
100
AcDbLine
 10
613.1876913534421
 20
385.0471958601458
 30
0.0
 11
613.1876913534421
 21
374.1619923786716
 31
0.0
  0
ARC
  5
98F
330
2
100
AcDbEntity
  8
0
100
AcDbCircle
 10
613.6876913534421
 20
370.6749972716084
 30
0.0
 40
2.5
100
AcDbArc
 50
36.80329727510629
 51
90.0
  0
ARC
  5
990
330
2
100
AcDbEntity
  8
0
100
AcDbCircle
 10
613.6876913534421
 20
388.160870472598
 30
0.0
 40
2.5
100
AcDbArc
 50
270.0
 51
0.0
  0
LINE
  5
991
330
2
100
AcDbEntity
  8
0
100
AcDbLine
 10
636.687691353442
 20
371.6726714672544
 30
0.0
 11
636.687691353442
 21
370.1726714672544
 31
0.0
  0
LINE
  5
992
330
2
100
AcDbEntity
  8
LINIE
 48
10.0
100
AcDbLine
 10
641.6876913534421
 20
377.0197831174856
 30
0.0
 11
641.6876913534421
 21
371.6726714672544
 31
0.0
  0
LINE
  5
993
330
2
100
AcDbEntity
  8
0
100
AcDbLine
 10
642.4996913534421
 20
377.1156072042385
 30
0.0
 11
642.4996913534421
 21
372.4846714672545
 31
0.0
  0
LINE
  5
994
330
2
100
AcDbEntity
  8
0
100
AcDbLine
 10
642.4996913534421
 20
372.4846714672545
 30
0.0
 11
641.6876913534421
 21
371.6726714672544
 31
0.0
  0
LINE
  5
995
330
2
100
AcDbEntity
  8
BEM
100
AcDbLine
 10
659.6876913534421
 20
371.6726714672544
 30
0.0
 11
659.6876913534421
 21
347.6963044426369
 31
0.0
  0
LINE
  5
996
330
2
100
AcDbEntity
  8
0
100
AcDbLine
 10
685.6876913534421
 20
370.1726714672544
 30
0.0
 11
685.6876913534421
 21
368.9639593147322
 31
0.0
  0
ARC
  5
997
330
2
100
AcDbEntity
  8
0
100
AcDbCircle
 10
684.687691353442
 20
366.6726714672543
 30
0.0
 40
2.5
100
AcDbArc
 50
0.0
 51
66.42182152179284
  0
LINE
  5
998
330
2
100
AcDbEntity
  8
LINIE
 48
10.0
100
AcDbLine
 10
691.9671913534421
 20
367.8270761230748
 30
0.0
 11
691.9671913534421
 21
362.1726714672545
 31
0.0
  0
LINE
  5
999
330
2
100
AcDbEntity
  8
0
100
AcDbLine
 10
687.1876913534419
 20
366.6726714672543
 30
0.0
 11
687.1876913534419
 21
364.6726714672545
 31
0.0
  0
ARC
  5
99A
330
2
100
AcDbEntity
  8
0
100
AcDbCircle
 10
689.687691353442
 20
364.6726714672545
 30
0.0
 40
2.5
100
AcDbArc
 50
180.0
 51
270.0
  0
LINE
  5
99B
330
2
100
AcDbEntity
  8
LINIE
 48
10.0
100
AcDbLine
 10
659.6876913534421
 20
377.0455275212869
 30
0.0
 11
659.6876913534421
 21
371.6726714672544
 31
0.0
  0
LINE
  5
99C
330
2
100
AcDbEntity
  8
0
100
AcDbLine
 10
658.8756913534421
 20
372.4846714672545
 30
0.0
 11
659.6876913534421
 21
371.6726714672544
 31
0.0
  0
LINE
  5
99D
330
2
100
AcDbEntity
  8
0
100
AcDbLine
 10
658.8756913534421
 20
377.0851486186028
 30
0.0
 11
658.8756913534421
 21
372.4846714672545
 31
0.0
  0
LINE
  5
99E
330
2
100
AcDbEntity
  8
0
100
AcDbLine
 10
664.6876913534421
 20
371.6726714672544
 30
0.0
 11
664.6876913534421
 21
370.1726714672544
 31
0.0
  0
ARC
  5
99F
330
2
100
AcDbEntity
  8
0
100
AcDbCircle
 10
681.6876913534421
 20
369.6726714672543
 30
0.0
 40
2.5
100
AcDbArc
 50
90.0
 51
168.4630409671818
  0
LEADER
  5
9A4
330
2
100
AcDbEntity
  8
BEM
100
AcDbLeader
  3
ISO-25
 73
     0
 74
     0
 75
     1
 40
15.23809523809523
 41
53.80952380952383
 76
     3
 10
705.1876913534421
 20
362.1726714672545
 30
0.0
 10
737.1301695091147
 20
303.2432965648823
 30
0.0
 10
744.1301695091147
 20
303.2432965648823
 30
0.0
340
9A5
1001
ACAD
1000
DSTYLE
1002
{
1070
   144
1040
1.0
1070
   287
1070
     0
1002
}
  0
MTEXT
  5
9A5
102
{ACAD_REACTORS
330
9A4
102
}
330
2
100
AcDbEntity
  8
BEM
100
AcDbMText
 10
748.1301695091147
 20
314.8623441839299
 30
0.0
 40
10.0
 41
0.0
 71
     4
 72
     1
  1
G 3/4"
 73
     1
 44
1.0
  0
LINE
  5
9A6
330
2
100
AcDbEntity
  8
MITTE
 48
10.0
100
AcDbLine
 10
705.1876913534421
 20
381.7189129576421
 30
0.0
 11
705.1876913534421
 21
350.6726714672544
 31
0.0
  0
LINE
  5
9A7
330
2
100
AcDbEntity
  8
0
100
AcDbLine
 10
723.187691353442
 20
384.0305358435237
 30
0.0
 11
723.1876913534422
 21
364.6726714672547
 31
0.0
  0
LINE
  5
9A8
330
2
100
AcDbEntity
  8
0
100
AcDbLine
 10
693.1291913534423
 20
363.3346714672545
 30
0.0
 11
717.2461913534423
 21
363.3346714672547
 31
0.0
  0
LINE
  5
9A9
330
2
100
AcDbEntity
  8
0
100
AcDbLine
 10
693.1291913534421
 20
368.2094977265422
 30
0.0
 11
693.1291913534421
 21
363.3346714672545
 31
0.0
  0
ARC
  5
9AA
330
2
100
AcDbEntity
  8
0
100
AcDbCircle
 10
720.6876913534422
 20
364.6726714672547
 30
0.0
 40
2.5
100
AcDbArc
 50
270.0
 51
0.0
  0
LINE
  5
9AB
330
2
100
AcDbEntity
  8
LINIE
 48
10.0
100
AcDbLine
 10
718.4081913534421
 20
368.1917327385979
 30
0.0
 11
718.4081913534421
 21
362.1726714672547
 31
0.0
  0
LINE
  5
9AC
330
2
100
AcDbEntity
  8
0
100
AcDbLine
 10
717.246191353442
 20
368.3744440941059
 30
0.0
 11
717.246191353442
 21
363.3346714672547
 31
0.0
  0
LINE
  5
9AD
330
2
100
AcDbEntity
  8
0
100
AcDbLine
 10
717.246191353442
 20
363.3346714672547
 30
0.0
 11
718.4081913534421
 21
362.1726714672547
 31
0.0
  0
ARC
  5
9AE
330
2
100
AcDbEntity
  8
0
100
AcDbCircle
 10
711.187691353442
 20
380.1726714672545
 30
0.0
 40
8.0
100
AcDbArc
 50
270.0
 51
0.0
  0
ARC
  5
9AF
330
2
100
AcDbEntity
  8
0
100
AcDbCircle
 10
713.1876913534419
 20
384.0305358435236
 30
0.0
 40
10.0
100
AcDbArc
 50
0.0
 51
34.19888562142214
  0
LINE
  5
9B0
330
2
100
AcDbEntity
  8
0
100
AcDbLine
 10
854.6458877573227
 20
324.3673243738829
 30
0.0
 11
892.6250623622989
 21
319.7216493610628
 31
0.0
  0
LINE
  5
9B1
330
2
100
AcDbEntity
  8
MITTE
 48
10.0
100
AcDbLine
 10
863.4771166776287
 20
374.442464149749
 30
0.0
 11
869.7061572149246
 21
357.3283159286603
 31
0.0
  0
CIRCLE
  5
9B2
330
2
100
AcDbEntity
  8
0
100
AcDbCircle
 10
866.6109020286214
 20
365.8324596604805
 30
0.0
 40
5.75
  0
ARC
  5
9B3
330
2
100
AcDbEntity
  8
0
100
AcDbCircle
 10
844.1594210001163
 20
406.7709410563595
 30
0.0
 40
73.0
100
AcDbArc
 50
215.496628826018
 51
245.0000000000003
  0
LINE
  5
9B4
330
2
100
AcDbEntity
  8
0
100
AcDbLine
 10
813.3082878930455
 20
340.610472602684
 30
0.0
 11
837.7785981430351
 21
329.1997795356851
 31
0.0
  0
ARC
  5
9B5
330
2
100
AcDbEntity
  8
0
100
AcDbCircle
 10
861.4452208005141
 20
379.9530156097376
 30
0.0
 40
56.0
100
AcDbArc
 50
245.0000000000003
 51
263.0261308132869
  0
ARC
  5
9B6
330
2
100
AcDbEntity
  8
0
100
AcDbCircle
 10
894.0820623001256
 20
331.6328689116031
 30
0.0
 40
12.0
100
AcDbArc
 50
263.0261308132869
 51
345.353320043931
  0
CIRCLE
  5
9B7
330
2
100
AcDbEntity
  8
0
100
AcDbCircle
 10
894.0820623001256
 20
331.6328689116031
 30
0.0
 40
3.3235
  0
LINE
  5
9B8
330
2
100
AcDbEntity
  8
MITTE
 48
10.0
100
AcDbLine
 10
896.6371879013784
 20
337.1123534462613
 30
0.0
 11
891.3089666777052
 21
325.6859461580877
 31
0.0
  0
LINE
  5
9B9
330
2
100
AcDbEntity
  8
MITTE
 48
10.0
100
AcDbLine
 10
889.7889340616949
 20
333.6347874866248
 30
0.0
 11
900.4719602022939
 21
328.6532105849935
 31
0.0
  0
ARC
  5
9BA
330
2
100
AcDbEntity
  8
LINIE
 48
10.0
100
AcDbCircle
 10
894.0820623001256
 20
331.6328689116031
 30
0.0
 40
4.0
100
AcDbArc
 50
138.3492982195119
 51
73.8543757642468
  0
LINE
  5
9BB
330
2
100
AcDbEntity
  8
MITTE
 48
20.0
100
AcDbLine
 10
748.7802530696286
 20
433.9601746674591
 30
0.0
 11
934.6769355430543
 21
433.9601746674591
 31
0.0
  0
ARC
  5
9BC
330
2
100
AcDbEntity
  8
MITTE
 48
15.0
100
AcDbCircle
 10
841.8144416375103
 20
433.9601746674588
 30
0.0
 40
72.5
100
AcDbArc
 50
101.5931189888038
 51
141.6167398146158
  0
LINE
  5
9BD
330
2
100
AcDbEntity
  8
MITTE
 48
10.0
100
AcDbLine
 10
586.8512755034345
 20
427.1726714672544
 30
0.0
 11
722.7104524213874
 21
427.1726714672544
 31
0.0
  0
LINE
  5
9BE
330
2
100
AcDbEntity
  8
0
100
AcDbLine
 10
595.5465902969827
 20
481.1726714672544
 30
0.0
 11
709.8448027002064
 21
481.1726714672544
 31
0.0
  0
LINE
  5
9BF
330
2
100
AcDbEntity
  8
0
100
AcDbLine
 10
591.187691353442
 20
470.1735948600367
 30
0.0
 11
613.6876913534421
 21
470.1735948600367
 31
0.0
  0
LINE
  5
9C0
330
2
100
AcDbEntity
  8
0
100
AcDbLine
 10
591.187691353442
 20
462.2919121133528
 30
0.0
 11
613.6876913534421
 21
462.2919121133528
 31
0.0
  0
DIMENSION
  5
9C1
330
2
100
AcDbEntity
  8
BEM
100
AcDbDimension
  2
*D18
 10
549.2357838060772
 20
433.9601746674592
 30
0.0
 11
540.235783806077
 21
461.4601746674592
 31
0.0
 70
    32
 71
     5
 42
55.0
  3
ISO-25
100
AcDbAlignedDimension
 13
556.2876913534418
 23
488.9601746674592
 33
0.0
 14
556.2118610226554
 24
433.9601746674592
 34
0.0
 50
90.0
100
AcDbRotatedDimension
1001
ACAD
1000
DSTYLE
1002
{
1070
   144
1040
1.0
1070
   289
1070
     0
1002
}
  0
LINE
  5
9C2
330
2
100
AcDbEntity
  8
MITTE
 48
5.0
100
AcDbLine
 10
581.4733662073701
 20
427.1726714672544
 30
0.0
 11
599.0492213615972
 21
427.1726714672544
 31
0.0
  0
LINE
  5
9C3
330
2
100
AcDbEntity
  8
0
100
AcDbLine
 10
558.2876913534418
 20
489.9601746674592
 30
0.0
 11
591.1876913534419
 21
489.9601746674591
 31
0.0
1001
ACAD
1000
ASC_BOUNDS
1002
{
1070
    19
1002
}
  0
ARC
  5
9C4
330
2
100
AcDbEntity
  8
0
100
AcDbCircle
 10
556.2876913534418
 20
491.4601746674592
 30
0.0
 40
2.5
100
AcDbArc
 50
270.0
 51
323.1301023541533
1001
ACAD
1000
ASC_BOUNDS
1002
{
1070
    19
1002
}
  0
LINE
  5
9C5
330
2
100
AcDbEntity
  8
0
100
AcDbLine
 10
591.1876913534416
 20
479.4038254813553
 30
0.0
 11
591.1876913534418
 21
463.4038254813552
 31
0.0
1001
ACAD
1000
ASC_BOUNDS
1002
{
1070
    19
1005
0
1005
0
1002
}
  0
LINE
  5
9C6
330
2
100
AcDbEntity
  8
LINIE
100
AcDbLine
 10
595.5465902969827
 20
478.1775115813653
 30
0.0
 11
595.5465902969827
 21
470.9627503117909
 31
0.0
  0
LINE
  5
9C7
330
2
100
AcDbEntity
  8
0
100
AcDbLine
 10
594.1876913534421
 20
482.1726714672543
 30
0.0
 11
591.187691353442
 21
482.1726714672543
 31
0.0
  0
ARC
  5
9C8
330
2
100
AcDbEntity
  8
0
100
AcDbCircle
 10
594.1092642582015
 20
480.6427938010091
 30
0.0
 40
1.53188657639655
100
AcDbArc
 50
20.23666902886391
 51
87.06537877672955
  0
LINE
  5
9C9
330
2
100
AcDbEntity
  8
LINIE
100
AcDbLine
 10
613.1876913534421
 20
469.6101061320297
 30
0.0
 11
613.1876913534421
 21
462.8280339878748
 31
0.0
  0
ARC
  5
9CA
330
2
100
AcDbEntity
  8
0
100
AcDbCircle
 10
613.6876913534421
 20
459.7919121133528
 30
0.0
 40
2.5
100
AcDbArc
 50
0.0
 51
90.0
  0
ARC
  5
9CB
330
2
100
AcDbEntity
  8
0
100
AcDbCircle
 10
613.6876913534421
 20
472.6735948600366
 30
0.0
 40
2.5
100
AcDbArc
 50
270.0
 51
0.0
  0
LINE
  5
9CC
330
2
100
AcDbEntity
  8
0
100
AcDbLine
 10
719.1876913534421
 20
458.1726714672543
 30
0.0
 11
717.8143602849403
 21
473.8699174092356
 31
0.0
  0
ARC
  5
9CD
330
2
100
AcDbEntity
  8
0
100
AcDbCircle
 10
709.8448027002064
 20
473.1726714672544
 30
0.0
 40
8.0
100
AcDbArc
 50
5.0000000000002
 51
90.0
  0
ARC
  5
9CE
330
2
100
AcDbEntity
  8
MITTE
 48
15.0
100
AcDbCircle
 10
841.8144416375103
 20
433.9601746674588
 30
0.0
 40
72.5
100
AcDbArc
 50
190.8188316286223
 51
208.406881011193
  0
LINE
  5
9CF
330
2
100
AcDbEntity
  8
MITTE
 48
10.0
100
AcDbLine
 10
782.1567084129388
 20
412.2465355299216
 30
0.0
 11
763.5733749297655
 21
405.4827552886039
 31
0.0
  0
CIRCLE
  5
9D0
330
2
100
AcDbEntity
  8
0
100
AcDbCircle
 10
773.686726630532
 20
409.1637142763479
 30
0.0
 40
5.75
  0
DIMENSION
  5
9D1
330
2
100
AcDbEntity
  8
BEM
100
AcDbDimension
  2
*D19
 10
979.5711662055436
 20
454.5008795895821
 30
0.0
 11
1014.123015467562
 21
492.5296411380698
 31
0.0
 70
   163
 71
     5
 42
11.49999999999988
  3
ISO-25
100
AcDbDiametricDimension
 15
987.3044825415487
 25
463.0123905275576
 35
0.0
 40
0.0
1001
ACAD
1000
DSTYLE
1002
{
1070
   144
1040
1.0
1070
   289
1070
     0
1002
}
  0
LINE
  5
9D2
330
2
100
AcDbEntity
  8
MITTE
 48
10.0
100
AcDbLine
 10
901.3321521552198
 20
455.6228497075782
 30
0.0
 11
918.4463003763083
 21
461.8518902448744
 31
0.0
  0
CIRCLE
  5
9D3
330
2
100
AcDbEntity
  8
0
100
AcDbCircle
 10
909.9421566444886
 20
458.7566350585698
 30
0.0
 40
5.75
  0
ARC
  5
9D4
330
2
100
AcDbEntity
  8
MITTE
 48
15.0
100
AcDbCircle
 10
841.8144416375103
 20
433.9601746674588
 30
0.0
 40
72.5
100
AcDbArc
 50
11.42334422562026
 51
28.51171634009317
  0
LINE
  5
9D5
330
2
100
AcDbEntity
  8
MITTE
 48
10.0
100
AcDbLine
 10
820.1008024999719
 20
493.6179078920298
 30
0.0
 11
813.3370222586544
 21
512.2012413752032
 31
0.0
  0
CIRCLE
  5
9D6
330
2
100
AcDbEntity
  8
0
100
AcDbCircle
 10
817.0179812463993
 20
502.0878896744372
 30
0.0
 40
5.75
  0
MTEXT
  5
DA0
330
2
100
AcDbEntity
  8
BEM
100
AcDbMText
 10
120.5929932022145
 20
277.0126434869045
 30
0.0
 40
10.0
 41
161.8643881791417
 71
     1
 72
     5
  1
Zuluft\Pair inlet\PBrachement de l'air\PAria in entrata
 73
     1
 44
1.0
  0
MTEXT
  5
DA1
330
2
100
AcDbEntity
  8
BEM
100
AcDbMText
 10
736.6018452758787
 20
295.2734791825524
 30
0.0
 40
10.0
 41
161.8643881791417
 71
     1
 72
     5
  1
Abluft\Pexhaust air\PSortie de l'air\PAria in uscita
 73
     1
 44
1.0
  0
ENDSEC
  0
SECTION
  2
OBJECTS
  0
DICTIONARY
  5
1B
330
0
100
AcDbDictionary
281
     1
  3
ACAD_COLOR
350
BEF
  3
ACAD_GROUP
350
19
  3
ACAD_LAYOUT
350
312
  3
ACAD_MATERIAL
350
BEE
  3
ACAD_MLEADERSTYLE
350
D2A
  3
ACAD_MLINESTYLE
350
1A
  3
ACAD_PLOTSETTINGS
350
313
  3
ACAD_PLOTSTYLENAME
350
310
  3
ACAD_SCALELIST
350
D08
  3
ACAD_TABLESTYLE
350
CBC
  3
ACAD_VISUALSTYLE
350
CF7
  3
ACDB_RECOMPOSE_DATA
350
D6F
  3
ACDBVARIABLEDICTIONARY
350
2D7
  3
ACMDICTIONARY
350
2B5
  3
AMG
350
31B
  3
AMGSNAPSETTINGS
350
37A
  3
ASE_INDEX_DICTIONARY
350
E79
  0
DICTIONARY
  5
D56
330
5
100
AcDbDictionary
280
     1
281
     1
  3
ADSK_XREC_LAYER_RECONCILED
360
D57
  0
DICTIONARY
  5
D58
330
21
100
AcDbDictionary
280
     1
281
     1
  3
ADSK_XREC_LAYER_RECONCILED
360
D59
  0
DICTIONARY
  5
D5A
330
3D
100
AcDbDictionary
280
     1
281
     1
  3
ADSK_XREC_LAYER_RECONCILED
360
D5B
  0
DICTIONARY
  5
D5C
330
62
100
AcDbDictionary
280
     1
281
     1
  3
ADSK_XREC_LAYER_RECONCILED
360
D5D
  0
DICTIONARY
  5
3
330
2
100
AcDbDictionary
280
     1
281
     1
  3
ACAD_SORTENTS
360
DA3
  0
DICTIONARY
  5
EB1
330
E22
100
AcDbDictionary
280
     1
281
     1
  3
ACAD_MTEXT_2008_RT
360
EB2
  0
DICTIONARY
  5
EB3
330
E76
100
AcDbDictionary
280
     1
281
     1
  3
ACAD_MTEXT_2008_RT
360
EB4
  0
DICTIONARY
  5
BEF
102
{ACAD_REACTORS
330
1B
102
}
330
1B
100
AcDbDictionary
281
     1
  0
DICTIONARY
  5
19
102
{ACAD_REACTORS
330
1B
102
}
330
1B
100
AcDbDictionary
281
     1
  0
DICTIONARY
  5
312
102
{ACAD_REACTORS
330
1B
102
}
330
1B
100
AcDbDictionary
281
     1
  3
Layout1
350
315
  3
Model
350
314
  0
DICTIONARY
  5
BEE
102
{ACAD_REACTORS
330
1B
102
}
330
1B
100
AcDbDictionary
281
     1
  3
ByBlock
350
CE7
  3
ByLayer
350
CDF
  3
Global
350
CEF
  0
DICTIONARY
  5
D2A
102
{ACAD_REACTORS
330
1B
102
}
330
1B
100
AcDbDictionary
281
     1
  3
Standard
350
D2B
  0
DICTIONARY
  5
1A
102
{ACAD_REACTORS
330
1B
102
}
330
1B
100
AcDbDictionary
281
     1
  3
STANDARD
350
1C
  0
DICTIONARY
  5
313
102
{ACAD_REACTORS
330
1B
102
}
330
1B
100
AcDbDictionary
281
     1
  0
ACDBDICTIONARYWDFLT
  5
310
102
{ACAD_REACTORS
330
1B
102
}
330
1B
100
AcDbDictionary
281
     1
  3
Normal
350
311
100
AcDbDictionaryWithDefault
340
311
  0
DICTIONARY
  5
D08
102
{ACAD_REACTORS
330
1B
102
}
330
1B
100
AcDbDictionary
281
     1
  3
A0
350
D09
  3
A1
350
D0A
  3
A2
350
D0B
  3
A3
350
D0C
  3
A4
350
D0D
  3
A5
350
D0E
  3
A6
350
D0F
  3
A7
350
D10
  3
A8
350
D11
  3
A9
350
D12
  3
B0
350
D13
  3
B1
350
D14
  3
B2
350
D15
  3
B3
350
D16
  3
B4
350
D17
  3
B5
350
D18
  3
B6
350
D19
  3
B7
350
D1A
  3
B8
350
D1B
  3
B9
350
D1C
  3
C0
350
D1D
  3
C1
350
D1E
  3
C2
350
D1F
  3
C3
350
D20
  3
C4
350
D21
  3
C5
350
D22
  3
C6
350
D23
  3
C7
350
D24
  3
C8
350
D25
  3
C9
350
D26
  3
D0
350
D27
  3
D1
350
D28
  3
D2
350
D29
  0
DICTIONARY
  5
CBC
102
{ACAD_REACTORS
330
1B
102
}
330
1B
100
AcDbDictionary
281
     1
  3
Standard
350
CBD
  0
DICTIONARY
  5
CF7
102
{ACAD_REACTORS
330
1B
102
}
330
1B
100
AcDbDictionary
281
     1
  3
2dWireframe
350
CFD
  3
3D Hidden
350
CFF
  3
3dWireframe
350
CFE
  3
Basic
350
CFC
  3
Brighten
350
D03
  3
ColorChange
350
D07
  3
Conceptual
350
D00
  3
Dim
350
D02
  3
Facepattern
350
D06
  3
Flat
350
CF8
  3
FlatWithEdges
350
CF9
  3
Gouraud
350
CFA
  3
GouraudWithEdges
350
CFB
  3
Linepattern
350
D05
  3
Realistic
350
D01
  3
Thicken
350
D04
  0
XRECORD
  5
D6F
102
{ACAD_REACTORS
330
1B
102
}
330
1B
100
AcDbXrecord
280
     1
 90
        1
330
CBD
  0
DICTIONARY
  5
2D7
102
{ACAD_REACTORS
330
1B
102
}
330
1B
100
AcDbDictionary
281
     1
  3
CANNOSCALE
350
D72
  3
CMLEADERSTYLE
350
D70
  3
CTABLESTYLE
350
CDD
  3
DIMASSOC
350
5A4
  3
INDEXCTL
350
2D8
  3
LIGHTINGUNITS
350
D73
  3
MSLTSCALE
350
D71
  0
DICTIONARY
  5
2B5
102
{ACAD_REACTORS
330
1B
102
}
330
1B
100
AcDbDictionary
280
     1
281
     1
  3
ACMSTDDICTIONARY
360
2B6
  3
AMDTSECTSYM_ARROWCOLOR
360
CC6
  0
DICTIONARY
  5
31B
102
{ACAD_REACTORS
330
1B
102
}
330
1B
100
AcDbDictionary
281
     1
  0
DICTIONARY
  5
37A
102
{ACAD_REACTORS
330
1B
102
}
330
1B
100
AcDbDictionary
281
     1
  0
DICTIONARY
  5
E79
102
{ACAD_REACTORS
330
1B
102
}
330
1B
100
AcDbDictionary
281
     1
  3
ASEBlockHierarchyIndexRecord
350
E7A
1001
DCO15
1040
1727607056.067
  0
XRECORD
  5
D57
102
{ACAD_REACTORS
330
D56
102
}
330
D56
100
AcDbXrecord
280
     1
290
     1
  0
XRECORD
  5
D59
102
{ACAD_REACTORS
330
D58
102
}
330
D58
100
AcDbXrecord
280
     1
290
     1
  0
XRECORD
  5
D5B
102
{ACAD_REACTORS
330
D5A
102
}
330
D5A
100
AcDbXrecord
280
     1
290
     1
  0
XRECORD
  5
D5D
102
{ACAD_REACTORS
330
D5C
102
}
330
D5C
100
AcDbXrecord
280
     1
290
     1
  0
SORTENTSTABLE
  5
DA3
102
{ACAD_REACTORS
330
3
102
}
330
3
100
AcDbSortentsTable
330
2
331
901
  5
901
331
938
  5
938
331
88B
  5
88B
331
8C2
  5
8C2
331
97F
  5
97F
331
8CA
  5
8CA
331
909
  5
909
331
893
  5
893
331
940
  5
940
331
948
  5
948
331
987
  5
987
331
8D2
  5
8D2
331
911
  5
911
331
89B
  5
89B
331
950
  5
950
331
8DA
  5
8DA
331
98F
  5
98F
331
864
  5
864
331
9B0
  5
9B0
331
9B8
  5
9B8
331
9C0
  5
9C0
331
9C8
  5
9C8
331
919
  5
919
331
958
  5
958
331
86C
  5
86C
331
8A3
  5
8A3
331
8E2
  5
8E2
331
8EA
  5
8EA
331
921
  5
921
331
874
  5
874
331
8AB
  5
8AB
331
960
  5
960
331
8F2
  5
8F2
331
929
  5
929
331
87C
  5
87C
331
8B3
  5
8B3
331
968
  5
968
331
970
  5
970
331
8BB
  5
8BB
331
8FA
  5
8FA
331
884
  5
884
331
931
  5
931
331
991
  5
991
331
9D0
  5
9D0
331
999
  5
999
331
9A9
  5
9A9
331
939
  5
939
331
978
  5
978
331
88C
  5
88C
331
8C3
  5
8C3
331
902
  5
902
331
941
  5
941
331
980
  5
980
331
894
  5
894
331
8CB
  5
8CB
331
90A
  5
90A
331
912
  5
912
331
949
  5
949
331
85D
  5
85D
331
89C
  5
89C
331
8D3
  5
8D3
331
988
  5
988
331
8DB
  5
8DB
331
865
  5
865
331
951
  5
951
331
9B1
  5
9B1
331
9B9
  5
9B9
331
9C1
  5
9C1
331
9C9
  5
9C9
331
959
  5
959
331
8E3
  5
8E3
331
91A
  5
91A
331
86D
  5
86D
331
8A4
  5
8A4
331
961
  5
961
331
8AC
  5
8AC
331
8EB
  5
8EB
331
875
  5
875
331
922
  5
922
331
92A
  5
92A
331
969
  5
969
331
87D
  5
87D
331
8B4
  5
8B4
331
8F3
  5
8F3
331
8FB
  5
8FB
331
932
  5
932
331
885
  5
885
331
8BC
  5
8BC
331
971
  5
971
331
9D1
  5
9D1
331
992
  5
992
331
99A
  5
99A
331
9AA
  5
9AA
331
903
  5
903
331
93A
  5
93A
331
88D
  5
88D
331
8C4
  5
8C4
331
979
  5
979
331
981
  5
981
331
8CC
  5
8CC
331
90B
  5
90B
331
895
  5
895
331
942
  5
942
331
94A
  5
94A
331
989
  5
989
331
89D
  5
89D
331
8D4
  5
8D4
331
85E
  5
85E
331
952
  5
952
331
8DC
  5
8DC
331
DA0
  5
DA0
331
9B2
  5
9B2
331
9BA
  5
9BA
331
9C2
  5
9C2
331
9CA
  5
9CA
331
91B
  5
91B
331
95A
  5
95A
331
86E
  5
86E
331
8A5
  5
8A5
331
8E4
  5
8E4
331
8EC
  5
8EC
331
923
  5
923
331
876
  5
876
331
8AD
  5
8AD
331
962
  5
962
331
96A
  5
96A
331
8F4
  5
8F4
331
92B
  5
92B
331
87E
  5
87E
331
8B5
  5
8B5
331
972
  5
972
331
8BD
  5
8BD
331
8FC
  5
8FC
331
886
  5
886
331
933
  5
933
331
993
  5
993
331
9D2
  5
9D2
331
99B
  5
99B
331
9AB
  5
9AB
331
93B
  5
93B
331
97A
  5
97A
331
8C5
  5
8C5
331
904
  5
904
331
90C
  5
90C
331
943
  5
943
331
896
  5
896
331
982
  5
982
331
914
  5
914
331
94B
  5
94B
331
85F
  5
85F
331
89E
  5
89E
331
8D5
  5
8D5
331
98A
  5
98A
331
8DD
  5
8DD
331
953
  5
953
331
DA1
  5
DA1
331
9B3
  5
9B3
331
9BB
  5
9BB
331
9C3
  5
9C3
331
9CB
  5
9CB
331
95B
  5
95B
331
8A6
  5
8A6
331
8E5
  5
8E5
331
86F
  5
86F
331
91C
  5
91C
331
963
  5
963
331
8AE
  5
8AE
331
8ED
  5
8ED
331
877
  5
877
331
924
  5
924
331
92C
  5
92C
331
96B
  5
96B
331
87F
  5
87F
331
8B6
  5
8B6
331
8F5
  5
8F5
331
8FD
  5
8FD
331
934
  5
934
331
887
  5
887
331
8BE
  5
8BE
331
973
  5
973
331
994
  5
994
331
9D3
  5
9D3
331
99C
  5
99C
331
9A4
  5
9A4
331
9AC
  5
9AC
331
97B
  5
97B
331
905
  5
905
331
93C
  5
93C
331
8C6
  5
8C6
331
983
  5
983
331
8CE
  5
8CE
331
90D
  5
90D
331
897
  5
897
331
944
  5
944
331
94C
  5
94C
331
98B
  5
98B
331
89F
  5
89F
331
8D6
  5
8D6
331
860
  5
860
331
915
  5
915
331
954
  5
954
331
8DE
  5
8DE
331
9B4
  5
9B4
331
9BC
  5
9BC
331
9C4
  5
9C4
331
9CC
  5
9CC
331
868
  5
868
331
91D
  5
91D
331
95C
  5
95C
331
870
  5
870
331
8A7
  5
8A7
331
8E6
  5
8E6
331
8EE
  5
8EE
331
925
  5
925
331
878
  5
878
331
8AF
  5
8AF
331
964
  5
964
331
96C
  5
96C
331
8B7
  5
8B7
331
8F6
  5
8F6
331
880
  5
880
331
92D
  5
92D
331
974
  5
974
331
8BF
  5
8BF
331
8FE
  5
8FE
331
935
  5
935
331
995
  5
995
331
9D4
  5
9D4
331
99D
  5
99D
331
9A5
  5
9A5
331
9AD
  5
9AD
331
93D
  5
93D
331
97C
  5
97C
331
8C7
  5
8C7
331
906
  5
906
331
90E
  5
90E
331
945
  5
945
331
898
  5
898
331
8CF
  5
8CF
331
984
  5
984
331
98C
  5
98C
331
916
  5
916
331
94D
  5
94D
331
861
  5
861
331
8D7
  5
8D7
331
8DF
  5
8DF
331
955
  5
955
331
9B5
  5
9B5
331
9BD
  5
9BD
331
9C5
  5
9C5
331
9CD
  5
9CD
331
8A0
  5
8A0
331
95D
  5
95D
331
8A8
  5
8A8
331
8E7
  5
8E7
331
871
  5
871
331
91E
  5
91E
331
926
  5
926
331
965
  5
965
331
8B0
  5
8B0
331
8EF
  5
8EF
331
879
  5
879
331
92E
  5
92E
331
96D
  5
96D
331
881
  5
881
331
8B8
  5
8B8
331
8F7
  5
8F7
331
8FF
  5
8FF
331
936
  5
936
331
975
  5
975
331
996
  5
996
331
9D5
  5
9D5
331
99E
  5
99E
331
9A6
  5
9A6
331
9AE
  5
9AE
331
8C0
  5
8C0
331
97D
  5
97D
331
8C8
  5
8C8
331
907
  5
907
331
891
  5
891
331
93E
  5
93E
331
985
  5
985
331
8D0
  5
8D0
331
899
  5
899
331
946
  5
946
331
94E
  5
94E
331
98D
  5
98D
331
8D8
  5
8D8
331
862
  5
862
331
917
  5
917
331
956
  5
956
331
9B6
  5
9B6
331
9BE
  5
9BE
331
9C6
  5
9C6
331
9CE
  5
9CE
331
8A1
  5
8A1
331
8E0
  5
8E0
331
91F
  5
91F
331
95E
  5
95E
331
872
  5
872
331
8A9
  5
8A9
331
8E8
  5
8E8
331
8F0
  5
8F0
331
927
  5
927
331
87A
  5
87A
331
8B1
  5
8B1
331
966
  5
966
331
96E
  5
96E
331
8B9
  5
8B9
331
8F8
  5
8F8
331
882
  5
882
331
92F
  5
92F
331
937
  5
937
331
976
  5
976
331
997
  5
997
331
9D6
  5
9D6
331
99F
  5
99F
331
9A7
  5
9A7
331
9AF
  5
9AF
331
8C1
  5
8C1
331
900
  5
900
331
88A
  5
88A
331
93F
  5
93F
331
97E
  5
97E
331
892
  5
892
331
8C9
  5
8C9
331
908
  5
908
331
947
  5
947
331
89A
  5
89A
331
8D1
  5
8D1
331
986
  5
986
331
98E
  5
98E
331
8D9
  5
8D9
331
863
  5
863
331
94F
  5
94F
331
957
  5
957
331
9B7
  5
9B7
331
9BF
  5
9BF
331
9C7
  5
9C7
331
9CF
  5
9CF
331
8E1
  5
8E1
331
918
  5
918
331
86B
  5
86B
331
8A2
  5
8A2
331
95F
  5
95F
331
8AA
  5
8AA
331
8E9
  5
8E9
331
873
  5
873
331
928
  5
928
331
967
  5
967
331
87B
  5
87B
331
8B2
  5
8B2
331
8F1
  5
8F1
331
930
  5
930
331
96F
  5
96F
331
883
  5
883
331
8BA
  5
8BA
331
8F9
  5
8F9
331
977
  5
977
331
990
  5
990
331
998
  5
998
331
9A8
  5
9A8
  0
XRECORD
  5
EB2
102
{ACAD_REACTORS
330
EB1
102
}
330
EB1
100
AcDbXrecord
280
     1
 40
5795.0
  1
\A1;\U+2205145
  0
XRECORD
  5
EB4
102
{ACAD_REACTORS
330
EB3
102
}
330
EB3
100
AcDbXrecord
280
     1
 40
6453.0
  1
\A1;\U+220511.5
  0
LAYOUT
  5
315
102
{ACAD_REACTORS
330
312
102
}
330
312
100
AcDbPlotSettings
  1

  2
Kein
  4

  6

 40
0.0
 41
0.0
 42
0.0
 43
0.0
 44
0.0
 45
0.0
 46
0.0
 47
0.0
 48
0.0
 49
0.0
140
0.0
141
0.0
142
1.0
143
1.0
 70
   688
 72
     0
 73
     0
 74
     5
  7
Test.ctb
 75
    16
147
1.0
 76
     0
 77
     2
 78
   300
148
0.0
149
0.0
100
AcDbLayout
  1
Layout1
 70
     0
 71
     1
 10
0.0
 20
0.0
 11
420.0
 21
297.0
 12
0.0
 22
0.0
 32
0.0
 14
1.000000000000000E+20
 24
1.000000000000000E+20
 34
1.000000000000000E+20
 15
-1.000000000000000E+20
 25
-1.000000000000000E+20
 35
-1.000000000000000E+20
146
0.0
 13
0.0
 23
0.0
 33
0.0
 16
1.0
 26
0.0
 36
0.0
 17
0.0
 27
1.0
 37
0.0
 76
     0
330
8
  0
LAYOUT
  5
314
102
{ACAD_REACTORS
330
312
102
}
330
312
100
AcDbPlotSettings
  1

  2
Konstruktion
  4
A4
  6

 40
7.143749713897705
 41
7.186082363128662
 42
7.059066772460937
 43
5.027069091796875
 44
209.9733276367187
 45
296.9683227539062
 46
23.70295364696034
 47
0.0
 48
0.0
 49
0.0
140
0.0
141
0.0
142
1.0
143
3.601236560291725
 70
  3764
 72
     1
 73
     1
 74
     1
  7
Zeich.ctb
 75
     0
147
0.2776823969372879
 76
     0
 77
     2
 78
   300
148
-16.23001344994418
149
-79.66041719734244
100
AcDbLayout
  1
Model
 70
     1
 71
     0
 10
0.0
 20
0.0
 11
12.0
 21
9.0
 12
0.0
 22
0.0
 32
0.0
 14
0.0
 24
0.0
 34
0.0
 15
0.0
 25
0.0
 35
0.0
146
0.0
 13
0.0
 23
0.0
 33
0.0
 16
1.0
 26
0.0
 36
0.0
 17
0.0
 27
1.0
 37
0.0
 76
     0
330
2
331
CDC
1001
ACAD_PSEXT
1000
Konstruktion
1000
Kyocera FS-1030D
1000
IP_192.168.10.181
1000

1070
     0
  0
MATERIAL
  5
CE7
102
{ACAD_XDICTIONARY
360
CE8
102
}
102
{ACAD_REACTORS
330
BEE
102
}
330
BEE
100
AcDbMaterial
  1
ByBlock
 72
     0
 43
0.0208333333333333
 43
0.0
 43
0.0
 43
0.0
 43
0.0
 43
0.0208333333333333
 43
0.0
 43
0.0
 43
0.0
 43
0.0
 43
1.0
 43
0.0
 43
0.0
 43
0.0
 43
0.0
 43
1.0
 77
     0
 47
0.0208333333333333
 47
0.0
 47
0.0
 47
0.0
 47
0.0
 47
0.0208333333333333
 47
0.0
 47
0.0
 47
0.0
 47
0.0
 47
1.0
 47
0.0
 47
0.0
 47
0.0
 47
0.0
 47
1.0
171
     0
 49
0.0208333333333333
 49
0.0
 49
0.0
 49
0.0
 49
0.0
 49
0.0208333333333333
 49
0.0
 49
0.0
 49
0.0
 49
0.0
 49
1.0
 49
0.0
 49
0.0
 49
0.0
 49
0.0
 49
1.0
175
     0
142
0.0208333333333333
142
0.0
142
0.0
142
0.0
142
0.0
142
0.0208333333333333
142
0.0
142
0.0
142
0.0
142
0.0
142
1.0
142
0.0
142
0.0
142
0.0
142
0.0
142
1.0
179
     0
144
0.0208333333333333
144
0.0
144
0.0
144
0.0
144
0.0
144
0.0208333333333333
144
0.0
144
0.0
144
0.0
144
0.0
144
1.0
144
0.0
144
0.0
144
0.0
144
0.0
144
1.0
147
0.0208333333333333
147
0.0
147
0.0
147
0.0
147
0.0
147
0.0208333333333333
147
0.0
147
0.0
147
0.0
147
0.0
147
1.0
147
0.0
147
0.0
147
0.0
147
0.0
147
1.0
  0
MATERIAL
  5
CDF
102
{ACAD_XDICTIONARY
360
CE0
102
}
102
{ACAD_REACTORS
330
BEE
102
}
330
BEE
100
AcDbMaterial
  1
ByLayer
 72
     0
 43
0.0208333333333333
 43
0.0
 43
0.0
 43
0.0
 43
0.0
 43
0.0208333333333333
 43
0.0
 43
0.0
 43
0.0
 43
0.0
 43
1.0
 43
0.0
 43
0.0
 43
0.0
 43
0.0
 43
1.0
 77
     0
 47
0.0208333333333333
 47
0.0
 47
0.0
 47
0.0
 47
0.0
 47
0.0208333333333333
 47
0.0
 47
0.0
 47
0.0
 47
0.0
 47
1.0
 47
0.0
 47
0.0
 47
0.0
 47
0.0
 47
1.0
171
     0
 49
0.0208333333333333
 49
0.0
 49
0.0
 49
0.0
 49
0.0
 49
0.0208333333333333
 49
0.0
 49
0.0
 49
0.0
 49
0.0
 49
1.0
 49
0.0
 49
0.0
 49
0.0
 49
0.0
 49
1.0
175
     0
142
0.0208333333333333
142
0.0
142
0.0
142
0.0
142
0.0
142
0.0208333333333333
142
0.0
142
0.0
142
0.0
142
0.0
142
1.0
142
0.0
142
0.0
142
0.0
142
0.0
142
1.0
179
     0
144
0.0208333333333333
144
0.0
144
0.0
144
0.0
144
0.0
144
0.0208333333333333
144
0.0
144
0.0
144
0.0
144
0.0
144
1.0
144
0.0
144
0.0
144
0.0
144
0.0
144
1.0
147
0.0208333333333333
147
0.0
147
0.0
147
0.0
147
0.0
147
0.0208333333333333
147
0.0
147
0.0
147
0.0
147
0.0
147
1.0
147
0.0
147
0.0
147
0.0
147
0.0
147
1.0
  0
MATERIAL
  5
CEF
102
{ACAD_XDICTIONARY
360
CF0
102
}
102
{ACAD_REACTORS
330
BEE
102
}
330
BEE
100
AcDbMaterial
  1
Global
 72
     0
 43
0.0208333333333333
 43
0.0
 43
0.0
 43
0.0
 43
0.0
 43
0.0208333333333333
 43
0.0
 43
0.0
 43
0.0
 43
0.0
 43
1.0
 43
0.0
 43
0.0
 43
0.0
 43
0.0
 43
1.0
 77
     0
 47
0.0208333333333333
 47
0.0
 47
0.0
 47
0.0
 47
0.0
 47
0.0208333333333333
 47
0.0
 47
0.0
 47
0.0
 47
0.0
 47
1.0
 47
0.0
 47
0.0
 47
0.0
 47
0.0
 47
1.0
171
     0
 49
0.0208333333333333
 49
0.0
 49
0.0
 49
0.0
 49
0.0
 49
0.0208333333333333
 49
0.0
 49
0.0
 49
0.0
 49
0.0
 49
1.0
 49
0.0
 49
0.0
 49
0.0
 49
0.0
 49
1.0
175
     0
142
0.0208333333333333
142
0.0
142
0.0
142
0.0
142
0.0
142
0.0208333333333333
142
0.0
142
0.0
142
0.0
142
0.0
142
1.0
142
0.0
142
0.0
142
0.0
142
0.0
142
1.0
179
     0
144
0.0208333333333333
144
0.0
144
0.0
144
0.0
144
0.0
144
0.0208333333333333
144
0.0
144
0.0
144
0.0
144
0.0
144
1.0
144
0.0
144
0.0
144
0.0
144
0.0
144
1.0
147
0.0208333333333333
147
0.0
147
0.0
147
0.0
147
0.0
147
0.0208333333333333
147
0.0
147
0.0
147
0.0
147
0.0
147
1.0
147
0.0
147
0.0
147
0.0
147
0.0
147
1.0
  0
MLEADERSTYLE
  5
D2B
102
{ACAD_REACTORS
330
D2A
102
}
330
D2A
100
AcDbMLeaderStyle
170
     2
171
     1
172
     0
 90
        2
 40
0.0
 41
0.0
173
     1
 91
-1056964608
340
F
 92
       -2
290
     1
 42
0.09
291
     1
 43
0.36
  3
Standard
 44
0.18
300

342
D
174
     1
178
     6
175
     1
176
     0
 93
-1056964608
 45
0.18
292
     0
297
     0
 46
0.18
 94
-1056964608
 47
1.0
 49
1.0
140
1.0
293
     1
141
0.0
294
     1
177
     0
142
1.0
295
     0
296
     0
143
0.125
1001
ACAD_MLEADERVER
1070
     2
  0
MLINESTYLE
  5
1C
102
{ACAD_REACTORS
330
1A
102
}
330
1A
100
AcDbMlineStyle
  2
STANDARD
 70
     0
  3

 62
     0
 51
90.0
 52
90.0
 71
     2
 49
0.5
 62
   256
  6
BYLAYER
 49
-0.5
 62
   256
  6
BYLAYER
  0
ACDBPLACEHOLDER
  5
311
102
{ACAD_REACTORS
330
310
102
}
330
310
  0
SCALE
  5
D09
102
{ACAD_REACTORS
330
D08
102
}
330
D08
100
AcDbScale
 70
     0
300
1:1
140
1.0
141
1.0
290
     1
  0
SCALE
  5
D0A
102
{ACAD_REACTORS
330
D08
102
}
330
D08
100
AcDbScale
 70
     0
300
1:2
140
1.0
141
2.0
290
     0
  0
SCALE
  5
D0B
102
{ACAD_REACTORS
330
D08
102
}
330
D08
100
AcDbScale
 70
     0
300
1:4
140
1.0
141
4.0
290
     0
  0
SCALE
  5
D0C
102
{ACAD_REACTORS
330
D08
102
}
330
D08
100
AcDbScale
 70
     0
300
1:5
140
1.0
141
5.0
290
     0
  0
SCALE
  5
D0D
102
{ACAD_REACTORS
330
D08
102
}
330
D08
100
AcDbScale
 70
     0
300
1:8
140
1.0
141
8.0
290
     0
  0
SCALE
  5
D0E
102
{ACAD_REACTORS
330
D08
102
}
330
D08
100
AcDbScale
 70
     0
300
1:10
140
1.0
141
10.0
290
     0
  0
SCALE
  5
D0F
102
{ACAD_REACTORS
330
D08
102
}
330
D08
100
AcDbScale
 70
     0
300
1:16
140
1.0
141
16.0
290
     0
  0
SCALE
  5
D10
102
{ACAD_REACTORS
330
D08
102
}
330
D08
100
AcDbScale
 70
     0
300
1:20
140
1.0
141
20.0
290
     0
  0
SCALE
  5
D11
102
{ACAD_REACTORS
330
D08
102
}
330
D08
100
AcDbScale
 70
     0
300
1:30
140
1.0
141
30.0
290
     0
  0
SCALE
  5
D12
102
{ACAD_REACTORS
330
D08
102
}
330
D08
100
AcDbScale
 70
     0
300
1:40
140
1.0
141
40.0
290
     0
  0
SCALE
  5
D13
102
{ACAD_REACTORS
330
D08
102
}
330
D08
100
AcDbScale
 70
     0
300
1:50
140
1.0
141
50.0
290
     0
  0
SCALE
  5
D14
102
{ACAD_REACTORS
330
D08
102
}
330
D08
100
AcDbScale
 70
     0
300
1:100
140
1.0
141
100.0
290
     0
  0
SCALE
  5
D15
102
{ACAD_REACTORS
330
D08
102
}
330
D08
100
AcDbScale
 70
     0
300
2:1
140
2.0
141
1.0
290
     0
  0
SCALE
  5
D16
102
{ACAD_REACTORS
330
D08
102
}
330
D08
100
AcDbScale
 70
     0
300
4:1
140
4.0
141
1.0
290
     0
  0
SCALE
  5
D17
102
{ACAD_REACTORS
330
D08
102
}
330
D08
100
AcDbScale
 70
     0
300
8:1
140
8.0
141
1.0
290
     0
  0
SCALE
  5
D18
102
{ACAD_REACTORS
330
D08
102
}
330
D08
100
AcDbScale
 70
     0
300
10:1
140
10.0
141
1.0
290
     0
  0
SCALE
  5
D19
102
{ACAD_REACTORS
330
D08
102
}
330
D08
100
AcDbScale
 70
     0
300
100:1
140
100.0
141
1.0
290
     0
  0
SCALE
  5
D1A
102
{ACAD_REACTORS
330
D08
102
}
330
D08
100
AcDbScale
 70
     0
300
1/128" = 1'-0"
140
0.0078125
141
12.0
290
     0
  0
SCALE
  5
D1B
102
{ACAD_REACTORS
330
D08
102
}
330
D08
100
AcDbScale
 70
     0
300
1/64" = 1'-0"
140
0.015625
141
12.0
290
     0
  0
SCALE
  5
D1C
102
{ACAD_REACTORS
330
D08
102
}
330
D08
100
AcDbScale
 70
     0
300
1/32" = 1'-0"
140
0.03125
141
12.0
290
     0
  0
SCALE
  5
D1D
102
{ACAD_REACTORS
330
D08
102
}
330
D08
100
AcDbScale
 70
     0
300
1/16" = 1'-0"
140
0.0625
141
12.0
290
     0
  0
SCALE
  5
D1E
102
{ACAD_REACTORS
330
D08
102
}
330
D08
100
AcDbScale
 70
     0
300
3/32" = 1'-0"
140
0.09375
141
12.0
290
     0
  0
SCALE
  5
D1F
102
{ACAD_REACTORS
330
D08
102
}
330
D08
100
AcDbScale
 70
     0
300
1/8" = 1'-0"
140
0.125
141
12.0
290
     0
  0
SCALE
  5
D20
102
{ACAD_REACTORS
330
D08
102
}
330
D08
100
AcDbScale
 70
     0
300
3/16" = 1'-0"
140
0.1875
141
12.0
290
     0
  0
SCALE
  5
D21
102
{ACAD_REACTORS
330
D08
102
}
330
D08
100
AcDbScale
 70
     0
300
1/4" = 1'-0"
140
0.25
141
12.0
290
     0
  0
SCALE
  5
D22
102
{ACAD_REACTORS
330
D08
102
}
330
D08
100
AcDbScale
 70
     0
300
3/8" = 1'-0"
140
0.375
141
12.0
290
     0
  0
SCALE
  5
D23
102
{ACAD_REACTORS
330
D08
102
}
330
D08
100
AcDbScale
 70
     0
300
1/2" = 1'-0"
140
0.5
141
12.0
290
     0
  0
SCALE
  5
D24
102
{ACAD_REACTORS
330
D08
102
}
330
D08
100
AcDbScale
 70
     0
300
3/4" = 1'-0"
140
0.75
141
12.0
290
     0
  0
SCALE
  5
D25
102
{ACAD_REACTORS
330
D08
102
}
330
D08
100
AcDbScale
 70
     0
300
1" = 1'-0"
140
1.0
141
12.0
290
     0
  0
SCALE
  5
D26
102
{ACAD_REACTORS
330
D08
102
}
330
D08
100
AcDbScale
 70
     0
300
1-1/2" = 1'-0"
140
1.5
141
12.0
290
     0
  0
SCALE
  5
D27
102
{ACAD_REACTORS
330
D08
102
}
330
D08
100
AcDbScale
 70
     0
300
3" = 1'-0"
140
3.0
141
12.0
290
     0
  0
SCALE
  5
D28
102
{ACAD_REACTORS
330
D08
102
}
330
D08
100
AcDbScale
 70
     0
300
6" = 1'-0"
140
6.0
141
12.0
290
     0
  0
SCALE
  5
D29
102
{ACAD_REACTORS
330
D08
102
}
330
D08
100
AcDbScale
 70
     0
300
1'-0" = 1'-0"
140
12.0
141
12.0
290
     0
  0
TABLESTYLE
  5
CBD
102
{ACAD_XDICTIONARY
360
D6D
102
}
102
{ACAD_REACTORS
330
CBC
102
}
330
CBC
100
AcDbTableStyle
  3
Standard
 70
     0
 71
     0
 40
0.06
 41
0.06
280
     0
281
     0
  7
STANDARD
140
0.18
170
     2
 62
     0
 63
     7
283
     0
274
    -2
284
     1
 64
     0
275
    -2
285
     1
 65
     0
276
    -2
286
     1
 66
     0
277
    -2
287
     1
 67
     0
278
    -2
288
     1
 68
     0
279
    -2
289
     1
 69
     0
  7
STANDARD
140
0.25
170
     5
 62
     0
 63
     7
283
     0
274
    -2
284
     1
 64
     0
275
    -2
285
     1
 65
     0
276
    -2
286
     1
 66
     0
277
    -2
287
     1
 67
     0
278
    -2
288
     1
 68
     0
279
    -2
289
     1
 69
     0
  7
STANDARD
140
0.18
170
     5
 62
     0
 63
     7
283
     0
274
    -2
284
     1
 64
     0
275
    -2
285
     1
 65
     0
276
    -2
286
     1
 66
     0
277
    -2
287
     1
 67
     0
278
    -2
288
     1
 68
     0
279
    -2
289
     1
 69
     0
  0
VISUALSTYLE
  5
CFD
102
{ACAD_REACTORS
330
CF7
102
}
330
CF7
100
AcDbVisualStyle
  2
2dWireframe
 70
     4
 71
     0
 72
     2
 73
     0
 90
        0
 40
-0.6
 41
-30.0
 62
     5
 63
     7
421
 16777215
 74
     1
 91
        4
 64
     7
 65
   257
 75
     1
175
     1
 42
1.0
 92
        0
 66
   257
 43
1.0
 76
     1
 77
     6
 78
     2
 67
     7
 79
     5
170
     0
171
     0
290
     0
174
     0
 93
        1
 44
0.0
173
     0
291
     0
 45
0.0
1001
ACAD
1000
AcDbSavedByObjectVersion
1070
     0
  0
VISUALSTYLE
  5
CFF
102
{ACAD_REACTORS
330
CF7
102
}
330
CF7
100
AcDbVisualStyle
  2
3D Hidden
 70
     6
 71
     1
 72
     2
 73
     2
 90
        0
 40
-0.6
 41
-30.0
 62
     5
 63
     7
421
 16777215
 74
     2
 91
        2
 64
     7
 65
   257
 75
     2
175
     1
 42
40.0
 92
        0
 66
   257
 43
1.0
 76
     1
 77
     6
 78
     2
 67
     7
 79
     3
170
     0
171
     0
290
     0
174
     0
 93
        1
 44
0.0
173
     0
291
     0
 45
0.0
1001
ACAD
1000
AcDbSavedByObjectVersion
1070
     0
  0
VISUALSTYLE
  5
CFE
102
{ACAD_REACTORS
330
CF7
102
}
330
CF7
100
AcDbVisualStyle
  2
3dWireframe
 70
     5
 71
     0
 72
     2
 73
     0
 90
        0
 40
-0.6
 41
-30.0
 62
     5
 63
     7
421
 16777215
 74
     1
 91
        4
 64
     7
 65
   257
 75
     1
175
     1
 42
1.0
 92
        0
 66
   257
 43
1.0
 76
     1
 77
     6
 78
     2
 67
     7
 79
     5
170
     0
171
     0
290
     0
174
     0
 93
        1
 44
0.0
173
     0
291
     0
 45
0.0
1001
ACAD
1000
AcDbSavedByObjectVersion
1070
     0
  0
VISUALSTYLE
  5
CFC
102
{ACAD_REACTORS
330
CF7
102
}
330
CF7
100
AcDbVisualStyle
  2
Basic
 70
     7
 71
     1
 72
     0
 73
     1
 90
        0
 40
-0.6
 41
-30.0
 62
     5
 63
     7
421
 16777215
 74
     0
 91
        4
 64
     7
 65
   257
 75
     1
175
     1
 42
1.0
 92
        8
 66
     7
 43
1.0
 76
     1
 77
     6
 78
     2
 67
     7
 79
     5
170
     0
171
     0
290
     0
174
     0
 93
        1
 44
0.0
173
     0
291
     1
 45
0.0
1001
ACAD
1000
AcDbSavedByObjectVersion
1070
     0
  0
VISUALSTYLE
  5
D03
102
{ACAD_REACTORS
330
CF7
102
}
330
CF7
100
AcDbVisualStyle
  2
Brighten
 70
    12
 71
     2
 72
     2
 73
     0
 90
        0
 40
-0.6
 41
-30.0
 62
     5
 63
     7
421
 16777215
 74
     1
 91
        4
 64
     7
 65
   257
 75
     1
175
     1
 42
1.0
 92
        8
 66
     7
 43
1.0
 76
     1
 77
     6
 78
     2
 67
     7
 79
     5
170
     0
171
     0
290
     0
174
     0
 93
        1
 44
50.0
173
     0
291
     1
 45
0.0
1001
ACAD
1000
AcDbSavedByObjectVersion
1070
     0
  0
VISUALSTYLE
  5
D07
102
{ACAD_REACTORS
330
CF7
102
}
330
CF7
100
AcDbVisualStyle
  2
ColorChange
 70
    16
 71
     2
 72
     2
 73
     3
 90
        0
 40
-0.6
 41
-30.0
 62
     5
 63
     8
421
  8421504
 74
     1
 91
        4
 64
     7
 65
   257
 75
     1
175
     1
 42
1.0
 92
        8
 66
     8
424
  8421504
 43
1.0
 76
     1
 77
     6
 78
     2
 67
     7
 79
     5
170
     0
171
     0
290
     0
174
     0
 93
        1
 44
0.0
173
     0
291
     1
 45
0.0
1001
ACAD
1000
AcDbSavedByObjectVersion
1070
     0
  0
VISUALSTYLE
  5
D00
102
{ACAD_REACTORS
330
CF7
102
}
330
CF7
100
AcDbVisualStyle
  2
Conceptual
 70
     9
 71
     3
 72
     2
 73
     0
 90
        0
 40
-0.6
 41
-30.0
 62
     5
 63
     7
421
 16777215
 74
     2
 91
        2
 64
     7
 65
   257
 75
     1
175
     1
 42
40.0
 92
        8
 66
     7
 43
1.0
 76
     1
 77
     6
 78
     2
 67
     7
 79
     3
170
     0
171
     0
290
     0
174
     0
 93
        1
 44
0.0
173
     0
291
     0
 45
0.0
1001
ACAD
1000
AcDbSavedByObjectVersion
1070
     0
  0
VISUALSTYLE
  5
D02
102
{ACAD_REACTORS
330
CF7
102
}
330
CF7
100
AcDbVisualStyle
  2
Dim
 70
    11
 71
     2
 72
     2
 73
     0
 90
        0
 40
-0.6
 41
-30.0
 62
     5
 63
     7
421
 16777215
 74
     1
 91
        4
 64
     7
 65
   257
 75
     1
175
     1
 42
1.0
 92
        8
 66
     7
 43
1.0
 76
     1
 77
     6
 78
     2
 67
     7
 79
     5
170
     0
171
     0
290
     0
174
     0
 93
        1
 44
-50.0
173
     0
291
     1
 45
0.0
1001
ACAD
1000
AcDbSavedByObjectVersion
1070
     0
  0
VISUALSTYLE
  5
D06
102
{ACAD_REACTORS
330
CF7
102
}
330
CF7
100
AcDbVisualStyle
  2
Facepattern
 70
    15
 71
     2
 72
     2
 73
     0
 90
        0
 40
-0.6
 41
-30.0
 62
     5
 63
     7
421
 16777215
 74
     1
 91
        4
 64
     7
 65
   257
 75
     1
175
     1
 42
1.0
 92
        8
 66
     7
 43
1.0
 76
     1
 77
     6
 78
     2
 67
     7
 79
     5
170
     0
171
     0
290
     0
174
     0
 93
        1
 44
0.0
173
     0
291
     1
 45
0.0
1001
ACAD
1000
AcDbSavedByObjectVersion
1070
     0
  0
VISUALSTYLE
  5
CF8
102
{ACAD_REACTORS
330
CF7
102
}
330
CF7
100
AcDbVisualStyle
  2
Flat
 70
     0
 71
     2
 72
     1
 73
     1
 90
        2
 40
-0.6
 41
30.0
 62
     5
 63
     7
421
 16777215
 74
     0
 91
        4
 64
     7
 65
   257
 75
     1
175
     1
 42
1.0
 92
        8
 66
     7
 43
1.0
 76
     1
 77
     6
 78
     2
 67
     7
 79
     5
170
     0
171
     0
290
     0
174
     0
 93
       13
 44
0.0
173
     0
291
     1
 45
0.0
1001
ACAD
1000
AcDbSavedByObjectVersion
1070
     0
  0
VISUALSTYLE
  5
CF9
102
{ACAD_REACTORS
330
CF7
102
}
330
CF7
100
AcDbVisualStyle
  2
FlatWithEdges
 70
     1
 71
     2
 72
     1
 73
     1
 90
        2
 40
-0.6
 41
30.0
 62
     5
 63
     7
421
 16777215
 74
     1
 91
        4
 64
     7
 65
   257
 75
     1
175
     1
 42
1.0
 92
        0
 66
   257
 43
1.0
 76
     1
 77
     6
 78
     2
 67
     7
 79
     5
170
     0
171
     0
290
     0
174
     0
 93
       13
 44
0.0
173
     0
291
     1
 45
0.0
1001
ACAD
1000
AcDbSavedByObjectVersion
1070
     0
  0
VISUALSTYLE
  5
CFA
102
{ACAD_REACTORS
330
CF7
102
}
330
CF7
100
AcDbVisualStyle
  2
Gouraud
 70
     2
 71
     2
 72
     2
 73
     1
 90
        2
 40
-0.6
 41
30.0
 62
     5
 63
     7
421
 16777215
 74
     0
 91
        4
 64
     7
 65
   257
 75
     1
175
     1
 42
1.0
 92
        0
 66
     7
 43
1.0
 76
     1
 77
     6
 78
     2
 67
     7
 79
     5
170
     0
171
     0
290
     0
174
     0
 93
       13
 44
0.0
173
     0
291
     1
 45
0.0
1001
ACAD
1000
AcDbSavedByObjectVersion
1070
     0
  0
VISUALSTYLE
  5
CFB
102
{ACAD_REACTORS
330
CF7
102
}
330
CF7
100
AcDbVisualStyle
  2
GouraudWithEdges
 70
     3
 71
     2
 72
     2
 73
     1
 90
        2
 40
-0.6
 41
30.0
 62
     5
 63
     7
421
 16777215
 74
     1
 91
        4
 64
     7
 65
   257
 75
     1
175
     1
 42
1.0
 92
        0
 66
   257
 43
1.0
 76
     1
 77
     6
 78
     2
 67
     7
 79
     5
170
     0
171
     0
290
     0
174
     0
 93
       13
 44
0.0
173
     0
291
     1
 45
0.0
1001
ACAD
1000
AcDbSavedByObjectVersion
1070
     0
  0
VISUALSTYLE
  5
D05
102
{ACAD_REACTORS
330
CF7
102
}
330
CF7
100
AcDbVisualStyle
  2
Linepattern
 70
    14
 71
     2
 72
     2
 73
     0
 90
        0
 40
-0.6
 41
-30.0
 62
     5
 63
     7
421
 16777215
 74
     1
 91
        4
 64
     7
 65
   257
 75
     7
175
     7
 42
1.0
 92
        8
 66
     7
 43
1.0
 76
     1
 77
     6
 78
     2
 67
     7
 79
     5
170
     0
171
     0
290
     0
174
     0
 93
        1
 44
0.0
173
     0
291
     1
 45
0.0
1001
ACAD
1000
AcDbSavedByObjectVersion
1070
     0
  0
VISUALSTYLE
  5
D01
102
{ACAD_REACTORS
330
CF7
102
}
330
CF7
100
AcDbVisualStyle
  2
Realistic
 70
     8
 71
     2
 72
     2
 73
     0
 90
        0
 40
-0.6
 41
-30.0
 62
     5
 63
     7
421
 16777215
 74
     1
 91
        0
 64
     7
 65
   257
 75
     1
175
     1
 42
1.0
 92
        8
 66
     8
424
  7895160
 43
1.0
 76
     1
 77
     6
 78
     2
 67
     7
 79
     5
170
     0
171
     0
290
     0
174
     0
 93
       13
 44
0.0
173
     0
291
     0
 45
0.0
1001
ACAD
1000
AcDbSavedByObjectVersion
1070
     0
  0
VISUALSTYLE
  5
D04
102
{ACAD_REACTORS
330
CF7
102
}
330
CF7
100
AcDbVisualStyle
  2
Thicken
 70
    13
 71
     2
 72
     2
 73
     0
 90
        0
 40
-0.6
 41
-30.0
 62
     5
 63
     7
421
 16777215
 74
     1
 91
        4
 64
     7
 65
   257
 75
     1
175
     1
 42
1.0
 92
       12
 66
     7
 43
1.0
 76
     1
 77
     6
 78
     2
 67
     7
 79
     5
170
     0
171
     0
290
     0
174
     0
 93
        1
 44
0.0
173
     0
291
     1
 45
0.0
1001
ACAD
1000
AcDbSavedByObjectVersion
1070
     0
  0
DICTIONARYVAR
  5
D72
102
{ACAD_REACTORS
330
2D7
102
}
330
2D7
100
DictionaryVariables
280
     0
  1
1:1
  0
DICTIONARYVAR
  5
D70
102
{ACAD_REACTORS
330
2D7
102
}
330
2D7
100
DictionaryVariables
280
     0
  1
STANDARD
  0
DICTIONARYVAR
  5
CDD
102
{ACAD_REACTORS
330
2D7
102
}
330
2D7
100
DictionaryVariables
280
     0
  1
STANDARD
  0
DICTIONARYVAR
  5
5A4
102
{ACAD_REACTORS
330
2D7
102
}
330
2D7
100
DictionaryVariables
280
     0
  1
1
  0
DICTIONARYVAR
  5
2D8
102
{ACAD_REACTORS
330
2D7
102
}
330
2D7
100
DictionaryVariables
280
     0
  1
1
  0
DICTIONARYVAR
  5
D73
102
{ACAD_REACTORS
330
2D7
102
}
330
2D7
100
DictionaryVariables
280
     0
  1
0
  0
DICTIONARYVAR
  5
D71
102
{ACAD_REACTORS
330
2D7
102
}
330
2D7
100
DictionaryVariables
280
     0
  1
0
  0
DICTIONARY
  5
2B6
102
{ACAD_REACTORS
330
2B5
102
}
330
2B5
100
AcDbDictionary
281
     1
  0
XRECORD
  5
CC6
102
{ACAD_REACTORS
330
2B5
102
}
330
2B5
100
AcDbXrecord
280
     1
 90
-1023410169
  0
XRECORD
  5
E7A
102
{ACAD_REACTORS
330
E79
102
}
330
E79
100
AcDbXrecord
280
     1
  0
DICTIONARY
  5
CE8
330
CE7
100
AcDbDictionary
280
     1
281
     1
  3
ACAD_XREC_ROUNDTRIP
360
EAF
  3
BUMPTILE
360
CEA
  3
DIFFUSETILE
360
CE9
  3
OPACITYTILE
360
CED
  3
REFLECTIONTILE
360
CEC
  3
REFRACTIONTILE
360
CEE
  3
SPECULARTILE
360
CEB
  0
DICTIONARY
  5
CE0
330
CDF
100
AcDbDictionary
280
     1
281
     1
  3
ACAD_XREC_ROUNDTRIP
360
EAE
  3
BUMPTILE
360
CE2
  3
DIFFUSETILE
360
CE1
  3
OPACITYTILE
360
CE5
  3
REFLECTIONTILE
360
CE4
  3
REFRACTIONTILE
360
CE6
  3
SPECULARTILE
360
CE3
  0
DICTIONARY
  5
CF0
330
CEF
100
AcDbDictionary
280
     1
281
     1
  3
ACAD_XREC_ROUNDTRIP
360
EB0
  3
BUMPTILE
360
CF2
  3
DIFFUSETILE
360
CF1
  3
OPACITYTILE
360
CF5
  3
REFLECTIONTILE
360
CF4
  3
REFRACTIONTILE
360
CF6
  3
SPECULARTILE
360
CF3
  0
DICTIONARY
  5
D6D
330
CBD
100
AcDbDictionary
280
     1
281
     1
  3
ACAD_ROUNDTRIP_2008_TABLESTYLE_CELLSTYLEMAP
360
EAC
  3
ACAD_XREC_ROUNDTRIP
360
EAD
  0
XRECORD
  5
EAF
102
{ACAD_REACTORS
330
CE8
102
}
330
CE8
100
AcDbXrecord
280
     1
102
MATERIAL
148
0.0
149
0.0
149
0.0
 93
        0
 94
      127
282
     0
 72
     0
 77
     0
171
     0
175
     0
179
     0
273
     0
  0
XRECORD
  5
CEA
102
{ACAD_REACTORS
330
CE8
102
}
330
CE8
100
AcDbXrecord
280
     1
270
     1
271
     1
  0
XRECORD
  5
CE9
102
{ACAD_REACTORS
330
CE8
102
}
330
CE8
100
AcDbXrecord
280
     1
270
     1
271
     1
  0
XRECORD
  5
CED
102
{ACAD_REACTORS
330
CE8
102
}
330
CE8
100
AcDbXrecord
280
     1
270
     1
271
     1
  0
XRECORD
  5
CEC
102
{ACAD_REACTORS
330
CE8
102
}
330
CE8
100
AcDbXrecord
280
     1
270
     1
271
     1
  0
XRECORD
  5
CEE
102
{ACAD_REACTORS
330
CE8
102
}
330
CE8
100
AcDbXrecord
280
     1
270
     1
271
     1
  0
XRECORD
  5
CEB
102
{ACAD_REACTORS
330
CE8
102
}
330
CE8
100
AcDbXrecord
280
     1
270
     1
271
     1
  0
XRECORD
  5
EAE
102
{ACAD_REACTORS
330
CE0
102
}
330
CE0
100
AcDbXrecord
280
     1
102
MATERIAL
148
0.0
149
0.0
149
0.0
 93
        0
 94
      127
282
     0
 72
     0
 77
     0
171
     0
175
     0
179
     0
273
     0
  0
XRECORD
  5
CE2
102
{ACAD_REACTORS
330
CE0
102
}
330
CE0
100
AcDbXrecord
280
     1
270
     1
271
     1
  0
XRECORD
  5
CE1
102
{ACAD_REACTORS
330
CE0
102
}
330
CE0
100
AcDbXrecord
280
     1
270
     1
271
     1
  0
XRECORD
  5
CE5
102
{ACAD_REACTORS
330
CE0
102
}
330
CE0
100
AcDbXrecord
280
     1
270
     1
271
     1
  0
XRECORD
  5
CE4
102
{ACAD_REACTORS
330
CE0
102
}
330
CE0
100
AcDbXrecord
280
     1
270
     1
271
     1
  0
XRECORD
  5
CE6
102
{ACAD_REACTORS
330
CE0
102
}
330
CE0
100
AcDbXrecord
280
     1
270
     1
271
     1
  0
XRECORD
  5
CE3
102
{ACAD_REACTORS
330
CE0
102
}
330
CE0
100
AcDbXrecord
280
     1
270
     1
271
     1
  0
XRECORD
  5
EB0
102
{ACAD_REACTORS
330
CF0
102
}
330
CF0
100
AcDbXrecord
280
     1
102
MATERIAL
148
0.0
149
0.0
149
0.0
 93
        0
 94
      127
282
     0
 72
     0
 77
     0
171
     0
175
     0
179
     0
273
     0
  0
XRECORD
  5
CF2
102
{ACAD_REACTORS
330
CF0
102
}
330
CF0
100
AcDbXrecord
280
     1
270
     1
271
     1
  0
XRECORD
  5
CF1
102
{ACAD_REACTORS
330
CF0
102
}
330
CF0
100
AcDbXrecord
280
     1
270
     1
271
     1
  0
XRECORD
  5
CF5
102
{ACAD_REACTORS
330
CF0
102
}
330
CF0
100
AcDbXrecord
280
     1
270
     1
271
     1
  0
XRECORD
  5
CF4
102
{ACAD_REACTORS
330
CF0
102
}
330
CF0
100
AcDbXrecord
280
     1
270
     1
271
     1
  0
XRECORD
  5
CF6
102
{ACAD_REACTORS
330
CF0
102
}
330
CF0
100
AcDbXrecord
280
     1
270
     1
271
     1
  0
XRECORD
  5
CF3
102
{ACAD_REACTORS
330
CF0
102
}
330
CF0
100
AcDbXrecord
280
     1
270
     1
271
     1
  0
CELLSTYLEMAP
  5
EAC
102
{ACAD_REACTORS
330
D6D
102
}
330
D6D
100
AcDbCellStyleMap
 90
        3
300
CELLSTYLE
  1
TABLEFORMAT_BEGIN
 90
        5
170
     1
 91
        0
 92
    32768
 62
   257
 93
        1
300
CONTENTFORMAT
  1
CONTENTFORMAT_BEGIN
 90
        0
 91
        0
 92
        4
 93
        0
300

 40
0.0
140
1.0
 94
        5
 62
     0
340
D
144
0.25
309
CONTENTFORMAT_END
171
     0
 94
        6
 95
        1
302
GRIDFORMAT
  1
GRIDFORMAT_BEGIN
 90
        0
 91
        1
 62
     0
 92
       -2
340
0
 93
        0
 40
0.045
309
GRIDFORMAT_END
 95
        2
302
GRIDFORMAT
  1
GRIDFORMAT_BEGIN
 90
        0
 91
        1
 62
     0
 92
       -2
340
0
 93
        0
 40
0.045
309
GRIDFORMAT_END
 95
        4
302
GRIDFORMAT
  1
GRIDFORMAT_BEGIN
 90
        0
 91
        1
 62
     0
 92
       -2
340
0
 93
        0
 40
0.045
309
GRIDFORMAT_END
 95
        8
302
GRIDFORMAT
  1
GRIDFORMAT_BEGIN
 90
        0
 91
        1
 62
     0
 92
       -2
340
0
 93
        0
 40
0.045
309
GRIDFORMAT_END
 95
       16
302
GRIDFORMAT
  1
GRIDFORMAT_BEGIN
 90
        0
 91
        1
 62
     0
 92
       -2
340
0
 93
        0
 40
0.045
309
GRIDFORMAT_END
 95
       32
302
GRIDFORMAT
  1
GRIDFORMAT_BEGIN
 90
        0
 91
        1
 62
     0
 92
       -2
340
0
 93
        0
 40
0.045
309
GRIDFORMAT_END
309
TABLEFORMAT_END
  1
CELLSTYLE_BEGIN
 90
        1
 91
        1
300
_TITLE
309
CELLSTYLE_END
300
CELLSTYLE
  1
TABLEFORMAT_BEGIN
 90
        5
170
     1
 91
        0
 92
        0
 62
   257
 93
        1
300
CONTENTFORMAT
  1
CONTENTFORMAT_BEGIN
 90
        0
 91
        0
 92
        4
 93
        0
300

 40
0.0
140
1.0
 94
        5
 62
     0
340
D
144
0.18
309
CONTENTFORMAT_END
171
     0
 94
        6
 95
        1
302
GRIDFORMAT
  1
GRIDFORMAT_BEGIN
 90
        0
 91
        1
 62
     0
 92
       -2
340
0
 93
        0
 40
0.045
309
GRIDFORMAT_END
 95
        2
302
GRIDFORMAT
  1
GRIDFORMAT_BEGIN
 90
        0
 91
        1
 62
     0
 92
       -2
340
0
 93
        0
 40
0.045
309
GRIDFORMAT_END
 95
        4
302
GRIDFORMAT
  1
GRIDFORMAT_BEGIN
 90
        0
 91
        1
 62
     0
 92
       -2
340
0
 93
        0
 40
0.045
309
GRIDFORMAT_END
 95
        8
302
GRIDFORMAT
  1
GRIDFORMAT_BEGIN
 90
        0
 91
        1
 62
     0
 92
       -2
340
0
 93
        0
 40
0.045
309
GRIDFORMAT_END
 95
       16
302
GRIDFORMAT
  1
GRIDFORMAT_BEGIN
 90
        0
 91
        1
 62
     0
 92
       -2
340
0
 93
        0
 40
0.045
309
GRIDFORMAT_END
 95
       32
302
GRIDFORMAT
  1
GRIDFORMAT_BEGIN
 90
        0
 91
        1
 62
     0
 92
       -2
340
0
 93
        0
 40
0.045
309
GRIDFORMAT_END
309
TABLEFORMAT_END
  1
CELLSTYLE_BEGIN
 90
        2
 91
        1
300
_HEADER
309
CELLSTYLE_END
300
CELLSTYLE
  1
TABLEFORMAT_BEGIN
 90
        5
170
     1
 91
        0
 92
        0
 62
   257
 93
        1
300
CONTENTFORMAT
  1
CONTENTFORMAT_BEGIN
 90
        0
 91
        0
 92
        4
 93
        0
300

 40
0.0
140
1.0
 94
        2
 62
     0
340
D
144
0.18
309
CONTENTFORMAT_END
171
     0
 94
        6
 95
        1
302
GRIDFORMAT
  1
GRIDFORMAT_BEGIN
 90
        0
 91
        1
 62
     0
 92
       -2
340
0
 93
        0
 40
0.045
309
GRIDFORMAT_END
 95
        2
302
GRIDFORMAT
  1
GRIDFORMAT_BEGIN
 90
        0
 91
        1
 62
     0
 92
       -2
340
0
 93
        0
 40
0.045
309
GRIDFORMAT_END
 95
        4
302
GRIDFORMAT
  1
GRIDFORMAT_BEGIN
 90
        0
 91
        1
 62
     0
 92
       -2
340
0
 93
        0
 40
0.045
309
GRIDFORMAT_END
 95
        8
302
GRIDFORMAT
  1
GRIDFORMAT_BEGIN
 90
        0
 91
        1
 62
     0
 92
       -2
340
0
 93
        0
 40
0.045
309
GRIDFORMAT_END
 95
       16
302
GRIDFORMAT
  1
GRIDFORMAT_BEGIN
 90
        0
 91
        1
 62
     0
 92
       -2
340
0
 93
        0
 40
0.045
309
GRIDFORMAT_END
 95
       32
302
GRIDFORMAT
  1
GRIDFORMAT_BEGIN
 90
        0
 91
        1
 62
     0
 92
       -2
340
0
 93
        0
 40
0.045
309
GRIDFORMAT_END
309
TABLEFORMAT_END
  1
CELLSTYLE_BEGIN
 90
        3
 91
        2
300
_DATA
309
CELLSTYLE_END
  0
XRECORD
  5
EAD
102
{ACAD_REACTORS
330
D6D
102
}
330
D6D
100
AcDbXrecord
280
     1
102
ACAD_ROUNDTRIP_PRE2007_TABLESTYLE
 90
        4
 91
        0
  1

 92
        4
 93
        0
  2

 94
        4
 95
        0
  3

  0
ENDSEC
  0
EOF
