  0
SECTION
  2
HEADER
  9
$ACADVER
  1
AC1018
  9
$ACADMAINTVER
 70
   104
  9
$DWGCODEPAGE
  3
ANSI_1252
  9
$LASTSAVEDBY
  1
ibasyouni
  9
$CUSTOMPROPERTYTAG
  1
AmdtFileType
  9
$CUSTOMPROPERTY
  1
84
  9
$INSBASE
 10
0.0
 20
0.0
 30
0.0
  9
$EXTMIN
 10
13.18588502843158
 20
7.133485350214641
 30
-0.0000000000112498
  9
$EXTMAX
 10
1038.576509999782
 20
642.7574172473482
 30
0.0000000000002956
  9
$LIMMIN
 10
0.0
 20
0.0
  9
$LIMMAX
 10
1050.0
 20
650.0
  9
$ORTHOMODE
 70
     1
  9
$REGENMODE
 70
     1
  9
$FILLMODE
 70
     1
  9
$QTEXTMODE
 70
     0
  9
$MIRRTEXT
 70
     1
  9
$LTSCALE
 40
1.0
  9
$ATTMODE
 70
     1
  9
$TEXTSIZE
 40
10.0
  9
$TRACEWID
 40
1.0
  9
$TEXTSTYLE
  7
STANDARD
  9
$CLAYER
  8
0
  9
$CELTYPE
  6
BYLAYER
  9
$CECOLOR
 62
   256
  9
$CELTSCALE
 40
10.0
  9
$DISPSILH
 70
     0
  9
$DIMSCALE
 40
1.0
  9
$DIMASZ
 40
7.0
  9
$DIMEXO
 40
0.0
  9
$DIMDLI
 40
7.0
  9
$DIMRND
 40
0.0
  9
$DIMDLE
 40
0.0
  9
$DIMEXE
 40
1.25
  9
$DIMTP
 40
0.0
  9
$DIMTM
 40
0.0
  9
$DIMTXT
 40
10.0
  9
$DIMCEN
 40
0.0
  9
$DIMTSZ
 40
0.0
  9
$DIMTOL
 70
     0
  9
$DIMLIM
 70
     0
  9
$DIMTIH
 70
     0
  9
$DIMTOH
 70
     0
  9
$DIMSE1
 70
     0
  9
$DIMSE2
 70
     0
  9
$DIMTAD
 70
     1
  9
$DIMZIN
 70
     8
  9
$DIMBLK
  1

  9
$DIMASO
 70
     1
  9
$DIMSHO
 70
     1
  9
$DIMPOST
  1

  9
$DIMAPOST
  1

  9
$DIMALT
 70
     0
  9
$DIMALTD
 70
     2
  9
$DIMALTF
 40
25.4
  9
$DIMLFAC
 40
1.0
  9
$DIMTOFL
 70
     1
  9
$DIMTVP
 40
0.0
  9
$DIMTIX
 70
     0
  9
$DIMSOXD
 70
     0
  9
$DIMSAH
 70
     0
  9
$DIMBLK1
  1

  9
$DIMBLK2
  1

  9
$DIMSTYLE
  2
ISO-25
  9
$DIMCLRD
 70
   256
  9
$DIMCLRE
 70
   256
  9
$DIMCLRT
 70
   256
  9
$DIMTFAC
 40
1.0
  9
$DIMGAP
 40
4.0
  9
$DIMJUST
 70
     0
  9
$DIMSD1
 70
     0
  9
$DIMSD2
 70
     0
  9
$DIMTOLJ
 70
     1
  9
$DIMTZIN
 70
     8
  9
$DIMALTZ
 70
     0
  9
$DIMALTTZ
 70
     0
  9
$DIMUPT
 70
     1
  9
$DIMDEC
 70
     4
  9
$DIMTDEC
 70
     4
  9
$DIMALTU
 70
     2
  9
$DIMALTTD
 70
     2
  9
$DIMTXSTY
  7
STANDARD
  9
$DIMAUNIT
 70
     0
  9
$DIMADEC
 70
     0
  9
$DIMALTRND
 40
0.0
  9
$DIMAZIN
 70
     0
  9
$DIMDSEP
 70
    46
  9
$DIMATFIT
 70
     0
  9
$DIMFRAC
 70
     0
  9
$DIMLDRBLK
  1

  9
$DIMLUNIT
 70
     2
  9
$DIMLWD
 70
    -2
  9
$DIMLWE
 70
    -2
  9
$DIMTMOVE
 70
     0
  9
$LUNITS
 70
     2
  9
$LUPREC
 70
     4
  9
$SKETCHINC
 40
1.0
  9
$FILLETRAD
 40
0.8
  9
$AUNITS
 70
     0
  9
$AUPREC
 70
     0
  9
$MENU
  1
.
  9
$ELEVATION
 40
0.0
  9
$PELEVATION
 40
0.0
  9
$THICKNESS
 40
0.0
  9
$LIMCHECK
 70
     0
  9
$CHAMFERA
 40
0.0
  9
$CHAMFERB
 40
0.0
  9
$CHAMFERC
 40
0.0
  9
$CHAMFERD
 40
0.0
  9
$SKPOLY
 70
     0
  9
$TDCREATE
 40
2450848.795139884
  9
$TDUCREATE
 40
2450848.711806551
  9
$TDUPDATE
 40
2455799.401700451
  9
$TDUUPDATE
 40
2455799.318367118
  9
$TDINDWG
 40
2.4224768171
  9
$TDUSRTIMER
 40
2.4224768171
  9
$USRTIMER
 70
     1
  9
$ANGBASE
 50
0.0
  9
$ANGDIR
 70
     0
  9
$PDMODE
 70
     0
  9
$PDSIZE
 40
0.0
  9
$PLINEWID
 40
0.5
  9
$SPLFRAME
 70
     0
  9
$SPLINETYPE
 70
     6
  9
$SPLINESEGS
 70
     8
  9
$HANDSEED
  5
16C1
  9
$SURFTAB1
 70
     6
  9
$SURFTAB2
 70
     6
  9
$SURFTYPE
 70
     6
  9
$SURFU
 70
     6
  9
$SURFV
 70
     6
  9
$UCSBASE
  2

  9
$UCSNAME
  2

  9
$UCSORG
 10
0.0
 20
0.0
 30
0.0
  9
$UCSXDIR
 10
1.0
 20
0.0
 30
0.0
  9
$UCSYDIR
 10
0.0
 20
1.0
 30
0.0
  9
$UCSORTHOREF
  2

  9
$UCSORTHOVIEW
 70
     0
  9
$UCSORGTOP
 10
0.0
 20
0.0
 30
0.0
  9
$UCSORGBOTTOM
 10
0.0
 20
0.0
 30
0.0
  9
$UCSORGLEFT
 10
0.0
 20
0.0
 30
0.0
  9
$UCSORGRIGHT
 10
0.0
 20
0.0
 30
0.0
  9
$UCSORGFRONT
 10
0.0
 20
0.0
 30
0.0
  9
$UCSORGBACK
 10
0.0
 20
0.0
 30
0.0
  9
$PUCSBASE
  2

  9
$PUCSNAME
  2

  9
$PUCSORG
 10
0.0
 20
0.0
 30
0.0
  9
$PUCSXDIR
 10
1.0
 20
0.0
 30
0.0
  9
$PUCSYDIR
 10
0.0
 20
1.0
 30
0.0
  9
$PUCSORTHOREF
  2

  9
$PUCSORTHOVIEW
 70
     0
  9
$PUCSORGTOP
 10
0.0
 20
0.0
 30
0.0
  9
$PUCSORGBOTTOM
 10
0.0
 20
0.0
 30
0.0
  9
$PUCSORGLEFT
 10
0.0
 20
0.0
 30
0.0
  9
$PUCSORGRIGHT
 10
0.0
 20
0.0
 30
0.0
  9
$PUCSORGFRONT
 10
0.0
 20
0.0
 30
0.0
  9
$PUCSORGBACK
 10
0.0
 20
0.0
 30
0.0
  9
$USERI1
 70
     0
  9
$USERI2
 70
     0
  9
$USERI3
 70
     0
  9
$USERI4
 70
     0
  9
$USERI5
 70
     0
  9
$USERR1
 40
0.0
  9
$USERR2
 40
0.0
  9
$USERR3
 40
0.0
  9
$USERR4
 40
0.0
  9
$USERR5
 40
0.0
  9
$WORLDVIEW
 70
     1
  9
$SHADEDGE
 70
     3
  9
$SHADEDIF
 70
    70
  9
$TILEMODE
 70
     1
  9
$MAXACTVP
 70
    16
  9
$PINSBASE
 10
0.0
 20
0.0
 30
0.0
  9
$PLIMCHECK
 70
     0
  9
$PEXTMIN
 10
1.000000000000000E+20
 20
1.000000000000000E+20
 30
1.000000000000000E+20
  9
$PEXTMAX
 10
-1.000000000000000E+20
 20
-1.000000000000000E+20
 30
-1.000000000000000E+20
  9
$PLIMMIN
 10
0.0
 20
0.0
  9
$PLIMMAX
 10
420.0
 20
297.0
  9
$UNITMODE
 70
     0
  9
$VISRETAIN
 70
     0
  9
$PLINEGEN
 70
     0
  9
$PSLTSCALE
 70
     0
  9
$TREEDEPTH
 70
  3020
  9
$CMLSTYLE
  2
STANDARD
  9
$CMLJUST
 70
     0
  9
$CMLSCALE
 40
1.0
  9
$PROXYGRAPHICS
 70
     1
  9
$MEASUREMENT
 70
     0
  9
$CELWEIGHT
370
    -1
  9
$ENDCAPS
280
     0
  9
$JOINSTYLE
280
     0
  9
$LWDISPLAY
290
     0
  9
$INSUNITS
 70
     0
  9
$HYPERLINKBASE
  1

  9
$STYLESHEET
  1
Zeich.ctb
  9
$XEDIT
290
     1
  9
$CEPSNTYPE
380
     0
  9
$PSTYLEMODE
290
     1
  9
$FINGERPRINTGUID
  2
{2464C6F9-6A59-40A4-A8BA-BD71621BDAAA}
  9
$VERSIONGUID
  2
{09A9176A-4C6C-4652-B97D-AFE2AF574B6C}
  9
$EXTNAMES
290
     1
  9
$PSVPSCALE
 40
0.0
  9
$OLESTARTUP
290
     0
  9
$SORTENTS
280
   127
  9
$INDEXCTL
280
     0
  9
$HIDETEXT
280
     0
  9
$XCLIPFRAME
290
     0
  9
$HALOGAP
280
     0
  9
$OBSCOLOR
 70
   257
  9
$OBSLTYPE
280
     0
  9
$INTERSECTIONDISPLAY
280
     0
  9
$INTERSECTIONCOLOR
 70
   257
  9
$DIMASSOC
280
     1
  9
$PROJECTNAME
  1

  0
ENDSEC
  0
SECTION
  2
CLASSES
  0
CLASS
  1
IDBUFFER
  2
AcDbIdBuffer
  3
ObjectDBX Classes
 90
        0
 91
        0
280
     0
281
     0
  0
CLASS
  1
DICTIONARYVAR
  2
AcDbDictionaryVar
  3
ObjectDBX Classes
 90
        0
 91
        7
280
     0
281
     0
  0
CLASS
  1
ACMESTATEMGR
  2
AcMeStateMgr
  3
AcMeServices
 90
     1024
 91
        1
280
     0
281
     0
  0
CLASS
  1
ACMESCOPE
  2
AcMeScope
  3
AcMeServices
 90
     1024
 91
        1
280
     0
281
     0
  0
CLASS
  1
ACMECOMMANDHISTORY
  2
AcMeCommandHistory
  3
AcMeServices
 90
     1024
 91
        1
280
     0
281
     0
  0
CLASS
  1
ACRFINSADJUSTERMGR
  2
AcRfInsAdjusterMgr
  3
AcMeServices
 90
     1024
 91
        1
280
     0
281
     0
  0
CLASS
  1
ACMEDRAWINGMAN
  2
AcMeDrawingMan
  3
AcMeServices
 90
     1024
 91
        1
280
     0
281
     0
  0
CLASS
  1
AMATTR
  2
AcMeAttribute
  3
AcMeServices
 90
     1024
 91
        0
280
     0
281
     0
  0
CLASS
  1
ACMEBOMCOLUMN
  2
AcMeBOMColumn
  3
AcMeServices
 90
     1024
 91
        0
280
     0
281
     0
  0
CLASS
  1
ACMEBOMCONF
  2
AcMeBOMConf
  3
AcMeServices
 90
     1024
 91
        0
280
     0
281
     0
  0
CLASS
  1
ACMEBOMTABLE
  2
AcMeBOMTable
  3
AcMeServices
 90
     1024
 91
        0
280
     0
281
     0
  0
CLASS
  1
ACMEBOMENTRY
  2
AcMeBOMEntry
  3
AcMeServices
 90
     1024
 91
        0
280
     0
281
     0
  0
CLASS
  1
ACMEVIEW
  2
AcMeView
  3
AcMeServices
 90
     1024
 91
        0
280
     0
281
     0
  0
CLASS
  1
LAYER_INDEX
  2
AcDbLayerIndex
  3
ObjectDBX Classes
 90
        0
 91
        0
280
     0
281
     0
  0
CLASS
  1
ACIMSYSVARMAN
  2
AcImSysVarManager
  3
AcMeServices
 90
     1024
 91
        5
280
     0
281
     0
  0
CLASS
  1
ACIMINTSYSVAR
  2
AcImIntSysVar
  3
AcMeServices
 90
     1024
 91
       27
280
     0
281
     0
  0
CLASS
  1
ACIMSTRSYSVAR
  2
AcImStrSysVar
  3
AcMeServices
 90
     1024
 91
        5
280
     0
281
     0
  0
CLASS
  1
ACMSTANDARDJIS
  2
AcmStandardJIS
  3
"Amdt_StdImp|Product Description: AutoCAD Mechanical|Company: Autodesk, Inc."
 90
     1024
 91
        1
280
     0
281
     0
  0
CLASS
  1
ACMSTANDARDANSI
  2
AcmStandardANSI
  3
"Amdt_StdImp|Product Description: AutoCAD Mechanical|Company: Autodesk, Inc."
 90
     1024
 91
        1
280
     0
281
     0
  0
CLASS
  1
ACMSTANDARDBSI
  2
AcmStandardBSI
  3
"Amdt_StdImp|Product Description: AutoCAD Mechanical|Company: Autodesk, Inc."
 90
     1024
 91
        1
280
     0
281
     0
  0
CLASS
  1
ACMSTANDARDDIN
  2
AcmStandardDIN
  3
"Amdt_StdImp|Product Description: AutoCAD Mechanical|Company: Autodesk, Inc."
 90
     1024
 91
        1
280
     0
281
     0
  0
CLASS
  1
ACMSTANDARDISO
  2
AcmStandardISO
  3
"Amdt_StdImp|Product Description: AutoCAD Mechanical|Company: Autodesk, Inc."
 90
     1024
 91
        1
280
     0
281
     0
  0
CLASS
  1
ACDBDICTIONARYWDFLT
  2
AcDbDictionaryWithDefault
  3
ObjectDBX Classes
 90
        0
 91
        1
280
     0
281
     0
  0
CLASS
  1
ACME_DOCUMENT
  2
AcMeDbDoc
  3
AcMeServices
 90
     1024
 91
        2
280
     0
281
     0
  0
CLASS
  1
AMGSETTINGSOBJ
  2
AmgSettingsObj
  3
"AcadM|Product Description: AutoCAD Mechanical|Company: Autodesk, Inc."
 90
     1024
 91
        4
280
     0
281
     0
  0
CLASS
  1
ACIMREALSYSVAR
  2
AcImRealSysVar
  3
AcMeServices
 90
     1024
 91
        3
280
     0
281
     0
  0
CLASS
  1
ACDBENTITYCACHE
  2
AcMeEntityCache
  3
AcMeServices
 90
     1024
 91
        1
280
     0
281
     0
  0
CLASS
  1
GSMANAGER
  2
AcMeGSManager
  3
AcMeServices
 90
     1024
 91
        1
280
     0
281
     0
  0
CLASS
  1
AMDTINTERNALREACTOR
  2
AmdtInternalReactor
  3
AcMeServices
 90
     1024
 91
        2
280
     0
281
     0
  0
CLASS
  1
ACME_DATABASE
  2
AcMeDbDatabase
  3
AcMeServices
 90
     1024
 91
        4
280
     0
281
     0
  0
CLASS
  1
ACMDATADICTIONARY
  2
AcmDataDictionary
  3
"AcmSymBB|Product Description: AutoCAD Mechanical|Company: Autodesk, Inc."
 90
     1024
 91
        1
280
     0
281
     0
  0
CLASS
  1
ACMDATAENTRYBLOCK
  2
AcmDataEntryBlock
  3
AcmSymBB|Product Description: AutoCAD Mechanical|Company: Autodesk, Inc.
 90
     1024
 91
        4
280
     0
281
     0
  0
CLASS
  1
ACMSURFSTANDARDJIS
  2
AcmSurfTextStdJIS
  3
"Amdt_StdImp|Product Description: AutoCAD Mechanical|Company: Autodesk, Inc."
 90
     1024
 91
        2
280
     0
281
     0
  0
CLASS
  1
ACMFCFSTANDARDJIS
  2
AcmFCFStdJIS
  3
"Amdt_StdImp|Product Description: AutoCAD Mechanical|Company: Autodesk, Inc."
 90
     1024
 91
        2
280
     0
281
     0
  0
CLASS
  1
ACMWELDSTANDARDJIS
  2
AcmWeldingStdJIS
  3
"Amdt_StdImp|Product Description: AutoCAD Mechanical|Company: Autodesk, Inc."
 90
     1024
 91
        2
280
     0
281
     0
  0
CLASS
  1
ACMIDSTANDARDJIS
  2
AcmIdStdJIS
  3
"Amdt_StdImp|Product Description: AutoCAD Mechanical|Company: Autodesk, Inc."
 90
     1024
 91
        2
280
     0
281
     0
  0
CLASS
  1
ACMDATUMSTANDARDJIS
  2
AcmDatumStdJIS
  3
"Amdt_StdImp|Product Description: AutoCAD Mechanical|Company: Autodesk, Inc."
 90
     1024
 91
        2
280
     0
281
     0
  0
CLASS
  1
ACMBOMSTANDARDJIS
  2
AcmBOMStdJIS
  3
"Amdt_StdImp|Product Description: AutoCAD Mechanical|Company: Autodesk, Inc."
 90
     1024
 91
        2
280
     0
281
     0
  0
CLASS
  1
AMGOBJPROPCFG
  2
AmgObjPropCfg
  3
"AmgLay|Product Description: AutoCAD Mechanical|Company: Autodesk, Inc."
 90
     1025
 91
        1
280
     0
281
     0
  0
CLASS
  1
ACMSURFSTANDARDANSI
  2
AcmSurfTextStdANSI
  3
"Amdt_StdImp|Product Description: AutoCAD Mechanical|Company: Autodesk, Inc."
 90
     1024
 91
        2
280
     0
281
     0
  0
CLASS
  1
ACMFCFSTANDARDANSI
  2
AcmFCFStdANSI
  3
"Amdt_StdImp|Product Description: AutoCAD Mechanical|Company: Autodesk, Inc."
 90
     1024
 91
        2
280
     0
281
     0
  0
CLASS
  1
ACMWELDSTANDARDANSI
  2
AcmWeldingStdANSI
  3
"Amdt_StdImp|Product Description: AutoCAD Mechanical|Company: Autodesk, Inc."
 90
     1024
 91
        2
280
     0
281
     0
  0
CLASS
  1
ACMIDSTANDARDANSI
  2
AcmIdStdANSI
  3
"Amdt_StdImp|Product Description: AutoCAD Mechanical|Company: Autodesk, Inc."
 90
     1024
 91
        2
280
     0
281
     0
  0
CLASS
  1
ACMDATUMSTANDARDANSI
  2
AcmDatumStdANSI
  3
"Amdt_StdImp|Product Description: AutoCAD Mechanical|Company: Autodesk, Inc."
 90
     1024
 91
        2
280
     0
281
     0
  0
CLASS
  1
ACMBOMSTANDARDANSI
  2
AcmBOMStdANSI
  3
"Amdt_StdImp|Product Description: AutoCAD Mechanical|Company: Autodesk, Inc."
 90
     1024
 91
        2
280
     0
281
     0
  0
CLASS
  1
ACMSURFSTANDARDBSI
  2
AcmSurfTextStdBSI
  3
"Amdt_StdImp|Product Description: AutoCAD Mechanical|Company: Autodesk, Inc."
 90
     1024
 91
        2
280
     0
281
     0
  0
CLASS
  1
ACMFCFSTANDARDBSI
  2
AcmFCFStdBSI
  3
"Amdt_StdImp|Product Description: AutoCAD Mechanical|Company: Autodesk, Inc."
 90
     1024
 91
        2
280
     0
281
     0
  0
CLASS
  1
ACMWELDSTANDARDBSI
  2
AcmWeldingStdBSI
  3
"Amdt_StdImp|Product Description: AutoCAD Mechanical|Company: Autodesk, Inc."
 90
     1024
 91
        2
280
     0
281
     0
  0
CLASS
  1
ACMIDSTANDARDBSI
  2
AcmIdStdBSI
  3
"Amdt_StdImp|Product Description: AutoCAD Mechanical|Company: Autodesk, Inc."
 90
     1024
 91
        2
280
     0
281
     0
  0
CLASS
  1
ACMDATUMSTANDARDBSI
  2
AcmDatumStdBSI
  3
"Amdt_StdImp|Product Description: AutoCAD Mechanical|Company: Autodesk, Inc."
 90
     1024
 91
        2
280
     0
281
     0
  0
CLASS
  1
ACMBOMSTANDARDBSI
  2
AcmBOMStdBSI
  3
"Amdt_StdImp|Product Description: AutoCAD Mechanical|Company: Autodesk, Inc."
 90
     1024
 91
        2
280
     0
281
     0
  0
CLASS
  1
AMDTEDGESTANDARDDIN
  2
AmdtEdgeStdDIN
  3
"Amdt_StdImp|Product Description: AutoCAD Mechanical|Company: Autodesk, Inc."
 90
     1024
 91
        2
280
     0
281
     0
  0
CLASS
  1
ACMSURFSTANDARDDIN
  2
AcmSurfTextStdDIN
  3
"Amdt_StdImp|Product Description: AutoCAD Mechanical|Company: Autodesk, Inc."
 90
     1024
 91
        2
280
     0
281
     0
  0
CLASS
  1
ACMFCFSTANDARDDIN
  2
AcmFCFStdDIN
  3
"Amdt_StdImp|Product Description: AutoCAD Mechanical|Company: Autodesk, Inc."
 90
     1024
 91
        2
280
     0
281
     0
  0
CLASS
  1
ACMWELDSTANDARDDIN
  2
AcmWeldingStdDIN
  3
"Amdt_StdImp|Product Description: AutoCAD Mechanical|Company: Autodesk, Inc."
 90
     1024
 91
        2
280
     0
281
     0
  0
CLASS
  1
ACMIDSTANDARDDIN
  2
AcmIdStdDIN
  3
"Amdt_StdImp|Product Description: AutoCAD Mechanical|Company: Autodesk, Inc."
 90
     1024
 91
        2
280
     0
281
     0
  0
CLASS
  1
ACMDATUMSTANDARDDIN
  2
AcmDatumStdDIN
  3
"Amdt_StdImp|Product Description: AutoCAD Mechanical|Company: Autodesk, Inc."
 90
     1024
 91
        2
280
     0
281
     0
  0
CLASS
  1
ACMBOMSTANDARDDIN
  2
AcmBOMStdDIN
  3
"Amdt_StdImp|Product Description: AutoCAD Mechanical|Company: Autodesk, Inc."
 90
     1024
 91
        2
280
     0
281
     0
  0
CLASS
  1
AMDTEDGESTANDARDISO
  2
AmdtEdgeStdISO
  3
"Amdt_StdImp|Product Description: AutoCAD Mechanical|Company: Autodesk, Inc."
 90
     1024
 91
        2
280
     0
281
     0
  0
CLASS
  1
ACMSURFSTANDARDISO
  2
AcmSurfTextStdISO
  3
"Amdt_StdImp|Product Description: AutoCAD Mechanical|Company: Autodesk, Inc."
 90
     1024
 91
        2
280
     0
281
     0
  0
CLASS
  1
ACMFCFSTANDARDISO
  2
AcmFCFStdISO
  3
"Amdt_StdImp|Product Description: AutoCAD Mechanical|Company: Autodesk, Inc."
 90
     1024
 91
        2
280
     0
281
     0
  0
CLASS
  1
ACMWELDSTANDARDISO
  2
AcmWeldingStdISO
  3
"Amdt_StdImp|Product Description: AutoCAD Mechanical|Company: Autodesk, Inc."
 90
     1024
 91
        2
280
     0
281
     0
  0
CLASS
  1
ACMIDSTANDARDISO
  2
AcmIdStdISO
  3
"Amdt_StdImp|Product Description: AutoCAD Mechanical|Company: Autodesk, Inc."
 90
     1024
 91
        2
280
     0
281
     0
  0
CLASS
  1
ACMDATUMSTANDARDISO
  2
AcmDatumStdISO
  3
"Amdt_StdImp|Product Description: AutoCAD Mechanical|Company: Autodesk, Inc."
 90
     1024
 91
        2
280
     0
281
     0
  0
CLASS
  1
ACMBOMSTANDARDISO
  2
AcmBOMStdISO
  3
"Amdt_StdImp|Product Description: AutoCAD Mechanical|Company: Autodesk, Inc."
 90
     1024
 91
        2
280
     0
281
     0
  0
CLASS
  1
ACAMGFILTERDAT
  2
AcAmgFilterDat
  3
"AcadM|Product Description: AutoCAD Mechanical|Company: Autodesk, Inc."
 90
     1024
 91
        5
280
     0
281
     0
  0
CLASS
  1
ACMDIMBREAKPERSREACTOR
  2
AcmDimBreakPersReactor
  3
AmgDim|Product Description: AutoCAD Mechanical|Company: Autodesk, Inc.
 90
     4095
 91
        3
280
     0
281
     0
  0
CLASS
  1
ACGREFMASTER
  2
AcGrefMaster
  3
AcAttribServices
 90
     1024
 91
        1
280
     0
281
     0
  0
CLASS
  1
AM_DRAWING_MGR
  2
AcDmDwgMgr
  3
AcMechDwgViewMgmt
 90
     1024
 91
        1
280
     0
281
     0
  0
CLASS
  1
AM_DWG_DOCUMENT
  2
AcDmDwgDocument
  3
AcMechDwgViewMgmt
 90
     1024
 91
        1
280
     0
281
     0
  0
CLASS
  1
AM_DWG_SHEET
  2
AcDmSheet
  3
AcMechDwgViewMgmt
 90
     1024
 91
        1
280
     0
281
     0
  0
CLASS
  1
AM_VIEWDIMPARMAP
  2
AcDmViewDimParMap
  3
AcMechDwgViewMgmt
 90
     1024
 91
        1
280
     0
281
     0
  0
CLASS
  1
AM_DWGMGR_NAME
  2
AcDmDwgMgrName
  3
AcMechDwgViewMgmt
 90
     1024
 91
        1
280
     0
281
     0
  0
CLASS
  1
ACGREFACADMASTER
  2
AcGrefacadMaster
  3
AcGrefServices
 90
     1024
 91
        1
280
     0
281
     0
  0
CLASS
  1
AMDTMENUSTATEMGR
  2
AmdtMenuStateMgr
  3
McadcomServices
 90
     1024
 91
        1
280
     0
281
     0
  0
CLASS
  1
AMDTMCOMMENUSTATE
  2
AmdtMcomMenuState
  3
McadcomServices
 90
     1024
 91
        1
280
     0
281
     0
  0
CLASS
  1
AMIMASTER
  2
AmiMaster
  3
AmiServices
 90
     1024
 91
        1
280
     0
281
     0
  0
CLASS
  1
MAPIAMMOUDLE
  2
MApiAmModule
  3
MApiAmServices
 90
     1024
 91
        1
280
     0
281
     0
  0
CLASS
  1
AMDTADMENUSTATE
  2
AmdtAdMenuState
  3
DesignerServices
 90
     1024
 91
        1
280
     0
281
     0
  0
CLASS
  1
ADAPPL
  2
AcAdAppl
  3
DesignerServices
 90
     1024
 91
        1
280
     0
281
     0
  0
CLASS
  1
DEPMGR
  2
AcAdDepMgr
  3
DesignerServices
 90
     1024
 91
        1
280
     0
281
     0
  0
CLASS
  1
PARAMMGR
  2
AcAdParamMgr
  3
DesignerServices
 90
     1024
 91
        1
280
     0
281
     0
  0
CLASS
  1
PARAMSCOPE
  2
AcAdParamScope
  3
DesignerServices
 90
     1024
 91
        1
280
     0
281
     0
  0
CLASS
  1
NAMEDAPPL
  2
AcAdNamedAppl
  3
DesignerServices
 90
     1024
 91
        1
280
     0
281
     0
  0
CLASS
  1
AMDTDMMENUSTATE
  2
AmdtDmMenuState
  3
AcMechDwgViewMgmt
 90
     1024
 91
        1
280
     0
281
     0
  0
CLASS
  1
AMDTAMMENUSTATE
  2
AmdtAmMenuState
  3
DesignerAssemblies
 90
     1024
 91
        1
280
     0
281
     0
  0
CLASS
  1
ACAMPROJECT
  2
AcAmProject
  3
DesignerAssemblies
 90
     1024
 91
        1
280
     0
281
     0
  0
CLASS
  1
ACAMGRCOMPDEF
  2
AcAmGrCompDef
  3
DesignerAssemblies
 90
     1024
 91
        1
280
     0
281
     0
  0
CLASS
  1
ACCMCONTEXT
  2
AcCmContext
  3
DesignerAssemblies
 90
     1024
 91
        1
280
     0
281
     0
  0
CLASS
  1
ACAMCOMPDEF
  2
AcAmCompDef
  3
DesignerAssemblies
 90
     1024
 91
        1
280
     0
281
     0
  0
CLASS
  1
ACAMCOMPDEFMGR
  2
AcAmCompDefMgr
  3
DesignerAssemblies
 90
     1024
 91
        1
280
     0
281
     0
  0
CLASS
  1
AMCONTEXTMGR
  2
AcAmContextMgr
  3
DesignerAssemblies
 90
     1024
 91
        1
280
     0
281
     0
  0
CLASS
  1
ACAMCONTEXTMODELER
  2
AcAmContextModeler
  3
DesignerAssemblies
 90
     1024
 91
        1
280
     0
281
     0
  0
CLASS
  1
ACAMGTITLESTD
  2
AcAmgTitleStd
  3
"AmgTitle|Product Description: AutoCAD Mechanical|Company: Autodesk, Inc."
 90
     4095
 91
        5
280
     0
281
     0
  0
CLASS
  1
ACMDETAILSTANDARDJIS
  2
AmdtDetailSymStdJIS
  3
"Amdt_StdImp|Product Description: AutoCAD Mechanical|Company: Autodesk, Inc."
 90
     1024
 91
        1
280
     0
281
     0
  0
CLASS
  1
ACMSECTIONSTANDARDJIS
  2
AmdtSectionSymStdJIS
  3
"Amdt_StdImp|Product Description: AutoCAD Mechanical|Company: Autodesk, Inc."
 90
     1024
 91
        1
280
     0
281
     0
  0
CLASS
  1
ACMCENTERLINESTANDARDJIS
  2
AmdtCenterLineStdJIS
  3
"Amdt_StdImp|Product Description: AutoCAD Mechanical|Company: Autodesk, Inc."
 90
     1024
 91
        1
280
     0
281
     0
  0
CLASS
  1
ACMTHREADLINESTANDARDJIS
  2
AmdtThreadLineStdJIS
  3
"Amdt_StdImp|Product Description: AutoCAD Mechanical|Company: Autodesk, Inc."
 90
     1024
 91
        1
280
     0
281
     0
  0
CLASS
  1
ACMNOTESTANDARDJIS
  2
AmdtNoteStdJIS
  3
"Amdt_StdImp|Product Description: AutoCAD Mechanical|Company: Autodesk, Inc."
 90
     1024
 91
        1
280
     0
281
     0
  0
CLASS
  1
AMDTNOTETEMPLATEDB
  2
AmdtNoteTemplateDB
  3
AcmSymBB|Product Description: AutoCAD Mechanical|Company: Autodesk, Inc.
 90
     1024
 91
       20
280
     0
281
     0
  0
CLASS
  1
ACMDETAILSTANDARDANSI
  2
AmdtDetailSymStdANSI
  3
"Amdt_StdImp|Product Description: AutoCAD Mechanical|Company: Autodesk, Inc."
 90
     1024
 91
        1
280
     0
281
     0
  0
CLASS
  1
ACMSECTIONSTANDARDANSI
  2
AmdtSectionSymStdANSI
  3
"Amdt_StdImp|Product Description: AutoCAD Mechanical|Company: Autodesk, Inc."
 90
     1024
 91
        1
280
     0
281
     0
  0
CLASS
  1
ACMCENTERLINESTANDARDANSI
  2
AmdtCenterLineStdANSI
  3
"Amdt_StdImp|Product Description: AutoCAD Mechanical|Company: Autodesk, Inc."
 90
     1024
 91
        1
280
     0
281
     0
  0
CLASS
  1
ACMTHREADLINESTANDARDANSI
  2
AmdtThreadLineStdANSI
  3
"Amdt_StdImp|Product Description: AutoCAD Mechanical|Company: Autodesk, Inc."
 90
     1024
 91
        1
280
     0
281
     0
  0
CLASS
  1
ACMNOTESTANDARDANSI
  2
AmdtNoteStdANSI
  3
"Amdt_StdImp|Product Description: AutoCAD Mechanical|Company: Autodesk, Inc."
 90
     1024
 91
        1
280
     0
281
     0
  0
CLASS
  1
ACMDETAILSTANDARDBSI
  2
AmdtDetailSymStdBSI
  3
"Amdt_StdImp|Product Description: AutoCAD Mechanical|Company: Autodesk, Inc."
 90
     1024
 91
        1
280
     0
281
     0
  0
CLASS
  1
ACMSECTIONSTANDARDBSI
  2
AmdtSectionSymStdBSI
  3
"Amdt_StdImp|Product Description: AutoCAD Mechanical|Company: Autodesk, Inc."
 90
     1024
 91
        1
280
     0
281
     0
  0
CLASS
  1
ACMCENTERLINESTANDARDBSI
  2
AmdtCenterLineStdBSI
  3
"Amdt_StdImp|Product Description: AutoCAD Mechanical|Company: Autodesk, Inc."
 90
     1024
 91
        1
280
     0
281
     0
  0
CLASS
  1
ACMTHREADLINESTANDARDBSI
  2
AmdtThreadLineStdBSI
  3
"Amdt_StdImp|Product Description: AutoCAD Mechanical|Company: Autodesk, Inc."
 90
     1024
 91
        1
280
     0
281
     0
  0
CLASS
  1
ACMNOTESTANDARDBSI
  2
AmdtNoteStdBSI
  3
"Amdt_StdImp|Product Description: AutoCAD Mechanical|Company: Autodesk, Inc."
 90
     1024
 91
        1
280
     0
281
     0
  0
CLASS
  1
ACMDETAILSTANDARDDIN
  2
AmdtDetailSymStdDIN
  3
"Amdt_StdImp|Product Description: AutoCAD Mechanical|Company: Autodesk, Inc."
 90
     1024
 91
        1
280
     0
281
     0
  0
CLASS
  1
ACMSECTIONSTANDARDDIN
  2
AmdtSectionSymStdDIN
  3
"Amdt_StdImp|Product Description: AutoCAD Mechanical|Company: Autodesk, Inc."
 90
     1024
 91
        1
280
     0
281
     0
  0
CLASS
  1
ACMCENTERLINESTANDARDDIN
  2
AmdtCenterLineStdDIN
  3
"Amdt_StdImp|Product Description: AutoCAD Mechanical|Company: Autodesk, Inc."
 90
     1024
 91
        1
280
     0
281
     0
  0
CLASS
  1
ACMTHREADLINESTANDARDDIN
  2
AmdtThreadLineStdDIN
  3
"Amdt_StdImp|Product Description: AutoCAD Mechanical|Company: Autodesk, Inc."
 90
     1024
 91
        1
280
     0
281
     0
  0
CLASS
  1
ACMNOTESTANDARDDIN
  2
AmdtNoteStdDIN
  3
"Amdt_StdImp|Product Description: AutoCAD Mechanical|Company: Autodesk, Inc."
 90
     1024
 91
        1
280
     0
281
     0
  0
CLASS
  1
ACMDETAILSTANDARDISO
  2
AmdtDetailSymStdISO
  3
"Amdt_StdImp|Product Description: AutoCAD Mechanical|Company: Autodesk, Inc."
 90
     1024
 91
        1
280
     0
281
     0
  0
CLASS
  1
ACMSECTIONSTANDARDISO
  2
AmdtSectionSymStdISO
  3
"Amdt_StdImp|Product Description: AutoCAD Mechanical|Company: Autodesk, Inc."
 90
     1024
 91
        1
280
     0
281
     0
  0
CLASS
  1
ACMCENTERLINESTANDARDISO
  2
AmdtCenterLineStdISO
  3
"Amdt_StdImp|Product Description: AutoCAD Mechanical|Company: Autodesk, Inc."
 90
     1024
 91
        1
280
     0
281
     0
  0
CLASS
  1
ACMTHREADLINESTANDARDISO
  2
AmdtThreadLineStdISO
  3
"Amdt_StdImp|Product Description: AutoCAD Mechanical|Company: Autodesk, Inc."
 90
     1024
 91
        1
280
     0
281
     0
  0
CLASS
  1
ACMNOTESTANDARDISO
  2
AmdtNoteStdISO
  3
"Amdt_StdImp|Product Description: AutoCAD Mechanical|Company: Autodesk, Inc."
 90
     1024
 91
        1
280
     0
281
     0
  0
CLASS
  1
ACAMGLAYSTD
  2
AcAmgLayStd
  3
"AmgLay|Product Description: AutoCAD Mechanical|Company: Autodesk, Inc."
 90
     1024
 91
        5
280
     0
281
     0
  0
CLASS
  1
ACAMGDIMSTD
  2
AcAmgDimStd
  3
"AmgDim|Product Description: AutoCAD Mechanical|Company: Autodesk, Inc."
 90
     1024
 91
        5
280
     0
281
     0
  0
CLASS
  1
ACAMGHOLECHARTSTDANSI
  2
AcAmgHoleChartStdANSI
  3
AmgDim|Product Description: AutoCAD Mechanical|Company: Autodesk, Inc.
 90
     1024
 91
        1
280
     0
281
     0
  0
CLASS
  1
ACAMGHOLECHARTSTDBSI
  2
AcAmgHoleChartStdBSI
  3
AmgDim|Product Description: AutoCAD Mechanical|Company: Autodesk, Inc.
 90
     1024
 91
        1
280
     0
281
     0
  0
CLASS
  1
ACAMGHOLECHARTSTDDIN
  2
AcAmgHoleChartStdDIN
  3
AmgDim|Product Description: AutoCAD Mechanical|Company: Autodesk, Inc.
 90
     1024
 91
        1
280
     0
281
     0
  0
CLASS
  1
ACAMGHOLECHARTSTDISO
  2
AcAmgHoleChartStdISO
  3
AmgDim|Product Description: AutoCAD Mechanical|Company: Autodesk, Inc.
 90
     1024
 91
        1
280
     0
281
     0
  0
CLASS
  1
ACAMGHOLECHARTSTDJIS
  2
AcAmgHoleChartStdJIS
  3
AmgDim|Product Description: AutoCAD Mechanical|Company: Autodesk, Inc.
 90
     1024
 91
        1
280
     0
281
     0
  0
CLASS
  1
CATALOGSTATE
  2
AcAmCatalogState
  3
DesignerAssemblies
 90
     1024
 91
        1
280
     0
281
     0
  0
CLASS
  1
ACAMGRCOMPDEFSET
  2
AcAmGrCompDefSet
  3
DesignerAssemblies
 90
     1024
 91
        1
280
     0
281
     0
  0
CLASS
  1
AMDTBROWSERDBTAB
  2
AmdtBrowserDbTab
  3
McadcomServices
 90
     1024
 91
        1
280
     0
281
     0
  0
CLASS
  1
CBROWSERAPPOBJECT
  2
CBrowserAppObject
  3
McadcomServices
 90
     1024
 91
        3
280
     0
281
     0
  0
CLASS
  1
DM_PLACEHOLDER
  2
AcDmSelsetPlaceholder
  3
AcMechDwgViewMgmt
 90
     1024
 91
        1
280
     0
281
     0
  0
CLASS
  1
TABLESTYLE
  2
AcDbTableStyle
  3
ObjectDBX Classes
 90
     4095
 91
        1
280
     0
281
     0
  0
CLASS
  1
VAACXREFPANELOBJECT
  2
VaAcXREFPanelObject
  3
VAAC_ADDIN
 90
        0
 91
        0
280
     0
281
     0
  0
CLASS
  1
VAACIMAGEINVENTORY
  2
VaAcImageInventory
  3
VAAC_ADDIN
 90
        0
 91
        0
280
     0
281
     0
  0
CLASS
  1
MATERIAL
  2
AcDbMaterial
  3
ObjectDBX Classes
 90
     1153
 91
        3
280
     0
281
     0
  0
CLASS
  1
VISUALSTYLE
  2
AcDbVisualStyle
  3
ObjectDBX Classes
 90
     4095
 91
       16
280
     0
281
     0
  0
CLASS
  1
ACRFATTGENMGR
  2
AcRfAttGeneralMgr
  3
AcAttribServices
 90
     1024
 91
        1
280
     0
281
     0
  0
CLASS
  1
ACRFOBJATTMGR
  2
AcRfObjAttGroupMgr
  3
AcAttribServices
 90
     1024
 91
        1
280
     0
281
     0
  0
CLASS
  1
ACRFMCADAPIATTHOLDER
  2
AcRfMCADAPIAttHolder
  3
AcAttribServices
 90
     1024
 91
        1
280
     0
281
     0
  0
CLASS
  1
AMDTSYSATTR
  2
AmdtSystemAttribute
  3
AcAttribServices
 90
     1024
 91
        1
280
     0
281
     0
  0
CLASS
  1
ACMTAPERSTANDARDJIS
  2
AcmTaperStdJIS
  3
"Amdt_StdImp|Product Description: AutoCAD Mechanical|Company: Autodesk, Inc."
 90
     1024
 91
        1
280
     0
281
     0
  0
CLASS
  1
ACMTAPERSTANDARDANSI
  2
AcmTaperStdANSI
  3
"Amdt_StdImp|Product Description: AutoCAD Mechanical|Company: Autodesk, Inc."
 90
     1024
 91
        1
280
     0
281
     0
  0
CLASS
  1
ACMTAPERSTANDARDBSI
  2
AcmTaperStdBSI
  3
"Amdt_StdImp|Product Description: AutoCAD Mechanical|Company: Autodesk, Inc."
 90
     1024
 91
        1
280
     0
281
     0
  0
CLASS
  1
ACMTAPERSTANDARDDIN
  2
AcmTaperStdDIN
  3
"Amdt_StdImp|Product Description: AutoCAD Mechanical|Company: Autodesk, Inc."
 90
     1024
 91
        1
280
     0
281
     0
  0
CLASS
  1
ACMTAPERSTANDARDISO
  2
AcmTaperStdISO
  3
"Amdt_StdImp|Product Description: AutoCAD Mechanical|Company: Autodesk, Inc."
 90
     1024
 91
        1
280
     0
281
     0
  0
CLASS
  1
CAMSSTRUCTBTNSTATE
  2
StructBtnState
  3
DesignerAssemblies
 90
     1024
 91
        1
280
     0
281
     0
  0
CLASS
  1
SCALE
  2
AcDbScale
  3
ObjectDBX Classes
 90
     1153
 91
       33
280
     0
281
     0
  0
CLASS
  1
MLEADERSTYLE
  2
AcDbMLeaderStyle
  3
ACDB_MLEADERSTYLE_CLASS
 90
     4095
 91
        1
280
     0
281
     0
  0
CLASS
  1
ACMANOOTATIONVIEWSTANDARDJIS
  2
AmdtAnViewStdJIS
  3
"Amdt_StdImp|Product Description: AutoCAD Mechanical|Company: Autodesk, Inc."
 90
     1024
 91
        1
280
     0
281
     0
  0
CLASS
  1
ACMANOOTATIONVIEWSTANDARDANSI
  2
AmdtAnViewStdANSI
  3
"Amdt_StdImp|Product Description: AutoCAD Mechanical|Company: Autodesk, Inc."
 90
     1024
 91
        1
280
     0
281
     0
  0
CLASS
  1
ACMANOOTATIONVIEWSTANDARDBSI
  2
AmdtAnViewStdBSI
  3
"Amdt_StdImp|Product Description: AutoCAD Mechanical|Company: Autodesk, Inc."
 90
     1024
 91
        1
280
     0
281
     0
  0
CLASS
  1
ACMANOOTATIONVIEWSTANDARDDIN
  2
AmdtAnViewStdDIN
  3
"Amdt_StdImp|Product Description: AutoCAD Mechanical|Company: Autodesk, Inc."
 90
     1024
 91
        1
280
     0
281
     0
  0
CLASS
  1
ACMANOOTATIONVIEWSTANDARDISO
  2
AmdtAnViewStdISO
  3
"Amdt_StdImp|Product Description: AutoCAD Mechanical|Company: Autodesk, Inc."
 90
     1024
 91
        1
280
     0
281
     0
  0
CLASS
  1
CELLSTYLEMAP
  2
AcDbCellStyleMap
  3
ObjectDBX Classes
 90
     1152
 91
        7
280
     0
281
     0
  0
CLASS
  1
SORTENTSTABLE
  2
AcDbSortentsTable
  3
ObjectDBX Classes
 90
        0
 91
        4
280
     0
281
     0
  0
ENDSEC
  0
SECTION
  2
TABLES
  0
TABLE
  2
VPORT
  5
13
330
0
100
AcDbSymbolTable
 70
     1
  0
VPORT
  5
13CA
330
13
100
AcDbSymbolTableRecord
100
AcDbViewportTableRecord
  2
*Active
 70
     0
 10
0.0
 20
0.0
 11
1.0
 21
1.0
 12
537.0892393104486
 22
384.6601322041906
 13
0.0
 23
0.0
 14
10.0
 24
10.0
 15
10.0
 25
10.0
 16
0.0
 26
0.0
 36
1.0
 17
0.0
 27
0.0
 37
0.0
 40
533.2762211335141
 41
1.555897435897435
 42
50.0
 43
0.0
 44
0.0
 50
0.0
 51
0.0
 71
     0
 72
   100
 73
     1
 74
     0
 75
     0
 76
     0
 77
     0
 78
     0
281
     0
 65
     1
110
0.0
120
0.0
130
0.0
111
1.0
121
0.0
131
0.0
112
0.0
122
1.0
132
0.0
 79
     0
146
0.0
  0
ENDTAB
  0
TABLE
  2
LTYPE
  5
E
330
0
100
AcDbSymbolTable
 70
    21
  0
LTYPE
  5
F
330
E
100
AcDbSymbolTableRecord
100
AcDbLinetypeTableRecord
  2
BYBLOCK
 70
     0
  3

 72
    65
 73
     0
 40
0.0
  0
LTYPE
  5
10
330
E
100
AcDbSymbolTableRecord
100
AcDbLinetypeTableRecord
  2
BYLAYER
 70
     0
  3

 72
    65
 73
     0
 40
0.0
  0
LTYPE
  5
6
330
E
100
AcDbSymbolTableRecord
100
AcDbLinetypeTableRecord
  2
CONTINUOUS
 70
     0
  3
Solid line
 72
    65
 73
     0
 40
0.0
  0
LTYPE
  5
3E
330
E
100
AcDbSymbolTableRecord
100
AcDbLinetypeTableRecord
  2
MITTE
 70
     0
  3
____ _ ____ _ ____ _ ____ _ ____ _ ____ _ ____ 
 72
    65
 73
     4
 40
2.0
 49
1.25
 74
     0
 49
-0.25
 74
     0
 49
0.25
 74
     0
 49
-0.25
 74
     0
  0
LTYPE
  5
EA
330
E
100
AcDbSymbolTableRecord
100
AcDbLinetypeTableRecord
  2
GESTRICHELT
 70
     0
  3
__ __ __ __ __ __ __ __ __ __ __ __ __ __ __ __
 72
    65
 73
     2
 40
0.75
 49
0.5
 74
     0
 49
-0.25
 74
     0
  0
LTYPE
  5
2DF
330
E
100
AcDbSymbolTableRecord
100
AcDbLinetypeTableRecord
  2
ACJISTGB
 70
     0
  3
__ . . __ . .
 72
    65
 73
     6
 40
9.0
 49
4.0
 74
     0
 49
-1.0
 74
     0
 49
1.0
 74
     0
 49
-1.0
 74
     0
 49
1.0
 74
     0
 49
-1.0
 74
     0
  0
LTYPE
  5
2E0
330
E
100
AcDbSymbolTableRecord
100
AcDbLinetypeTableRecord
  2
ACJISTGL
 70
     0
  3
_ _ _ _ _
 72
    65
 73
     2
 40
3.0
 49
2.0
 74
     0
 49
-1.0
 74
     0
  0
LTYPE
  5
2E3
330
E
100
AcDbSymbolTableRecord
100
AcDbLinetypeTableRecord
  2
ACANSTGB
 70
     0
  3
__ . . __ . .
 72
    65
 73
     6
 40
0.35433070866
 49
0.15748031496
 74
     0
 49
-0.03937007874
 74
     0
 49
0.03937007874
 74
     0
 49
-0.03937007874
 74
     0
 49
0.03937007874
 74
     0
 49
-0.03937007874
 74
     0
  0
LTYPE
  5
2E4
330
E
100
AcDbSymbolTableRecord
100
AcDbLinetypeTableRecord
  2
ACANSTGL
 70
     0
  3
_ _ _ _ _
 72
    65
 73
     2
 40
0.11811023622
 49
0.07874015748
 74
     0
 49
-0.03937007874
 74
     0
  0
LTYPE
  5
2E7
330
E
100
AcDbSymbolTableRecord
100
AcDbLinetypeTableRecord
  2
ACBSIWELD
 70
     0
  3
_ _ _ _ _
 72
    65
 73
     2
 40
2.0
 49
2.0
 74
     0
 49
-1.0
 74
     0
  0
LTYPE
  5
2E8
330
E
100
AcDbSymbolTableRecord
100
AcDbLinetypeTableRecord
  2
ACBSITGB
 70
     0
  3
__ . . __ . .
 72
    65
 73
     6
 40
9.0
 49
4.0
 74
     0
 49
-1.0
 74
     0
 49
1.0
 74
     0
 49
-1.0
 74
     0
 49
1.0
 74
     0
 49
-1.0
 74
     0
  0
LTYPE
  5
2E9
330
E
100
AcDbSymbolTableRecord
100
AcDbLinetypeTableRecord
  2
ACBSITGL
 70
     0
  3
_ _ _ _ _
 72
    65
 73
     2
 40
3.0
 49
2.0
 74
     0
 49
-1.0
 74
     0
  0
LTYPE
  5
2EC
330
E
100
AcDbSymbolTableRecord
100
AcDbLinetypeTableRecord
  2
ACDINWELD
 70
     0
  3
_ _ _ _ _
 72
    65
 73
     2
 40
2.0
 49
2.0
 74
     0
 49
-1.0
 74
     0
  0
LTYPE
  5
2ED
330
E
100
AcDbSymbolTableRecord
100
AcDbLinetypeTableRecord
  2
ACDINTGB
 70
     0
  3
__ . . __ . .
 72
    65
 73
     6
 40
9.0
 49
4.0
 74
     0
 49
-1.0
 74
     0
 49
1.0
 74
     0
 49
-1.0
 74
     0
 49
1.0
 74
     0
 49
-1.0
 74
     0
  0
LTYPE
  5
2EE
330
E
100
AcDbSymbolTableRecord
100
AcDbLinetypeTableRecord
  2
ACDINTGL
 70
     0
  3
_ _ _ _ _
 72
    65
 73
     2
 40
3.0
 49
2.0
 74
     0
 49
-1.0
 74
     0
  0
LTYPE
  5
2F1
330
E
100
AcDbSymbolTableRecord
100
AcDbLinetypeTableRecord
  2
ACISOWELD
 70
     0
  3
_ _ _ _ _
 72
    65
 73
     2
 40
2.0
 49
2.0
 74
     0
 49
-1.0
 74
     0
  0
LTYPE
  5
2F2
330
E
100
AcDbSymbolTableRecord
100
AcDbLinetypeTableRecord
  2
ACISOTGB
 70
     0
  3
__ . . __ . .
 72
    65
 73
     6
 40
9.0
 49
4.0
 74
     0
 49
-1.0
 74
     0
 49
1.0
 74
     0
 49
-1.0
 74
     0
 49
1.0
 74
     0
 49
-1.0
 74
     0
  0
LTYPE
  5
2F3
330
E
100
AcDbSymbolTableRecord
100
AcDbLinetypeTableRecord
  2
ACISOTGL
 70
     0
  3
_ _ _ _ _
 72
    65
 73
     2
 40
3.0
 49
2.0
 74
     0
 49
-1.0
 74
     0
  0
LTYPE
  5
336
330
E
100
AcDbSymbolTableRecord
100
AcDbLinetypeTableRecord
  2
Amconstr
 70
     0
  3
_______________________
 72
    65
 73
     2
 40
9999.0
 49
9999.0
 74
     0
 49
0.0
 74
     0
  0
LTYPE
  5
33C
330
E
100
AcDbSymbolTableRecord
100
AcDbLinetypeTableRecord
  2
PHANTOM2
 70
     0
  3
Phantom (.5x) ___ _ _ ___ _ _ ___ _ _ ___ _ _
 72
    65
 73
     6
 40
1.25
 49
0.625
 74
     0
 49
-0.125
 74
     0
 49
0.125
 74
     0
 49
-0.125
 74
     0
 49
0.125
 74
     0
 49
-0.125
 74
     0
  0
LTYPE
  5
33D
330
E
100
AcDbSymbolTableRecord
100
AcDbLinetypeTableRecord
  2
Amzigzag2
 70
     0
  3
/\/-/\/-/\/-/\/-/\/-/\/
 72
    65
 73
     2
 40
0.4401
 49
0.0001
 74
     4
 75
   135
340
33A
 46
0.0016
 50
0.0
 44
0.0
 45
0.0
 49
-0.4400000000000001
 74
     0
  0
LTYPE
  5
12DA
330
E
100
AcDbSymbolTableRecord
100
AcDbLinetypeTableRecord
  2
HIDDEN
 70
     0
  3
Verdeckt
 72
    65
 73
     2
 40
0.375
 49
0.25
 74
     0
 49
-0.125
 74
     0
  0
LTYPE
  5
12DB
330
E
100
AcDbSymbolTableRecord
100
AcDbLinetypeTableRecord
  2
CENTER
 70
     0
  3
Mitte ____ _ ____ _ ____ _ ____ _ ____ _ ____
 72
    65
 73
     4
 40
2.0
 49
1.25
 74
     0
 49
-0.25
 74
     0
 49
0.25
 74
     0
 49
-0.25
 74
     0
  0
ENDTAB
  0
TABLE
  2
LAYER
  5
B
330
0
100
AcDbSymbolTable
 70
     5
  0
LAYER
  5
5
102
{ACAD_XDICTIONARY
360
1455
102
}
330
B
100
AcDbSymbolTableRecord
100
AcDbLayerTableRecord
  2
0
 70
     0
 62
     7
  6
CONTINUOUS
370
    -3
390
30B
  0
LAYER
  5
21
102
{ACAD_XDICTIONARY
360
1457
102
}
330
B
100
AcDbSymbolTableRecord
100
AcDbLayerTableRecord
  2
BEM
 70
     1
 62
     1
  6
CONTINUOUS
370
    -3
390
30B
  0
LAYER
  5
3D
102
{ACAD_XDICTIONARY
360
1459
102
}
330
B
100
AcDbSymbolTableRecord
100
AcDbLayerTableRecord
  2
MITTE
 70
     0
 62
     6
  6
MITTE
370
    -3
390
30B
  0
LAYER
  5
62
102
{ACAD_XDICTIONARY
360
145B
102
}
330
B
100
AcDbSymbolTableRecord
100
AcDbLayerTableRecord
  2
LINIE
 70
     0
 62
     6
  6
CONTINUOUS
370
    -3
390
30B
  0
LAYER
  5
2A
330
B
100
AcDbSymbolTableRecord
100
AcDbLayerTableRecord
  2
Defpoints
 70
     0
 62
     7
  6
CONTINUOUS
290
     0
370
    -3
390
30B
  0
ENDTAB
  0
TABLE
  2
STYLE
  5
C
330
0
100
AcDbSymbolTable
 70
    14
  0
STYLE
  5
D
330
C
100
AcDbSymbolTableRecord
100
AcDbTextStyleTableRecord
  2
STANDARD
 70
     0
 40
0.0
 41
1.0
 50
0.0
 71
     0
 42
10.0
  3
romans.shx
  4

  0
STYLE
  5
2DD
330
C
100
AcDbSymbolTableRecord
100
AcDbTextStyleTableRecord
  2
ACJISTS
 70
     0
 40
1.0
 41
1.0
 50
0.0
 71
     0
 42
10.0
  3
isocp.shx
  4
bigfont.shx
  0
STYLE
  5
2DE
330
C
100
AcDbSymbolTableRecord
100
AcDbTextStyleTableRecord
  2
ACJISGDT
 70
     0
 40
0.0
 41
1.0
 50
0.0
 71
     0
 42
10.0
  3
amgdt.shx
  4

  0
STYLE
  5
2E1
330
C
100
AcDbSymbolTableRecord
100
AcDbTextStyleTableRecord
  2
ACANSTSB
 70
     0
 40
1.0
 41
1.0
 50
0.0
 71
     0
 42
10.0
  3
romans.shx
  4

  0
STYLE
  5
2E2
330
C
100
AcDbSymbolTableRecord
100
AcDbTextStyleTableRecord
  2
ACANSGDT
 70
     0
 40
0.0
 41
1.0
 50
0.0
 71
     0
 42
10.0
  3
amgdt.shx
  4

  0
STYLE
  5
2E5
330
C
100
AcDbSymbolTableRecord
100
AcDbTextStyleTableRecord
  2
ACBSITS
 70
     0
 40
1.0
 41
1.0
 50
0.0
 71
     0
 42
10.0
  3
isocp.shx
  4

  0
STYLE
  5
2E6
330
C
100
AcDbSymbolTableRecord
100
AcDbTextStyleTableRecord
  2
ACBSIGDT
 70
     0
 40
0.0
 41
1.0
 50
0.0
 71
     0
 42
10.0
  3
amgdt.shx
  4

  0
STYLE
  5
2EA
330
C
100
AcDbSymbolTableRecord
100
AcDbTextStyleTableRecord
  2
ACDINTS
 70
     0
 40
1.0
 41
1.0
 50
0.0
 71
     0
 42
10.0
  3
isocp.shx
  4

  0
STYLE
  5
2EB
330
C
100
AcDbSymbolTableRecord
100
AcDbTextStyleTableRecord
  2
ACDINGDT
 70
     0
 40
0.0
 41
1.0
 50
0.0
 71
     0
 42
10.0
  3
amgdt.shx
  4

  0
STYLE
  5
2EF
330
C
100
AcDbSymbolTableRecord
100
AcDbTextStyleTableRecord
  2
ACISOTS
 70
     0
 40
1.0
 41
1.0
 50
0.0
 71
     0
 42
10.0
  3
isocp.shx
  4

  0
STYLE
  5
2F0
330
C
100
AcDbSymbolTableRecord
100
AcDbTextStyleTableRecord
  2
ACISOGDT
 70
     0
 40
0.0
 41
1.0
 50
0.0
 71
     0
 42
10.0
  3
amgdt.shx
  4

  0
STYLE
  5
33A
330
C
100
AcDbSymbolTableRecord
100
AcDbTextStyleTableRecord
  2

 70
     1
 40
0.0
 41
1.0
 50
0.0
 71
     0
 42
10.0
  3
ltypeshp.shx
  4

  0
ENDTAB
  0
TABLE
  2
VIEW
  5
11
330
0
100
AcDbSymbolTable
 70
     0
  0
ENDTAB
  0
TABLE
  2
UCS
  5
12
330
0
100
AcDbSymbolTable
 70
     0
  0
ENDTAB
  0
TABLE
  2
APPID
  5
15
330
0
100
AcDbSymbolTable
 70
    13
  0
APPID
  5
16
330
15
100
AcDbSymbolTableRecord
100
AcDbRegAppTableRecord
  2
ACAD
 70
     0
  0
APPID
  5
2BA
330
15
100
AcDbSymbolTableRecord
100
AcDbRegAppTableRecord
  2
MCAD_NO_VIS
 70
     0
  0
APPID
  5
31A
330
15
100
AcDbSymbolTableRecord
100
AcDbRegAppTableRecord
  2
ACAD_TEMP_GRAPHIC
 70
     0
  0
APPID
  5
B0A
330
15
100
AcDbSymbolTableRecord
100
AcDbRegAppTableRecord
  2
GENIUS_GENODEF_13
 70
     0
  0
APPID
  5
B0B
330
15
100
AcDbSymbolTableRecord
100
AcDbRegAppTableRecord
  2
GENIUS_GENOBJ-N-FIL_13
 70
     0
  0
APPID
  5
12F0
330
15
100
AcDbSymbolTableRecord
100
AcDbRegAppTableRecord
  2
AD_DRAW
 70
     0
  0
APPID
  5
12F3
330
15
100
AcDbSymbolTableRecord
100
AcDbRegAppTableRecord
  2
ACATTRIBSERVICES
 70
     0
  0
APPID
  5
1311
330
15
100
AcDbSymbolTableRecord
100
AcDbRegAppTableRecord
  2
DESIGNERASSEMBLIES
 70
     0
  0
APPID
  5
1384
330
15
100
AcDbSymbolTableRecord
100
AcDbRegAppTableRecord
  2
ACADM_DIM_EDIT
 70
     0
  0
APPID
  5
1385
330
15
100
AcDbSymbolTableRecord
100
AcDbRegAppTableRecord
  2
AMDT_DM_ADJ
 70
     0
  0
APPID
  5
140E
330
15
100
AcDbSymbolTableRecord
100
AcDbRegAppTableRecord
  2
ACAD_PSEXT
 70
     0
  0
APPID
  5
1435
330
15
100
AcDbSymbolTableRecord
100
AcDbRegAppTableRecord
  2
ACAD_MLEADERVER
 70
     0
  0
APPID
  5
1468
330
15
100
AcDbSymbolTableRecord
100
AcDbRegAppTableRecord
  2
DCO15
 70
     0
  0
ENDTAB
  0
TABLE
  2
DIMSTYLE
  5
17
330
0
100
AcDbSymbolTable
 70
    38
100
AcDbDimStyleTable
 71
     1
340
1D
  0
DIMSTYLE
105
1D
102
{ACAD_REACTORS
330
2F
330
150
330
218
330
20
330
94
330
73
330
161
330
172
330
1C1
330
26B
330
1CE
330
1DB
330
45
330
B0
330
190
330
141
330
22F
330
CF
330
2A1
330
1F9
330
FED
330
1023
330
1009
102
}
330
17
100
AcDbSymbolTableRecord
100
AcDbDimStyleTableRecord
  2
ISO-25
 70
     0
 41
7.0
 42
0.0
 43
7.0
 44
1.25
 73
     0
 74
     0
 77
     1
 78
     8
140
10.0
141
0.0
144
0.5
147
4.0
172
     1
176
   256
177
   256
178
   256
284
     8
288
     1
340
D
  0
DIMSTYLE
105
CE
330
17
100
AcDbSymbolTableRecord
100
AcDbDimStyleTableRecord
  2
STANDARD
 70
     0
  4
"
 41
7.0
 42
0.0
 43
7.0
 44
1.25
 47
0.1
 48
0.1
 73
     0
 74
     0
 77
     1
 78
     8
140
10.0
141
0.0
143
0.0393701
144
0.5
147
4.0
172
     1
176
   256
177
   256
178
   256
271
     2
272
     3
274
     4
283
     0
284
     8
288
     1
340
D
  0
DIMSTYLE
105
134C
330
17
100
AcDbSymbolTableRecord
100
AcDbDimStyleTableRecord
  2
AM_ANSI
 70
     0
  4
mm
 41
0.1
 42
0.05
 43
0.5
 44
0.1
 47
0.1
 48
0.1
 78
     7
 79
     2
140
0.12
141
0.0
146
0.71
147
0.06
176
   256
177
   256
178
     2
274
     4
284
     7
340
D
371
    -1
372
    -1
  0
DIMSTYLE
105
134D
330
17
100
AcDbSymbolTableRecord
100
AcDbDimStyleTableRecord
  2
AM_ANSI$3
 70
     0
  4
mm
 41
0.1
 42
0.05
 43
0.5
 44
0.1
 47
0.1
 48
0.1
 78
     7
 79
     2
140
0.12
141
0.0
146
0.71
147
0.06
176
   256
177
   256
178
     2
274
     4
284
     7
288
     1
289
     0
340
D
371
    -1
372
    -1
  0
DIMSTYLE
105
134E
330
17
100
AcDbSymbolTableRecord
100
AcDbDimStyleTableRecord
  2
AM_ANSI$4
 70
     0
  4
mm
 41
0.1
 42
0.05
 43
0.5
 44
0.1
 47
0.1
 48
0.1
 78
     7
 79
     2
140
0.12
141
0.0
146
0.71
147
0.06
176
   256
177
   256
178
     2
274
     4
284
     7
288
     1
289
     0
340
D
371
    -1
372
    -1
  0
DIMSTYLE
105
134F
330
17
100
AcDbSymbolTableRecord
100
AcDbDimStyleTableRecord
  2
AM_ANSI$7
 70
     0
  4
mm
 41
0.1
 42
0.05
 43
0.5
 44
0.1
 47
0.1
 48
0.1
 78
     7
 79
     2
140
0.24
141
0.0
146
0.71
147
0.06
176
   256
177
   256
178
     2
274
     4
284
     7
340
D
371
    -1
372
    -1
  0
DIMSTYLE
105
1350
330
17
100
AcDbSymbolTableRecord
100
AcDbDimStyleTableRecord
  2
AM_ANSI$SF
 70
     0
  4
mm
 41
0.1
 42
0.05
 43
0.5
 44
0.1
 47
0.1
 48
0.1
 75
     1
 76
     1
 78
     7
 79
     2
140
0.12
141
0.0
146
0.71
147
0.06
176
   256
177
   256
178
     2
274
     4
284
     7
340
D
371
    -1
372
    -1
  0
DIMSTYLE
105
1355
330
17
100
AcDbSymbolTableRecord
100
AcDbDimStyleTableRecord
  2
AM_ANSI$SH
 70
     0
  4
mm
 41
0.1
 42
0.05
 43
0.5
 44
0.1
 47
0.1
 48
0.1
 75
     1
 76
     1
 78
     7
 79
     2
140
0.12
141
0.0
146
0.71
147
0.06
173
     1
176
   256
177
   256
178
     2
274
     4
284
     7
340
D
343
1351
371
    -1
372
    -1
  0
DIMSTYLE
105
1358
330
17
100
AcDbSymbolTableRecord
100
AcDbDimStyleTableRecord
  2
AM_BSI
 70
     0
  4
mm
 41
0.1574803149606299
 42
0.05
 43
0.5
 44
0.1
 47
0.1
 48
0.1
 73
     0
 74
     0
 77
     1
 78
     7
 79
     2
140
0.12
141
0.0
146
0.71
147
0.06
172
     1
176
   256
177
   256
178
     2
274
     4
283
     0
284
     7
340
D
371
    -1
372
    -1
  0
DIMSTYLE
105
1359
330
17
100
AcDbSymbolTableRecord
100
AcDbDimStyleTableRecord
  2
AM_BSI$3
 70
     0
  4
mm
 41
0.1574803149606299
 42
0.05
 43
0.5
 44
0.1
 47
0.1
 48
0.1
 73
     0
 77
     1
 78
     7
 79
     2
140
0.12
141
0.0
146
0.71
147
0.06
176
   256
177
   256
178
     2
274
     4
283
     0
284
     7
288
     1
289
     0
340
D
371
    -1
372
    -1
  0
DIMSTYLE
105
135A
330
17
100
AcDbSymbolTableRecord
100
AcDbDimStyleTableRecord
  2
AM_BSI$4
 70
     0
  4
mm
 41
0.1574803149606299
 42
0.05
 43
0.5
 44
0.1
 47
0.1
 48
0.1
 73
     0
 77
     1
 78
     7
 79
     2
140
0.12
141
0.0
146
0.71
147
0.06
176
   256
177
   256
178
     2
274
     4
283
     0
284
     7
288
     1
289
     0
340
D
371
    -1
372
    -1
  0
DIMSTYLE
105
135B
330
17
100
AcDbSymbolTableRecord
100
AcDbDimStyleTableRecord
  2
AM_BSI$6
 70
     0
  4
mm
 41
0.1574803149606299
 42
0.05
 43
0.5
 44
0.1
 47
0.1
 48
0.1
 73
     0
 74
     0
 78
     7
 79
     2
140
0.12
141
0.0
146
0.71
147
0.06
172
     1
176
   256
177
   256
178
     2
274
     4
283
     0
284
     7
340
D
371
    -1
372
    -1
  0
DIMSTYLE
105
135C
330
17
100
AcDbSymbolTableRecord
100
AcDbDimStyleTableRecord
  2
AM_BSI$7
 70
     0
  4
mm
 41
0.1
 42
0.05
 43
0.5
 44
0.1
 47
0.1
 48
0.1
 73
     0
 74
     0
 77
     1
 78
     7
 79
     2
140
0.24
141
0.0
146
0.71
147
0.06
172
     1
176
   256
177
   256
178
     2
274
     4
283
     0
284
     7
340
D
371
    -1
372
    -1
  0
DIMSTYLE
105
135D
330
17
100
AcDbSymbolTableRecord
100
AcDbDimStyleTableRecord
  2
AM_BSI$SF
 70
     0
  4
mm
 41
0.1574803149606299
 42
0.05
 43
0.5
 44
0.1
 47
0.1
 48
0.1
 73
     0
 74
     0
 75
     1
 76
     1
 77
     1
 78
     7
 79
     2
140
0.12
141
0.0
146
0.71
147
0.06
172
     1
176
   256
177
   256
178
     2
274
     4
283
     0
284
     7
340
D
371
    -1
372
    -1
  0
DIMSTYLE
105
135E
330
17
100
AcDbSymbolTableRecord
100
AcDbDimStyleTableRecord
  2
AM_BSI$SH
 70
     0
  4
mm
 41
0.1574803149606299
 42
0.05
 43
0.5
 44
0.1
 47
0.1
 48
0.1
 73
     0
 74
     0
 75
     1
 76
     1
 77
     1
 78
     7
 79
     2
140
0.12
141
0.0
144
2.0
146
0.71
147
0.06
172
     1
173
     1
176
   256
177
   256
178
     2
274
     4
283
     0
284
     7
340
D
343
1351
371
    -1
372
    -1
  0
DIMSTYLE
105
1361
330
17
100
AcDbSymbolTableRecord
100
AcDbDimStyleTableRecord
  2
AM_DIN
 70
     0
  4
mm
 41
0.1
 42
0.05
 43
0.5
 44
0.1
 47
0.1
 48
0.1
 73
     0
 74
     0
 77
     1
 78
     7
 79
     2
140
0.12
141
0.0
146
0.71
147
0.06
172
     1
176
   256
177
   256
178
     2
274
     4
283
     0
284
     7
340
D
371
    -1
372
    -1
  0
DIMSTYLE
105
1362
330
17
100
AcDbSymbolTableRecord
100
AcDbDimStyleTableRecord
  2
AM_DIN$3
 70
     0
  4
mm
 41
0.1
 42
0.05
 43
0.5
 44
0.1
 47
0.1
 48
0.1
 73
     0
 77
     1
 78
     7
 79
     2
140
0.12
141
0.0
146
0.71
147
0.06
176
   256
177
   256
178
     2
274
     4
283
     0
284
     7
288
     1
289
     0
340
D
371
    -1
372
    -1
  0
DIMSTYLE
105
1363
330
17
100
AcDbSymbolTableRecord
100
AcDbDimStyleTableRecord
  2
AM_DIN$4
 70
     0
  4
mm
 41
0.1
 42
0.05
 43
0.5
 44
0.1
 47
0.1
 48
0.1
 73
     0
 77
     1
 78
     7
 79
     2
140
0.12
141
0.0
146
0.71
147
0.06
176
   256
177
   256
178
     2
274
     4
283
     0
284
     7
288
     1
289
     0
340
D
371
    -1
372
    -1
  0
DIMSTYLE
105
1364
330
17
100
AcDbSymbolTableRecord
100
AcDbDimStyleTableRecord
  2
AM_DIN$6
 70
     0
  4
mm
 41
0.1
 42
0.05
 43
0.5
 44
0.1
 47
0.1
 48
0.1
 73
     0
 74
     0
 78
     7
 79
     2
140
0.12
141
0.0
146
0.71
147
0.06
172
     1
176
   256
177
   256
178
     2
274
     4
283
     0
284
     7
340
D
371
    -1
372
    -1
  0
DIMSTYLE
105
1365
330
17
100
AcDbSymbolTableRecord
100
AcDbDimStyleTableRecord
  2
AM_DIN$7
 70
     0
  4
mm
 41
0.1
 42
0.05
 43
0.5
 44
0.1
 47
0.1
 48
0.1
 73
     0
 74
     0
 77
     1
 78
     7
 79
     2
140
0.24
141
0.0
146
0.71
147
0.06
172
     1
176
   256
177
   256
178
     2
274
     4
283
     0
284
     7
340
D
371
    -1
372
    -1
  0
DIMSTYLE
105
1366
330
17
100
AcDbSymbolTableRecord
100
AcDbDimStyleTableRecord
  2
AM_DIN$SF
 70
     0
  4
mm
 41
0.1
 42
0.05
 43
0.5
 44
0.1
 47
0.1
 48
0.1
 73
     0
 74
     0
 75
     1
 76
     1
 77
     1
 78
     7
 79
     2
140
0.12
141
0.0
146
0.71
147
0.06
172
     1
176
   256
177
   256
178
     2
274
     4
283
     0
284
     7
340
D
371
    -1
372
    -1
  0
DIMSTYLE
105
1367
330
17
100
AcDbSymbolTableRecord
100
AcDbDimStyleTableRecord
  2
AM_DIN$SH
 70
     0
  4
mm
 41
0.1
 42
0.05
 43
0.5
 44
0.1
 47
0.1
 48
0.1
 73
     0
 74
     0
 75
     1
 76
     1
 77
     1
 78
     7
 79
     2
140
0.12
141
0.0
144
2.0
146
0.71
147
0.06
172
     1
173
     1
176
   256
177
   256
178
     2
274
     4
283
     0
284
     7
340
D
343
1351
371
    -1
372
    -1
  0
DIMSTYLE
105
136A
330
17
100
AcDbSymbolTableRecord
100
AcDbDimStyleTableRecord
  2
AM_ISO
 70
     0
  4
mm
 41
0.1
 42
0.05
 43
0.5
 44
0.1
 47
0.1
 48
0.1
 73
     0
 74
     0
 77
     1
 78
     7
 79
     2
140
0.12
141
0.0
146
0.71
147
0.06
172
     1
176
   256
177
   256
178
     2
274
     4
283
     0
284
     7
340
D
371
    -1
372
    -1
  0
DIMSTYLE
105
136B
330
17
100
AcDbSymbolTableRecord
100
AcDbDimStyleTableRecord
  2
AM_ISO$3
 70
     0
  4
mm
 41
0.1
 42
0.05
 43
0.5
 44
0.1
 47
0.1
 48
0.1
 73
     0
 77
     1
 78
     7
 79
     2
140
0.12
141
0.0
146
0.71
147
0.06
176
   256
177
   256
178
     2
274
     4
283
     0
284
     7
288
     1
289
     0
340
D
371
    -1
372
    -1
  0
DIMSTYLE
105
136C
330
17
100
AcDbSymbolTableRecord
100
AcDbDimStyleTableRecord
  2
AM_ISO$4
 70
     0
  4
mm
 41
0.1
 42
0.05
 43
0.5
 44
0.1
 47
0.1
 48
0.1
 73
     0
 77
     1
 78
     7
 79
     2
140
0.12
141
0.0
146
0.71
147
0.06
176
   256
177
   256
178
     2
274
     4
283
     0
284
     7
288
     1
289
     0
340
D
371
    -1
372
    -1
  0
DIMSTYLE
105
136D
330
17
100
AcDbSymbolTableRecord
100
AcDbDimStyleTableRecord
  2
AM_ISO$6
 70
     0
  4
mm
 41
0.1
 42
0.05
 43
0.5
 44
0.1
 47
0.1
 48
0.1
 73
     0
 74
     0
 78
     7
 79
     2
140
0.12
141
0.0
146
0.71
147
0.06
172
     1
176
   256
177
   256
178
     2
274
     4
283
     0
284
     7
340
D
371
    -1
372
    -1
  0
DIMSTYLE
105
136E
330
17
100
AcDbSymbolTableRecord
100
AcDbDimStyleTableRecord
  2
AM_ISO$7
 70
     0
  4
mm
 41
0.1
 42
0.05
 43
0.5
 44
0.1
 47
0.1
 48
0.1
 73
     0
 74
     0
 77
     1
 78
     7
 79
     2
140
0.24
141
0.0
146
0.71
147
0.06
172
     1
176
   256
177
   256
178
     2
274
     4
283
     0
284
     7
340
D
371
    -1
372
    -1
  0
DIMSTYLE
105
136F
330
17
100
AcDbSymbolTableRecord
100
AcDbDimStyleTableRecord
  2
AM_ISO$SF
 70
     0
  4
mm
 41
0.1
 42
0.05
 43
0.5
 44
0.1
 47
0.1
 48
0.1
 73
     0
 74
     0
 75
     1
 76
     1
 77
     1
 78
     7
 79
     2
140
0.12
141
0.0
146
0.71
147
0.06
172
     1
176
   256
177
   256
178
     2
274
     4
283
     0
284
     7
340
D
371
    -1
372
    -1
  0
DIMSTYLE
105
1370
330
17
100
AcDbSymbolTableRecord
100
AcDbDimStyleTableRecord
  2
AM_ISO$SH
 70
     0
  4
mm
 41
0.1
 42
0.05
 43
0.5
 44
0.1
 47
0.1
 48
0.1
 73
     0
 74
     0
 75
     1
 76
     1
 77
     1
 78
     7
 79
     2
140
0.12
141
0.0
144
2.0
146
0.71
147
0.06
172
     1
173
     1
176
   256
177
   256
178
     2
274
     4
283
     0
284
     7
340
D
343
1351
371
    -1
372
    -1
  0
DIMSTYLE
105
1373
330
17
100
AcDbSymbolTableRecord
100
AcDbDimStyleTableRecord
  2
AM_JIS
 70
     0
  4
mm
 41
0.1
 42
0.05
 43
0.5
 44
0.1
 47
0.1
 48
0.1
 73
     0
 74
     0
 77
     3
 78
     7
 79
     2
140
0.12
141
0.0
146
0.71
147
0.06
172
     1
176
   256
177
   256
178
     2
274
     4
283
     0
284
     7
340
D
341
1374
342
1374
343
1374
344
1374
371
    -1
372
    -1
  0
DIMSTYLE
105
137A
330
17
100
AcDbSymbolTableRecord
100
AcDbDimStyleTableRecord
  2
AM_JIS$3
 70
     0
  4
mm
 41
0.1
 42
0.05
 43
0.5
 44
0.1
 47
0.1
 48
0.1
 73
     0
 77
     3
 78
     7
 79
     2
140
0.12
141
0.0
146
0.71
147
0.06
176
   256
177
   256
178
     2
274
     4
283
     0
284
     7
288
     1
289
     0
340
D
341
1374
342
1374
343
1374
344
1374
371
    -1
372
    -1
  0
DIMSTYLE
105
137B
330
17
100
AcDbSymbolTableRecord
100
AcDbDimStyleTableRecord
  2
AM_JIS$4
 70
     0
  4
mm
 41
0.1
 42
0.05
 43
0.5
 44
0.1
 47
0.1
 48
0.1
 73
     0
 77
     3
 78
     7
 79
     2
140
0.12
141
0.0
146
0.71
147
0.06
176
   256
177
   256
178
     2
274
     4
283
     0
284
     7
288
     1
289
     0
340
D
341
1374
342
1374
343
1374
344
1374
371
    -1
372
    -1
  0
DIMSTYLE
105
137C
330
17
100
AcDbSymbolTableRecord
100
AcDbDimStyleTableRecord
  2
AM_JIS$6
 70
     0
  4
mm
 41
0.1
 42
0.05
 43
0.5
 44
0.1
 47
0.1
 48
0.1
 73
     0
 74
     0
 78
     7
 79
     2
140
0.12
141
0.0
146
0.71
147
0.06
172
     1
176
   256
177
   256
178
     2
274
     4
283
     0
284
     7
340
D
341
1374
342
1374
343
1374
344
1374
371
    -1
372
    -1
  0
DIMSTYLE
105
137D
330
17
100
AcDbSymbolTableRecord
100
AcDbDimStyleTableRecord
  2
AM_JIS$7
 70
     0
  4
mm
 41
0.1
 42
0.05
 43
0.5
 44
0.1
 47
0.1
 48
0.1
 73
     0
 74
     0
 77
     3
 78
     7
 79
     2
140
0.24
141
0.0
146
0.71
147
0.06
172
     1
176
   256
177
   256
178
     2
274
     4
283
     0
284
     7
340
D
341
1374
342
1374
343
1374
344
1374
371
    -1
372
    -1
  0
DIMSTYLE
105
137E
330
17
100
AcDbSymbolTableRecord
100
AcDbDimStyleTableRecord
  2
AM_JIS$SF
 70
     0
  4
mm
 41
0.1
 42
0.05
 43
0.5
 44
0.1
 47
0.1
 48
0.1
 73
     0
 74
     0
 75
     1
 76
     1
 77
     3
 78
     7
 79
     2
140
0.12
141
0.0
146
0.71
147
0.06
172
     1
176
   256
177
   256
178
     2
274
     4
283
     0
284
     7
340
D
341
1374
342
1374
343
1374
344
1374
371
    -1
372
    -1
  0
DIMSTYLE
105
137F
330
17
100
AcDbSymbolTableRecord
100
AcDbDimStyleTableRecord
  2
AM_JIS$SH
 70
     0
  4
mm
 41
0.1
 42
0.05
 43
0.5
 44
0.1
 47
0.1
 48
0.1
 73
     0
 74
     0
 75
     1
 76
     1
 77
     3
 78
     7
 79
     2
140
0.12
141
0.0
144
2.0
146
0.71
147
0.06
172
     1
173
     1
176
   256
177
   256
178
     2
274
     4
283
     0
284
     7
340
D
341
1374
342
1374
343
1351
344
1374
371
    -1
372
    -1
  0
ENDTAB
  0
TABLE
  2
BLOCK_RECORD
  5
1
330
0
100
AcDbSymbolTable
 70
    31
  0
BLOCK_RECORD
  5
2
102
{ACAD_XDICTIONARY
360
3
102
}
330
1
100
AcDbSymbolTableRecord
100
AcDbBlockTableRecord
  2
*MODEL_SPACE
340
30E
  0
BLOCK_RECORD
  5
8
330
1
100
AcDbSymbolTableRecord
100
AcDbBlockTableRecord
  2
*PAPER_SPACE
340
30F
  0
BLOCK_RECORD
  5
37A
330
1
100
AcDbSymbolTableRecord
100
AcDbBlockTableRecord
  2
*D0
340
0
  0
BLOCK_RECORD
  5
386
330
1
100
AcDbSymbolTableRecord
100
AcDbBlockTableRecord
  2
*D1
340
0
  0
BLOCK_RECORD
  5
392
330
1
100
AcDbSymbolTableRecord
100
AcDbBlockTableRecord
  2
*D2
340
0
  0
BLOCK_RECORD
  5
3AA
330
1
100
AcDbSymbolTableRecord
100
AcDbBlockTableRecord
  2
*D3
340
0
  0
BLOCK_RECORD
  5
3C4
330
1
100
AcDbSymbolTableRecord
100
AcDbBlockTableRecord
  2
*D4
340
0
  0
BLOCK_RECORD
  5
3D0
330
1
100
AcDbSymbolTableRecord
100
AcDbBlockTableRecord
  2
*D5
340
0
  0
BLOCK_RECORD
  5
3DE
330
1
100
AcDbSymbolTableRecord
100
AcDbBlockTableRecord
  2
*D6
340
0
  0
BLOCK_RECORD
  5
3EC
330
1
100
AcDbSymbolTableRecord
100
AcDbBlockTableRecord
  2
*D7
340
0
  0
BLOCK_RECORD
  5
3F8
330
1
100
AcDbSymbolTableRecord
100
AcDbBlockTableRecord
  2
*D8
340
0
  0
BLOCK_RECORD
  5
406
330
1
100
AcDbSymbolTableRecord
100
AcDbBlockTableRecord
  2
*D9
340
0
  0
BLOCK_RECORD
  5
412
330
1
100
AcDbSymbolTableRecord
100
AcDbBlockTableRecord
  2
*D10
340
0
  0
BLOCK_RECORD
  5
41E
330
1
100
AcDbSymbolTableRecord
100
AcDbBlockTableRecord
  2
*D11
340
0
  0
BLOCK_RECORD
  5
426
330
1
100
AcDbSymbolTableRecord
100
AcDbBlockTableRecord
  2
*D12
340
0
  0
BLOCK_RECORD
  5
440
330
1
100
AcDbSymbolTableRecord
100
AcDbBlockTableRecord
  2
*D13
340
0
  0
BLOCK_RECORD
  5
44C
330
1
100
AcDbSymbolTableRecord
100
AcDbBlockTableRecord
  2
*D14
340
0
  0
BLOCK_RECORD
  5
458
330
1
100
AcDbSymbolTableRecord
100
AcDbBlockTableRecord
  2
*D15
340
0
  0
BLOCK_RECORD
  5
464
330
1
100
AcDbSymbolTableRecord
100
AcDbBlockTableRecord
  2
*D16
340
0
  0
BLOCK_RECORD
  5
470
330
1
100
AcDbSymbolTableRecord
100
AcDbBlockTableRecord
  2
*D17
340
0
  0
BLOCK_RECORD
  5
489
330
1
100
AcDbSymbolTableRecord
100
AcDbBlockTableRecord
  2
*D18
340
0
  0
BLOCK_RECORD
  5
495
330
1
100
AcDbSymbolTableRecord
100
AcDbBlockTableRecord
  2
*D19
340
0
  0
BLOCK_RECORD
  5
FEE
330
1
100
AcDbSymbolTableRecord
100
AcDbBlockTableRecord
  2
*D20
340
0
  0
BLOCK_RECORD
  5
100A
330
1
100
AcDbSymbolTableRecord
100
AcDbBlockTableRecord
  2
*D21
340
0
  0
BLOCK_RECORD
  5
1024
330
1
100
AcDbSymbolTableRecord
100
AcDbBlockTableRecord
  2
*D22
340
0
  0
BLOCK_RECORD
  5
1351
330
1
100
AcDbSymbolTableRecord
100
AcDbBlockTableRecord
  2
GENAXEH
340
0
  0
BLOCK_RECORD
  5
1374
330
1
100
AcDbSymbolTableRecord
100
AcDbBlockTableRecord
  2
_Open30
340
0
  0
ENDTAB
  0
ENDSEC
  0
SECTION
  2
BLOCKS
  0
BLOCK
  5
4
330
2
100
AcDbEntity
  8
0
100
AcDbBlockBegin
  2
*MODEL_SPACE
 70
     0
 10
0.0
 20
0.0
 30
0.0
  3
*MODEL_SPACE
  1

  0
ENDBLK
  5
7
330
2
100
AcDbEntity
  8
0
100
AcDbBlockEnd
  0
BLOCK
  5
9
330
8
100
AcDbEntity
 67
     1
  8
0
100
AcDbBlockBegin
  2
*PAPER_SPACE
 70
     0
 10
0.0
 20
0.0
 30
0.0
  3
*PAPER_SPACE
  1

  0
ENDBLK
  5
A
330
8
100
AcDbEntity
 67
     1
  8
0
100
AcDbBlockEnd
  0
BLOCK
  5
384
330
37A
100
AcDbEntity
  8
0
 48
10.0
100
AcDbBlockBegin
  2
*D0
 70
     1
 10
0.0
 20
0.0
 30
0.0
  3
*D0
  1

  0
LINE
  5
15B8
330
37A
100
AcDbEntity
  8
BEM
370
    -2
100
AcDbLine
 10
720.0998718634522
 20
355.8819978773226
 30
0.0
 11
720.0998718634522
 21
569.8567575998756
 31
0.0
  0
LINE
  5
15B9
330
37A
100
AcDbEntity
  8
BEM
370
    -2
100
AcDbLine
 10
424.699871863452
 20
495.8116367012581
 30
0.0
 11
424.699871863452
 21
569.8567575998756
 31
0.0
  0
LINE
  5
15BA
330
37A
100
AcDbEntity
  8
BEM
370
    -2
100
AcDbLine
 10
713.0998718634522
 20
568.6067575998756
 30
0.0
 11
431.699871863452
 21
568.6067575998756
 31
0.0
  0
SOLID
  5
15BB
330
37A
100
AcDbEntity
  8
BEM
100
AcDbTrace
 10
713.0998718634522
 20
569.7734242665423
 30
0.0
 11
713.0998718634522
 21
567.440090933209
 31
0.0
 12
720.0998718634522
 22
568.6067575998756
 32
0.0
 13
720.0998718634522
 23
568.6067575998756
 33
0.0
  0
SOLID
  5
15BC
330
37A
100
AcDbEntity
  8
BEM
100
AcDbTrace
 10
431.699871863452
 20
569.7734242665423
 30
0.0
 11
431.699871863452
 21
567.440090933209
 31
0.0
 12
424.699871863452
 22
568.6067575998756
 32
0.0
 13
424.699871863452
 23
568.6067575998756
 33
0.0
  0
MTEXT
  5
15BD
330
37A
100
AcDbEntity
  8
BEM
100
AcDbMText
 10
572.399871863452
 20
577.6067575998756
 30
0.0
 40
10.0
 41
0.0
 71
     5
 72
     1
  1
\A1;295.5
 73
     1
 44
1.0
  0
POINT
  5
15BE
330
37A
100
AcDbEntity
  8
Defpoints
 62
     0
100
AcDbPoint
 10
720.0998718634522
 20
355.8819978773226
 30
0.0
  0
POINT
  5
15BF
330
37A
100
AcDbEntity
  8
Defpoints
 62
     0
100
AcDbPoint
 10
424.699871863452
 20
495.8116367012581
 30
0.0
  0
POINT
  5
15C0
330
37A
100
AcDbEntity
  8
Defpoints
 62
     0
100
AcDbPoint
 10
424.699871863452
 20
568.6067575998756
 30
0.0
  0
ENDBLK
  5
385
330
37A
100
AcDbEntity
  8
0
 48
10.0
100
AcDbBlockEnd
  0
BLOCK
  5
390
330
386
100
AcDbEntity
  8
0
 48
10.0
100
AcDbBlockBegin
  2
*D1
 70
     1
 10
0.0
 20
0.0
 30
0.0
  3
*D1
  1

  0
LINE
  5
15AF
330
386
100
AcDbEntity
  8
BEM
370
    -2
100
AcDbLine
 10
647.5998718634523
 20
289.4148067550846
 30
0.0
 11
647.5998718634523
 21
194.8872320040707
 31
0.0
  0
LINE
  5
15B0
330
386
100
AcDbEntity
  8
BEM
370
    -2
100
AcDbLine
 10
424.6998718634521
 20
315.8116367012582
 30
0.0
 11
424.6998718634521
 21
194.8872320040707
 31
0.0
  0
LINE
  5
15B1
330
386
100
AcDbEntity
  8
BEM
370
    -2
100
AcDbLine
 10
640.5998718634523
 20
196.1372320040707
 30
0.0
 11
431.6998718634521
 21
196.1372320040707
 31
0.0
  0
SOLID
  5
15B2
330
386
100
AcDbEntity
  8
BEM
100
AcDbTrace
 10
640.5998718634523
 20
197.3038986707373
 30
0.0
 11
640.5998718634523
 21
194.970565337404
 31
0.0
 12
647.5998718634523
 22
196.1372320040707
 32
0.0
 13
647.5998718634523
 23
196.1372320040707
 33
0.0
  0
SOLID
  5
15B3
330
386
100
AcDbEntity
  8
BEM
100
AcDbTrace
 10
431.6998718634521
 20
197.3038986707373
 30
0.0
 11
431.6998718634521
 21
194.970565337404
 31
0.0
 12
424.6998718634521
 22
196.1372320040707
 32
0.0
 13
424.6998718634521
 23
196.1372320040707
 33
0.0
  0
MTEXT
  5
15B4
330
386
100
AcDbEntity
  8
BEM
100
AcDbMText
 10
536.1498718634522
 20
205.1372320040707
 30
0.0
 40
10.0
 41
0.0
 71
     5
 72
     1
  1
\A1;223
 73
     1
 44
1.0
  0
POINT
  5
15B5
330
386
100
AcDbEntity
  8
Defpoints
 62
     0
100
AcDbPoint
 10
647.5998718634523
 20
289.4148067550846
 30
0.0
  0
POINT
  5
15B6
330
386
100
AcDbEntity
  8
Defpoints
 62
     0
100
AcDbPoint
 10
424.6998718634521
 20
315.8116367012582
 30
0.0
  0
POINT
  5
15B7
330
386
100
AcDbEntity
  8
Defpoints
 62
     0
100
AcDbPoint
 10
424.6998718634521
 20
196.1372320040707
 30
0.0
  0
ENDBLK
  5
391
330
386
100
AcDbEntity
  8
0
 48
10.0
100
AcDbBlockEnd
  0
BLOCK
  5
39C
330
392
100
AcDbEntity
  8
0
 48
10.0
100
AcDbBlockBegin
  2
*D2
 70
     1
 10
0.0
 20
0.0
 30
0.0
  3
*D2
  1

  0
LINE
  5
1684
330
392
100
AcDbEntity
  8
BEM
370
    -2
100
AcDbLine
 10
424.699871863452
 20
495.8116367012581
 30
0.0
 11
361.7377355996305
 21
495.8116367012581
 31
0.0
  0
LINE
  5
1685
330
392
100
AcDbEntity
  8
BEM
370
    -2
100
AcDbLine
 10
424.6998718634521
 20
315.8116367012582
 30
0.0
 11
262.4701887423121
 21
315.8116367012582
 31
0.0
  0
LINE
  5
1686
330
392
100
AcDbEntity
  8
BEM
370
    -2
100
AcDbLine
 10
263.7201887423121
 20
488.8116367012582
 30
0.0
 11
263.7201887423121
 21
322.8116367012582
 31
0.0
  0
SOLID
  5
1687
330
392
100
AcDbEntity
  8
BEM
100
AcDbTrace
 10
262.5535220756455
 20
488.8116367012582
 30
0.0
 11
264.8868554089788
 21
488.8116367012582
 31
0.0
 12
263.7201887423121
 22
495.8116367012582
 32
0.0
 13
263.7201887423121
 23
495.8116367012582
 33
0.0
  0
SOLID
  5
1688
330
392
100
AcDbEntity
  8
BEM
100
AcDbTrace
 10
262.5535220756454
 20
322.8116367012582
 30
0.0
 11
264.8868554089788
 21
322.8116367012582
 31
0.0
 12
263.7201887423121
 22
315.8116367012582
 32
0.0
 13
263.7201887423121
 23
315.8116367012582
 33
0.0
  0
MTEXT
  5
1689
330
392
100
AcDbEntity
  8
BEM
100
AcDbMText
 10
254.7201887423121
 20
405.8116367012583
 30
0.0
 40
10.0
 41
0.0
 71
     5
 72
     1
  1
\A1;%%c180
 11
0.0000000000000001
 21
1.0
 31
0.0
 73
     1
 44
1.0
  0
POINT
  5
168A
330
392
100
AcDbEntity
  8
Defpoints
 62
     0
100
AcDbPoint
 10
424.699871863452
 20
495.8116367012581
 30
0.0
  0
POINT
  5
168B
330
392
100
AcDbEntity
  8
Defpoints
 62
     0
100
AcDbPoint
 10
424.6998718634521
 20
315.8116367012582
 30
0.0
  0
POINT
  5
168C
330
392
100
AcDbEntity
  8
Defpoints
 62
     0
100
AcDbPoint
 10
263.7201887423121
 20
315.8116367012582
 30
0.0
  0
LINE
  5
168D
330
392
100
AcDbEntity
  8
BEM
370
    -2
100
AcDbLine
 10
338.0290084862559
 20
495.8116367012582
 30
0.0
 11
262.4701887423121
 21
495.8116367012582
 31
0.0
  0
ENDBLK
  5
39D
330
392
100
AcDbEntity
  8
0
 48
10.0
100
AcDbBlockEnd
  0
BLOCK
  5
3B6
330
3AA
100
AcDbEntity
  8
0
 48
10.0
100
AcDbBlockBegin
  2
*D3
 70
     1
 10
0.0
 20
0.0
 30
0.0
  3
*D3
  1

  0
LINE
  5
15C1
330
3AA
100
AcDbEntity
  8
BEM
370
    -2
100
AcDbLine
 10
429.6998718634522
 20
343.5116367012582
 30
0.0
 11
429.6998718634522
 21
273.1279494388407
 31
0.0
  0
LINE
  5
15C2
330
3AA
100
AcDbEntity
  8
BEM
370
    -2
100
AcDbLine
 10
424.6998718634521
 20
315.8116367012582
 30
0.0
 11
424.6998718634521
 21
273.1279494388407
 31
0.0
  0
LINE
  5
15C3
330
3AA
100
AcDbEntity
  8
BEM
370
    -2
100
AcDbLine
 10
417.699871863452
 20
274.3779494388407
 30
0.0
 11
410.6998718634521
 21
274.3779494388407
 31
0.0
  0
LINE
  5
15C4
330
3AA
100
AcDbEntity
  8
BEM
370
    -2
100
AcDbLine
 10
436.6998718634522
 20
274.3779494388407
 30
0.0
 11
458.3665385301189
 21
274.3779494388407
 31
0.0
  0
LINE
  5
15C5
330
3AA
100
AcDbEntity
  8
BEM
370
    -2
100
AcDbLine
 10
424.6998718634521
 20
274.3779494388407
 30
0.0
 11
429.6998718634522
 21
274.3779494388407
 31
0.0
  0
SOLID
  5
15C6
330
3AA
100
AcDbEntity
  8
BEM
100
AcDbTrace
 10
417.699871863452
 20
275.5446161055074
 30
0.0
 11
417.699871863452
 21
273.211282772174
 31
0.0
 12
424.6998718634521
 22
274.3779494388407
 32
0.0
 13
424.6998718634521
 23
274.3779494388407
 33
0.0
  0
SOLID
  5
15C7
330
3AA
100
AcDbEntity
  8
BEM
100
AcDbTrace
 10
436.6998718634522
 20
275.5446161055074
 30
0.0
 11
436.6998718634522
 21
273.211282772174
 31
0.0
 12
429.6998718634522
 22
274.3779494388407
 32
0.0
 13
429.6998718634522
 23
274.3779494388407
 33
0.0
  0
MTEXT
  5
15C8
330
3AA
100
AcDbEntity
  8
BEM
100
AcDbMText
 10
451.0332051967856
 20
283.3779494388407
 30
0.0
 40
10.0
 41
0.0
 71
     5
 72
     1
  1
\A1;5
 73
     1
 44
1.0
  0
POINT
  5
15C9
330
3AA
100
AcDbEntity
  8
Defpoints
 62
     0
100
AcDbPoint
 10
429.6998718634522
 20
343.5116367012582
 30
0.0
  0
POINT
  5
15CA
330
3AA
100
AcDbEntity
  8
Defpoints
 62
     0
100
AcDbPoint
 10
424.6998718634521
 20
315.8116367012582
 30
0.0
  0
POINT
  5
15CB
330
3AA
100
AcDbEntity
  8
Defpoints
 62
     0
100
AcDbPoint
 10
424.6998718634521
 20
274.3779494388407
 30
0.0
  0
ENDBLK
  5
3B7
330
3AA
100
AcDbEntity
  8
0
 48
10.0
100
AcDbBlockEnd
  0
BLOCK
  5
3CE
330
3C4
100
AcDbEntity
  8
0
 48
10.0
100
AcDbBlockBegin
  2
*D4
 70
     1
 10
0.0
 20
0.0
 30
0.0
  3
*D4
  1

  0
LINE
  5
15D5
330
3C4
100
AcDbEntity
  8
BEM
370
    -2
100
AcDbLine
 10
167.4401447356747
 20
340.1416577722579
 30
0.0
 11
167.4401447356747
 21
260.8096760269739
 31
0.0
  0
LINE
  5
15D6
330
3C4
100
AcDbEntity
  8
BEM
370
    -2
100
AcDbLine
 10
130.4401447356747
 20
339.9809279153215
 30
0.0
 11
130.4401447356747
 21
260.8096760269739
 31
0.0
  0
LINE
  5
15D7
330
3C4
100
AcDbEntity
  8
BEM
370
    -2
100
AcDbLine
 10
160.4401447356747
 20
262.0596760269739
 30
0.0
 11
137.4401447356747
 21
262.0596760269739
 31
0.0
  0
SOLID
  5
15D8
330
3C4
100
AcDbEntity
  8
BEM
100
AcDbTrace
 10
160.4401447356747
 20
263.2263426936406
 30
0.0
 11
160.4401447356747
 21
260.8930093603072
 31
0.0
 12
167.4401447356747
 22
262.0596760269739
 32
0.0
 13
167.4401447356747
 23
262.0596760269739
 33
0.0
  0
SOLID
  5
15D9
330
3C4
100
AcDbEntity
  8
BEM
100
AcDbTrace
 10
137.4401447356747
 20
263.2263426936406
 30
0.0
 11
137.4401447356747
 21
260.8930093603072
 31
0.0
 12
130.4401447356747
 22
262.0596760269739
 32
0.0
 13
130.4401447356747
 23
262.0596760269739
 33
0.0
  0
MTEXT
  5
15DA
330
3C4
100
AcDbEntity
  8
BEM
100
AcDbMText
 10
148.9401447356747
 20
271.0596760269739
 30
0.0
 40
10.0
 41
0.0
 71
     5
 72
     1
  1
\A1;37
 73
     1
 44
1.0
  0
POINT
  5
15DB
330
3C4
100
AcDbEntity
  8
Defpoints
 62
     0
100
AcDbPoint
 10
167.4401447356747
 20
340.1416577722579
 30
0.0
  0
POINT
  5
15DC
330
3C4
100
AcDbEntity
  8
Defpoints
 62
     0
100
AcDbPoint
 10
130.4401447356747
 20
339.9809279153215
 30
0.0
  0
POINT
  5
15DD
330
3C4
100
AcDbEntity
  8
Defpoints
 62
     0
100
AcDbPoint
 10
130.4401447356747
 20
262.0596760269739
 30
0.0
  0
ENDBLK
  5
3CF
330
3C4
100
AcDbEntity
  8
0
 48
10.0
100
AcDbBlockEnd
  0
BLOCK
  5
3DC
330
3D0
100
AcDbEntity
  8
0
 48
10.0
100
AcDbBlockBegin
  2
*D5
 70
     1
 10
0.0
 20
0.0
 30
0.0
  3
*D5
  1

  0
LINE
  5
15DE
330
3D0
100
AcDbEntity
  8
BEM
370
    -2
100
AcDbLine
 10
424.6998718634522
 20
315.8116367012582
 30
0.0
 11
424.6998718634522
 21
232.2257718399521
 31
0.0
  0
LINE
  5
15DF
330
3D0
100
AcDbEntity
  8
BEM
370
    -2
100
AcDbLine
 10
438.199871863452
 20
317.8116367012582
 30
0.0
 11
438.199871863452
 21
232.2257718399521
 31
0.0
  0
LINE
  5
15E0
330
3D0
100
AcDbEntity
  8
BEM
370
    -2
100
AcDbLine
 10
417.6998718634522
 20
233.4757718399521
 30
0.0
 11
410.6998718634522
 21
233.4757718399521
 31
0.0
  0
LINE
  5
15E1
330
3D0
100
AcDbEntity
  8
BEM
370
    -2
100
AcDbLine
 10
445.199871863452
 20
233.4757718399521
 30
0.0
 11
489.247490911071
 21
233.4757718399521
 31
0.0
  0
LINE
  5
15E2
330
3D0
100
AcDbEntity
  8
BEM
370
    -2
100
AcDbLine
 10
424.6998718634522
 20
233.4757718399521
 30
0.0
 11
438.199871863452
 21
233.4757718399521
 31
0.0
  0
SOLID
  5
15E3
330
3D0
100
AcDbEntity
  8
BEM
100
AcDbTrace
 10
417.6998718634522
 20
234.6424385066188
 30
0.0
 11
417.6998718634522
 21
232.3091051732855
 31
0.0
 12
424.6998718634522
 22
233.4757718399521
 32
0.0
 13
424.6998718634522
 23
233.4757718399521
 33
0.0
  0
SOLID
  5
15E4
330
3D0
100
AcDbEntity
  8
BEM
100
AcDbTrace
 10
445.199871863452
 20
234.6424385066188
 30
0.0
 11
445.199871863452
 21
232.3091051732855
 31
0.0
 12
438.199871863452
 22
233.4757718399521
 32
0.0
 13
438.199871863452
 23
233.4757718399521
 33
0.0
  0
MTEXT
  5
15E5
330
3D0
100
AcDbEntity
  8
BEM
100
AcDbMText
 10
470.7236813872615
 20
242.4757718399521
 30
0.0
 40
10.0
 41
0.0
 71
     5
 72
     1
  1
\A1;13.5
 73
     1
 44
1.0
  0
POINT
  5
15E6
330
3D0
100
AcDbEntity
  8
Defpoints
 62
     0
100
AcDbPoint
 10
424.6998718634522
 20
315.8116367012582
 30
0.0
  0
POINT
  5
15E7
330
3D0
100
AcDbEntity
  8
Defpoints
 62
     0
100
AcDbPoint
 10
438.199871863452
 20
317.8116367012582
 30
0.0
  0
POINT
  5
15E8
330
3D0
100
AcDbEntity
  8
Defpoints
 62
     0
100
AcDbPoint
 10
438.199871863452
 20
233.4757718399521
 30
0.0
  0
ENDBLK
  5
3DD
330
3D0
100
AcDbEntity
  8
0
 48
10.0
100
AcDbBlockEnd
  0
BLOCK
  5
3EA
330
3DE
100
AcDbEntity
  8
0
 48
10.0
100
AcDbBlockBegin
  2
*D6
 70
     1
 10
0.0
 20
0.0
 30
0.0
  3
*D6
  1

  0
LINE
  5
15E9
330
3DE
100
AcDbEntity
  8
BEM
370
    -2
100
AcDbLine
 10
54.49159828336632
 20
405.8116367012582
 30
0.0
 11
25.9416549057674
 21
405.8116367012582
 31
0.0
  0
LINE
  5
15EA
330
3DE
100
AcDbEntity
  8
BEM
370
    -2
100
AcDbLine
 10
88.56401546196162
 20
399.0241335010534
 30
0.0
 11
25.9416549057674
 21
399.0241335010534
 31
0.0
  0
LINE
  5
15EB
330
3DE
100
AcDbEntity
  8
BEM
370
    -2
100
AcDbLine
 10
27.1916549057674
 20
412.8116367012581
 30
0.0
 11
27.1916549057674
 21
419.8116367012581
 31
0.0
  0
LINE
  5
15EC
330
3DE
100
AcDbEntity
  8
BEM
370
    -2
100
AcDbLine
 10
27.1916549057674
 20
392.0241335010534
 30
0.0
 11
27.1916549057674
 21
385.0241335010534
 31
0.0
  0
LINE
  5
15ED
330
3DE
100
AcDbEntity
  8
BEM
370
    -2
100
AcDbLine
 10
27.1916549057674
 20
405.8116367012582
 30
0.0
 11
27.1916549057674
 21
399.0241335010534
 31
0.0
  0
SOLID
  5
15EE
330
3DE
100
AcDbEntity
  8
BEM
100
AcDbTrace
 10
26.02498823910074
 20
412.8116367012581
 30
0.0
 11
28.35832157243407
 21
412.8116367012581
 31
0.0
 12
27.1916549057674
 22
405.8116367012582
 32
0.0
 13
27.1916549057674
 23
405.8116367012582
 33
0.0
  0
SOLID
  5
15EF
330
3DE
100
AcDbEntity
  8
BEM
100
AcDbTrace
 10
26.02498823910073
 20
392.0241335010534
 30
0.0
 11
28.35832157243407
 21
392.0241335010534
 31
0.0
 12
27.1916549057674
 22
399.0241335010534
 32
0.0
 13
27.1916549057674
 23
399.0241335010534
 33
0.0
  0
MTEXT
  5
15F0
330
3DE
100
AcDbEntity
  8
BEM
100
AcDbMText
 10
18.19165490576734
 20
402.4178851011558
 30
0.0
 40
10.0
 41
0.0
 71
     5
 72
     1
  1
\A1;6.7
 11
0.0000000000000001
 21
1.0
 31
0.0
 73
     1
 44
1.0
  0
POINT
  5
15F1
330
3DE
100
AcDbEntity
  8
Defpoints
 62
     0
100
AcDbPoint
 10
54.49159828336632
 20
405.8116367012582
 30
0.0
  0
POINT
  5
15F2
330
3DE
100
AcDbEntity
  8
Defpoints
 62
     0
100
AcDbPoint
 10
88.56401546196162
 20
399.0241335010534
 30
0.0
  0
POINT
  5
15F3
330
3DE
100
AcDbEntity
  8
Defpoints
 62
     0
100
AcDbPoint
 10
27.1916549057674
 20
399.0241335010534
 30
0.0
  0
ENDBLK
  5
3EB
330
3DE
100
AcDbEntity
  8
0
 48
10.0
100
AcDbBlockEnd
  0
BLOCK
  5
3F6
330
3EC
100
AcDbEntity
  8
0
 48
10.0
100
AcDbBlockBegin
  2
*D7
 70
     1
 10
0.0
 20
0.0
 30
0.0
  3
*D7
  1

  0
LINE
  5
168E
330
3EC
100
AcDbEntity
  8
BEM
370
    -2
100
AcDbLine
 10
353.7498718634522
 20
421.3116367012581
 30
0.0
 11
353.7498718634522
 21
480.7822487327944
 31
0.0
  0
LINE
  5
168F
330
3EC
100
AcDbEntity
  8
BEM
370
    -2
100
AcDbLine
 10
423.7498718634522
 20
427.9652265397444
 30
0.0
 11
423.7498718634522
 21
569.8567575998756
 31
0.0
  0
LINE
  5
1690
330
3EC
100
AcDbEntity
  8
BEM
370
    -2
100
AcDbLine
 10
360.7498718634522
 20
568.6067575998756
 30
0.0
 11
416.7498718634521
 21
568.6067575998756
 31
0.0
  0
SOLID
  5
1691
330
3EC
100
AcDbEntity
  8
BEM
100
AcDbTrace
 10
360.7498718634522
 20
569.7734242665423
 30
0.0
 11
360.7498718634522
 21
567.440090933209
 31
0.0
 12
353.7498718634522
 22
568.6067575998756
 32
0.0
 13
353.7498718634522
 23
568.6067575998756
 33
0.0
  0
SOLID
  5
1692
330
3EC
100
AcDbEntity
  8
BEM
100
AcDbTrace
 10
416.7498718634521
 20
569.7734242665423
 30
0.0
 11
416.7498718634521
 21
567.440090933209
 31
0.0
 12
423.7498718634522
 22
568.6067575998756
 32
0.0
 13
423.7498718634522
 23
568.6067575998756
 33
0.0
  0
MTEXT
  5
1693
330
3EC
100
AcDbEntity
  8
BEM
100
AcDbMText
 10
388.7498718634522
 20
577.6067575998756
 30
0.0
 40
10.0
 41
0.0
 71
     5
 72
     1
  1
\A1;70
 73
     1
 44
1.0
  0
POINT
  5
1694
330
3EC
100
AcDbEntity
  8
Defpoints
 62
     0
100
AcDbPoint
 10
353.7498718634522
 20
421.3116367012581
 30
0.0
  0
POINT
  5
1695
330
3EC
100
AcDbEntity
  8
Defpoints
 62
     0
100
AcDbPoint
 10
423.7498718634522
 20
427.9652265397444
 30
0.0
  0
POINT
  5
1696
330
3EC
100
AcDbEntity
  8
Defpoints
 62
     0
100
AcDbPoint
 10
423.7498718634522
 20
568.6067575998756
 30
0.0
  0
LINE
  5
1697
330
3EC
100
AcDbEntity
  8
BEM
370
    -2
100
AcDbLine
 10
353.7498718634522
 20
505.6754518813589
 30
0.0
 11
353.7498718634522
 21
569.8567575998756
 31
0.0
  0
ENDBLK
  5
3F7
330
3EC
100
AcDbEntity
  8
0
 48
10.0
100
AcDbBlockEnd
  0
BLOCK
  5
404
330
3F8
100
AcDbEntity
  8
0
 48
10.0
100
AcDbBlockBegin
  2
*D8
 70
     1
 10
0.0
 20
0.0
 30
0.0
  3
*D8
  1

  0
LINE
  5
15F4
330
3F8
100
AcDbEntity
  8
BEM
370
    -2
100
AcDbLine
 10
424.699871863452
 20
428.3116367012581
 30
0.0
 11
424.699871863452
 21
529.4875410603919
 31
0.0
  0
LINE
  5
15F5
330
3F8
100
AcDbEntity
  8
BEM
370
    -2
100
AcDbLine
 10
423.7498718634522
 20
427.9652265397444
 30
0.0
 11
423.7498718634522
 21
529.4875410603919
 31
0.0
  0
LINE
  5
15F6
330
3F8
100
AcDbEntity
  8
BEM
370
    -2
100
AcDbLine
 10
416.7498718634521
 20
528.2375410603919
 30
0.0
 11
409.7498718634522
 21
528.2375410603919
 31
0.0
  0
LINE
  5
15F7
330
3F8
100
AcDbEntity
  8
BEM
370
    -2
100
AcDbLine
 10
431.699871863452
 20
528.2375410603919
 30
0.0
 11
449.0808242444044
 21
528.2375410603919
 31
0.0
  0
LINE
  5
15F8
330
3F8
100
AcDbEntity
  8
BEM
370
    -2
100
AcDbLine
 10
423.7498718634522
 20
528.2375410603919
 30
0.0
 11
424.699871863452
 21
528.2375410603919
 31
0.0
  0
SOLID
  5
15F9
330
3F8
100
AcDbEntity
  8
BEM
100
AcDbTrace
 10
416.7498718634521
 20
529.4042077270586
 30
0.0
 11
416.7498718634521
 21
527.0708743937253
 31
0.0
 12
423.7498718634522
 22
528.2375410603919
 32
0.0
 13
423.7498718634522
 23
528.2375410603919
 33
0.0
  0
SOLID
  5
15FA
330
3F8
100
AcDbEntity
  8
BEM
100
AcDbTrace
 10
431.699871863452
 20
529.4042077270586
 30
0.0
 11
431.699871863452
 21
527.0708743937253
 31
0.0
 12
424.699871863452
 22
528.2375410603919
 32
0.0
 13
424.699871863452
 23
528.2375410603919
 33
0.0
  0
MTEXT
  5
15FB
330
3F8
100
AcDbEntity
  8
BEM
100
AcDbMText
 10
443.8903480539281
 20
537.237541060392
 30
0.0
 40
10.0
 41
0.0
 71
     5
 72
     1
  1
\A1;1
 73
     1
 44
1.0
  0
POINT
  5
15FC
330
3F8
100
AcDbEntity
  8
Defpoints
 62
     0
100
AcDbPoint
 10
424.699871863452
 20
428.3116367012581
 30
0.0
  0
POINT
  5
15FD
330
3F8
100
AcDbEntity
  8
Defpoints
 62
     0
100
AcDbPoint
 10
423.7498718634522
 20
427.9652265397444
 30
0.0
  0
POINT
  5
15FE
330
3F8
100
AcDbEntity
  8
Defpoints
 62
     0
100
AcDbPoint
 10
423.7498718634522
 20
528.2375410603919
 30
0.0
  0
ENDBLK
  5
405
330
3F8
100
AcDbEntity
  8
0
 48
10.0
100
AcDbBlockEnd
  0
BLOCK
  5
410
330
406
100
AcDbEntity
  8
0
 48
10.0
100
AcDbBlockBegin
  2
*D9
 70
     1
 10
0.0
 20
0.0
 30
0.0
  3
*D9
  1

  0
LINE
  5
1698
330
406
100
AcDbEntity
  8
BEM
370
    -2
100
AcDbLine
 10
424.6998718634521
 20
468.3116367012582
 30
0.0
 11
371.3412708173191
 21
468.3116367012582
 31
0.0
  0
LINE
  5
1699
330
406
100
AcDbEntity
  8
BEM
370
    -2
100
AcDbLine
 10
424.6998718634522
 20
343.3116367012582
 30
0.0
 11
287.500651821852
 21
343.3116367012583
 31
0.0
  0
LINE
  5
169A
330
406
100
AcDbEntity
  8
BEM
370
    -2
100
AcDbLine
 10
288.7506518218521
 20
461.3116367012582
 30
0.0
 11
288.750651821852
 21
350.3116367012582
 31
0.0
  0
SOLID
  5
169B
330
406
100
AcDbEntity
  8
BEM
100
AcDbTrace
 10
287.5839851551853
 20
461.3116367012582
 30
0.0
 11
289.9173184885187
 21
461.3116367012582
 31
0.0
 12
288.7506518218521
 22
468.3116367012582
 32
0.0
 13
288.7506518218521
 23
468.3116367012582
 33
0.0
  0
SOLID
  5
169C
330
406
100
AcDbEntity
  8
BEM
100
AcDbTrace
 10
287.5839851551853
 20
350.3116367012582
 30
0.0
 11
289.9173184885187
 21
350.3116367012582
 31
0.0
 12
288.750651821852
 22
343.3116367012583
 32
0.0
 13
288.750651821852
 23
343.3116367012583
 33
0.0
  0
MTEXT
  5
169D
330
406
100
AcDbEntity
  8
BEM
100
AcDbMText
 10
279.7506518218519
 20
405.8116367012583
 30
0.0
 40
10.0
 41
0.0
 71
     5
 72
     1
  1
\A1;%%c125
 11
0.0000000000000001
 21
1.0
 31
0.0
 73
     1
 44
1.0
  0
POINT
  5
169E
330
406
100
AcDbEntity
  8
Defpoints
 62
     0
100
AcDbPoint
 10
424.6998718634521
 20
468.3116367012582
 30
0.0
  0
POINT
  5
169F
330
406
100
AcDbEntity
  8
Defpoints
 62
     0
100
AcDbPoint
 10
424.6998718634522
 20
343.3116367012582
 30
0.0
  0
POINT
  5
16A0
330
406
100
AcDbEntity
  8
Defpoints
 62
     0
100
AcDbPoint
 10
288.750651821852
 20
343.3116367012583
 30
0.0
  0
LINE
  5
16A1
330
406
100
AcDbEntity
  8
BEM
370
    -2
100
AcDbLine
 10
358.1364102572325
 20
468.3116367012582
 30
0.0
 11
287.5006518218521
 21
468.3116367012582
 31
0.0
  0
ENDBLK
  5
411
330
406
100
AcDbEntity
  8
0
 48
10.0
100
AcDbBlockEnd
  0
BLOCK
  5
41C
330
412
100
AcDbEntity
  8
0
 48
10.0
100
AcDbBlockBegin
  2
*D10
 70
     1
 10
0.0
 20
0.0
 30
0.0
  3
*D10
  1

  0
LINE
  5
1611
330
412
100
AcDbEntity
  8
BEM
370
    -2
100
AcDbLine
 10
355.7498718634522
 20
423.3116367012581
 30
0.0
 11
322.0788260986652
 21
423.3116367012581
 31
0.0
  0
LINE
  5
1612
330
412
100
AcDbEntity
  8
BEM
370
    -2
100
AcDbLine
 10
355.7498718634522
 20
388.3116367012582
 30
0.0
 11
322.0788260986652
 21
388.3116367012582
 31
0.0
  0
LINE
  5
1613
330
412
100
AcDbEntity
  8
BEM
370
    -2
100
AcDbLine
 10
323.3288260986652
 20
416.3116367012581
 30
0.0
 11
323.3288260986652
 21
395.3116367012582
 31
0.0
  0
SOLID
  5
1614
330
412
100
AcDbEntity
  8
BEM
100
AcDbTrace
 10
322.1621594319985
 20
416.3116367012581
 30
0.0
 11
324.4954927653319
 21
416.3116367012581
 31
0.0
 12
323.3288260986652
 22
423.3116367012581
 32
0.0
 13
323.3288260986652
 23
423.3116367012581
 33
0.0
  0
SOLID
  5
1615
330
412
100
AcDbEntity
  8
BEM
100
AcDbTrace
 10
322.1621594319985
 20
395.3116367012582
 30
0.0
 11
324.4954927653319
 21
395.3116367012582
 31
0.0
 12
323.3288260986652
 22
388.3116367012582
 32
0.0
 13
323.3288260986652
 23
388.3116367012582
 33
0.0
  0
MTEXT
  5
1616
330
412
100
AcDbEntity
  8
BEM
100
AcDbMText
 10
314.3288260986651
 20
406.3502513369792
 30
0.0
 40
10.0
 41
0.0
 71
     5
 72
     1
  1
\A1;%%c35
 11
0.0000000000000001
 21
1.0
 31
0.0
 73
     1
 44
1.0
  0
POINT
  5
1617
330
412
100
AcDbEntity
  8
Defpoints
 62
     0
100
AcDbPoint
 10
355.7498718634522
 20
423.3116367012581
 30
0.0
  0
POINT
  5
1618
330
412
100
AcDbEntity
  8
Defpoints
 62
     0
100
AcDbPoint
 10
355.7498718634522
 20
388.3116367012582
 30
0.0
  0
POINT
  5
1619
330
412
100
AcDbEntity
  8
Defpoints
 62
     0
100
AcDbPoint
 10
323.3288260986652
 20
388.3116367012582
 30
0.0
  0
ENDBLK
  5
41D
330
412
100
AcDbEntity
  8
0
 48
10.0
100
AcDbBlockEnd
  0
BLOCK
  5
424
330
41E
100
AcDbEntity
  8
0
 48
10.0
100
AcDbBlockBegin
  2
*D11
 70
     1
 10
0.0
 20
0.0
 30
0.0
  3
*D11
  1

  0
LINE
  5
161A
330
41E
100
AcDbEntity
  8
BEM
370
    -2
100
AcDbLine
 10
370.1199399134754
 20
348.4894967031823
 30
0.0
 11
417.6151886535387
 21
383.1585106274399
 31
0.0
  0
MTEXT
  5
161B
330
41E
100
AcDbEntity
  8
BEM
100
AcDbMText
 10
380.3524392664204
 20
367.1013280311845
 30
0.0
 40
10.0
 41
0.0
 71
     5
 72
     1
  1
\A1;R2.5
 11
0.8077073799807264
 21
0.5895835719596251
 31
0.0
 73
     1
 44
1.0
  0
SOLID
  5
161C
330
41E
100
AcDbEntity
  8
BEM
100
AcDbTrace
 10
416.9273411529191
 20
384.100835904084
 30
0.0
 11
418.3030361541582
 21
382.2161853507956
 31
0.0
 12
423.2691403134039
 22
387.2855956311572
 32
0.0
 13
423.2691403134039
 23
387.2855956311572
 33
0.0
  0
POINT
  5
161D
330
41E
100
AcDbEntity
  8
Defpoints
 62
     0
100
AcDbPoint
 10
423.2691403134039
 20
387.2855956311572
 30
0.0
  0
POINT
  5
161E
330
41E
100
AcDbEntity
  8
Defpoints
 62
     0
100
AcDbPoint
 10
421.2498718634519
 20
385.8116367012581
 30
0.0
  0
ENDBLK
  5
425
330
41E
100
AcDbEntity
  8
0
 48
10.0
100
AcDbBlockEnd
  0
BLOCK
  5
430
330
426
100
AcDbEntity
  8
0
 48
10.0
100
AcDbBlockBegin
  2
*D12
 70
     1
 10
0.0
 20
0.0
 30
0.0
  3
*D12
  1

  0
LINE
  5
163A
330
426
100
AcDbEntity
  8
BEM
370
    -2
100
AcDbLine
 10
912.222289876578
 20
495.811636701258
 30
0.0
 11
1038.576502063032
 21
495.811636701258
 31
0.0
  0
LINE
  5
163B
330
426
100
AcDbEntity
  8
BEM
370
    -2
100
AcDbLine
 10
964.4899105391932
 20
291.484330945402
 30
0.0
 11
1038.576502063032
 21
291.484330945402
 31
0.0
  0
LINE
  5
163C
330
426
100
AcDbEntity
  8
BEM
370
    -2
100
AcDbLine
 10
1037.326502063032
 20
488.811636701258
 30
0.0
 11
1037.326502063032
 21
298.4843309454021
 31
0.0
  0
SOLID
  5
163D
330
426
100
AcDbEntity
  8
BEM
100
AcDbTrace
 10
1036.159835396365
 20
488.811636701258
 30
0.0
 11
1038.493168729699
 21
488.811636701258
 31
0.0
 12
1037.326502063032
 22
495.811636701258
 32
0.0
 13
1037.326502063032
 23
495.811636701258
 33
0.0
  0
SOLID
  5
163E
330
426
100
AcDbEntity
  8
BEM
100
AcDbTrace
 10
1036.159835396365
 20
298.4843309454021
 30
0.0
 11
1038.493168729699
 21
298.4843309454021
 31
0.0
 12
1037.326502063032
 22
291.484330945402
 32
0.0
 13
1037.326502063032
 23
291.484330945402
 33
0.0
  0
MTEXT
  5
163F
330
426
100
AcDbEntity
  8
BEM
100
AcDbMText
 10
1028.326502063032
 20
392.2667263887454
 30
0.0
 40
10.0
 41
0.0
 71
     5
 72
     1
  1
\A1;204
 11
0.0000000000000001
 21
1.0
 31
0.0
 73
     1
 44
1.0
  0
POINT
  5
1640
330
426
100
AcDbEntity
  8
Defpoints
 62
     0
100
AcDbPoint
 10
912.222289876578
 20
495.811636701258
 30
0.0
  0
POINT
  5
1641
330
426
100
AcDbEntity
  8
Defpoints
 62
     0
100
AcDbPoint
 10
964.4899105391932
 20
291.484330945402
 30
0.0
  0
POINT
  5
1642
330
426
100
AcDbEntity
  8
Defpoints
 62
     0
100
AcDbPoint
 10
1037.326502063032
 20
291.484330945402
 30
0.0
  0
ENDBLK
  5
431
330
426
100
AcDbEntity
  8
0
 48
10.0
100
AcDbBlockEnd
  0
BLOCK
  5
44A
330
440
100
AcDbEntity
  8
0
 48
10.0
100
AcDbBlockBegin
  2
*D13
 70
     1
 10
0.0
 20
0.0
 30
0.0
  3
*D13
  1

  0
LINE
  5
1631
330
440
100
AcDbEntity
  8
BEM
370
    -2
100
AcDbLine
 10
719.6226329313977
 20
399.0241335010534
 30
0.0
 11
757.228990109475
 21
399.0241335010534
 31
0.0
  0
LINE
  5
1632
330
440
100
AcDbEntity
  8
BEM
370
    -2
100
AcDbLine
 10
717.5998718634524
 20
334.0241335010536
 30
0.0
 11
757.228990109475
 21
334.0241335010536
 31
0.0
  0
LINE
  5
1633
330
440
100
AcDbEntity
  8
BEM
370
    -2
100
AcDbLine
 10
755.978990109475
 20
392.0241335010534
 30
0.0
 11
755.978990109475
 21
341.0241335010536
 31
0.0
  0
SOLID
  5
1634
330
440
100
AcDbEntity
  8
BEM
100
AcDbTrace
 10
754.8123234428084
 20
392.0241335010534
 30
0.0
 11
757.1456567761416
 21
392.0241335010534
 31
0.0
 12
755.978990109475
 22
399.0241335010534
 32
0.0
 13
755.978990109475
 23
399.0241335010534
 33
0.0
  0
SOLID
  5
1635
330
440
100
AcDbEntity
  8
BEM
100
AcDbTrace
 10
754.8123234428084
 20
341.0241335010536
 30
0.0
 11
757.1456567761416
 21
341.0241335010536
 31
0.0
 12
755.978990109475
 22
334.0241335010536
 32
0.0
 13
755.978990109475
 23
334.0241335010536
 33
0.0
  0
MTEXT
  5
1636
330
440
100
AcDbEntity
  8
BEM
100
AcDbMText
 10
746.9789901094749
 20
366.5241335010536
 30
0.0
 40
10.0
 41
0.0
 71
     5
 72
     1
  1
\A1;65
 11
0.0000000000000001
 21
1.0
 31
0.0
 73
     1
 44
1.0
  0
POINT
  5
1637
330
440
100
AcDbEntity
  8
Defpoints
 62
     0
100
AcDbPoint
 10
719.6226329313977
 20
399.0241335010534
 30
0.0
  0
POINT
  5
1638
330
440
100
AcDbEntity
  8
Defpoints
 62
     0
100
AcDbPoint
 10
717.5998718634524
 20
334.0241335010536
 30
0.0
  0
POINT
  5
1639
330
440
100
AcDbEntity
  8
Defpoints
 62
     0
100
AcDbPoint
 10
755.978990109475
 20
334.0241335010536
 30
0.0
  0
ENDBLK
  5
44B
330
440
100
AcDbEntity
  8
0
 48
10.0
100
AcDbBlockEnd
  0
BLOCK
  5
456
330
44C
100
AcDbEntity
  8
0
 48
10.0
100
AcDbBlockBegin
  2
*D14
 70
     1
 10
0.0
 20
0.0
 30
0.0
  3
*D14
  1

  0
LINE
  5
1628
330
44C
100
AcDbEntity
  8
BEM
370
    -2
100
AcDbLine
 10
706.7569832102166
 20
453.0241335010534
 30
0.0
 11
784.1514906639404
 21
453.0241335010534
 31
0.0
  0
LINE
  5
1629
330
44C
100
AcDbEntity
  8
BEM
370
    -2
100
AcDbLine
 10
717.5998718634524
 20
334.0241335010536
 30
0.0
 11
784.1514906639404
 21
334.0241335010536
 31
0.0
  0
LINE
  5
162A
330
44C
100
AcDbEntity
  8
BEM
370
    -2
100
AcDbLine
 10
782.9014906639404
 20
446.0241335010533
 30
0.0
 11
782.9014906639404
 21
341.0241335010536
 31
0.0
  0
SOLID
  5
162B
330
44C
100
AcDbEntity
  8
BEM
100
AcDbTrace
 10
781.7348239972738
 20
446.0241335010533
 30
0.0
 11
784.0681573306071
 21
446.0241335010533
 31
0.0
 12
782.9014906639404
 22
453.0241335010534
 32
0.0
 13
782.9014906639404
 23
453.0241335010534
 33
0.0
  0
SOLID
  5
162C
330
44C
100
AcDbEntity
  8
BEM
100
AcDbTrace
 10
781.7348239972738
 20
341.0241335010536
 30
0.0
 11
784.0681573306071
 21
341.0241335010536
 31
0.0
 12
782.9014906639404
 22
334.0241335010536
 32
0.0
 13
782.9014906639404
 23
334.0241335010536
 33
0.0
  0
MTEXT
  5
162D
330
44C
100
AcDbEntity
  8
BEM
100
AcDbMText
 10
773.9014906639403
 20
393.5241335010536
 30
0.0
 40
10.0
 41
0.0
 71
     5
 72
     1
  1
\A1;119
 11
0.0000000000000001
 21
1.0
 31
0.0
 73
     1
 44
1.0
  0
POINT
  5
162E
330
44C
100
AcDbEntity
  8
Defpoints
 62
     0
100
AcDbPoint
 10
706.7569832102166
 20
453.0241335010534
 30
0.0
  0
POINT
  5
162F
330
44C
100
AcDbEntity
  8
Defpoints
 62
     0
100
AcDbPoint
 10
717.5998718634524
 20
334.0241335010536
 30
0.0
  0
POINT
  5
1630
330
44C
100
AcDbEntity
  8
Defpoints
 62
     0
100
AcDbPoint
 10
782.9014906639404
 20
334.0241335010536
 30
0.0
  0
ENDBLK
  5
457
330
44C
100
AcDbEntity
  8
0
 48
10.0
100
AcDbBlockEnd
  0
BLOCK
  5
462
330
458
100
AcDbEntity
  8
0
 48
10.0
100
AcDbBlockBegin
  2
*D15
 70
     1
 10
0.0
 20
0.0
 30
0.0
  3
*D15
  1

  0
LINE
  5
161F
330
458
100
AcDbEntity
  8
BEM
370
    -2
100
AcDbLine
 10
535.7498718634522
 20
405.8116367012582
 30
0.0
 11
547.3979643160873
 21
405.8116367012582
 31
0.0
  0
LINE
  5
1620
330
458
100
AcDbEntity
  8
BEM
370
    -2
100
AcDbLine
 10
544.6203584284494
 20
303.8116367012581
 30
0.0
 11
547.3979643160873
 21
303.8116367012581
 31
0.0
  0
LINE
  5
1621
330
458
100
AcDbEntity
  8
BEM
370
    -2
100
AcDbLine
 10
546.1479643160873
 20
398.8116367012582
 30
0.0
 11
546.1479643160873
 21
310.8116367012581
 31
0.0
  0
SOLID
  5
1622
330
458
100
AcDbEntity
  8
BEM
100
AcDbTrace
 10
544.9812976494207
 20
398.8116367012582
 30
0.0
 11
547.314630982754
 21
398.8116367012582
 31
0.0
 12
546.1479643160873
 22
405.8116367012582
 32
0.0
 13
546.1479643160873
 23
405.8116367012582
 33
0.0
  0
SOLID
  5
1623
330
458
100
AcDbEntity
  8
BEM
100
AcDbTrace
 10
544.9812976494207
 20
310.8116367012581
 30
0.0
 11
547.314630982754
 21
310.8116367012581
 31
0.0
 12
546.1479643160873
 22
303.8116367012581
 32
0.0
 13
546.1479643160873
 23
303.8116367012581
 33
0.0
  0
MTEXT
  5
1624
330
458
100
AcDbEntity
  8
BEM
100
AcDbMText
 10
537.1479643160872
 20
354.8116367012582
 30
0.0
 40
10.0
 41
0.0
 71
     5
 72
     1
  1
\A1;102
 11
0.0000000000000001
 21
1.0
 31
0.0
 73
     1
 44
1.0
  0
POINT
  5
1625
330
458
100
AcDbEntity
  8
Defpoints
 62
     0
100
AcDbPoint
 10
535.7498718634522
 20
405.8116367012582
 30
0.0
  0
POINT
  5
1626
330
458
100
AcDbEntity
  8
Defpoints
 62
     0
100
AcDbPoint
 10
544.6203584284494
 20
303.8116367012581
 30
0.0
  0
POINT
  5
1627
330
458
100
AcDbEntity
  8
Defpoints
 62
     0
100
AcDbPoint
 10
546.1479643160873
 20
303.8116367012581
 30
0.0
  0
ENDBLK
  5
463
330
458
100
AcDbEntity
  8
0
 48
10.0
100
AcDbBlockEnd
  0
BLOCK
  5
46E
330
464
100
AcDbEntity
  8
0
 48
10.0
100
AcDbBlockBegin
  2
*D16
 70
     1
 10
0.0
 20
0.0
 30
0.0
  3
*D16
  1

  0
LINE
  5
1643
330
464
100
AcDbEntity
  8
BEM
370
    -2
100
AcDbLine
 10
702.0998718634523
 20
322.5241335010534
 30
0.0
 11
702.0998718634523
 21
194.8872320040707
 31
0.0
  0
LINE
  5
1644
330
464
100
AcDbEntity
  8
BEM
370
    -2
100
AcDbLine
 10
647.5998718634523
 20
289.4148067550846
 30
0.0
 11
647.5998718634523
 21
194.8872320040707
 31
0.0
  0
LINE
  5
1645
330
464
100
AcDbEntity
  8
BEM
370
    -2
100
AcDbLine
 10
695.0998718634523
 20
196.1372320040707
 30
0.0
 11
654.5998718634523
 21
196.1372320040707
 31
0.0
  0
SOLID
  5
1646
330
464
100
AcDbEntity
  8
BEM
100
AcDbTrace
 10
695.0998718634523
 20
197.3038986707373
 30
0.0
 11
695.0998718634523
 21
194.970565337404
 31
0.0
 12
702.0998718634523
 22
196.1372320040707
 32
0.0
 13
702.0998718634523
 23
196.1372320040707
 33
0.0
  0
SOLID
  5
1647
330
464
100
AcDbEntity
  8
BEM
100
AcDbTrace
 10
654.5998718634523
 20
197.3038986707373
 30
0.0
 11
654.5998718634523
 21
194.970565337404
 31
0.0
 12
647.5998718634523
 22
196.1372320040707
 32
0.0
 13
647.5998718634523
 23
196.1372320040707
 33
0.0
  0
MTEXT
  5
1648
330
464
100
AcDbEntity
  8
BEM
100
AcDbMText
 10
675.8617766253571
 20
205.1372320040707
 30
0.0
 40
10.0
 41
0.0
 71
     5
 72
     1
  1
\A1;54.5
 73
     1
 44
1.0
  0
POINT
  5
1649
330
464
100
AcDbEntity
  8
Defpoints
 62
     0
100
AcDbPoint
 10
702.0998718634523
 20
322.5241335010534
 30
0.0
  0
POINT
  5
164A
330
464
100
AcDbEntity
  8
Defpoints
 62
     0
100
AcDbPoint
 10
647.5998718634523
 20
289.4148067550846
 30
0.0
  0
POINT
  5
164B
330
464
100
AcDbEntity
  8
Defpoints
 62
     0
100
AcDbPoint
 10
647.5998718634523
 20
196.1372320040707
 30
0.0
  0
ENDBLK
  5
46F
330
464
100
AcDbEntity
  8
0
 48
10.0
100
AcDbBlockEnd
  0
BLOCK
  5
47C
330
470
100
AcDbEntity
  8
0
 48
10.0
100
AcDbBlockBegin
  2
*D17
 70
     1
 10
0.0
 20
0.0
 30
0.0
  3
*D17
  1

  0
LINE
  5
164C
330
470
100
AcDbEntity
  8
BEM
370
    -2
100
AcDbLine
 10
656.5998718634523
 20
299.0906243311743
 30
0.0
 11
656.5998718634523
 21
296.2437882610108
 31
0.0
  0
LINE
  5
164D
330
470
100
AcDbEntity
  8
BEM
370
    -2
100
AcDbLine
 10
638.5998718634523
 20
299.5210161119647
 30
0.0
 11
638.5998718634523
 21
296.2437882610108
 31
0.0
  0
LINE
  5
164E
330
470
100
AcDbEntity
  8
BEM
370
    -2
100
AcDbLine
 10
663.5998718634523
 20
297.4937882610108
 30
0.0
 11
670.5998718634523
 21
297.4937882610108
 31
0.0
  0
LINE
  5
164F
330
470
100
AcDbEntity
  8
BEM
370
    -2
100
AcDbLine
 10
631.5998718634523
 20
297.4937882610108
 30
0.0
 11
624.5998718634523
 21
297.4937882610108
 31
0.0
  0
LINE
  5
1650
330
470
100
AcDbEntity
  8
BEM
370
    -2
100
AcDbLine
 10
656.5998718634523
 20
297.4937882610108
 30
0.0
 11
638.5998718634523
 21
297.4937882610108
 31
0.0
  0
SOLID
  5
1651
330
470
100
AcDbEntity
  8
BEM
100
AcDbTrace
 10
663.5998718634523
 20
298.6604549276774
 30
0.0
 11
663.5998718634523
 21
296.3271215943441
 31
0.0
 12
656.5998718634523
 22
297.4937882610108
 32
0.0
 13
656.5998718634523
 23
297.4937882610108
 33
0.0
  0
SOLID
  5
1652
330
470
100
AcDbEntity
  8
BEM
100
AcDbTrace
 10
631.5998718634523
 20
298.6604549276774
 30
0.0
 11
631.5998718634523
 21
296.3271215943441
 31
0.0
 12
638.5998718634523
 22
297.4937882610108
 32
0.0
 13
638.5998718634523
 23
297.4937882610108
 33
0.0
  0
MTEXT
  5
1653
330
470
100
AcDbEntity
  8
BEM
100
AcDbMText
 10
647.5998718634523
 20
306.4937882610108
 30
0.0
 40
10.0
 41
0.0
 71
     5
 72
     1
  1
\A1;M18x1.5
 73
     1
 44
1.0
  0
POINT
  5
1654
330
470
100
AcDbEntity
  8
Defpoints
 62
     0
100
AcDbPoint
 10
656.5998718634523
 20
299.0906243311743
 30
0.0
  0
POINT
  5
1655
330
470
100
AcDbEntity
  8
Defpoints
 62
     0
100
AcDbPoint
 10
638.5998718634523
 20
299.5210161119647
 30
0.0
  0
POINT
  5
1656
330
470
100
AcDbEntity
  8
Defpoints
 62
     0
100
AcDbPoint
 10
638.5998718634523
 20
297.4937882610108
 30
0.0
  0
ENDBLK
  5
47D
330
470
100
AcDbEntity
  8
0
 48
10.0
100
AcDbBlockEnd
  0
BLOCK
  5
493
330
489
100
AcDbEntity
  8
0
 48
10.0
100
AcDbBlockBegin
  2
*D18
 70
     1
 10
0.0
 20
0.0
 30
0.0
  3
*D18
  1

  0
LINE
  5
1657
330
489
100
AcDbEntity
  8
BEM
370
    -2
100
AcDbLine
 10
553.199871863452
 20
460.8116367012581
 30
0.0
 11
544.8979643160874
 21
460.8116367012581
 31
0.0
  0
LINE
  5
1658
330
489
100
AcDbEntity
  8
BEM
370
    -2
100
AcDbLine
 10
553.1240415326656
 20
405.8116367012582
 30
0.0
 11
544.8979643160874
 21
405.8116367012582
 31
0.0
  0
LINE
  5
1659
330
489
100
AcDbEntity
  8
BEM
370
    -2
100
AcDbLine
 10
546.1479643160873
 20
453.8116367012581
 30
0.0
 11
546.1479643160873
 21
412.8116367012581
 31
0.0
  0
SOLID
  5
165A
330
489
100
AcDbEntity
  8
BEM
100
AcDbTrace
 10
544.9812976494207
 20
453.8116367012581
 30
0.0
 11
547.314630982754
 21
453.8116367012581
 31
0.0
 12
546.1479643160873
 22
460.8116367012581
 32
0.0
 13
546.1479643160873
 23
460.8116367012581
 33
0.0
  0
SOLID
  5
165B
330
489
100
AcDbEntity
  8
BEM
100
AcDbTrace
 10
544.9812976494207
 20
412.8116367012581
 30
0.0
 11
547.314630982754
 21
412.8116367012581
 31
0.0
 12
546.1479643160873
 22
405.8116367012582
 32
0.0
 13
546.1479643160873
 23
405.8116367012582
 33
0.0
  0
MTEXT
  5
165C
330
489
100
AcDbEntity
  8
BEM
100
AcDbMText
 10
537.1479643160872
 20
433.3116367012582
 30
0.0
 40
10.0
 41
0.0
 71
     5
 72
     1
  1
\A1;55
 11
0.0000000000000001
 21
1.0
 31
0.0
 73
     1
 44
1.0
  0
POINT
  5
165D
330
489
100
AcDbEntity
  8
Defpoints
 62
     0
100
AcDbPoint
 10
553.199871863452
 20
460.8116367012581
 30
0.0
  0
POINT
  5
165E
330
489
100
AcDbEntity
  8
Defpoints
 62
     0
100
AcDbPoint
 10
553.1240415326656
 20
405.8116367012582
 30
0.0
  0
POINT
  5
165F
330
489
100
AcDbEntity
  8
Defpoints
 62
     0
100
AcDbPoint
 10
546.1479643160873
 20
405.8116367012582
 30
0.0
  0
ENDBLK
  5
494
330
489
100
AcDbEntity
  8
0
 48
10.0
100
AcDbBlockEnd
  0
BLOCK
  5
49C
330
495
100
AcDbEntity
  8
0
 48
10.0
100
AcDbBlockBegin
  2
*D19
 70
     1
 10
0.0
 20
0.0
 30
0.0
  3
*D19
  1

  0
LINE
  5
1660
330
495
100
AcDbEntity
  8
BEM
370
    -2
100
AcDbLine
 10
867.9622431835166
 20
454.0951563195295
 30
0.0
 11
956.4823365696408
 21
357.5281170829867
 31
0.0
  0
SOLID
  5
1661
330
495
100
AcDbEntity
  8
BEM
100
AcDbTrace
 10
868.8222549833332
 20
454.8835032071922
 30
0.0
 11
867.1022313837001
 21
453.3068094318669
 31
0.0
 12
863.2321618575407
 22
459.2552271184287
 32
0.0
 13
863.2321618575407
 23
459.2552271184287
 33
0.0
  0
SOLID
  5
1662
330
495
100
AcDbEntity
  8
BEM
100
AcDbTrace
 10
957.3423483694574
 20
358.3164639706493
 30
0.0
 11
955.6223247698243
 21
356.7397701953241
 31
0.0
 12
961.2124178956168
 22
352.3680462840874
 32
0.0
 13
961.2124178956168
 23
352.3680462840874
 33
0.0
  0
MTEXT
  5
1663
102
{ACAD_XDICTIONARY
360
16BD
102
}
330
495
100
AcDbEntity
  8
BEM
100
AcDbMText
 10
943.1556293244788
 20
385.385302577371
 30
0.0
 40
10.0
 41
0.0
 71
     5
 72
     1
  1
\A1;\U+2205145
 11
0.6757259037108688
 21
-0.7371529712713161
 31
0.0
 73
     1
 44
1.0
  0
POINT
  5
1664
330
495
100
AcDbEntity
  8
Defpoints
 62
     0
100
AcDbPoint
 10
961.2124178956168
 20
352.3680462840874
 30
0.0
  0
POINT
  5
1665
330
495
100
AcDbEntity
  8
Defpoints
 62
     0
100
AcDbPoint
 10
863.2321618575407
 20
459.2552271184287
 30
0.0
  0
ENDBLK
  5
49D
330
495
100
AcDbEntity
  8
0
 48
10.0
100
AcDbBlockEnd
  0
BLOCK
  5
FF7
330
FEE
100
AcDbEntity
  8
0
 48
10.0
100
AcDbBlockBegin
  2
*D20
 70
     1
 10
0.0
 20
0.0
 30
0.0
  3
*D20
  1

  0
LINE
  5
1666
330
FEE
100
AcDbEntity
  8
BEM
370
    -2
100
AcDbLine
 10
971.7761106849419
 20
421.1714219220046
 30
0.0
 11
967.0688746543303
 21
415.990502220628
 31
0.0
  0
LINE
  5
1667
330
FEE
100
AcDbEntity
  8
BEM
370
    -2
100
AcDbLine
 10
988.9238990821704
 20
440.0447722627331
 30
0.0
 11
1027.014180870601
 21
481.9680346751804
 31
0.0
  0
LINE
  5
1668
330
FEE
100
AcDbEntity
  8
BEM
370
    -2
100
AcDbLine
 10
976.4833467155536
 20
426.352341623381
 30
0.0
 11
984.2166630515587
 21
434.8638525613567
 31
0.0
  0
SOLID
  5
1669
330
FEE
100
AcDbEntity
  8
BEM
100
AcDbTrace
 10
970.9126240680458
 20
421.9559612604398
 30
0.0
 11
972.639597301838
 21
420.3868825835693
 31
0.0
 12
976.4833467155536
 22
426.352341623381
 32
0.0
 13
976.4833467155536
 23
426.352341623381
 33
0.0
  0
SOLID
  5
166A
330
FEE
100
AcDbEntity
  8
BEM
100
AcDbTrace
 10
988.0604124652743
 20
440.8293116011684
 30
0.0
 11
989.7873856990665
 21
439.2602329242978
 31
0.0
 12
984.2166630515587
 22
434.8638525613567
 32
0.0
 13
984.2166630515587
 23
434.8638525613567
 33
0.0
  0
MTEXT
  5
166B
102
{ACAD_XDICTIONARY
360
16BF
102
}
330
FEE
100
AcDbEntity
  8
BEM
100
AcDbMText
 10
1004.374013504374
 20
470.4332637826549
 30
0.0
 40
10.0
 41
0.0
 71
     5
 72
     1
  1
\A1;\U+220511.5
 11
0.6724622900873884
 21
0.7401313859109243
 31
0.0
 73
     1
 44
1.0
  0
POINT
  5
166C
330
FEE
100
AcDbEntity
  8
Defpoints
 62
     0
100
AcDbPoint
 10
984.2166630515587
 20
434.8638525613567
 30
0.0
  0
POINT
  5
166D
330
FEE
100
AcDbEntity
  8
Defpoints
 62
     0
100
AcDbPoint
 10
976.4833467155536
 20
426.352341623381
 30
0.0
  0
ENDBLK
  5
FF8
330
FEE
100
AcDbEntity
  8
0
 48
10.0
100
AcDbBlockEnd
  0
BLOCK
  5
1016
330
100A
100
AcDbEntity
  8
0
 48
10.0
100
AcDbBlockBegin
  2
*D21
 70
     1
 10
0.0
 20
0.0
 30
0.0
  3
*D21
  1

  0
LINE
  5
166E
330
100A
100
AcDbEntity
  8
BEM
370
    -2
100
AcDbLine
 10
912.2222898765782
 20
507.4509990805075
 30
0.0
 11
912.2222898765782
 21
547.991968853204
 31
0.0
  0
LINE
  5
166F
330
100A
100
AcDbEntity
  8
BEM
370
    -2
100
AcDbLine
 10
883.7448704977221
 20
484.0527034090022
 30
0.0
 11
863.5937522958778
 21
539.4174456453311
 31
0.0
  0
ARC
  5
1670
330
100A
100
AcDbEntity
  8
BEM
370
    -2
100
AcDbCircle
 10
912.222289876578
 20
405.8116367012558
 30
0.0
 40
140.9303321519482
100
AcDbArc
 50
92.84617009213947
 51
107.1538299078604
  0
SOLID
  5
1671
330
100A
100
AcDbEntity
  8
BEM
100
AcDbTrace
 10
905.19547479697
 20
547.7344309170145
 30
0.0
 11
905.2534230508483
 21
545.4018172661249
 31
0.0
 12
912.2222898765782
 22
546.741968853204
 32
0.0
 13
912.2222898765782
 23
546.741968853204
 33
0.0
  0
SOLID
  5
1672
330
100A
100
AcDbEntity
  8
BEM
100
AcDbTrace
 10
871.0282290443039
 20
539.3669921427894
 30
0.0
 11
870.2848817356601
 21
541.5787514477719
 31
0.0
 12
864.0212774750349
 22
538.2428298693485
 32
0.0
 13
864.0212774750349
 23
538.2428298693485
 33
0.0
  0
MTEXT
  5
1673
330
100A
100
AcDbEntity
  8
BEM
100
AcDbMText
 10
886.095218516562
 20
553.4479487702794
 30
0.0
 40
10.0
 41
0.0
 71
     5
 72
     1
  1
\A1;20\U+00B0
 11
0.984699426393589
 21
0.174261411850521
 31
0.0
 73
     1
 44
1.0
  0
POINT
  5
1674
330
100A
100
AcDbEntity
  8
Defpoints
 62
     0
100
AcDbPoint
 10
895.861276928422
 20
545.7890483638834
 30
0.0
  0
POINT
  5
1675
330
100A
100
AcDbEntity
  8
Defpoints
 62
     0
100
AcDbPoint
 10
890.5086507390397
 20
465.4693699258288
 30
0.0
  0
POINT
  5
1676
330
100A
100
AcDbEntity
  8
Defpoints
 62
     0
100
AcDbPoint
 10
912.2222898765782
 20
507.4509990805075
 30
0.0
  0
POINT
  5
1677
330
100A
100
AcDbEntity
  8
Defpoints
 62
     0
100
AcDbPoint
 10
912.222289876578
 20
293.5766278655819
 30
0.0
  0
POINT
  5
1678
330
100A
100
AcDbEntity
  8
Defpoints
 62
     0
100
AcDbPoint
 10
883.7448704977221
 20
484.0527034090022
 30
0.0
  0
ENDBLK
  5
1017
330
100A
100
AcDbEntity
  8
0
 48
10.0
100
AcDbBlockEnd
  0
BLOCK
  5
1031
330
1024
100
AcDbEntity
  8
0
 48
10.0
100
AcDbBlockBegin
  2
*D22
 70
     1
 10
0.0
 20
0.0
 30
0.0
  3
*D22
  1

  0
LINE
  5
1679
330
1024
100
AcDbEntity
  8
BEM
 48
10.0
370
    -2
100
AcDbLine
 10
161.8083330982624
 20
482.4434954400569
 30
0.0
 11
175.885206370332
 21
521.1193868915935
 31
0.0
  0
LINE
  5
167A
330
1024
100
AcDbEntity
  8
BEM
 48
10.0
370
    -2
100
AcDbLine
 10
133.9166175208477
 20
504.8188164801989
 30
0.0
 11
133.9166175208477
 21
528.5195814480179
 31
0.0
  0
ARC
  5
167B
330
1024
100
AcDbEntity
  8
BEM
 48
10.0
370
    -2
100
AcDbCircle
 10
133.9166175208477
 20
405.8116367012569
 30
0.0
 40
121.4579447467608
100
AcDbArc
 50
73.30259157549743
 51
86.69740842450307
  0
SOLID
  5
167C
330
1024
100
AcDbEntity
  8
BEM
 48
10.0
100
AcDbTrace
 10
169.1808395783258
 20
523.2557181822849
 30
0.0
 11
168.4463076438829
 21
521.0410156555946
 31
0.0
 12
175.4576811911749
 22
519.944771115611
 32
0.0
 13
175.4576811911749
 23
519.944771115611
 33
0.0
  0
SOLID
  5
167D
330
1024
100
AcDbEntity
  8
BEM
 48
10.0
100
AcDbTrace
 10
140.8800912194968
 20
525.9016833672626
 30
0.0
 11
140.9473298565715
 21
528.2340477063248
 31
0.0
 12
133.9166175208477
 22
527.2695814480178
 32
0.0
 13
133.9166175208477
 23
527.2695814480178
 33
0.0
  0
MTEXT
  5
167E
330
1024
100
AcDbEntity
  8
BEM
 48
10.0
100
AcDbMText
 10
159.3919836177896
 20
533.7580359072358
 30
0.0
 40
10.0
 41
0.0
 71
     5
 72
     1
  1
\A1;20\U+00B0
 11
0.9807482361794265
 21
-0.1952764635867413
 31
0.0
 73
     1
 44
1.0
  0
POINT
  5
167F
330
1024
100
AcDbEntity
  8
Defpoints
 62
     0
 48
10.0
100
AcDbPoint
 10
148.01702427016
 20
526.4483262762413
 30
0.0
  0
POINT
  5
1680
330
1024
100
AcDbEntity
  8
Defpoints
 62
     0
 48
10.0
100
AcDbPoint
 10
133.9166175208477
 20
504.8188164801989
 30
0.0
  0
POINT
  5
1681
330
1024
100
AcDbEntity
  8
Defpoints
 62
     0
 48
10.0
100
AcDbPoint
 10
155.5792925609663
 20
465.3293472189679
 30
0.0
  0
POINT
  5
1682
330
1024
100
AcDbEntity
  8
Defpoints
 62
     0
 48
10.0
100
AcDbPoint
 10
161.8083330982624
 20
482.4434954400569
 30
0.0
  0
POINT
  5
1683
330
1024
100
AcDbEntity
  8
Defpoints
 62
     0
 48
10.0
100
AcDbPoint
 10
133.9166175208477
 20
290.9664909526803
 30
0.0
  0
ENDBLK
  5
1032
330
1024
100
AcDbEntity
  8
0
 48
10.0
100
AcDbBlockEnd
  0
BLOCK
  5
1353
330
1351
100
AcDbEntity
  8
0
 48
10.0
100
AcDbBlockBegin
  2
GENAXEH
 70
     0
 10
0.0
 20
0.0
 30
0.0
  3
GENAXEH
  1

  0
LINE
  5
1352
330
1351
100
AcDbEntity
  8
0
100
AcDbLine
 10
-1.0
 20
0.0
 30
0.0
 11
1.0
 21
0.0
 31
0.0
  0
ENDBLK
  5
1354
330
1351
100
AcDbEntity
  8
0
 48
10.0
100
AcDbBlockEnd
  0
BLOCK
  5
1378
330
1374
100
AcDbEntity
  8
0
 48
10.0
100
AcDbBlockBegin
  2
_Open30
 70
     0
 10
0.0
 20
0.0
 30
0.0
  3
_Open30
  1

  0
LINE
  5
1375
330
1374
100
AcDbEntity
  8
0
  6
ByBlock
 62
     0
370
    -2
100
AcDbLine
 10
-1.0
 20
0.26794919
 30
0.0
 11
0.0
 21
0.0
 31
0.0
  0
LINE
  5
1376
330
1374
100
AcDbEntity
  8
0
  6
ByBlock
 62
     0
370
    -2
100
AcDbLine
 10
0.0
 20
0.0
 30
0.0
 11
-1.0
 21
-0.26794919
 31
0.0
  0
LINE
  5
1377
330
1374
100
AcDbEntity
  8
0
  6
ByBlock
 62
     0
370
    -2
100
AcDbLine
 10
0.0
 20
0.0
 30
0.0
 11
-1.0
 21
0.0
 31
0.0
  0
ENDBLK
  5
1379
330
1374
100
AcDbEntity
  8
0
 48
10.0
100
AcDbBlockEnd
  0
ENDSEC
  0
SECTION
  2
ENTITIES
  0
DIMENSION
  5
20
330
2
100
AcDbEntity
  8
BEM
100
AcDbDimension
  2
*D1
 10
424.6998718634521
 20
196.1372320040707
 30
0.0
 11
536.1498718634522
 21
205.1372320040707
 31
0.0
 70
    32
  1
223
 71
     5
 42
222.9000000000002
  3
ISO-25
100
AcDbAlignedDimension
 13
647.5998718634523
 23
289.4148067550846
 33
0.0
 14
424.6998718634521
 24
315.8116367012582
 34
0.0
100
AcDbRotatedDimension
1001
ACAD
1000
DSTYLE
1002
{
1070
   144
1040
1.0
1070
   289
1070
     0
1002
}
  0
DIMENSION
  5
2F
330
2
100
AcDbEntity
  8
BEM
100
AcDbDimension
  2
*D0
 10
424.699871863452
 20
568.6067575998756
 30
0.0
 11
572.399871863452
 21
577.6067575998756
 31
0.0
 70
    32
  1
295.5
 71
     5
 42
295.4000000000002
  3
ISO-25
100
AcDbAlignedDimension
 13
720.0998718634522
 23
355.8819978773226
 33
0.0
 14
424.699871863452
 24
495.8116367012581
 34
0.0
100
AcDbRotatedDimension
1001
ACAD
1000
DSTYLE
1002
{
1070
   144
1040
1.0
1070
   289
1070
     0
1002
}
  0
LINE
  5
3C
330
2
100
AcDbEntity
  8
MITTE
 48
10.0
100
AcDbLine
 10
349.5558345799392
 20
405.8116367012582
 30
0.0
 11
590.2142457654631
 21
405.8116367012582
 31
0.0
  0
LINE
  5
40
330
2
100
AcDbEntity
  8
0
100
AcDbLine
 10
504.199871863452
 20
460.8116367012581
 30
0.0
 11
553.199871863452
 21
460.8116367012581
 31
0.0
1001
ACAD
1000
ASC_BOUNDS
1002
{
1070
    19
1002
}
  0
LINE
  5
41
330
2
100
AcDbEntity
  8
0
100
AcDbLine
 10
502.1998718634522
 20
325.8116367012582
 30
0.0
 11
527.3976772279176
 21
305.1701589243521
 31
0.0
  0
ARC
  5
42
330
2
100
AcDbEntity
  8
0
100
AcDbCircle
 10
515.1998718634521
 20
315.8116367012582
 30
0.0
 40
10.0
100
AcDbArc
 50
0.0
 51
89.99999999999998
1001
ACAD
1000
ASC_BOUNDS
1002
{
1070
    19
1002
}
  0
DIMENSION
  5
45
330
2
100
AcDbEntity
  8
BEM
100
AcDbDimension
  2
*D3
 10
424.6998718634521
 20
274.3779494388407
 30
0.0
 11
451.0332051967856
 21
274.3779494388407
 31
0.0
 70
   160
 71
     5
 42
5.000000000000113
  3
ISO-25
100
AcDbAlignedDimension
 13
429.6998718634522
 23
343.5116367012582
 33
0.0
 14
424.6998718634521
 24
315.8116367012582
 34
0.0
100
AcDbRotatedDimension
1001
ACAD
1000
DSTYLE
1002
{
1070
   144
1040
1.0
1070
   289
1070
     0
1002
}
  0
LINE
  5
63
330
2
100
AcDbEntity
  8
MITTE
 48
20.0
100
AcDbLine
 10
252.003386824593
 20
411.3904591891414
 30
0.0
 11
252.003386824593
 21
394.9749938200348
 31
0.0
  0
LINE
  5
68
330
2
100
AcDbEntity
  8
0
100
AcDbLine
 10
424.699871863452
 20
495.8116367012581
 30
0.0
 11
424.6998718634521
 21
315.8116367012582
 31
0.0
1001
ACAD
1000
ASC_BOUNDS
1002
{
1070
    19
1002
}
  0
LINE
  5
69
330
2
100
AcDbEntity
  8
0
100
AcDbLine
 10
438.1998718634521
 20
493.8116367012582
 30
0.0
 11
438.1998718634515
 21
317.8116367012578
 31
0.0
1001
ACAD
1000
ASC_BOUNDS
1002
{
1070
    19
1002
}
  0
LINE
  5
6A
330
2
100
AcDbEntity
  8
0
100
AcDbLine
 10
483.1998718634517
 20
400.8116367012581
 30
0.0
 11
483.1998718634522
 21
331.8116367012583
 31
0.0
1001
ACAD
1000
ASC_BOUNDS
1002
{
1070
    19
1002
}
  0
LINE
  5
6B
330
2
100
AcDbEntity
  8
0
100
AcDbLine
 10
436.1998718634521
 20
495.8116367012581
 30
0.0
 11
436.199871863452
 21
315.8116367012582
 31
0.0
  0
DIMENSION
  5
73
102
{ACAD_XDICTIONARY
360
110B
102
}
102
{ACAD_REACTORS
330
110C
102
}
330
2
100
AcDbEntity
  8
BEM
100
AcDbDimension
  2
*D2
 10
263.7201887423121
 20
315.8116367012582
 30
0.0
 11
254.7201887423121
 21
405.8116367012583
 31
0.0
 70
    32
  1
%%c<>
 71
     5
 42
180.0
  3
ISO-25
100
AcDbAlignedDimension
 13
424.699871863452
 23
495.8116367012581
 33
0.0
 14
424.6998718634521
 24
315.8116367012582
 34
0.0
 50
90.0
100
AcDbRotatedDimension
1001
ACAD
1000
DSTYLE
1002
{
1070
   144
1040
1.0
1070
   289
1070
     0
1002
}
  0
DIMENSION
  5
94
330
2
100
AcDbEntity
  8
BEM
100
AcDbDimension
  2
*D4
 10
130.4401447356747
 20
262.0596760269739
 30
0.0
 11
148.9401447356747
 21
271.0596760269739
 31
0.0
 70
    32
 71
     5
 42
37.0
  3
ISO-25
100
AcDbAlignedDimension
 13
167.4401447356747
 23
340.1416577722579
 33
0.0
 14
130.4401447356747
 24
339.9809279153215
 34
0.0
100
AcDbRotatedDimension
1001
ACAD
1000
DSTYLE
1002
{
1070
   144
1040
1.0
1070
   289
1070
     0
1002
}
  0
DIMENSION
  5
B0
330
2
100
AcDbEntity
  8
BEM
100
AcDbDimension
  2
*D5
 10
438.199871863452
 20
233.4757718399521
 30
0.0
 11
470.7236813872615
 21
233.4757718399521
 31
0.0
 70
   160
 71
     5
 42
13.49999999999977
  3
ISO-25
100
AcDbAlignedDimension
 13
424.6998718634522
 23
315.8116367012582
 33
0.0
 14
438.199871863452
 24
317.8116367012582
 34
0.0
100
AcDbRotatedDimension
1001
ACAD
1000
DSTYLE
1002
{
1070
   144
1040
1.0
1070
   289
1070
     0
1002
}
  0
LINE
  5
BF
330
2
100
AcDbEntity
  8
0
100
AcDbLine
 10
484.7277359084527
 20
327.8116367012582
 30
0.0
 11
438.1998718634521
 21
327.8116367012582
 31
0.0
  0
LINE
  5
C0
330
2
100
AcDbEntity
  8
0
100
AcDbLine
 10
438.199871863452
 20
317.8116367012582
 30
0.0
 11
436.199871863452
 21
315.8116367012582
 31
0.0
  0
LINE
  5
C1
330
2
100
AcDbEntity
  8
0
100
AcDbLine
 10
424.6998718634522
 20
315.8116367012582
 30
0.0
 11
436.199871863452
 21
315.8116367012582
 31
0.0
  0
ARC
  5
C2
330
2
100
AcDbEntity
  8
0
100
AcDbCircle
 10
489.1998718634522
 20
331.8116367012583
 30
0.0
 40
6.0
100
AcDbArc
 50
180.0
 51
269.9999999999997
1001
ACAD
1000
ASC_BOUNDS
1002
{
1070
    19
1002
}
  0
LINE
  5
C3
330
2
100
AcDbEntity
  8
0
100
AcDbLine
 10
489.1998718634521
 20
325.8116367012583
 30
0.0
 11
515.1998718634521
 21
325.8116367012582
 31
0.0
1001
ACAD
1000
ASC_BOUNDS
1002
{
1070
    19
1002
}
  0
MTEXT
  5
CC
102
{ACAD_REACTORS
330
CD
102
}
330
2
100
AcDbEntity
  8
BEM
100
AcDbMText
 10
147.5271389067043
 20
642.7137397486184
 30
0.0
 40
10.0
 41
0.0
 71
     1
 72
     1
  1
Paßfeder\PFitting key\PClavette d'ajustage\PLinguetta\PA 10x8x50 DIN 6885
 73
     1
 44
1.0
  0
LEADER
  5
CD
330
2
100
AcDbEntity
  8
BEM
100
AcDbLeader
  3
STANDARD
 73
     0
 75
     1
 40
78.57142857142858
 41
162.8571428571428
 76
     3
 10
383.367565257367
 20
426.6116367012581
 30
0.0
 10
320.5636511914335
 20
560.1007895639072
 30
0.0
 10
313.5636511914335
 20
560.1007895639072
 30
0.0
340
CC
213
-0.8206305724136768
223
-0.0415216132826188
233
0.0
  0
DIMENSION
  5
CF
330
2
100
AcDbEntity
  8
BEM
100
AcDbDimension
  2
*D6
 10
27.1916549057674
 20
399.0241335010534
 30
0.0
 11
27.19165490576734
 21
402.4178851011558
 31
0.0
 70
   160
  1
6.7
 71
     5
 42
6.78750320020481
  3
ISO-25
100
AcDbAlignedDimension
 13
54.49159828336632
 23
405.8116367012582
 33
0.0
 14
88.56401546196162
 24
399.0241335010534
 34
0.0
 50
90.0
100
AcDbRotatedDimension
1001
ACAD
1000
DSTYLE
1002
{
1070
   144
1040
1.0
1070
   289
1070
     0
1002
}
  0
DIMENSION
  5
141
330
2
100
AcDbEntity
  8
BEM
100
AcDbDimension
  2
*D8
 10
423.7498718634522
 20
528.2375410603919
 30
0.0
 11
443.8903480539281
 21
528.2375410603919
 31
0.0
 70
   160
  1
1
 71
     5
 42
0.9499999999998181
  3
ISO-25
100
AcDbAlignedDimension
 13
424.699871863452
 23
428.3116367012581
 33
0.0
 14
423.7498718634522
 24
427.9652265397444
 34
0.0
100
AcDbRotatedDimension
1001
ACAD
1000
DSTYLE
1002
{
1070
   144
1040
1.0
1070
   289
1070
     0
1002
}
  0
DIMENSION
  5
150
102
{ACAD_XDICTIONARY
360
10EC
102
}
102
{ACAD_REACTORS
330
10ED
102
}
330
2
100
AcDbEntity
  8
BEM
100
AcDbDimension
  2
*D7
 10
423.7498718634522
 20
568.6067575998756
 30
0.0
 11
388.7498718634522
 21
577.6067575998756
 31
0.0
 70
    32
 71
     5
 42
70.0
  3
ISO-25
100
AcDbAlignedDimension
 13
353.7498718634522
 23
421.3116367012581
 33
0.0
 14
423.7498718634522
 24
427.9652265397444
 34
0.0
100
AcDbRotatedDimension
1001
ACAD
1000
DSTYLE
1002
{
1070
   144
1040
1.0
1070
   289
1070
     0
1002
}
  0
LINE
  5
15E
330
2
100
AcDbEntity
  8
0
100
AcDbLine
 10
355.7498718634522
 20
423.3116367012581
 30
0.0
 11
421.2498718634521
 21
423.3116367012581
 31
0.0
  0
LINE
  5
15F
330
2
100
AcDbEntity
  8
0
100
AcDbLine
 10
355.7498718634522
 20
388.3116367012582
 30
0.0
 11
421.2498718634521
 21
388.3116367012582
 31
0.0
  0
LINE
  5
160
330
2
100
AcDbEntity
  8
0
100
AcDbLine
 10
363.7498718634522
 20
426.6116367012581
 30
0.0
 11
413.7498718634522
 21
426.6116367012581
 31
0.0
  0
DIMENSION
  5
161
102
{ACAD_XDICTIONARY
360
112A
102
}
102
{ACAD_REACTORS
330
112B
102
}
330
2
100
AcDbEntity
  8
BEM
100
AcDbDimension
  2
*D9
 10
288.750651821852
 20
343.3116367012583
 30
0.0
 11
279.7506518218519
 21
405.8116367012583
 31
0.0
 70
    32
  1
%%c<>
 71
     5
 42
125.0
  3
ISO-25
100
AcDbAlignedDimension
 13
424.6998718634521
 23
468.3116367012582
 33
0.0
 14
424.6998718634522
 24
343.3116367012582
 34
0.0
 50
90.0
100
AcDbRotatedDimension
1001
ACAD
1000
DSTYLE
1002
{
1070
   144
1040
1.0
1070
   289
1070
     0
1002
}
  0
DIMENSION
  5
172
330
2
100
AcDbEntity
  8
BEM
100
AcDbDimension
  2
*D10
 10
323.3288260986652
 20
388.3116367012582
 30
0.0
 11
323.3288260986651
 21
406.3502513369792
 31
0.0
 70
   160
  1
%%c<>
 71
     5
 42
35.0
  3
ISO-25
100
AcDbAlignedDimension
 13
355.7498718634522
 23
423.3116367012581
 33
0.0
 14
355.7498718634522
 24
388.3116367012582
 34
0.0
 50
90.0
100
AcDbRotatedDimension
1001
ACAD
1000
DSTYLE
1002
{
1070
   144
1040
1.0
1070
   289
1070
     0
1002
}
  0
LINE
  5
17F
330
2
100
AcDbEntity
  8
0
100
AcDbLine
 10
355.7498718634522
 20
388.3116367012582
 30
0.0
 11
353.7498718634522
 21
390.3116367012582
 31
0.0
  0
LINE
  5
180
330
2
100
AcDbEntity
  8
0
100
AcDbLine
 10
355.7498718634522
 20
423.3116367012581
 30
0.0
 11
355.7498718634522
 21
388.3116367012582
 31
0.0
  0
LINE
  5
182
330
2
100
AcDbEntity
  8
0
100
AcDbLine
 10
353.7498718634522
 20
421.3116367012581
 30
0.0
 11
353.7498718634522
 21
390.3116367012583
 31
0.0
  0
LINE
  5
183
330
2
100
AcDbEntity
  8
0
100
AcDbLine
 10
355.7498718634522
 20
423.3116367012581
 30
0.0
 11
353.7498718634522
 21
421.3116367012581
 31
0.0
  0
LINE
  5
184
330
2
100
AcDbEntity
  8
0
100
AcDbLine
 10
363.7498718634522
 20
423.3116367012582
 30
0.0
 11
363.7498718634522
 21
426.6116367012581
 31
0.0
  0
LINE
  5
185
330
2
100
AcDbEntity
  8
LINIE
  6
GESTRICHELT
 48
10.0
100
AcDbLine
 10
429.6998718634521
 20
468.1116367012581
 30
0.0
 11
429.6998718634522
 21
343.5116367012582
 31
0.0
1001
ACAD
1000
ASC_BOUNDS
1002
{
1070
    19
1002
}
  0
ARC
  5
186
330
2
100
AcDbEntity
  8
0
100
AcDbCircle
 10
470.199871863452
 20
441.8116367012581
 30
0.0
 40
2.5
100
AcDbArc
 50
270.0000000000026
 51
0.0
  0
ARC
  5
187
330
2
100
AcDbEntity
  8
0
100
AcDbCircle
 10
459.8420074871831
 20
449.3116367012581
 30
0.0
 40
10.0
100
AcDbArc
 50
225.0
 51
270.0
1001
ACAD
1000
ASC_BOUNDS
1002
{
1070
    19
1002
}
  0
ARC
  5
188
330
2
100
AcDbEntity
  8
0
100
AcDbCircle
 10
488.199871863452
 20
449.3116367012581
 30
0.0
 40
10.0
100
AcDbArc
 50
270.0
 51
0.0
1001
ACAD
1000
ASC_BOUNDS
1002
{
1070
    19
1002
}
  0
LINE
  5
189
330
2
100
AcDbEntity
  8
0
100
AcDbLine
 10
498.199871863452
 20
454.8116367012581
 30
0.0
 11
498.199871863452
 21
362.2783934413744
 31
0.0
  0
ARC
  5
18B
330
2
100
AcDbEntity
  8
0
100
AcDbCircle
 10
448.199871863452
 20
354.8116367012582
 30
0.0
 40
10.0
100
AcDbArc
 50
103.6002851900802
 51
180.0
1001
ACAD
1000
ASC_BOUNDS
1002
{
1070
    19
1002
}
  0
ARC
  5
18C
330
2
100
AcDbEntity
  8
0
100
AcDbCircle
 10
448.1998718634518
 20
420.8116367012581
 30
0.0
 40
10.0
100
AcDbArc
 50
180.0
 51
270.0
  0
ARC
  5
18D
330
2
100
AcDbEntity
  8
0
100
AcDbCircle
 10
448.1998718634518
 20
390.8116367012581
 30
0.0
 40
10.0
100
AcDbArc
 50
89.99999999999998
 51
180.0
  0
LINE
  5
18E
330
2
100
AcDbEntity
  8
0
100
AcDbLine
 10
423.7498718634522
 20
427.9652265397444
 30
0.0
 11
423.7498718634522
 21
383.6580468627719
 31
0.0
  0
LINE
  5
18F
330
2
100
AcDbEntity
  8
0
100
AcDbLine
 10
424.3498718634522
 20
428.3116367012581
 30
0.0
 11
424.3498718634522
 21
383.3116367012582
 31
0.0
  0
DIMENSION
  5
190
330
2
100
AcDbEntity
  8
BEM
100
AcDbDimension
  2
*D11
 10
421.2498718634519
 20
385.8116367012581
 30
0.0
 11
385.6586914140571
 21
359.8319616113579
 31
0.0
 70
   164
 71
     5
 42
2.5
  3
ISO-25
100
AcDbRadialDimension
 15
423.2691403134039
 25
387.2855956311572
 35
0.0
 40
0.0
1001
ACAD
1000
DSTYLE
1002
{
1070
   144
1040
1.0
1070
   279
1070
     1
1002
}
  0
ARC
  5
199
330
2
100
AcDbEntity
  8
LINIE
  6
GESTRICHELT
 48
10.0
100
AcDbCircle
 10
429.4998718634522
 20
343.5116367012582
 30
0.0
 40
0.2
100
AcDbArc
 50
270.0
 51
0.0
1001
ACAD
1000
ASC_BOUNDS
1002
{
1070
    19
1002
}
  0
LINE
  5
19A
330
2
100
AcDbEntity
  8
LINIE
  6
GESTRICHELT
 48
10.0
100
AcDbLine
 10
424.6998718634522
 20
343.3116367012582
 30
0.0
 11
429.4998718634522
 21
343.3116367012582
 31
0.0
  0
ARC
  5
19B
330
2
100
AcDbEntity
  8
0
100
AcDbCircle
 10
421.2498718634521
 20
385.8116367012582
 30
0.0
 40
2.5
100
AcDbArc
 50
0.0
 51
90.0
  0
LINE
  5
19C
330
2
100
AcDbEntity
  8
0
100
AcDbLine
 10
424.3498718634523
 20
383.3116367012582
 30
0.0
 11
423.7498718634522
 21
383.6580468627719
 31
0.0
  0
LINE
  5
19D
330
2
100
AcDbEntity
  8
0
100
AcDbLine
 10
424.3498718634522
 20
383.3116367012582
 30
0.0
 11
424.6998718634521
 21
383.3116367012582
 31
0.0
  0
ARC
  5
19E
330
2
100
AcDbEntity
  8
0
100
AcDbCircle
 10
421.2498718634521
 20
425.8116367012581
 30
0.0
 40
2.5
100
AcDbArc
 50
270.0
 51
0.0
  0
LINE
  5
19F
330
2
100
AcDbEntity
  8
0
100
AcDbLine
 10
424.3498718634522
 20
428.3116367012581
 30
0.0
 11
423.7498718634522
 21
427.9652265397444
 31
0.0
  0
LINE
  5
1A0
330
2
100
AcDbEntity
  8
0
100
AcDbLine
 10
413.7498718634522
 20
423.3116367012581
 30
0.0
 11
413.7498718634522
 21
426.6116367012582
 31
0.0
  0
LINE
  5
1A1
330
2
100
AcDbEntity
  8
0
100
AcDbLine
 10
424.3498718634522
 20
428.3116367012581
 30
0.0
 11
424.699871863452
 21
428.3116367012581
 31
0.0
  0
ARC
  5
1A2
330
2
100
AcDbEntity
  8
0
100
AcDbCircle
 10
473.199871863452
 20
362.3116367012582
 30
0.0
 40
10.0
100
AcDbArc
 50
0.0
 51
89.99999999999996
1001
ACAD
1000
ASC_BOUNDS
1002
{
1070
    19
1002
}
  0
ARC
  5
1A3
330
2
100
AcDbEntity
  8
0
100
AcDbCircle
 10
443.4969328426262
 20
374.2508333041631
 30
0.0
 40
10.0
100
AcDbArc
 50
283.6002851900805
 51
315.0000000000002
1001
ACAD
1000
ASC_BOUNDS
1002
{
1070
    19
1002
}
  0
LINE
  5
1A4
330
2
100
AcDbEntity
  8
0
100
AcDbLine
 10
473.199871863452
 20
372.3116367012582
 30
0.0
 11
459.8420074871831
 21
372.3116367012582
 31
0.0
1001
ACAD
1000
ASC_BOUNDS
1002
{
1070
    19
1002
}
  0
ARC
  5
1A5
330
2
100
AcDbEntity
  8
0
100
AcDbCircle
 10
459.8420074871831
 20
362.3116367012582
 30
0.0
 40
10.0
100
AcDbArc
 50
89.99999999999998
 51
135.0
1001
ACAD
1000
ASC_BOUNDS
1002
{
1070
    19
1002
}
  0
LINE
  5
1A6
330
2
100
AcDbEntity
  8
0
100
AcDbLine
 10
450.5680006544918
 20
367.1797654922976
 30
0.0
 11
452.7709396753176
 21
369.3827045131237
 31
0.0
1001
ACAD
1000
ASC_BOUNDS
1002
{
1070
    19
1002
}
  0
LINE
  5
1A7
330
2
100
AcDbEntity
  8
0
100
AcDbLine
 10
488.199871863452
 20
400.8116367012581
 30
0.0
 11
448.1998718634518
 21
400.811636701258
 31
0.0
  0
LINE
  5
1A8
330
2
100
AcDbEntity
  8
0
100
AcDbLine
 10
488.199871863452
 20
410.8116367012581
 30
0.0
 11
448.1998718634518
 21
410.8116367012581
 31
0.0
  0
ARC
  5
1A9
330
2
100
AcDbEntity
  8
0
100
AcDbCircle
 10
488.199871863452
 20
420.8116367012581
 30
0.0
 40
10.0
100
AcDbArc
 50
270.0
 51
0.0
  0
ARC
  5
1AA
330
2
100
AcDbEntity
  8
0
100
AcDbCircle
 10
488.199871863452
 20
390.8116367012582
 30
0.0
 40
10.0
100
AcDbArc
 50
0.0
 51
89.99999999999998
  0
LINE
  5
1AB
330
2
100
AcDbEntity
  8
0
100
AcDbLine
 10
438.1998718634521
 20
483.8116367012581
 30
0.0
 11
499.1386002276099
 21
459.9034022087756
 31
0.0
  0
ARC
  5
1AC
330
2
100
AcDbEntity
  8
0
100
AcDbCircle
 10
448.199871863452
 20
456.8116367012581
 30
0.0
 40
10.0
100
AcDbArc
 50
180.0
 51
256.3997148099197
1001
ACAD
1000
ASC_BOUNDS
1002
{
1070
    19
1002
}
  0
ARC
  5
1AD
330
2
100
AcDbEntity
  8
LINIE
  6
GESTRICHELT
 48
10.0
100
AcDbCircle
 10
429.4998718634522
 20
468.1116367012581
 30
0.0
 40
0.2
100
AcDbArc
 50
0.0
 51
89.99999999999998
  0
LINE
  5
1AE
330
2
100
AcDbEntity
  8
LINIE
  6
GESTRICHELT
 48
10.0
100
AcDbLine
 10
424.6998718634521
 20
468.3116367012582
 30
0.0
 11
429.4998718634522
 21
468.3116367012582
 31
0.0
  0
LINE
  5
1AF
330
2
100
AcDbEntity
  8
0
100
AcDbLine
 10
424.699871863452
 20
495.8116367012581
 30
0.0
 11
436.1998718634521
 21
495.8116367012581
 31
0.0
  0
LINE
  5
1B0
330
2
100
AcDbEntity
  8
0
100
AcDbLine
 10
438.1998718634521
 20
493.8116367012582
 30
0.0
 11
436.1998718634521
 21
495.8116367012581
 31
0.0
  0
LINE
  5
1B1
330
2
100
AcDbEntity
  8
0
100
AcDbLine
 10
488.199871863452
 20
439.3116367012582
 30
0.0
 11
459.8420074871831
 21
439.3116367012582
 31
0.0
1001
ACAD
1000
ASC_BOUNDS
1002
{
1070
    19
1002
}
  0
LINE
  5
1B2
330
2
100
AcDbEntity
  8
0
100
AcDbLine
 10
484.699871863452
 20
444.8116367012582
 30
0.0
 11
474.699871863452
 21
444.8116367012582
 31
0.0
  0
LINE
  5
1B3
330
2
100
AcDbEntity
  8
0
100
AcDbLine
 10
488.699871863452
 20
442.8116367012582
 30
0.0
 11
472.6998718634519
 21
442.8116367012582
 31
0.0
  0
LINE
  5
1B4
330
2
100
AcDbEntity
  8
0
100
AcDbLine
 10
484.699871863452
 20
444.8116367012582
 30
0.0
 11
483.699871863452
 21
445.8116367012581
 31
0.0
  0
LINE
  5
1B5
330
2
100
AcDbEntity
  8
0
100
AcDbLine
 10
450.5680006544918
 20
444.4435079102184
 30
0.0
 11
452.7709396753176
 21
442.2405688893926
 31
0.0
1001
ACAD
1000
ASC_BOUNDS
1002
{
1070
    19
1002
}
  0
ARC
  5
1B6
330
2
100
AcDbEntity
  8
0
100
AcDbCircle
 10
443.4969328426262
 20
437.3724400983531
 30
0.0
 40
10.0
100
AcDbArc
 50
44.99999999999945
 51
76.3997148099194
1001
ACAD
1000
ASC_BOUNDS
1002
{
1070
    19
1002
}
  0
LINE
  5
1B7
330
2
100
AcDbEntity
  8
0
100
AcDbLine
 10
472.6998718634521
 20
442.8116367012582
 30
0.0
 11
472.6998718634521
 21
441.8116367012581
 31
0.0
1001
ACAD
1000
ASC_BOUNDS
1002
{
1070
    19
1005
0
1002
}
  0
LINE
  5
1B8
330
2
100
AcDbEntity
  8
0
100
AcDbLine
 10
483.699871863452
 20
445.8116367012581
 30
0.0
 11
475.699871863452
 21
445.8116367012581
 31
0.0
  0
LINE
  5
1B9
330
2
100
AcDbEntity
  8
0
100
AcDbLine
 10
474.699871863452
 20
444.8116367012582
 30
0.0
 11
474.699871863452
 21
442.8116367012582
 31
0.0
1001
ACAD
1000
ASC_BOUNDS
1002
{
1070
    19
1002
}
  0
LINE
  5
1BA
330
2
100
AcDbEntity
  8
0
100
AcDbLine
 10
475.699871863452
 20
445.8116367012581
 30
0.0
 11
474.699871863452
 21
444.8116367012582
 31
0.0
  0
ARC
  5
1BB
330
2
100
AcDbEntity
  8
0
100
AcDbCircle
 10
504.199871863452
 20
454.8116367012581
 30
0.0
 40
6.0
100
AcDbArc
 50
89.99999999999998
 51
119.2107476043111
1001
ACAD
1000
ASC_BOUNDS
1002
{
1070
    19
1002
}
  0
ARC
  5
1BC
330
2
100
AcDbEntity
  8
0
100
AcDbCircle
 10
491.199871863452
 20
441.8116367012581
 30
0.0
 40
2.5
100
AcDbArc
 50
180.0
 51
246.6828661559611
  0
LINE
  5
1BD
330
2
100
AcDbEntity
  8
0
100
AcDbLine
 10
488.699871863452
 20
442.8116367012582
 30
0.0
 11
488.699871863452
 21
441.8116367012581
 31
0.0
1001
ACAD
1000
ASC_BOUNDS
1002
{
1070
    19
1005
0
1002
}
  0
LINE
  5
1BE
330
2
100
AcDbEntity
  8
0
100
AcDbLine
 10
484.699871863452
 20
444.8116367012582
 30
0.0
 11
484.699871863452
 21
442.8116367012583
 31
0.0
1001
ACAD
1000
ASC_BOUNDS
1002
{
1070
    19
1002
}
  0
ARC
  5
1BF
330
2
100
AcDbEntity
  8
0
100
AcDbCircle
 10
500.0516730125617
 20
462.2306963649536
 30
0.0
 40
2.5
100
AcDbArc
 50
248.5783165533324
 51
299.2107476043108
  0
ARC
  5
1C0
330
2
100
AcDbEntity
  8
0
100
AcDbCircle
 10
504.199871863452
 20
454.8116367012581
 30
0.0
 40
6.0
100
AcDbArc
 50
119.2107476043111
 51
180.0000000000004
1001
ACAD
1000
ASC_BOUNDS
1002
{
1070
    19
1002
}
  0
DIMENSION
  5
1C1
330
2
100
AcDbEntity
  8
BEM
100
AcDbDimension
  2
*D15
 10
546.1479643160873
 20
303.8116367012581
 30
0.0
 11
537.1479643160872
 21
354.8116367012582
 31
0.0
 70
    32
 71
     5
 42
102.0
  3
ISO-25
100
AcDbAlignedDimension
 13
535.7498718634522
 23
405.8116367012582
 33
0.0
 14
544.6203584284494
 24
303.8116367012581
 34
0.0
 50
90.0
100
AcDbRotatedDimension
1001
ACAD
1000
DSTYLE
1002
{
1070
   144
1040
1.0
1070
   289
1070
     0
1002
}
  0
DIMENSION
  5
1CE
330
2
100
AcDbEntity
  8
BEM
100
AcDbDimension
  2
*D14
 10
782.9014906639404
 20
334.0241335010536
 30
0.0
 11
773.9014906639403
 21
393.5241335010536
 31
0.0
 70
    32
 71
     5
 42
118.9999999999997
  3
ISO-25
100
AcDbAlignedDimension
 13
706.7569832102166
 23
453.0241335010534
 33
0.0
 14
717.5998718634524
 24
334.0241335010536
 34
0.0
 50
90.0
100
AcDbRotatedDimension
1001
ACAD
1000
DSTYLE
1002
{
1070
   144
1040
1.0
1070
   289
1070
     0
1002
}
  0
DIMENSION
  5
1DB
330
2
100
AcDbEntity
  8
BEM
100
AcDbDimension
  2
*D13
 10
755.978990109475
 20
334.0241335010536
 30
0.0
 11
746.9789901094749
 21
366.5241335010536
 31
0.0
 70
    32
 71
     5
 42
64.99999999999977
  3
ISO-25
100
AcDbAlignedDimension
 13
719.6226329313977
 23
399.0241335010534
 33
0.0
 14
717.5998718634524
 24
334.0241335010536
 34
0.0
 50
90.0
100
AcDbRotatedDimension
1001
ACAD
1000
DSTYLE
1002
{
1070
   144
1040
1.0
1070
   289
1070
     0
1002
}
  0
LINE
  5
1E8
330
2
100
AcDbEntity
  8
BEM
100
AcDbLine
 10
638.5998718634523
 20
343.5241335010534
 30
0.0
 11
638.5998718634523
 21
319.5477664764359
 31
0.0
  0
LINE
  5
1E9
330
2
100
AcDbEntity
  8
BEM
100
AcDbLine
 10
656.5998718634523
 20
343.5241335010534
 30
0.0
 11
656.5998718634523
 21
319.5477664764359
 31
0.0
  0
DIMENSION
  5
1F9
330
2
100
AcDbEntity
  8
BEM
100
AcDbDimension
  2
*D12
 10
1037.326502063032
 20
291.484330945402
 30
0.0
 11
1037.326502063032
 21
392.2667263887454
 31
0.0
 70
   160
  1
204
 71
     5
 42
204.327305755856
  3
ISO-25
100
AcDbAlignedDimension
 13
912.222289876578
 23
495.811636701258
 33
0.0
 14
964.4899105391932
 24
291.484330945402
 34
0.0
 50
90.0
100
AcDbRotatedDimension
1001
ACAD
1000
DSTYLE
1002
{
1070
   144
1040
1.0
1070
   289
1070
     0
1002
}
  0
LINE
  5
206
330
2
100
AcDbEntity
  8
LINIE
 48
10.0
100
AcDbLine
 10
525.1998718634521
 20
315.8116367012582
 30
0.0
 11
525.1998718634521
 21
419.4154128071366
 31
0.0
  0
LINE
  5
207
330
2
100
AcDbEntity
  8
MITTE
 48
20.0
100
AcDbLine
 10
840.2855332018084
 20
507.4509990805075
 30
0.0
 11
840.2855332018084
 21
293.5766278655819
 31
0.0
  0
LINE
  5
208
330
2
100
AcDbEntity
  8
LINIE
 48
10.0
100
AcDbLine
 10
555.199871863452
 20
456.6423181731311
 30
0.0
 11
555.199871863452
 21
307.4273557289912
 31
0.0
  0
LINE
  5
209
330
2
100
AcDbEntity
  8
MITTE
 48
10.0
100
AcDbLine
 10
647.5998718634523
 20
354.0577919850392
 30
0.0
 11
647.5998718634523
 21
329.6603765884384
 31
0.0
  0
LINE
  5
20A
330
2
100
AcDbEntity
  8
MITTE
 48
10.0
100
AcDbLine
 10
702.0998718634523
 20
353.5703749914411
 30
0.0
 11
702.0998718634523
 21
322.5241335010534
 31
0.0
  0
ARC
  5
20B
330
2
100
AcDbEntity
  8
0
100
AcDbCircle
 10
840.2855332018084
 20
405.811636701258
 30
0.0
 40
90.0
100
AcDbArc
 50
346.7968803211818
 51
218.3212863366507
  0
ARC
  5
20C
330
2
100
AcDbEntity
  8
0
100
AcDbCircle
 10
840.2855332018084
 20
405.811636701258
 30
0.0
 40
90.0
100
AcDbArc
 50
218.3212863366507
 51
346.7968803211818
  0
LINE
  5
20F
330
2
100
AcDbEntity
  8
0
100
AcDbLine
 10
720.0998718634522
 20
355.8819978773227
 30
0.0
 11
720.0998718634524
 21
336.5241335010536
 31
0.0
  0
LINE
  5
210
330
2
100
AcDbEntity
  8
0
100
AcDbLine
 10
682.5998718634523
 20
342.0241335010534
 30
0.0
 11
682.5998718634523
 21
340.8154213485311
 31
0.0
  0
LINE
  5
211
330
2
100
AcDbEntity
  8
0
100
AcDbLine
 10
612.5998718634524
 20
342.0241335010534
 30
0.0
 11
612.5998718634523
 21
341.0241335010531
 31
0.0
  0
ARC
  5
212
330
2
100
AcDbEntity
  8
0
100
AcDbCircle
 10
597.5998718634524
 20
338.5241335010531
 30
0.0
 40
2.5
100
AcDbArc
 50
89.99999999999996
 51
180.0
  0
LINE
  5
213
330
2
100
AcDbEntity
  8
0
100
AcDbLine
 10
595.0998718634525
 20
341.5241335010533
 30
0.0
 11
595.0998718634523
 21
325.5241335010532
 31
0.0
  0
LINE
  5
214
330
2
100
AcDbEntity
  8
0
100
AcDbLine
 10
588.0998718634521
 20
461.8116367012581
 30
0.0
 11
588.0998718634514
 21
291.573111394862
 31
0.0
1001
ACAD
1000
ASC_BOUNDS
1002
{
1070
    19
1002
}
  0
LINE
  5
215
330
2
100
AcDbEntity
  8
0
100
AcDbLine
 10
581.6998718634526
 20
461.811636701258
 30
0.0
 11
581.6998718634521
 21
291.573111394862
 31
0.0
1001
ACAD
1000
ASC_BOUNDS
1002
{
1070
    19
1002
}
  0
LINE
  5
216
330
2
100
AcDbEntity
  8
0
100
AcDbLine
 10
588.0998718634521
 20
451.255287515154
 30
0.0
 11
588.0998718634518
 21
319.2552875151544
 31
0.0
1001
ACAD
1000
ASC_BOUNDS
1002
{
1070
    19
1005
0
1002
}
  0
LINE
  5
217
330
2
100
AcDbEntity
  8
0
100
AcDbLine
 10
588.0998718634523
 20
454.0241335010533
 30
0.0
 11
588.0998718634523
 21
322.5241335010534
 31
0.0
  0
DIMENSION
  5
218
330
2
100
AcDbEntity
  8
BEM
100
AcDbDimension
  2
*D16
 10
647.5998718634523
 20
196.1372320040707
 30
0.0
 11
675.8617766253571
 21
196.1372320040707
 31
0.0
 70
   160
 71
     5
 42
54.5
  3
ISO-25
100
AcDbAlignedDimension
 13
702.0998718634523
 23
322.5241335010534
 33
0.0
 14
647.5998718634523
 24
289.4148067550846
 34
0.0
100
AcDbRotatedDimension
1001
ACAD
1000
DSTYLE
1002
{
1070
   144
1040
1.0
1070
   289
1070
     0
1002
}
  0
ARC
  5
225
330
2
100
AcDbEntity
  8
0
100
AcDbCircle
 10
681.5998718634522
 20
338.5241335010533
 30
0.0
 40
2.5
100
AcDbArc
 50
0.0
 51
66.42182152179517
  0
LINE
  5
226
330
2
100
AcDbEntity
  8
0
100
AcDbLine
 10
597.5998718634524
 20
341.0241335010531
 30
0.0
 11
612.5998718634523
 21
341.0241335010531
 31
0.0
  0
LINE
  5
228
330
2
100
AcDbEntity
  8
0
100
AcDbLine
 10
531.1998718634519
 20
303.8116367012582
 30
0.0
 11
553.199871863452
 21
303.8116367012582
 31
0.0
1001
ACAD
1000
ASC_BOUNDS
1002
{
1070
    19
1002
}
  0
ARC
  5
229
330
2
100
AcDbEntity
  8
0
100
AcDbCircle
 10
531.1998718634519
 20
309.8116367012582
 30
0.0
 40
6.0
100
AcDbArc
 50
180.0000000000004
 51
269.9999999999999
1001
ACAD
1000
ASC_BOUNDS
1002
{
1070
    19
1002
}
  0
LINE
  5
22A
330
2
100
AcDbEntity
  8
0
100
AcDbLine
 10
525.199871863452
 20
315.8116367012582
 30
0.0
 11
525.199871863452
 21
309.8116367012582
 31
0.0
1001
ACAD
1000
ASC_BOUNDS
1002
{
1070
    19
1002
}
  0
ARC
  5
22B
330
2
100
AcDbEntity
  8
0
100
AcDbCircle
 10
553.199871863452
 20
301.3116367012582
 30
0.0
 40
2.5
100
AcDbArc
 50
36.86989764584419
 51
89.99999999999998
1001
ACAD
1000
ASC_BOUNDS
1002
{
1070
    19
1002
}
  0
ARC
  5
22C
330
2
100
AcDbEntity
  8
0
100
AcDbCircle
 10
592.0998718634523
 20
325.5241335010532
 30
0.0
 40
3.0
100
AcDbArc
 50
269.9999999999993
 51
359.9999999999996
  0
LINE
  5
22D
330
2
100
AcDbEntity
  8
0
100
AcDbLine
 10
588.0998718634523
 20
322.5241335010534
 30
0.0
 11
592.0998718634522
 21
322.5241335010533
 31
0.0
  0
LINE
  5
22E
330
2
100
AcDbEntity
  8
0
100
AcDbLine
 10
588.0998718634519
 20
319.2552875151542
 30
0.0
 11
588.0998718634519
 21
319.2552875151542
 31
0.0
1001
ACAD
1000
ASC_BOUNDS
1002
{
1070
    19
1005
0
1002
}
  0
DIMENSION
  5
22F
330
2
100
AcDbEntity
  8
BEM
100
AcDbDimension
  2
*D17
 10
638.5998718634523
 20
297.4937882610108
 30
0.0
 11
647.5998718634523
 21
297.4937882610108
 31
0.0
 70
   160
  1
M<>x1.5
 71
     5
 42
18.0
  3
ISO-25
100
AcDbAlignedDimension
 13
656.5998718634523
 23
299.0906243311743
 33
0.0
 14
638.5998718634523
 24
299.5210161119647
 34
0.0
100
AcDbRotatedDimension
1001
ACAD
1000
DSTYLE
1002
{
1070
   144
1040
1.0
1070
   289
1070
     0
1002
}
  0
LINE
  5
23E
330
2
100
AcDbEntity
  8
BEM
100
AcDbLine
 10
647.5998718634523
 20
329.6603765884384
 30
0.0
 11
647.5998718634523
 21
317.4085271570695
 31
0.0
  0
MTEXT
  5
242
102
{ACAD_REACTORS
330
243
102
}
330
2
100
AcDbEntity
  8
BEM
100
AcDbMText
 10
745.0423500191249
 20
286.7138062177289
 30
0.0
 40
10.0
 41
0.0
 71
     4
 72
     1
  1
G 3/4"
 73
     1
 44
1.0
  0
LEADER
  5
243
330
2
100
AcDbEntity
  8
BEM
100
AcDbLeader
  3
ISO-25
 73
     0
 74
     0
 75
     1
 40
15.23809523809523
 41
53.80952380952383
 76
     3
 10
702.0998718634523
 20
334.0241335010535
 30
0.0
 10
734.0423500191249
 20
275.0947585986813
 30
0.0
 10
741.0423500191249
 20
275.0947585986813
 30
0.0
340
242
1001
ACAD
1000
DSTYLE
1002
{
1070
   144
1040
1.0
1070
   287
1070
     0
1002
}
  0
HATCH
  5
245
330
2
100
AcDbEntity
  8
LINIE
 48
10.0
100
AcDbHatch
 10
0.0
 20
0.0
 30
0.0
210
0.0
220
0.0
230
1.0
  2
ANSI31
 70
     0
 71
     0
 91
        4
 92
        5
 93
        5
 72
     1
 10
715.3203718634523
 20
334.0241335010536
 11
717.5998718634524
 21
334.0241335010536
 72
     2
 10
717.5998718634524
 20
336.5241335010536
 40
2.499999999999999
 50
270.0
 51
360.0000000000013
 73
     1
 72
     1
 10
720.0998718634524
 20
336.5241335010536
 11
720.0998718634523
 21
338.2761394416618
 72
     4
 94
        3
 73
     0
 74
     0
 95
        9
 96
        5
 40
31.73585995709382
 40
31.73585995709382
 40
31.73585995709382
 40
31.73585995709382
 40
33.63609640649291
 40
36.857751855649
 40
36.857751855649
 40
36.857751855649
 40
36.857751855649
 10
720.0998718634524
 20
338.2761394416619
 10
719.5415646358945
 20
338.5790511669965
 10
718.0367049292838
 20
339.3955185663343
 10
716.3837153592464
 20
339.8461635255131
 10
715.3203718634507
 20
340.0431947723908
 72
     1
 10
715.3203718634523
 20
340.0431947723904
 11
715.3203718634523
 21
334.0241335010536
 97
        0
 92
        5
 93
        4
 72
     4
 94
        3
 73
     0
 74
     0
 95
        8
 96
        4
 40
30.57003609658486
 40
30.57003609658486
 40
30.57003609658486
 40
30.57003609658486
 40
31.73585995709381
 40
31.73585995709381
 40
31.73585995709381
 40
31.73585995709381
 10
715.3203718634508
 20
340.0431947723908
 10
714.9355786293885
 20
340.114494677828
 10
714.5476926348721
 20
340.1744774143714
 10
714.1583718634523
 20
340.2259061279043
 72
     1
 10
714.1583718634523
 20
340.2259061279043
 11
714.1583718634522
 21
335.1861335010535
 72
     1
 10
714.1583718634522
 20
335.1861335010535
 11
715.3203718634524
 21
334.0241335010536
 72
     1
 10
715.3203718634524
 20
334.0241335010536
 11
715.3203718634523
 21
340.0431947723906
 97
        0
 92
        5
 93
        4
 72
     1
 10
688.8793718634524
 20
334.0241335010534
 11
690.0413718634523
 21
335.1861335010534
 72
     1
 10
690.0413718634523
 20
335.1861335010534
 11
690.0413718634523
 21
340.0609597602433
 72
     4
 94
        3
 73
     0
 74
     0
 95
        8
 96
        4
 40
5.132474026507138
 40
5.132474026507138
 40
5.132474026507138
 40
5.132474026507138
 40
6.360436656674873
 40
6.360436656674873
 40
6.360436656674873
 40
6.360436656674873
 10
690.041371863469
 20
340.0609597602485
 10
689.6521903321325
 20
339.943729569438
 10
689.264984118844
 20
339.8155511361571
 10
688.8793718635061
 20
339.678538156893
 72
     1
 10
688.8793718634522
 20
339.6785381568745
 11
688.8793718634524
 21
334.0241335010534
 97
        0
 92
        5
 93
        5
 72
     4
 94
        3
 73
     0
 74
     0
 95
        8
 96
        4
 40
0.0
 40
0.0
 40
0.0
 40
0.0
 40
5.132474026507137
 40
5.132474026507137
 40
5.132474026507137
 40
5.132474026507137
 10
688.8793718635061
 20
339.678538156893
 10
687.2676413138927
 20
339.1058696244058
 10
685.6837565886725
 20
338.3788650155035
 10
684.0998718634522
 20
337.651860406601
 72
     1
 10
684.0998718634522
 20
337.651860406601
 11
684.0998718634522
 21
336.5241335010536
 72
     2
 10
686.5998718634521
 20
336.5241335010535
 40
2.5
 50
180.0
 51
270.0
 73
     1
 72
     1
 10
686.5998718634521
 20
334.0241335010535
 11
688.8793718634523
 21
334.0241335010535
 72
     1
 10
688.8793718634523
 20
334.0241335010535
 11
688.8793718634522
 21
339.6785381568716
 97
        0
 75
     0
 76
     1
 52
0.0
 41
20.0
 77
     0
 78
     1
 53
45.0
 43
128.7003470706454
 44
109.8944873655078
 45
-1.767766952966368
 46
1.767766952966368
 79
     0
 47
0.1218544639141766
 98
        4
 10
716.5403996849513
 20
336.510749601024
 10
714.8338611716954
 20
337.2418750914213
 10
689.3576794622604
 20
336.8763133029253
 10
687.8949329278062
 20
336.510749601024
  0
SPLINE
  5
246
330
2
100
AcDbEntity
  8
LINIE
 48
10.0
100
AcDbSpline
210
0.0
220
0.0
230
1.0
 70
     8
 71
     3
 72
    12
 73
     8
 74
     6
 42
0.0000000001
 43
0.0000000001
 44
0.0000000001
 40
0.0
 40
0.0
 40
0.0
 40
0.0
 40
8.823504819814441
 40
17.17642179202402
 40
29.12386730704584
 40
34.9575154062499
 40
36.85775185564901
 40
36.85775185564901
 40
36.85775185564901
 40
36.85775185564901
 10
684.0998718634522
 20
337.651860406601
 30
0.0
 10
686.8228110220011
 20
338.9016920935318
 30
0.0
 10
692.1234656321993
 20
341.3346976465577
 30
0.0
 10
702.0201906507909
 20
340.4214329448186
 30
0.0
 10
710.6272420136585
 20
340.8266706573706
 30
0.0
 10
717.2692770782337
 20
339.8118894871408
 30
0.0
 10
719.5415646358944
 20
338.5790511669964
 30
0.0
 10
720.0998718634524
 20
338.2761394416619
 30
0.0
 11
684.0998718634522
 21
337.651860406601
 31
0.0
 11
692.4101719875866
 21
340.6171848664368
 31
0.0
 11
700.7627244463792
 21
340.6952192674681
 31
0.0
 11
712.7060917795902
 21
340.3830797499378
 31
0.0
 11
718.4045611259043
 21
339.1345216798165
 31
0.0
 11
720.0998718634524
 21
338.2761394416619
 31
0.0
  0
LINE
  5
247
330
2
100
AcDbEntity
  8
0
100
AcDbLine
 10
686.5998718634521
 20
334.0241335010535
 30
0.0
 11
717.5998718634524
 21
334.0241335010536
 31
0.0
  0
LINE
  5
248
330
2
100
AcDbEntity
  8
0
100
AcDbLine
 10
690.0413718634524
 20
335.1861335010535
 30
0.0
 11
714.1583718634525
 21
335.1861335010536
 31
0.0
  0
LINE
  5
249
330
2
100
AcDbEntity
  8
LINIE
 48
10.0
100
AcDbLine
 10
688.8793718634523
 20
339.6785381568737
 30
0.0
 11
688.8793718634523
 21
334.0241335010535
 31
0.0
  0
LINE
  5
24A
330
2
100
AcDbEntity
  8
0
100
AcDbLine
 10
684.0998718634522
 20
338.5241335010533
 30
0.0
 11
684.0998718634522
 21
336.5241335010535
 31
0.0
  0
ARC
  5
24B
330
2
100
AcDbEntity
  8
0
100
AcDbCircle
 10
686.5998718634521
 20
336.5241335010535
 30
0.0
 40
2.5
100
AcDbArc
 50
180.0
 51
270.0
  0
LINE
  5
24C
330
2
100
AcDbEntity
  8
0
100
AcDbLine
 10
690.0413718634523
 20
340.0609597603411
 30
0.0
 11
690.0413718634523
 21
335.1861335010535
 31
0.0
  0
LINE
  5
24D
330
2
100
AcDbEntity
  8
0
100
AcDbLine
 10
690.0413718634523
 20
335.1861335010534
 30
0.0
 11
688.8793718634523
 21
334.0241335010535
 31
0.0
  0
LINE
  5
24E
330
2
100
AcDbEntity
  8
LINIE
 48
10.0
100
AcDbLine
 10
715.3203718634523
 20
340.0431947723969
 30
0.0
 11
715.3203718634523
 21
334.0241335010536
 31
0.0
  0
LINE
  5
24F
330
2
100
AcDbEntity
  8
0
100
AcDbLine
 10
714.1583718634523
 20
340.2259061279049
 30
0.0
 11
714.1583718634523
 21
335.1861335010536
 31
0.0
  0
LINE
  5
250
330
2
100
AcDbEntity
  8
0
100
AcDbLine
 10
714.1583718634523
 20
335.1861335010536
 30
0.0
 11
715.3203718634523
 21
334.0241335010536
 31
0.0
  0
ARC
  5
251
330
2
100
AcDbEntity
  8
0
100
AcDbCircle
 10
717.5998718634524
 20
336.5241335010536
 30
0.0
 40
2.5
100
AcDbArc
 50
269.9999999999999
 51
0.0
  0
LINE
  5
266
330
2
100
AcDbEntity
  8
MITTE
 48
20.0
100
AcDbLine
 10
747.2513446339267
 20
405.811636701258
 30
0.0
 11
933.1480271073523
 21
405.811636701258
 31
0.0
  0
ARC
  5
267
330
2
100
AcDbEntity
  8
MITTE
 48
15.0
100
AcDbCircle
 10
840.2855332018082
 20
405.8116367012578
 30
0.0
 40
72.5
100
AcDbArc
 50
281.4882836599061
 51
327.5671739695356
  0
LINE
  5
268
330
2
100
AcDbEntity
  8
MITTE
 48
10.0
100
AcDbLine
 10
583.7634560134447
 20
399.0241335010534
 30
0.0
 11
719.6226329313977
 21
399.0241335010534
 31
0.0
  0
LINE
  5
269
330
2
100
AcDbEntity
  8
0
100
AcDbLine
 10
668.1400572212378
 20
344.0241335010534
 30
0.0
 11
708.0998718634522
 21
344.0241335010535
 31
0.0
  0
LINE
  5
26A
330
2
100
AcDbEntity
  8
0
100
AcDbLine
 10
592.4587708069928
 20
453.0241335010534
 30
0.0
 11
706.7569832102166
 21
453.0241335010534
 31
0.0
  0
DIMENSION
  5
26B
330
2
100
AcDbEntity
  8
BEM
100
AcDbDimension
  2
*D18
 10
546.1479643160873
 20
405.8116367012582
 30
0.0
 11
537.1479643160872
 21
433.3116367012582
 31
0.0
 70
    32
 71
     5
 42
55.0
  3
ISO-25
100
AcDbAlignedDimension
 13
553.199871863452
 23
460.8116367012581
 33
0.0
 14
553.1240415326656
 24
405.8116367012582
 34
0.0
 50
90.0
100
AcDbRotatedDimension
1001
ACAD
1000
DSTYLE
1002
{
1070
   144
1040
1.0
1070
   289
1070
     0
1002
}
  0
LINE
  5
278
330
2
100
AcDbEntity
  8
LINIE
100
AcDbLine
 10
610.0998718634523
 20
441.4615681658286
 30
0.0
 11
610.0998718634523
 21
434.6794960216738
 31
0.0
  0
LINE
  5
279
330
2
100
AcDbEntity
  8
0
100
AcDbLine
 10
588.0998718634518
 20
451.2552875151543
 30
0.0
 11
588.0998718634519
 21
435.2552875151542
 31
0.0
1001
ACAD
1000
ASC_BOUNDS
1002
{
1070
    19
1005
0
1005
0
1002
}
  0
LINE
  5
27A
330
2
100
AcDbEntity
  8
0
100
AcDbLine
 10
597.5998718634524
 20
344.0241335010532
 30
0.0
 11
628.3364947571241
 21
344.0241335010534
 31
0.0
  0
LINE
  5
27B
330
2
100
AcDbEntity
  8
0
100
AcDbLine
 10
588.0998718634523
 20
357.512332506397
 30
0.0
 11
610.5998718634523
 21
357.512332506397
 31
0.0
  0
LINE
  5
27C
330
2
100
AcDbEntity
  8
0
100
AcDbLine
 10
588.0998718634523
 20
345.0264593054074
 30
0.0
 11
610.5998718634523
 21
345.0264593054074
 31
0.0
  0
LINE
  5
27D
330
2
100
AcDbEntity
  8
0
100
AcDbLine
 10
588.0998718634523
 20
434.1433741471518
 30
0.0
 11
610.5998718634523
 21
434.1433741471518
 31
0.0
  0
LINE
  5
27E
330
2
100
AcDbEntity
  8
LINIE
100
AcDbLine
 10
592.4587708069928
 20
433.1925734419969
 30
0.0
 11
592.4587708069927
 21
358.7486709644218
 31
0.0
  0
ARC
  5
27F
330
2
100
AcDbEntity
  8
0
100
AcDbCircle
 10
597.5998718634524
 20
341.5241335010533
 30
0.0
 40
2.5
100
AcDbArc
 50
90.00000000000005
 51
180.0
  0
LINE
  5
280
330
2
100
AcDbEntity
  8
MITTE
 48
5.0
100
AcDbLine
 10
578.3855467173802
 20
399.0241335010534
 30
0.0
 11
595.9614018716074
 21
399.0241335010534
 31
0.0
  0
HATCH
  5
281
330
2
100
AcDbEntity
  8
LINIE
 48
10.0
100
AcDbHatch
 10
0.0
 20
0.0
 30
0.0
210
0.0
220
0.0
230
1.0
  2
ANSI31
 70
     0
 71
     0
 91
        4
 92
        5
 93
        5
 72
     4
 94
        3
 73
     0
 74
     0
 95
       10
 96
        6
 40
32.20332906069053
 40
32.20332906069053
 40
32.20332906069053
 40
32.20332906069053
 40
36.07354258304438
 40
41.88446131772932
 40
47.39498654027875
 40
47.39498654027875
 40
47.39498654027875
 40
47.39498654027875
 10
668.5743412016468
 20
342.0241335010534
 10
668.3286983755031
 20
343.3711341333437
 10
667.7142359759084
 20
346.7405842156706
 10
662.1481368711187
 20
348.4601723353634
 10
658.4038015362327
 20
348.7999686586016
 10
656.599871863453
 20
348.896989555083
 72
     1
 10
656.5998718634523
 20
348.8969895550831
 11
656.5998718634523
 21
343.5241335010534
 72
     1
 10
656.5998718634523
 20
343.5241335010534
 11
661.5998718634523
 21
343.5241335010534
 72
     1
 10
661.5998718634523
 20
343.5241335010534
 11
661.5998718634523
 21
342.0241335010534
 72
     1
 10
661.5998718634523
 20
342.0241335010534
 11
668.5743412016468
 21
342.0241335010534
 97
        0
 92
        5
 93
        4
 72
     1
 10
655.7878718634523
 20
344.3361335010535
 11
656.5998718634522
 21
343.5241335010534
 72
     1
 10
656.5998718634522
 20
343.5241335010534
 11
656.5998718634523
 21
348.896989555083
 72
     4
 94
        3
 73
     0
 74
     0
 95
        8
 96
        4
 40
31.37550076964246
 40
31.37550076964246
 40
31.37550076964246
 40
31.37550076964246
 40
32.20332906069053
 40
32.20332906069053
 40
32.20332906069053
 40
32.20332906069053
 10
656.599871863453
 20
348.896989555083
 10
656.3288733727688
 20
348.9115646889742
 10
656.0582938245403
 20
348.9245968585574
 10
655.7878718634522
 20
348.9366106524016
 72
     1
 10
655.7878718634523
 20
348.9366106524016
 11
655.7878718634523
 21
344.3361335010534
 97
        0
 92
        5
 93
        4
 72
     1
 10
638.5998718634523
 20
343.5241335010534
 11
639.4118718634523
 21
344.3361335010532
 72
     1
 10
639.4118718634523
 20
344.3361335010534
 11
639.4118718634523
 21
348.9670692380355
 72
     4
 94
        3
 73
     0
 74
     0
 95
        8
 96
        4
 40
14.07287279079752
 40
14.07287279079752
 40
14.07287279079752
 40
14.07287279079752
 40
14.88854677267786
 40
14.88854677267786
 40
14.88854677267786
 40
14.88854677267786
 10
639.4118718634517
 20
348.9670692380354
 10
639.1417751650347
 20
348.9367441771858
 10
638.8711646094782
 20
348.9047658447105
 10
638.5998718634503
 20
348.8712451512802
 72
     1
 10
638.5998718634523
 20
348.8712451512804
 11
638.5998718634523
 21
343.5241335010534
 97
        0
 92
        5
 93
        5
 72
     1
 10
638.5998718634523
 20
343.5241335010534
 11
638.5998718634523
 21
348.8712451512805
 72
     4
 94
        3
 73
     0
 74
     0
 95
       10
 96
        6
 40
0.0
 40
0.0
 40
0.0
 40
0.0
 40
2.557235650529396
 40
7.727877917640146
 40
14.07287279079752
 40
14.07287279079752
 40
14.07287279079752
 40
14.07287279079752
 10
638.5998718634503
 20
348.8712451512802
 10
637.7493366039181
 20
348.766153761614
 10
635.1587854054967
 20
348.4027587270132
 10
630.2434798988481
 20
347.5457216911406
 10
628.2694931231989
 20
343.9856793596465
 10
627.1818471841497
 20
342.0241335010534
 72
     1
 10
627.1818471841498
 20
342.0241335010534
 11
633.5998718634523
 21
342.0241335010534
 72
     1
 10
633.5998718634523
 20
342.0241335010534
 11
633.5998718634523
 21
343.5241335010534
 72
     1
 10
633.5998718634523
 20
343.5241335010534
 11
638.5998718634523
 21
343.5241335010534
 97
        0
 75
     0
 76
     1
 52
0.0
 41
20.0
 77
     0
 78
     1
 53
45.0
 43
128.7003470706454
 44
109.8944873655078
 45
-1.767766952966368
 46
1.767766952966368
 79
     0
 47
0.1339110804423528
 98
        4
 10
662.6802638653344
 20
345.9695989318685
 10
656.1164045282271
 20
346.9069780138301
 10
638.9700018567741
 20
345.5678661329736
 10
635.6210945219763
 20
345.7017777037403
  0
SPLINE
  5
282
330
2
100
AcDbEntity
  8
LINIE
 48
10.0
100
AcDbSpline
210
0.0
220
0.0
230
1.0
 70
     8
 71
     3
 72
    14
 73
    10
 74
     8
 42
0.0000000001
 43
0.0000000001
 44
0.0000000001
 40
0.0
 40
0.0
 40
0.0
 40
0.0
 40
6.344994873157406
 40
11.51563714026816
 40
20.12640737688697
 40
28.43601387734805
 40
37.71385428324001
 40
43.52477301792495
 40
47.39498654027879
 40
47.39498654027879
 40
47.39498654027879
 40
47.39498654027879
 10
627.1818471841497
 20
342.0241335010534
 30
0.0
 10
628.2694931231987
 20
343.9856793596465
 30
0.0
 10
630.2434798988481
 20
347.5457216911407
 30
0.0
 10
637.2731349294366
 20
348.7714185888152
 30
0.0
 10
644.4353259746129
 20
349.57010397696
 30
0.0
 10
653.3069617354209
 20
348.9412361887939
 30
0.0
 10
660.7678233867186
 20
348.8866057539102
 30
0.0
 10
667.7142359759086
 20
346.7405842156708
 30
0.0
 10
668.328698375503
 20
343.3711341333437
 30
0.0
 10
668.5743412016468
 20
342.0241335010534
 30
0.0
 11
627.1818471841497
 21
342.0241335010534
 31
0.0
 11
631.0665785180767
 21
347.0408876711916
 31
0.0
 11
636.0229631886181
 21
348.5139092094097
 31
0.0
 11
644.5961658589331
 21
349.3173767206045
 31
0.0
 11
652.9014551950949
 21
349.0495535790711
 31
0.0
 11
662.1444398662047
 21
348.2460879812815
 31
0.0
 11
667.3687352017223
 21
345.7017777037403
 31
0.0
 11
668.5743412016468
 21
342.0241335010534
 31
0.0
  0
LINE
  5
283
330
2
100
AcDbEntity
  8
0
100
AcDbLine
 10
612.5998718634523
 20
342.0241335010534
 30
0.0
 11
682.5998718634523
 21
342.0241335010534
 31
0.0
  0
LINE
  5
284
330
2
100
AcDbEntity
  8
0
100
AcDbLine
 10
633.5998718634523
 20
343.5241335010534
 30
0.0
 11
661.5998718634523
 21
343.5241335010534
 31
0.0
  0
LINE
  5
285
330
2
100
AcDbEntity
  8
0
100
AcDbLine
 10
639.4118718634522
 20
344.3361335010532
 30
0.0
 11
655.7878718634523
 21
344.3361335010534
 31
0.0
  0
LINE
  5
286
330
2
100
AcDbEntity
  8
LINIE
100
AcDbLine
 10
610.0998718634523
 20
356.8986578939447
 30
0.0
 11
610.0998718634523
 21
346.0134544124705
 31
0.0
  0
ARC
  5
287
330
2
100
AcDbEntity
  8
0
100
AcDbCircle
 10
610.5998718634523
 20
342.5264593054074
 30
0.0
 40
2.5
100
AcDbArc
 50
36.80329727510424
 51
90.0
  0
ARC
  5
288
330
2
100
AcDbEntity
  8
0
100
AcDbCircle
 10
610.5998718634523
 20
360.012332506397
 30
0.0
 40
2.5
100
AcDbArc
 50
270.0
 51
0.0
  0
LINE
  5
289
330
2
100
AcDbEntity
  8
LINIE
 48
10.0
100
AcDbLine
 10
638.5998718634523
 20
348.8712451512846
 30
0.0
 11
638.5998718634523
 21
343.5241335010534
 31
0.0
  0
LINE
  5
28A
330
2
100
AcDbEntity
  8
0
100
AcDbLine
 10
633.5998718634523
 20
343.5241335010534
 30
0.0
 11
633.5998718634523
 21
342.0241335010534
 31
0.0
  0
LINE
  5
28B
330
2
100
AcDbEntity
  8
0
100
AcDbLine
 10
639.4118718634523
 20
348.9670692380374
 30
0.0
 11
639.4118718634523
 21
344.3361335010534
 31
0.0
  0
LINE
  5
28C
330
2
100
AcDbEntity
  8
0
100
AcDbLine
 10
639.4118718634523
 20
344.3361335010534
 30
0.0
 11
638.5998718634523
 21
343.5241335010534
 31
0.0
  0
LINE
  5
28D
330
2
100
AcDbEntity
  8
LINIE
 48
10.0
100
AcDbLine
 10
656.5998718634523
 20
348.8969895550858
 30
0.0
 11
656.5998718634523
 21
343.5241335010534
 31
0.0
  0
LINE
  5
28E
330
2
100
AcDbEntity
  8
0
100
AcDbLine
 10
655.7878718634523
 20
344.3361335010534
 30
0.0
 11
656.5998718634523
 21
343.5241335010534
 31
0.0
  0
LINE
  5
28F
330
2
100
AcDbEntity
  8
0
100
AcDbLine
 10
655.7878718634523
 20
348.9366106524018
 30
0.0
 11
655.7878718634523
 21
344.3361335010534
 31
0.0
  0
LINE
  5
290
330
2
100
AcDbEntity
  8
0
100
AcDbLine
 10
661.5998718634523
 20
343.5241335010534
 30
0.0
 11
661.5998718634523
 21
342.0241335010534
 31
0.0
  0
ARC
  5
291
330
2
100
AcDbEntity
  8
0
100
AcDbCircle
 10
678.5998718634523
 20
341.5241335010533
 30
0.0
 40
2.5
100
AcDbArc
 50
90.00000000000003
 51
168.463040967181
  0
ARC
  5
292
330
2
100
AcDbEntity
  8
0
100
AcDbCircle
 10
610.5998718634523
 20
431.6433741471517
 30
0.0
 40
2.5
100
AcDbArc
 50
0.0
 51
90.0
  0
LINE
  5
293
330
2
100
AcDbEntity
  8
0
100
AcDbLine
 10
588.0998718634523
 20
442.0250568938356
 30
0.0
 11
610.5998718634523
 21
442.0250568938356
 31
0.0
  0
LINE
  5
294
330
2
100
AcDbEntity
  8
0
100
AcDbLine
 10
555.199871863452
 20
461.8116367012581
 30
0.0
 11
588.0998718634521
 21
461.811636701258
 31
0.0
1001
ACAD
1000
ASC_BOUNDS
1002
{
1070
    19
1002
}
  0
ARC
  5
295
330
2
100
AcDbEntity
  8
0
100
AcDbCircle
 10
553.199871863452
 20
463.3116367012582
 30
0.0
 40
2.5
100
AcDbArc
 50
270.0
 51
323.1301023541558
1001
ACAD
1000
ASC_BOUNDS
1002
{
1070
    19
1002
}
  0
LINE
  5
296
330
2
100
AcDbEntity
  8
LINIE
100
AcDbLine
 10
592.4587708069928
 20
450.0289736151643
 30
0.0
 11
592.4587708069928
 21
442.8142123455899
 31
0.0
  0
LINE
  5
297
330
2
100
AcDbEntity
  8
0
100
AcDbLine
 10
591.0998718634523
 20
454.0241335010533
 30
0.0
 11
588.0998718634523
 21
454.0241335010533
 31
0.0
  0
ARC
  5
298
330
2
100
AcDbEntity
  8
0
100
AcDbCircle
 10
591.0214447682117
 20
452.494255834808
 30
0.0
 40
1.53188657639655
100
AcDbArc
 50
20.23666902886435
 51
87.06537877672889
  0
ARC
  5
299
330
2
100
AcDbEntity
  8
0
100
AcDbCircle
 10
610.5998718634523
 20
444.5250568938356
 30
0.0
 40
2.5
100
AcDbArc
 50
270.0
 51
0.0
  0
LINE
  5
29A
330
2
100
AcDbEntity
  8
0
100
AcDbLine
 10
716.0998718634523
 20
430.0241335010533
 30
0.0
 11
714.7265407949505
 21
445.7213794430345
 31
0.0
  0
LINE
  5
29B
330
2
100
AcDbEntity
  8
0
100
AcDbLine
 10
716.0998718634523
 20
430.0241335010532
 30
0.0
 11
716.0998718634522
 21
352.0241335010535
 31
0.0
  0
ARC
  5
29C
330
2
100
AcDbEntity
  8
0
100
AcDbCircle
 10
726.0998718634523
 20
367.847845812527
 30
0.0
 40
10.0
100
AcDbArc
 50
180.0
 51
219.3842076829969
  0
ARC
  5
29D
330
2
100
AcDbEntity
  8
0
100
AcDbCircle
 10
708.0998718634522
 20
352.0241335010535
 30
0.0
 40
8.0
100
AcDbArc
 50
270.0
 51
0.0
  0
ARC
  5
29E
330
2
100
AcDbEntity
  8
0
100
AcDbCircle
 10
710.0998718634522
 20
355.8819978773225
 30
0.0
 40
10.0
100
AcDbArc
 50
0.0000000000004071
 51
34.19888562142066
  0
ARC
  5
29F
330
2
100
AcDbEntity
  8
0
100
AcDbCircle
 10
706.7569832102166
 20
445.0241335010534
 30
0.0
 40
8.0
100
AcDbArc
 50
4.999999999999793
 51
90.0
  0
ARC
  5
2A0
330
2
100
AcDbEntity
  8
MITTE
 48
15.0
100
AcDbCircle
 10
840.2855332018082
 20
405.8116367012578
 30
0.0
 40
72.5
100
AcDbArc
 50
101.5931189888054
 51
141.616739814615
  0
DIMENSION
  5
2A1
330
2
100
AcDbEntity
  8
BEM
100
AcDbDimension
  2
*D19
 10
863.2321618575407
 20
459.2552271184287
 30
0.0
 11
936.5212525830369
 21
379.3037694439731
 31
0.0
 70
   163
 71
     5
 42
145.0000000000005
  3
ISO-25
100
AcDbDiametricDimension
 15
961.2124178956168
 25
352.3680462840874
 35
0.0
 40
0.0
1001
ACAD
1000
DSTYLE
1002
{
1070
   144
1040
1.0
1070
   289
1070
     0
1002
}
  0
LINE
  5
2AB
330
2
100
AcDbEntity
  8
MITTE
 48
10.0
100
AcDbLine
 10
861.9482082419267
 20
346.2939261835479
 30
0.0
 11
868.1772487792228
 21
329.1797779624593
 31
0.0
  0
CIRCLE
  5
2AC
330
2
100
AcDbEntity
  8
0
100
AcDbCircle
 10
865.0819935929193
 20
337.6839216942795
 30
0.0
 40
5.75
  0
ARC
  5
2AD
330
2
100
AcDbEntity
  8
MITTE
 48
15.0
100
AcDbCircle
 10
840.2855332018082
 20
405.8116367012578
 30
0.0
 40
72.5
100
AcDbArc
 50
190.8188316286235
 51
208.4068810111941
  0
LINE
  5
2AE
330
2
100
AcDbEntity
  8
MITTE
 48
10.0
100
AcDbLine
 10
780.6277999772369
 20
384.0979975637206
 30
0.0
 11
762.0444664940634
 21
377.3342173224029
 31
0.0
  0
CIRCLE
  5
2AF
330
2
100
AcDbEntity
  8
0
100
AcDbCircle
 10
772.15781819483
 20
381.0151763101469
 30
0.0
 40
5.75
  0
ARC
  5
2B0
330
2
100
AcDbEntity
  8
MITTE
 48
15.0
100
AcDbCircle
 10
840.2855332018082
 20
405.8116367012578
 30
0.0
 40
72.5
100
AcDbArc
 50
11.42334422561986
 51
28.51171634009427
  0
LINE
  5
2B1
330
2
100
AcDbEntity
  8
MITTE
 48
10.0
100
AcDbLine
 10
899.8032437195179
 20
427.4743117413771
 30
0.0
 11
916.9173919406064
 21
433.7033522786733
 31
0.0
  0
CIRCLE
  5
2B2
330
2
100
AcDbEntity
  8
0
100
AcDbCircle
 10
908.4132482087866
 20
430.6080970923688
 30
0.0
 40
5.75
  0
LINE
  5
2B3
330
2
100
AcDbEntity
  8
MITTE
 48
10.0
100
AcDbLine
 10
818.5718940642701
 20
465.4693699258287
 30
0.0
 11
811.8081138229523
 21
484.0527034090022
 31
0.0
  0
CIRCLE
  5
2B4
330
2
100
AcDbEntity
  8
0
100
AcDbCircle
 10
815.4890728106973
 20
473.9393517082362
 30
0.0
 40
5.75
  0
LINE
  5
AE0
330
2
100
AcDbEntity
  8
0
100
AcDbLine
 10
567.3703087695047
 20
291.573111394862
 30
0.0
 11
588.0998718634514
 21
291.573111394862
 31
0.0
  0
ARC
  5
B06
330
2
100
AcDbEntity
  8
0
100
AcDbCircle
 10
546.7297434765101
 20
284.3415083143163
 30
0.0
 40
20.31966332204827
100
AcDbArc
 50
25.24291588704736
 51
65.36450845374801
1001
ACAD
1000
ASC_BOUNDS
1002
{
1070
    19
1002
}
  0
ARC
  5
B09
330
2
100
AcDbEntity
  8
0
100
AcDbCircle
 10
567.3703087695051
 20
294.0731113948635
 30
0.0
 40
2.5
100
AcDbArc
 50
205.2429158870739
 51
269.9999999999896
1001
GENIUS_GENODEF_13
1002
{
1000
HIER
1070
     0
1002
}
1002
{
1000
MANEDIT
1070
     0
1002
}
1002
{
1000
NOSEL
1070
     0
1002
}
1002
{
1000
BEHIND
1070
     0
1002
}
1002
{
1000
REACTOR
1002
}
1001
GENIUS_GENOBJ-N-FIL_13
1002
{
1000
OWNER
1000
GEN
1002
}
  0
LINE
  5
D40
330
2
100
AcDbEntity
  8
0
100
AcDbLine
 10
921.6405193146252
 20
367.3231158855224
 30
0.0
 11
904.1631956683518
 21
300.4500387196859
 31
0.0
  0
ARC
  5
D41
330
2
100
AcDbEntity
  8
0
100
AcDbCircle
 10
892.5531538644236
 20
303.4843309454021
 30
0.0
 40
12.0
100
AcDbArc
 50
263.0261308132869
 51
345.3533200439307
  0
LINE
  5
D42
330
2
100
AcDbEntity
  8
0
100
AcDbLine
 10
853.1169793216209
 20
296.2187864076819
 30
0.0
 11
891.096153926597
 21
291.5731113948618
 31
0.0
  0
CIRCLE
  5
D43
330
2
100
AcDbEntity
  8
0
100
AcDbCircle
 10
892.5531538644236
 20
303.4843309454021
 30
0.0
 40
3.3235
  0
LINE
  5
D44
330
2
100
AcDbEntity
  8
MITTE
 48
10.0
100
AcDbLine
 10
895.1082794656766
 20
308.9638154800602
 30
0.0
 11
889.7800582420032
 21
297.5374081918866
 31
0.0
  0
LINE
  5
D45
330
2
100
AcDbEntity
  8
MITTE
 48
10.0
100
AcDbLine
 10
888.260025625993
 20
305.4862495204238
 30
0.0
 11
898.9430517665919
 21
300.5046726187924
 31
0.0
  0
ARC
  5
D46
330
2
100
AcDbEntity
  8
LINIE
 48
10.0
100
AcDbCircle
 10
892.5531538644236
 20
303.4843309454021
 30
0.0
 40
4.0
100
AcDbArc
 50
138.3492982195119
 51
73.85437576424344
  0
ARC
  5
D47
330
2
100
AcDbEntity
  8
0
100
AcDbCircle
 10
859.9163123648123
 20
351.8044776435365
 30
0.0
 40
56.0
100
AcDbArc
 50
245.0000000000003
 51
263.0261308132869
  0
LINE
  5
D48
330
2
100
AcDbEntity
  8
0
100
AcDbLine
 10
811.7793794573435
 20
312.461934636483
 30
0.0
 11
836.2496897073331
 21
301.0512415694841
 31
0.0
  0
ARC
  5
D49
330
2
100
AcDbEntity
  8
0
100
AcDbCircle
 10
842.6305125644145
 20
378.6224030901585
 30
0.0
 40
73.0
100
AcDbArc
 50
215.4966288260179
 51
245.0000000000003
  0
LINE
  5
D90
330
2
100
AcDbEntity
  8
MITTE
 48
20.0
100
AcDbLine
 10
236.979859609766
 20
504.8188164801988
 30
0.0
 11
236.979859609766
 21
378.3656786685861
 31
0.0
  0
LINE
  5
F19
330
2
100
AcDbEntity
  8
MITTE
 48
20.0
100
AcDbLine
 10
252.003386824593
 20
458.7096599460521
 30
0.0
 11
252.003386824593
 21
319.5925402999299
 31
0.0
  0
LINE
  5
F1B
330
2
100
AcDbEntity
  8
BEM
100
AcDbLine
 10
171.031722450916
 20
349.3906655479413
 30
0.0
 11
200.017161508272
 21
261.0237237768477
 31
0.0
  0
ARC
  5
F1C
330
2
100
AcDbEntity
  8
0
100
AcDbCircle
 10
236.979859609766
 20
405.8116367012582
 30
0.0
 40
90.0
100
AcDbArc
 50
342.1708262854213
 51
229.4415405741467
  0
LINE
  5
F1D
330
2
100
AcDbEntity
  8
0
100
AcDbLine
 10
161.3932730907133
 20
402.7357955445709
 30
0.0
 11
188.1257243580497
 21
300.450038719686
 31
0.0
  0
ARC
  5
F1E
330
2
100
AcDbEntity
  8
0
100
AcDbCircle
 10
236.979859609766
 20
405.8116367012582
 30
0.0
 40
88.0
100
AcDbArc
 50
189.5202251796862
 51
227.5209141936024
  0
ARC
  5
F1F
330
2
100
AcDbEntity
  8
0
100
AcDbCircle
 10
249.658407461987
 20
378.6224030901586
 30
0.0
 40
73.0
100
AcDbArc
 50
294.9999999999997
 51
28.5939954930963
  0
LINE
  5
F20
330
2
100
AcDbEntity
  8
0
100
AcDbLine
 10
234.0033868245923
 20
355.8819978773222
 30
0.0
 11
234.0033868245928
 21
335.5241335010535
 31
0.0
  0
LINE
  5
F21
330
2
100
AcDbEntity
  8
0
100
AcDbLine
 10
270.0033868245932
 20
355.8819978773224
 30
0.0
 11
270.0033868245932
 21
335.5241335010536
 31
0.0
  0
LINE
  5
F22
330
2
100
AcDbEntity
  8
0
100
AcDbLine
 10
292.0033868245933
 20
341.5241335010535
 30
0.0
 11
292.003386824593
 21
341.0241335010533
 31
0.0
  0
LINE
  5
F23
330
2
100
AcDbEntity
  8
0
100
AcDbLine
 10
302.1603051084096
 20
344.7644539256472
 30
0.0
 11
272.7969269241035
 21
328.032645587705
 31
0.0
  0
LINE
  5
F24
330
2
100
AcDbEntity
  8
MITTE
 48
5.0
100
AcDbLine
 10
270.503386824593
 20
371.7801214121477
 30
0.0
 11
270.503386824593
 21
340.1416577722579
 31
0.0
  0
LINE
  5
F25
330
2
100
AcDbEntity
  8
0
100
AcDbLine
 10
212.0033868245928
 20
341.5241335010535
 30
0.0
 11
212.003386824593
 21
341.0241335010533
 31
0.0
  0
LINE
  5
F26
330
2
100
AcDbEntity
  8
MITTE
 48
5.0
100
AcDbLine
 10
233.503386824593
 20
371.7801214121477
 30
0.0
 11
233.503386824593
 21
339.9809279153215
 31
0.0
  0
LINE
  5
F27
330
2
100
AcDbEntity
  8
0
100
AcDbLine
 10
201.8464685407764
 20
344.7644539256472
 30
0.0
 11
231.2098467250826
 21
328.032645587705
 31
0.0
  0
HATCH
  5
F28
330
2
100
AcDbEntity
  8
LINIE
 48
10.0
100
AcDbHatch
 10
0.0
 20
0.0
 30
0.0
210
0.0
220
0.0
230
1.0
  2
AR-CONC
 70
     0
 71
     0
 91
        7
 92
        7
 72
     1
 73
     1
 93
        3
 10
252.003386824593
 20
453.0241335010534
 42
0.0
 10
252.003386824593
 20
399.0241335010534
 42
0.0
 10
306.003386824593
 20
399.0241335010534
 42
0.4142135623730951
 97
        0
 92
        7
 72
     1
 73
     1
 93
        3
 10
252.003386824593
 20
453.0241335010534
 42
0.3777644791310694
 10
198.431661070169
 20
405.8116367012582
 42
0.0
 10
252.003386824593
 20
405.8116367012582
 42
0.0
 97
        0
 92
        7
 72
     1
 73
     1
 93
        4
 10
252.003386824593
 20
399.0241335010534
 42
0.0
 10
252.003386824593
 20
405.8116367012582
 42
0.0
 10
198.431661070169
 20
405.8116367012582
 42
0.0315173936867916
 10
198.003386824593
 20
399.0241335010534
 42
0.0
 97
        0
 92
        7
 72
     1
 73
     1
 93
       16
 10
252.003386824593
 20
399.0241335010534
 42
0.0
 10
198.003386824593
 20
399.0241335010534
 42
0.0
 10
198.003386824593
 20
352.0241335010534
 42
0.4142135623730907
 10
206.003386824593
 20
344.0241335010535
 42
0.0
 10
224.503386824593
 20
344.0241335010535
 42
0.0
 10
224.503386824593
 20
357.5241335010534
 42
0.0
 10
225.315386824593
 20
357.5241335010534
 42
0.0
 10
225.3153868245929
 20
362.5241335010534
 42
0.0
 10
233.503386824593
 20
367.2514775051781
 42
0.0
 10
241.6913868245929
 20
362.5241335010534
 42
0.0
 10
241.6913868245929
 20
357.5241335010534
 42
0.0
 10
242.503386824593
 20
357.5241335010534
 42
0.0
 10
242.503386824593
 20
343.5241335010534
 42
0.0
 10
247.503386824593
 20
343.5241335010534
 42
0.0
 10
247.503386824593
 20
342.0241335010534
 42
0.0
 10
252.003386824593
 20
342.0241335010534
 42
0.0
 97
        0
 92
        7
 72
     1
 73
     1
 93
       16
 10
306.003386824593
 20
399.0241335010534
 42
0.0
 10
252.003386824593
 20
399.0241335010534
 42
0.0
 10
252.003386824593
 20
342.0241335010534
 42
0.0
 10
256.503386824593
 20
342.0241335010534
 42
0.0
 10
256.503386824593
 20
343.5241335010534
 42
0.0
 10
261.503386824593
 20
343.5241335010534
 42
0.0
 10
261.503386824593
 20
357.5241335010534
 42
0.0
 10
262.3153868245931
 20
357.5241335010534
 42
0.0
 10
262.3153868245931
 20
362.5241335010535
 42
0.0
 10
270.503386824593
 20
367.2514775051781
 42
0.0
 10
278.6913868245929
 20
362.5241335010534
 42
0.0
 10
278.6913868245929
 20
357.5241335010534
 42
0.0
 10
279.503386824593
 20
357.5241335010534
 42
0.0
 10
279.503386824593
 20
344.0241335010534
 42
0.0
 10
298.0033868245932
 20
344.0241335010535
 42
0.4142135623730857
 10
306.003386824593
 20
352.0241335010535
 42
0.0
 97
        0
 92
        7
 72
     1
 73
     1
 93
        5
 10
252.003386824593
 20
334.0241335010535
 42
0.0
 10
252.003386824593
 20
342.0241335010534
 42
0.0
 10
234.0033868245927
 20
342.0241335010534
 42
0.0
 10
234.0033868245928
 20
335.5241335010534
 42
0.1622776601683737
 10
234.5033868245928
 20
334.0241335010535
 42
0.0
 97
        0
 92
        7
 72
     1
 73
     1
 93
        5
 10
252.003386824593
 20
342.0241335010534
 42
0.0
 10
252.003386824593
 20
334.0241335010535
 42
0.0
 10
269.5033868245931
 20
334.0241335010535
 42
0.1622776601683939
 10
270.0033868245932
 20
335.5241335010536
 42
0.0
 10
270.0033868245932
 20
342.0241335010534
 42
0.0
 97
        0
 75
     0
 76
     1
 52
0.0
 41
3.0
 77
     0
 78
    13
 53
50.0
 43
244.4806268896286
 44
28.77523769276809
 45
21.5178054780226
 46
-1.882564049477853
 79
     2
 49
2.25
 49
-24.75
 53
355.0
 43
244.4806268896286
 44
28.77523769276809
 45
-4.162540008389999
 46
22.56576401100035
 79
     2
 49
1.799999999999999
 49
-19.8
 53
100.4514
 43
246.2737772896286
 44
28.6183574927681
 45
17.35528145142065
 46
20.68318626182861
 79
     2
 49
1.912205699999996
 49
-21.03426335999994
 53
46.1842
 43
244.4806268896286
 44
34.77523769276809
 45
32.01723145876933
 46
-4.965570429870542
 79
     2
 49
3.375
 49
-37.125
 53
96.63559999999996
 43
247.1487292396286
 44
34.36143848276811
 45
28.0398811664611
 46
29.22353612701325
 79
     2
 49
2.868308639999992
 49
-31.55138999999994
 53
351.1842000000001
 43
244.4806268896286
 44
34.77523769276809
 45
28.03985835400882
 46
29.22355802775974
 79
     2
 49
2.7
 49
-29.7
 53
21.0
 43
247.4806268896287
 44
33.27523769276809
 45
17.90721156355385
 46
-12.07856671996016
 79
     2
 49
2.25
 49
-24.75
 53
326.0
 43
247.4806268896287
 44
33.27523769276809
 45
7.299459957647451
 46
21.75450135140559
 79
     2
 49
1.799999999999999
 49
-19.8
 53
71.45140000000001
 43
248.9728938796286
 44
32.26868951276811
 45
25.2066788574447
 46
9.675914901298572
 79
     2
 49
1.9122057
 49
-21.03426336
 53
37.5
 43
244.4806268896286
 44
28.77523769276809
 45
0.3647956595187201
 46
9.986815614939345
 79
     6
 49
0.0
 49
-19.56
 49
0.0
 49
-20.1
 49
0.0
 49
-19.875
 53
7.499999999999999
 43
244.4806268896286
 44
28.77523769276809
 45
7.892086123264458
 46
11.8323513564708
 79
     6
 49
0.0
 49
-11.46
 49
0.0
 49
-19.11
 49
0.0
 49
-7.574999999999999
 53
327.5
 43
237.7906268896286
 44
28.77523769276809
 45
16.01467308517227
 46
-0.676646152031394
 79
     6
 49
0.0
 49
-7.5
 49
0.0
 49
-23.4
 49
0.0
 49
-31.05
 53
317.5
 43
234.7906268896287
 44
28.77523769276809
 45
17.49558508027159
 46
3.003149469969529
 79
     6
 49
0.0
 49
-9.75
 49
0.0
 49
-15.54
 49
0.0
 49
-22.05
 47
0.3771958435050378
 98
        7
 10
276.294519823603
 20
434.1474784782308
 10
238.1846022789423
 20
426.980756983677
 10
239.6939058501871
 20
400.5770470124505
 10
241.2032094214314
 20
379.8312762161693
 10
300.443376963517
 20
379.0768842138398
 10
244.221816563921
 20
337.5853409362269
 10
261.9561335260455
 20
338.3397329385564
  0
ARC
  5
F29
330
2
100
AcDbEntity
  8
0
100
AcDbCircle
 10
232.3726076615893
 20
351.8044776435367
 30
0.0
 40
56.0
100
AcDbArc
 50
276.9738691867131
 51
294.9999999999997
  0
LINE
  5
F2A
330
2
100
AcDbEntity
  8
0
100
AcDbLine
 10
234.5033868245928
 20
334.0241335010535
 30
0.0
 11
269.5033868245932
 21
334.0241335010535
 31
0.0
  0
ARC
  5
F2B
330
2
100
AcDbEntity
  8
0
100
AcDbCircle
 10
252.003386824593
 20
364.5241335010534
 30
0.0
 40
42.0
100
AcDbArc
 50
240.32469145801
 51
299.6753085419893
  0
LINE
  5
F2C
330
2
100
AcDbEntity
  8
0
100
AcDbLine
 10
239.1719407047807
 20
296.218786407682
 30
0.0
 11
201.1927660998044
 21
291.573111394862
 31
0.0
  0
ARC
  5
F2D
330
2
100
AcDbEntity
  8
0
100
AcDbCircle
 10
199.7357661619778
 20
303.4843309454022
 30
0.0
 40
12.0
100
AcDbArc
 50
194.6466799560693
 51
276.9738691867131
  0
LINE
  5
F30
330
2
100
AcDbEntity
  8
MITTE
 48
4.0
100
AcDbLine
 10
207.8179453410634
 20
307.2531129911908
 30
0.0
 11
191.6535869828922
 21
299.7155488996138
 31
0.0
  0
LINE
  5
F31
330
2
100
AcDbEntity
  8
MITTE
 48
4.0
100
AcDbLine
 10
195.9669841161894
 20
311.5665101244879
 30
0.0
 11
203.5045482077663
 21
295.4021517663166
 31
0.0
  0
LINE
  5
F33
330
2
100
AcDbEntity
  8
0
100
AcDbLine
 10
212.003386824593
 20
341.0241335010533
 30
0.0
 11
234.0033868245928
 21
341.0241335010533
 31
0.0
  0
ARC
  5
F34
330
2
100
AcDbEntity
  8
0
100
AcDbCircle
 10
236.5033868245928
 20
335.5241335010535
 30
0.0
 40
2.5
100
AcDbArc
 50
180.0
 51
216.8698976458416
  0
LINE
  5
F36
330
2
100
AcDbEntity
  8
0
100
AcDbLine
 10
280.5095405690579
 20
312.4619346364831
 30
0.0
 11
256.0392303190683
 21
301.0512415694842
 31
0.0
  0
LINE
  5
F37
330
2
100
AcDbEntity
  8
0
100
AcDbLine
 10
270.0033868245932
 20
341.0241335010533
 30
0.0
 11
292.003386824593
 21
341.0241335010533
 31
0.0
  0
ARC
  5
F38
330
2
100
AcDbEntity
  8
0
100
AcDbCircle
 10
267.5033868245932
 20
335.5241335010536
 30
0.0
 40
2.5
100
AcDbArc
 50
323.1301023541544
 51
0.0
  0
ARC
  5
F3C
330
2
100
AcDbEntity
  8
0
100
AcDbCircle
 10
306.7655592115881
 20
438.3532428552919
 30
0.0
 40
12.0
100
AcDbArc
 50
339.9999999999999
 51
64.4724598483414
  0
ARC
  5
F3D
330
2
100
AcDbEntity
  8
0
100
AcDbCircle
 10
252.003386824593
 20
399.0241335010534
 30
0.0
 40
54.0
100
AcDbArc
 50
0.0
 51
180.0
  0
ARC
  5
F3E
330
2
100
AcDbEntity
  8
0
100
AcDbCircle
 10
287.0051724933271
 20
434.0259191697874
 30
0.0
 40
8.0
100
AcDbArc
 50
0.8412395351339505
 51
89.1587604648693
  0
ARC
  5
F3F
330
2
100
AcDbEntity
  8
0
100
AcDbCircle
 10
217.0016011558589
 20
434.0259191697874
 30
0.0
 40
8.0
100
AcDbArc
 50
90.84123953513069
 51
179.158760464866
  0
ARC
  5
F40
330
2
100
AcDbEntity
  8
0
100
AcDbCircle
 10
119.5182820115275
 20
448.5641546169667
 30
0.0
 40
65.0
100
AcDbArc
 50
344.2477660926281
 51
22.76942715905055
  0
ARC
  5
F41
330
2
100
AcDbEntity
  8
MITTE
 48
15.0
100
AcDbCircle
 10
236.979859609766
 20
405.8116367012582
 30
0.0
 40
72.5
100
AcDbArc
 50
151.5931189888065
 51
169.1811683713776
  0
ARC
  5
F42
330
2
100
AcDbEntity
  8
0
100
AcDbCircle
 10
236.979859609766
 20
405.8116367012582
 30
0.0
 40
89.0
100
AcDbArc
 50
130.2685646988434
 51
189.7314353011549
  0
LINE
  5
F43
330
2
100
AcDbEntity
  8
0
100
AcDbLine
 10
164.7446362359772
 20
414.4760757563187
 30
0.0
 11
198.439359202667
 21
446.4395806360723
 31
0.0
  0
LINE
  5
F44
330
2
100
AcDbEntity
  8
MITTE
 48
10.0
100
AcDbLine
 10
188.1849001576205
 20
399.0241335010534
 30
0.0
 11
315.4182110758369
 21
399.0241335010534
 31
0.0
  0
LINE
  5
F45
330
2
100
AcDbEntity
  8
LINIE
  6
GESTRICHELT
 48
10.0
100
AcDbLine
 10
211.9528765673763
 20
342.0241335010534
 30
0.0
 11
292.0538970818098
 21
342.0241335010534
 31
0.0
  0
LINE
  5
F46
330
2
100
AcDbEntity
  8
LINIE
100
AcDbLine
 10
239.3548259689715
 20
367.847845812527
 30
0.0
 11
264.9687984439276
 21
367.847845812527
 31
0.0
  0
LINE
  5
F47
330
2
100
AcDbEntity
  8
MITTE
 48
10.0
100
AcDbLine
 10
330.6584779836544
 20
405.8116367012582
 30
0.0
 11
142.5313131574577
 21
405.8116367012582
 31
0.0
  0
LINE
  5
F48
330
2
100
AcDbEntity
  8
0
100
AcDbLine
 10
198.003386824593
 20
399.0241335010534
 30
0.0
 11
198.003386824593
 21
352.0241335010535
 31
0.0
  0
LINE
  5
F49
330
2
100
AcDbEntity
  8
0
100
AcDbLine
 10
197.003386824593
 20
399.0241335010534
 30
0.0
 11
197.0033868245927
 21
358.9800501261516
 31
0.0
  0
CIRCLE
  5
F4A
330
2
100
AcDbEntity
  8
0
100
AcDbCircle
 10
176.5625941960867
 20
388.6723823437013
 30
0.0
 40
1.95
  0
LINE
  5
F4B
330
2
100
AcDbEntity
  8
MITTE
 48
5.0
100
AcDbLine
 10
174.7478176794391
 20
392.5641831428306
 30
0.0
 11
178.3902940917022
 21
384.7528672689392
 31
0.0
  0
LINE
  5
F4C
330
2
100
AcDbEntity
  8
MITTE
 48
5.0
100
AcDbLine
 10
180.8319017253176
 20
390.6631931396005
 30
0.0
 11
172.9818928985874
 21
387.0026739071118
 31
0.0
  0
LINE
  5
F4D
330
2
100
AcDbEntity
  8
LINIE
  6
GESTRICHELT
 48
7.0
100
AcDbLine
 10
225.3153868245929
 20
362.5241335010534
 30
0.0
 11
233.503386824593
 21
367.2514775051781
 31
0.0
  0
LINE
  5
F4E
330
2
100
AcDbEntity
  8
LINIE
  6
GESTRICHELT
 48
7.0
100
AcDbLine
 10
233.503386824593
 20
367.2514775051781
 30
0.0
 11
241.6913868245929
 21
362.5241335010534
 31
0.0
  0
ARC
  5
F4F
330
2
100
AcDbEntity
  8
0
100
AcDbCircle
 10
228.0033868245928
 20
367.8478458125269
 30
0.0
 40
10.0
100
AcDbArc
 50
320.6157923170026
 51
0.0
  0
LINE
  5
F50
330
2
100
AcDbEntity
  8
0
100
AcDbLine
 10
206.003386824593
 20
344.0241335010535
 30
0.0
 11
231.5033868245928
 21
344.0241335010535
 31
0.0
  0
ARC
  5
F51
330
2
100
AcDbEntity
  8
0
100
AcDbCircle
 10
203.003386824593
 20
352.8156361231826
 30
0.0
 40
8.0
100
AcDbArc
 50
144.0494323803806
 51
256.8171228859242
  0
ARC
  5
F52
330
2
100
AcDbEntity
  8
0
100
AcDbCircle
 10
206.0033868245928
 20
352.0241335010534
 30
0.0
 40
8.0
100
AcDbArc
 50
180.0
 51
270.0
  0
ARC
  5
F53
330
2
100
AcDbEntity
  8
0
100
AcDbCircle
 10
200.6087578205675
 20
342.5923415498526
 30
0.0
 40
2.5
100
AcDbArc
 50
60.32469145801069
 51
76.81712288592416
  0
ARC
  5
F54
330
2
100
AcDbEntity
  8
0
100
AcDbCircle
 10
209.503386824593
 20
341.5241335010535
 30
0.0
 40
2.5
100
AcDbArc
 50
0.0
 51
90.0
  0
ARC
  5
F55
330
2
100
AcDbEntity
  8
0
100
AcDbCircle
 10
194.503386824593
 20
358.9800501261516
 30
0.0
 40
2.5
100
AcDbArc
 50
324.0494323803806
 51
0.0
  0
LINE
  5
F56
330
2
100
AcDbEntity
  8
LINIE
  6
GESTRICHELT
 48
7.0
100
AcDbLine
 10
224.503386824593
 20
357.5241335010534
 30
0.0
 11
224.503386824593
 21
343.5241335010534
 31
0.0
  0
LINE
  5
F57
330
2
100
AcDbEntity
  8
LINIE
  6
GESTRICHELT
 48
7.0
100
AcDbLine
 10
225.3153868245929
 20
362.5241335010534
 30
0.0
 11
225.3153868245931
 21
344.3361335010534
 31
0.0
  0
LINE
  5
F58
330
2
100
AcDbEntity
  8
LINIE
  6
GESTRICHELT
 48
7.0
100
AcDbLine
 10
241.6913868245929
 20
362.5241335010534
 30
0.0
 11
241.6913868245929
 21
344.3361335010532
 31
0.0
  0
LINE
  5
F59
330
2
100
AcDbEntity
  8
LINIE
  6
GESTRICHELT
 48
7.0
100
AcDbLine
 10
242.503386824593
 20
357.5241335010534
 30
0.0
 11
242.503386824593
 21
343.5241335010534
 31
0.0
  0
LINE
  5
F5A
330
2
100
AcDbEntity
  8
LINIE
  6
GESTRICHELT
 48
7.0
100
AcDbLine
 10
225.3153868245931
 20
344.3361335010534
 30
0.0
 11
241.6913868245929
 21
344.3361335010534
 31
0.0
  0
LINE
  5
F5B
330
2
100
AcDbEntity
  8
LINIE
  6
GESTRICHELT
 48
7.0
100
AcDbLine
 10
219.503386824593
 20
343.5241335010534
 30
0.0
 11
247.503386824593
 21
343.5241335010534
 31
0.0
  0
LINE
  5
F5C
330
2
100
AcDbEntity
  8
LINIE
  6
GESTRICHELT
 48
7.0
100
AcDbLine
 10
225.3153868245931
 20
344.3361335010534
 30
0.0
 11
224.503386824593
 21
343.5241335010534
 31
0.0
  0
ARC
  5
F5D
330
2
100
AcDbEntity
  8
0
100
AcDbCircle
 10
231.5033868245928
 20
341.5241335010535
 30
0.0
 40
2.5
100
AcDbArc
 50
0.0
 51
90.0
  0
LWPOLYLINE
  5
F5E
330
2
100
AcDbEntity
  8
BEM
100
AcDbPolyline
 90
        2
 70
     1
 43
1.0
 10
127.2322016480042
 20
349.4188836812076
 42
-1.0
 10
126.2322016480042
 20
349.4188836812076
 42
-1.0
  0
LINE
  5
F5F
330
2
100
AcDbEntity
  8
LINIE
  6
GESTRICHELT
 48
7.0
100
AcDbLine
 10
219.503386824593
 20
343.5241335010534
 30
0.0
 11
219.503386824593
 21
342.0241335010534
 31
0.0
  0
LINE
  5
F60
330
2
100
AcDbEntity
  8
LINIE
  6
GESTRICHELT
 48
7.0
100
AcDbLine
 10
247.503386824593
 20
343.5241335010534
 30
0.0
 11
247.503386824593
 21
342.0241335010534
 31
0.0
  0
LINE
  5
F61
330
2
100
AcDbEntity
  8
LINIE
  6
GESTRICHELT
 48
7.0
100
AcDbLine
 10
241.6913868245929
 20
344.3361335010534
 30
0.0
 11
242.503386824593
 21
343.5241335010534
 31
0.0
  0
ARC
  5
F62
330
2
100
AcDbEntity
  8
0
100
AcDbCircle
 10
244.0033868245928
 20
355.8819978773224
 30
0.0
 40
10.0
100
AcDbArc
 50
145.8011143785792
 51
180.0
  0
LINE
  5
F63
330
2
100
AcDbEntity
  8
LINIE
  6
GESTRICHELT
 48
7.0
100
AcDbLine
 10
224.503386824593
 20
357.5241335010534
 30
0.0
 11
242.503386824593
 21
357.5241335010534
 31
0.0
  0
LINE
  5
F64
330
2
100
AcDbEntity
  8
LINIE
  6
GESTRICHELT
 48
7.0
100
AcDbLine
 10
225.3153868245929
 20
362.5241335010534
 30
0.0
 11
241.6913868245929
 21
362.5241335010534
 31
0.0
  0
ARC
  5
F65
330
2
100
AcDbEntity
  8
0
100
AcDbCircle
 10
173.0033148946414
 20
405.770087770287
 30
0.0
 40
12.0
100
AcDbArc
 50
133.4896255071063
 51
194.6466799560693
  0
ARC
  5
F66
330
2
100
AcDbEntity
  8
0
100
AcDbCircle
 10
119.5182820115275
 20
448.5641546169667
 30
0.0
 40
65.0
100
AcDbArc
 50
297.2305728409513
 51
311.0711476672077
  0
CIRCLE
  5
F6B
330
2
100
AcDbEntity
  8
0
100
AcDbCircle
 10
168.8521446027877
 20
430.6080970923691
 30
0.0
 40
5.75
  0
LINE
  5
F6C
330
2
100
AcDbEntity
  8
MITTE
 48
10.0
100
AcDbLine
 10
177.3221263851949
 20
427.5252758387954
 30
0.0
 11
158.7387929020214
 21
434.289056080113
 31
0.0
  0
ARC
  5
F6D
330
2
100
AcDbEntity
  8
0
100
AcDbCircle
 10
252.003386824593
 20
399.0241335010534
 30
0.0
 40
55.0
100
AcDbArc
 50
142.3086381700459
 51
180.0
  0
ARC
  5
F6E
330
2
100
AcDbEntity
  8
0
100
AcDbCircle
 10
206.5027328930455
 20
434.1800788275782
 30
0.0
 40
2.5
100
AcDbArc
 50
322.3086381700459
 51
359.158760464866
  0
ARC
  5
F6F
330
2
100
AcDbEntity
  8
0
100
AcDbCircle
 10
236.979859609766
 20
405.8116367012582
 30
0.0
 40
88.0
100
AcDbArc
 50
346.1089922459298
 51
21.66142379757124
  0
LINE
  5
F70
330
2
100
AcDbEntity
  8
0
100
AcDbLine
 10
306.003386824593
 20
399.0241335010534
 30
0.0
 11
306.003386824593
 21
352.0241335010535
 31
0.0
  0
LINE
  5
F71
330
2
100
AcDbEntity
  8
0
100
AcDbLine
 10
307.003386824593
 20
399.0241335010534
 30
0.0
 11
307.003386824593
 21
358.9800501261516
 31
0.0
  0
LINE
  5
F72
330
2
100
AcDbEntity
  8
LINIE
  6
GESTRICHELT
 48
7.0
100
AcDbLine
 10
262.3153868245929
 20
362.5241335010534
 30
0.0
 11
270.503386824593
 21
367.2514775051781
 31
0.0
  0
LINE
  5
F73
330
2
100
AcDbEntity
  8
LINIE
  6
GESTRICHELT
 48
7.0
100
AcDbLine
 10
270.503386824593
 20
367.2514775051781
 30
0.0
 11
278.6913868245929
 21
362.5241335010534
 31
0.0
  0
ARC
  5
F74
330
2
100
AcDbEntity
  8
0
100
AcDbCircle
 10
276.0033868245932
 20
367.8478458125269
 30
0.0
 40
10.0
100
AcDbArc
 50
180.0
 51
219.3842076829973
  0
LINE
  5
F75
330
2
100
AcDbEntity
  8
LINIE
  6
GESTRICHELT
 48
7.0
100
AcDbLine
 10
256.503386824593
 20
343.5241335010534
 30
0.0
 11
284.503386824593
 21
343.5241335010534
 31
0.0
  0
LINE
  5
F76
330
2
100
AcDbEntity
  8
0
100
AcDbLine
 10
272.5033868245932
 20
344.0241335010534
 30
0.0
 11
298.003386824593
 21
344.0241335010535
 31
0.0
  0
LINE
  5
F77
330
2
100
AcDbEntity
  8
LINIE
  6
GESTRICHELT
 48
7.0
100
AcDbLine
 10
261.503386824593
 20
357.5241335010534
 30
0.0
 11
261.503386824593
 21
343.5241335010534
 31
0.0
  0
LINE
  5
F78
330
2
100
AcDbEntity
  8
LINIE
  6
GESTRICHELT
 48
7.0
100
AcDbLine
 10
262.3153868245931
 20
362.5241335010534
 30
0.0
 11
262.3153868245931
 21
344.3361335010534
 31
0.0
  0
LINE
  5
F79
330
2
100
AcDbEntity
  8
LINIE
  6
GESTRICHELT
 48
7.0
100
AcDbLine
 10
278.6913868245929
 20
362.5241335010534
 30
0.0
 11
278.6913868245929
 21
344.3361335010534
 31
0.0
  0
LINE
  5
F7A
330
2
100
AcDbEntity
  8
LINIE
  6
GESTRICHELT
 48
7.0
100
AcDbLine
 10
279.503386824593
 20
357.5241335010534
 30
0.0
 11
279.503386824593
 21
343.5241335010534
 31
0.0
  0
LINE
  5
F7B
330
2
100
AcDbEntity
  8
LINIE
  6
GESTRICHELT
 48
7.0
100
AcDbLine
 10
262.3153868245929
 20
344.3361335010532
 30
0.0
 11
278.6913868245929
 21
344.3361335010534
 31
0.0
  0
LINE
  5
F7C
330
2
100
AcDbEntity
  8
LINIE
  6
GESTRICHELT
 48
7.0
100
AcDbLine
 10
256.503386824593
 20
343.5241335010534
 30
0.0
 11
256.503386824593
 21
342.0241335010534
 31
0.0
  0
LINE
  5
F7D
330
2
100
AcDbEntity
  8
LINIE
  6
GESTRICHELT
 48
7.0
100
AcDbLine
 10
262.3153868245931
 20
344.3361335010534
 30
0.0
 11
261.503386824593
 21
343.5241335010534
 31
0.0
  0
LWPOLYLINE
  5
F7E
330
2
100
AcDbEntity
  8
BEM
100
AcDbPolyline
 90
        2
 70
     1
 43
1.0
 10
170.6480878233452
 20
349.4188836812077
 42
1.0
 10
171.6480878233452
 20
349.4188836812077
 42
1.0
  0
LINE
  5
F7F
330
2
100
AcDbEntity
  8
LINIE
  6
GESTRICHELT
 48
7.0
100
AcDbLine
 10
278.6913868245929
 20
344.3361335010534
 30
0.0
 11
279.503386824593
 21
343.5241335010534
 31
0.0
  0
ARC
  5
F80
330
2
100
AcDbEntity
  8
0
100
AcDbCircle
 10
272.5033868245932
 20
341.5241335010535
 30
0.0
 40
2.5
100
AcDbArc
 50
90.0
 51
180.0
  0
LINE
  5
F81
330
2
100
AcDbEntity
  8
LINIE
  6
GESTRICHELT
 48
7.0
100
AcDbLine
 10
261.503386824593
 20
357.5241335010534
 30
0.0
 11
279.503386824593
 21
357.5241335010534
 31
0.0
  0
LINE
  5
F82
330
2
100
AcDbEntity
  8
LINIE
  6
GESTRICHELT
 48
7.0
100
AcDbLine
 10
262.3153868245931
 20
362.5241335010534
 30
0.0
 11
278.6913868245929
 21
362.5241335010534
 31
0.0
  0
LINE
  5
F83
330
2
100
AcDbEntity
  8
MITTE
 48
10.0
100
AcDbLine
 10
279.0033868245928
 20
361.5191676160601
 30
0.0
 11
279.0033868245928
 21
353.6453388405074
 31
0.0
  0
ARC
  5
F84
330
2
100
AcDbEntity
  8
0
100
AcDbCircle
 10
260.0033868245932
 20
355.8819978773224
 30
0.0
 40
10.0
100
AcDbArc
 50
0.0
 51
34.19888562141995
  0
ARC
  5
F85
330
2
100
AcDbEntity
  8
0
100
AcDbCircle
 10
301.003386824593
 20
352.8156361231826
 30
0.0
 40
8.0
100
AcDbArc
 50
283.1828771140758
 51
35.95056761961936
  0
ARC
  5
F86
330
2
100
AcDbEntity
  8
0
100
AcDbCircle
 10
298.0033868245932
 20
352.0241335010534
 30
0.0
 40
8.0
100
AcDbArc
 50
269.9999999999968
 51
0.0
  0
ARC
  5
F87
330
2
100
AcDbEntity
  8
0
100
AcDbCircle
 10
294.5033868245928
 20
341.5241335010535
 30
0.0
 40
2.5
100
AcDbArc
 50
90.0
 51
180.0
  0
LINE
  5
F88
330
2
100
AcDbEntity
  8
LINIE
  6
GESTRICHELT
 48
7.0
100
AcDbLine
 10
284.503386824593
 20
343.5241335010534
 30
0.0
 11
284.503386824593
 21
342.0241335010534
 31
0.0
  0
ARC
  5
F89
330
2
100
AcDbEntity
  8
0
100
AcDbCircle
 10
303.3980158286186
 20
342.5923415498526
 30
0.0
 40
2.5
100
AcDbArc
 50
103.1828771140758
 51
119.6753085419893
  0
ARC
  5
F8A
330
2
100
AcDbEntity
  8
0
100
AcDbCircle
 10
309.503386824593
 20
358.9800501261516
 30
0.0
 40
2.5
100
AcDbArc
 50
180.0
 51
215.9505676196194
  0
LINE
  5
F8C
330
2
100
AcDbEntity
  8
0
100
AcDbLine
 10
318.0418706610189
 20
434.249001135384
 30
0.0
 11
313.1998910888049
 21
420.9457715952651
 31
0.0
  0
ARC
  5
F8D
330
2
100
AcDbEntity
  8
0
100
AcDbCircle
 10
321.6571246758779
 20
417.8675903053338
 30
0.0
 40
9.0
100
AcDbArc
 50
159.9999999999999
 51
208.5939954930963
  0
ARC
  5
F8E
330
2
100
AcDbEntity
  8
0
100
AcDbCircle
 10
252.003386824593
 20
399.0241335010534
 30
0.0
 40
55.0
100
AcDbArc
 50
0.0
 51
37.69136182995409
  0
ARC
  5
F8F
330
2
100
AcDbEntity
  8
0
100
AcDbCircle
 10
297.5040407561405
 20
434.1800788275782
 30
0.0
 40
2.5
100
AcDbArc
 50
180.8412395351339
 51
217.691361829954
  0
LINE
  5
F90
330
2
100
AcDbEntity
  8
0
100
AcDbLine
 10
287.3739691845709
 20
459.8341664473053
 30
0.0
 11
239.2255970015095
 21
461.7665887928052
 31
0.0
  0
ARC
  5
F91
330
2
100
AcDbEntity
  8
0
100
AcDbCircle
 10
252.003386824593
 20
399.0241335010534
 30
0.0
 40
55.0
100
AcDbArc
 50
52.30863817004538
 51
127.6913618299546
  0
ARC
  5
F92
330
2
100
AcDbEntity
  8
0
100
AcDbCircle
 10
279.7323775254747
 20
523.2732142994965
 30
0.0
 40
65.0
100
AcDbArc
 50
207.2305728409475
 51
253.7467412799709
  0
ARC
  5
F93
330
2
100
AcDbEntity
  8
0
100
AcDbCircle
 10
236.979859609766
 20
405.8116367012582
 30
0.0
 40
89.0
100
AcDbArc
 50
40.26856469884805
 51
99.73143530115494
  0
ARC
  5
F94
330
2
100
AcDbEntity
  8
0
100
AcDbCircle
 10
236.979859609766
 20
405.8116367012582
 30
0.0
 40
88.0
100
AcDbArc
 50
99.52022517968293
 51
130.479774820313
  0
ARC
  5
F95
330
2
100
AcDbEntity
  8
0
100
AcDbCircle
 10
236.979859609766
 20
405.8116367012582
 30
0.0
 40
56.0
100
AcDbArc
 50
87.70168236142124
 51
133.4896255071063
  0
LINE
  5
F96
330
2
100
AcDbEntity
  8
0
100
AcDbLine
 10
200.5406419131599
 20
472.1247833138217
 30
0.0
 11
208.876221210755
 21
454.2490758236729
 31
0.0
  0
LINE
  5
F97
330
2
100
AcDbEntity
  8
0
100
AcDbLine
 10
209.6037197835266
 20
476.3509659312287
 30
0.0
 11
217.9392990811216
 21
458.4752584410798
 31
0.0
  0
ARC
  5
F98
330
2
100
AcDbEntity
  8
0
100
AcDbCircle
 10
216.8474414980687
 20
444.5247874326007
 30
0.0
 40
2.5
100
AcDbArc
 50
270.8412395351307
 51
307.6913618299546
  0
LINE
  5
F99
330
2
100
AcDbEntity
  8
0
100
AcDbLine
 10
201.7498657263998
 20
475.4470984357651
 30
0.0
 11
206.2814046615831
 21
477.5601897444685
 31
0.0
  0
ARC
  5
F9A
330
2
100
AcDbEntity
  8
0
100
AcDbCircle
 10
202.8064113807516
 20
473.1813289681736
 30
0.0
 40
2.5
100
AcDbArc
 50
114.9999999999996
 51
204.9999999999997
  0
ARC
  5
F9B
330
2
100
AcDbEntity
  8
0
100
AcDbCircle
 10
207.3379503159348
 20
475.294420276877
 30
0.0
 40
2.5
100
AcDbArc
 50
24.99999999999932
 51
114.9999999999996
  0
ARC
  5
F9C
330
2
100
AcDbEntity
  8
0
100
AcDbCircle
 10
236.979859609766
 20
405.8116367012582
 30
0.0
 40
88.0
100
AcDbArc
 50
28.3385762024309
 51
40.47977482031622
  0
LINE
  5
F9D
330
2
100
AcDbEntity
  8
0
100
AcDbLine
 10
311.9368978844918
 20
449.1817818301549
 30
0.0
 11
292.064078416387
 21
458.6723585454083
 31
0.0
  0
ARC
  5
F9E
330
2
100
AcDbEntity
  8
0
100
AcDbCircle
 10
287.1593321511173
 20
444.5247874326007
 30
0.0
 40
2.5
100
AcDbArc
 50
232.3086381700454
 51
269.1587604648693
  0
ARC
  5
F9F
330
2
100
AcDbEntity
  8
0
100
AcDbCircle
 10
279.7323775254747
 20
523.2732142994965
 30
0.0
 40
65.0
100
AcDbArc
 50
279.7469712997371
 51
292.7694271590507
  0
ARC
  5
FA0
330
2
100
AcDbEntity
  8
0
100
AcDbCircle
 10
286.8927397434831
 20
447.8438195705453
 30
0.0
 40
12.0
100
AcDbArc
 50
64.4724598483414
 51
87.70168236142124
  0
CIRCLE
  5
FA1
330
2
100
AcDbEntity
  8
0
100
AcDbCircle
 10
261.776320000877
 20
473.9393517082365
 30
0.0
 40
5.75
  0
LINE
  5
FA2
330
2
100
AcDbEntity
  8
MITTE
 48
10.0
100
AcDbLine
 10
258.6425346498846
 20
465.3293472189679
 30
0.0
 11
264.8715751871807
 21
482.4434954400568
 31
0.0
  0
ARC
  5
FA3
330
2
100
AcDbEntity
  8
MITTE
 48
15.0
100
AcDbCircle
 10
236.979859609766
 20
405.8116367012582
 30
0.0
 40
72.5
100
AcDbArc
 50
61.4233442256215
 51
78.51171634009303
  0
DIMENSION
  5
FED
330
2
100
AcDbEntity
  8
BEM
100
AcDbDimension
  2
*D20
 10
976.4833467155536
 20
426.352341623381
 30
0.0
 11
1011.035195977572
 21
464.3811031718684
 31
0.0
 70
   163
 71
     5
 42
11.5
  3
ISO-25
100
AcDbDiametricDimension
 15
984.2166630515587
 25
434.8638525613567
 35
0.0
 40
0.0
1001
ACAD
1000
DSTYLE
1002
{
1070
   144
1040
1.0
1070
   289
1070
     0
1002
}
  0
DIMENSION
  5
1009
330
2
100
AcDbEntity
  8
BEM
100
AcDbDimension
  2
*D21
 10
883.7448704977221
 20
484.0527034090022
 30
0.0
 11
887.6635712232168
 21
544.5856539327372
 31
0.0
 70
   162
 71
     5
 42
0.3490658503988655
  3
ISO-25
100
AcDb2LineAngularDimension
 13
912.222289876578
 23
507.4509990805075
 33
0.0
 14
912.222289876578
 24
293.5766278655819
 34
0.0
 15
890.5086507390397
 25
465.4693699258287
 35
0.0
 16
895.861276928422
 26
545.7890483638834
 36
0.0
1001
ACAD
1000
DSTYLE
1002
{
1070
    79
1070
     2
1070
   144
1040
1.0
1070
   179
1070
     4
1070
   289
1070
     0
1002
}
  0
DIMENSION
  5
1023
330
2
100
AcDbEntity
  8
BEM
 48
10.0
100
AcDbDimension
  2
*D22
 10
133.9166175208477
 20
290.9664909526803
 30
0.0
 11
157.634495445509
 21
524.9313017816209
 31
0.0
 70
   162
 71
     5
 42
0.3490658503988566
  3
ISO-25
100
AcDb2LineAngularDimension
 13
155.5792925609663
 23
465.3293472189679
 33
0.0
 14
161.8083330982624
 24
482.4434954400568
 34
0.0
 15
133.9166175208477
 25
504.8188164801988
 35
0.0
 16
148.01702427016
 26
526.4483262762413
 36
0.0
1001
ACAD
1000
DSTYLE
1002
{
1070
   144
1040
1.0
1070
   289
1070
     0
1002
}
  0
LINE
  5
1065
330
2
100
AcDbEntity
  8
BEM
100
AcDbLine
 10
126.8485670204335
 20
349.3906655479415
 30
0.0
 11
97.86312796307706
 21
261.023723776848
 31
0.0
  0
LINE
  5
109F
330
2
100
AcDbEntity
  8
0
 48
10.0
100
AcDbLine
 10
590.0998718634514
 20
296.0843309454022
 30
0.0
 11
590.0998718634514
 21
310.8843309454022
 31
0.0
  0
LINE
  5
10BF
330
2
100
AcDbEntity
  8
0
 48
10.0
100
AcDbLine
 10
590.0998718634514
 20
310.8843309454022
 30
0.0
 11
588.0998718634514
 21
310.8843309454022
 31
0.0
  0
LINE
  5
10C3
330
2
100
AcDbEntity
  8
0
 48
10.0
100
AcDbLine
 10
590.0998718634514
 20
296.0843309454022
 30
0.0
 11
588.0998718634514
 21
296.0843309454022
 31
0.0
  0
LINE
  5
10C4
330
2
100
AcDbEntity
  8
MITTE
 48
5.0
100
AcDbLine
 10
599.5975731815572
 20
303.4843309454022
 30
0.0
 11
583.2774351150728
 21
303.4843309454022
 31
0.0
  0
LINE
  5
10CD
330
2
100
AcDbEntity
  8
0
 48
10.0
100
AcDbLine
 10
590.0998718634514
 20
296.9843309454022
 30
0.0
 11
590.0998718634514
 21
309.9843309454022
 31
0.0
  0
LINE
  5
10CF
330
2
100
AcDbEntity
  8
0
 48
10.0
100
AcDbLine
 10
598.0998718634514
 20
297.7843309454022
 30
0.0
 11
598.0998718634514
 21
309.1843309454022
 31
0.0
  0
LINE
  5
10D1
330
2
100
AcDbEntity
  8
0
 48
10.0
100
AcDbLine
 10
590.0998718634514
 20
296.9843309454022
 30
0.0
 11
597.2998718634515
 21
296.9843309454022
 31
0.0
  0
LINE
  5
10D5
330
2
100
AcDbEntity
  8
0
 48
10.0
100
AcDbLine
 10
590.0998718634514
 20
309.9843309454022
 30
0.0
 11
597.2998718634515
 21
309.9843309454022
 31
0.0
  0
ARC
  5
1258
330
2
100
AcDbEntity
  8
0
 48
10.0
100
AcDbCircle
 10
597.2998718634515
 20
309.1843309454022
 30
0.0
 40
0.8
100
AcDbArc
 50
0.0
 51
90.0
1001
GENIUS_GENODEF_13
1002
{
1000
HIER
1070
     0
1002
}
1002
{
1000
MANEDIT
1070
     0
1002
}
1002
{
1000
NOSEL
1070
     0
1002
}
1002
{
1000
BEHIND
1070
     0
1002
}
1002
{
1000
REACTOR
1002
}
1001
GENIUS_GENOBJ-N-FIL_13
1002
{
1000
OWNER
1000
GEN
1002
}
  0
ARC
  5
125A
330
2
100
AcDbEntity
  8
0
 48
10.0
100
AcDbCircle
 10
597.2998718634515
 20
297.7843309454022
 30
0.0
 40
0.8
100
AcDbArc
 50
270.0
 51
0.0
1001
GENIUS_GENODEF_13
1002
{
1000
HIER
1070
     0
1002
}
1002
{
1000
MANEDIT
1070
     0
1002
}
1002
{
1000
NOSEL
1070
     0
1002
}
1002
{
1000
BEHIND
1070
     0
1002
}
1002
{
1000
REACTOR
1002
}
1001
GENIUS_GENOBJ-N-FIL_13
1002
{
1000
OWNER
1000
GEN
1002
}
  0
CIRCLE
  5
125B
330
2
100
AcDbEntity
  8
0
 48
10.0
100
AcDbCircle
 10
199.7357661619778
 20
303.4843309454022
 30
0.0
 40
6.5
  0
CIRCLE
  5
125C
330
2
100
AcDbEntity
  8
0
 48
10.0
100
AcDbCircle
 10
199.7357661619778
 20
303.4843309454022
 30
0.0
 40
7.4
  0
LWPOLYLINE
  5
1262
330
2
100
AcDbEntity
  8
0
 48
10.0
100
AcDbPolyline
 90
        6
 70
     1
 43
0.0
 10
200.9063356541442
 20
306.7827801361599
 10
197.4645101157727
 20
306.1472984578921
 10
196.2939406236064
 20
302.8488492671346
 10
198.5651966698115
 20
300.1858817546447
 10
202.007022208183
 20
300.8213634329123
 10
203.1775917003493
 20
304.11981262367
  0
LWPOLYLINE
  5
129D
330
2
100
AcDbEntity
  8
0
 48
10.0
100
AcDbPolyline
 90
        6
 70
     1
 43
0.0
 10
169.6461400629932
 20
405.1461883050065
 10
171.8643862814048
 20
402.4389048483839
 10
175.3180856392912
 20
403.0063206970657
 10
176.553538778766
 20
406.2810200023704
 10
174.3352925603544
 20
408.9883034589929
 10
170.881593202468
 20
408.420887610311
  0
LINE
  5
129E
330
2
100
AcDbEntity
  8
MITTE
 48
4.0
100
AcDbLine
 10
166.8017422709662
 20
412.1332201281082
 30
0.0
 11
179.2421948806546
 21
399.3529035267047
 31
0.0
  0
LINE
  5
129F
330
2
100
AcDbEntity
  8
MITTE
 48
4.0
100
AcDbLine
 10
179.4121268765121
 20
411.9632881322506
 30
0.0
 11
166.6318102751087
 21
399.5228355225622
 31
0.0
  0
CIRCLE
  5
12A0
330
2
100
AcDbEntity
  8
0
 48
10.0
100
AcDbCircle
 10
173.0033148946414
 20
405.770087770287
 30
0.0
 40
7.4
  0
CIRCLE
  5
12A1
330
2
100
AcDbEntity
  8
0
 48
10.0
100
AcDbCircle
 10
173.0033148946414
 20
405.770087770287
 30
0.0
 40
6.5
  0
LWPOLYLINE
  5
12A6
330
2
100
AcDbEntity
  8
0
 48
10.0
100
AcDbPolyline
 90
        6
 70
     1
 43
0.0
 10
306.4760093026259
 20
441.8412452707468
 10
303.6000855568615
 20
439.8464864861947
 10
303.8896354658236
 20
436.3584840707396
 10
307.0551091205502
 20
434.8652404398368
 10
309.9310328663147
 20
436.8599992243891
 10
309.6414829573526
 20
440.348001639844
  0
LINE
  5
12A7
330
2
100
AcDbEntity
  8
MITTE
 48
4.0
100
AcDbLine
 10
307.8879129219696
 20
447.2000310035577
 30
0.0
 11
305.6432055012066
 21
429.5064547070261
 31
0.0
  0
LINE
  5
12A8
330
2
100
AcDbEntity
  8
MITTE
 48
4.0
100
AcDbLine
 10
315.6123473598539
 20
437.2308891449105
 30
0.0
 11
297.9187710633223
 21
439.4755965656734
 31
0.0
  0
CIRCLE
  5
12A9
330
2
100
AcDbEntity
  8
0
 48
10.0
100
AcDbCircle
 10
306.7655592115881
 20
438.3532428552919
 30
0.0
 40
7.4
  0
CIRCLE
  5
12AA
330
2
100
AcDbEntity
  8
0
 48
10.0
100
AcDbCircle
 10
306.7655592115881
 20
438.3532428552919
 30
0.0
 40
6.5
  0
MTEXT
  5
14A1
330
2
100
AcDbEntity
  8
BEM
100
AcDbMText
 10
123.6041759424401
 20
245.7605594851717
 30
0.0
 40
10.0
 41
161.8643881791417
 71
     1
 72
     5
  1
Zuluft\Pair inlet\PBrachement de l'air\PAria in entrata
 73
     1
 44
1.0
  0
MTEXT
  5
14A2
330
2
100
AcDbEntity
  8
BEM
100
AcDbMText
 10
739.6130280161044
 20
264.0213951808196
 30
0.0
 40
10.0
 41
161.8643881791417
 71
     1
 72
     5
  1
Abluft\Pexhaust air\PSortie de l'air\PAria in uscita
 73
     1
 44
1.0
  0
ENDSEC
  0
SECTION
  2
OBJECTS
  0
DICTIONARY
  5
1B
330
0
100
AcDbDictionary
281
     1
  3
ACAD_COLOR
350
12C0
  3
ACAD_GROUP
350
19
  3
ACAD_LAYOUT
350
30C
  3
ACAD_MATERIAL
350
12BF
  3
ACAD_MLEADERSTYLE
350
1433
  3
ACAD_MLINESTYLE
350
1A
  3
ACAD_PLOTSETTINGS
350
30D
  3
ACAD_PLOTSTYLENAME
350
30A
  3
ACAD_SCALELIST
350
1411
  3
ACAD_TABLESTYLE
350
13AA
  3
ACAD_VISUALSTYLE
350
13D0
  3
ACDB_RECOMPOSE_DATA
350
146C
  3
ACDBVARIABLEDICTIONARY
350
2D7
  3
ACMDICTIONARY
350
2B5
  3
AMG
350
315
  3
AMGSNAPSETTINGS
350
374
  3
ASE_INDEX_DICTIONARY
350
14A4
  0
DICTIONARY
  5
1455
330
5
100
AcDbDictionary
280
     1
281
     1
  3
ADSK_XREC_LAYER_RECONCILED
360
1456
  0
DICTIONARY
  5
1457
330
21
100
AcDbDictionary
280
     1
281
     1
  3
ADSK_XREC_LAYER_RECONCILED
360
1458
  0
DICTIONARY
  5
1459
330
3D
100
AcDbDictionary
280
     1
281
     1
  3
ADSK_XREC_LAYER_RECONCILED
360
145A
  0
DICTIONARY
  5
145B
330
62
100
AcDbDictionary
280
     1
281
     1
  3
ADSK_XREC_LAYER_RECONCILED
360
145C
  0
DICTIONARY
  5
3
330
2
100
AcDbDictionary
280
     1
281
     1
  3
ACAD_SORTENTS
360
14A3
  0
DICTIONARY
  5
16BD
330
1663
100
AcDbDictionary
280
     1
281
     1
  3
ACAD_MTEXT_2008_RT
360
16BE
  0
DICTIONARY
  5
16BF
330
166B
100
AcDbDictionary
280
     1
281
     1
  3
ACAD_MTEXT_2008_RT
360
16C0
  0
DICTIONARY
  5
110B
330
73
100
AcDbDictionary
280
     1
281
     1
  3
ACMDIMBREAKPERSREACTOR
360
110C
  0
DICTIONARY
  5
10EC
330
150
100
AcDbDictionary
280
     1
281
     1
  3
ACMDIMBREAKPERSREACTOR
360
10ED
  0
DICTIONARY
  5
112A
330
161
100
AcDbDictionary
280
     1
281
     1
  3
ACMDIMBREAKPERSREACTOR
360
112B
  0
DICTIONARY
  5
12C0
102
{ACAD_REACTORS
330
1B
102
}
330
1B
100
AcDbDictionary
281
     1
  0
DICTIONARY
  5
19
102
{ACAD_REACTORS
330
1B
102
}
330
1B
100
AcDbDictionary
281
     1
  0
DICTIONARY
  5
30C
102
{ACAD_REACTORS
330
1B
102
}
330
1B
100
AcDbDictionary
281
     1
  3
Layout1
350
30F
  3
Model
350
30E
  0
DICTIONARY
  5
12BF
102
{ACAD_REACTORS
330
1B
102
}
330
1B
100
AcDbDictionary
281
     1
  3
ByBlock
350
13CE
  3
ByLayer
350
13CD
  3
Global
350
13CF
  0
DICTIONARY
  5
1433
102
{ACAD_REACTORS
330
1B
102
}
330
1B
100
AcDbDictionary
281
     1
  3
Standard
350
1434
  0
DICTIONARY
  5
1A
102
{ACAD_REACTORS
330
1B
102
}
330
1B
100
AcDbDictionary
281
     1
  3
STANDARD
350
1C
  0
DICTIONARY
  5
30D
102
{ACAD_REACTORS
330
1B
102
}
330
1B
100
AcDbDictionary
281
     1
  0
ACDBDICTIONARYWDFLT
  5
30A
102
{ACAD_REACTORS
330
1B
102
}
330
1B
100
AcDbDictionary
281
     1
  3
Normal
350
30B
100
AcDbDictionaryWithDefault
340
30B
  0
DICTIONARY
  5
1411
102
{ACAD_REACTORS
330
1B
102
}
330
1B
100
AcDbDictionary
281
     1
  3
A0
350
1412
  3
A1
350
1413
  3
A2
350
1414
  3
A3
350
1415
  3
A4
350
1416
  3
A5
350
1417
  3
A6
350
1418
  3
A7
350
1419
  3
A8
350
141A
  3
A9
350
141B
  3
B0
350
141C
  3
B1
350
141D
  3
B2
350
141E
  3
B3
350
141F
  3
B4
350
1420
  3
B5
350
1421
  3
B6
350
1422
  3
B7
350
1423
  3
B8
350
1424
  3
B9
350
1425
  3
C0
350
1426
  3
C1
350
1427
  3
C2
350
1428
  3
C3
350
1429
  3
C4
350
142A
  3
C5
350
142B
  3
C6
350
142C
  3
C7
350
142D
  3
C8
350
142E
  3
C9
350
142F
  3
D0
350
1430
  3
D1
350
1431
  3
D2
350
1432
  0
DICTIONARY
  5
13AA
102
{ACAD_REACTORS
330
1B
102
}
330
1B
100
AcDbDictionary
281
     1
  3
Standard
350
13AB
  0
DICTIONARY
  5
13D0
102
{ACAD_REACTORS
330
1B
102
}
330
1B
100
AcDbDictionary
281
     1
  3
2dWireframe
350
13D6
  3
3D Hidden
350
13D8
  3
3dWireframe
350
13D7
  3
Basic
350
13D5
  3
Brighten
350
13DC
  3
ColorChange
350
13E0
  3
Conceptual
350
13D9
  3
Dim
350
13DB
  3
Facepattern
350
13DF
  3
Flat
350
13D1
  3
FlatWithEdges
350
13D2
  3
Gouraud
350
13D3
  3
GouraudWithEdges
350
13D4
  3
Linepattern
350
13DE
  3
Realistic
350
13DA
  3
Thicken
350
13DD
  0
XRECORD
  5
146C
102
{ACAD_REACTORS
330
1B
102
}
330
1B
100
AcDbXrecord
280
     1
 90
        1
330
13AB
  0
DICTIONARY
  5
2D7
102
{ACAD_REACTORS
330
1B
102
}
330
1B
100
AcDbDictionary
281
     1
  3
CANNOSCALE
350
146F
  3
CMLEADERSTYLE
350
146D
  3
CTABLESTYLE
350
13CB
  3
DIMASSOC
350
747
  3
INDEXCTL
350
2D8
  3
LIGHTINGUNITS
350
1470
  3
MSLTSCALE
350
146E
  0
DICTIONARY
  5
2B5
102
{ACAD_REACTORS
330
1B
102
}
330
1B
100
AcDbDictionary
280
     1
281
     1
  3
ACMSTDDICTIONARY
360
2B6
  3
AMDTSECTSYM_ARROWCOLOR
360
13B4
  0
DICTIONARY
  5
315
102
{ACAD_REACTORS
330
1B
102
}
330
1B
100
AcDbDictionary
281
     1
  0
DICTIONARY
  5
374
102
{ACAD_REACTORS
330
1B
102
}
330
1B
100
AcDbDictionary
281
     1
  0
DICTIONARY
  5
14A4
102
{ACAD_REACTORS
330
1B
102
}
330
1B
100
AcDbDictionary
281
     1
  3
ASEBlockHierarchyIndexRecord
350
14A5
1001
DCO15
1040
1727670802.919
  0
XRECORD
  5
1456
102
{ACAD_REACTORS
330
1455
102
}
330
1455
100
AcDbXrecord
280
     1
290
     1
  0
XRECORD
  5
1458
102
{ACAD_REACTORS
330
1457
102
}
330
1457
100
AcDbXrecord
280
     1
290
     1
  0
XRECORD
  5
145A
102
{ACAD_REACTORS
330
1459
102
}
330
1459
100
AcDbXrecord
280
     1
290
     1
  0
XRECORD
  5
145C
102
{ACAD_REACTORS
330
145B
102
}
330
145B
100
AcDbXrecord
280
     1
290
     1
  0
SORTENTSTABLE
  5
14A3
102
{ACAD_REACTORS
330
3
102
}
330
3
100
AcDbSortentsTable
330
2
331
12A8
  5
12A8
331
269
  5
269
331
C0
  5
C0
331
F70
  5
F70
331
F4E
  5
F4E
331
F2C
  5
F2C
331
293
  5
293
331
F92
  5
F92
331
D41
  5
D41
331
F3D
  5
F3D
331
F23
  5
F23
331
282
  5
282
331
250
  5
250
331
22E
  5
22E
331
20C
  5
20C
331
1B0
  5
1B0
331
F5F
  5
F5F
331
F81
  5
F81
331
1C1
  5
1C1
331
1A7
  5
1A7
331
185
  5
185
331
63
  5
63
331
D90
  5
D90
331
F2A
  5
F2A
331
291
  5
291
331
F6E
  5
F6E
331
F4C
  5
F4C
331
2B3
  5
2B3
331
F90
  5
F90
331
24E
  5
24E
331
22C
  5
22C
331
20A
  5
20A
331
1AE
  5
1AE
331
172
  5
172
331
150
  5
150
331
F21
  5
F21
331
280
  5
280
331
F5D
  5
F5D
331
F7F
  5
F7F
331
12A6
  5
12A6
331
10C3
  5
10C3
331
267
  5
267
331
1F9
  5
1F9
331
1BF
  5
1BF
331
1A5
  5
1A5
331
183
  5
183
331
161
  5
161
331
CF
  5
CF
331
F28
  5
F28
331
F6C
  5
F6C
331
F4A
  5
F4A
331
2B1
  5
2B1
331
F8E
  5
F8E
331
24C
  5
24C
331
22A
  5
22A
331
208
  5
208
331
1CE
  5
1CE
331
1AC
  5
1AC
331
F1F
  5
F1F
331
27E
  5
27E
331
2A0
  5
2A0
331
F5B
  5
F5B
331
F7D
  5
F7D
331
F9F
  5
F9F
331
28F
  5
28F
331
1BD
  5
1BD
331
1A3
  5
1A3
331
15F
  5
15F
331
CD
  5
CD
331
F48
  5
F48
331
FA2
  5
FA2
331
F8C
  5
F8C
331
F1D
  5
F1D
331
F37
  5
F37
331
29E
  5
29E
331
27C
  5
27C
331
24A
  5
24A
331
228
  5
228
331
206
  5
206
331
1AA
  5
1AA
331
190
  5
190
331
F59
  5
F59
331
F7B
  5
F7B
331
10BF
  5
10BF
331
F9D
  5
F9D
331
14A2
  5
14A2
331
217
  5
217
331
1BB
  5
1BB
331
1A1
  5
1A1
331
17F
  5
17F
331
2AF
  5
2AF
331
28D
  5
28D
331
45
  5
45
331
FA0
  5
FA0
331
F8A
  5
F8A
331
B09
  5
B09
331
F1B
  5
F1B
331
F57
  5
F57
331
29C
  5
29C
331
27A
  5
27A
331
248
  5
248
331
226
  5
226
331
1A8
  5
1A8
331
F79
  5
F79
331
1023
  5
1023
331
F9B
  5
F9B
331
12A0
  5
12A0
331
AE0
  5
AE0
331
F46
  5
F46
331
2AD
  5
2AD
331
28B
  5
28B
331
215
  5
215
331
1B9
  5
1B9
331
19F
  5
19F
331
18E
  5
18E
331
F88
  5
F88
331
F19
  5
F19
331
278
  5
278
331
246
  5
246
331
F55
  5
F55
331
F33
  5
F33
331
29A
  5
29A
331
F77
  5
F77
331
F99
  5
F99
331
129E
  5
129E
331
D48
  5
D48
331
213
  5
213
331
1E9
  5
1E9
331
1B7
  5
1B7
331
19D
  5
19D
331
6A
  5
6A
331
F44
  5
F44
331
2AB
  5
2AB
331
289
  5
289
331
F66
  5
F66
331
18C
  5
18C
331
41
  5
41
331
125B
  5
125B
331
F53
  5
F53
331
F31
  5
F31
331
298
  5
298
331
FED
  5
FED
331
F75
  5
F75
331
F97
  5
F97
331
D46
  5
D46
331
F86
  5
F86
331
F64
  5
F64
331
F42
  5
F42
331
287
  5
287
331
211
  5
211
331
1B5
  5
1B5
331
19B
  5
19B
331
68
  5
68
331
242
  5
242
331
296
  5
296
331
C3
  5
C3
331
F51
  5
F51
331
F73
  5
F73
331
109F
  5
109F
331
F95
  5
F95
331
D44
  5
D44
331
F40
  5
F40
331
F26
  5
F26
331
285
  5
285
331
20F
  5
20F
331
1B3
  5
1B3
331
199
  5
199
331
F84
  5
F84
331
F62
  5
F62
331
188
  5
188
331
B0
  5
B0
331
12A9
  5
12A9
331
F71
  5
F71
331
F4F
  5
F4F
331
F2D
  5
F2D
331
294
  5
294
331
26A
  5
26A
331
F93
  5
F93
331
D42
  5
D42
331
F3E
  5
F3E
331
F24
  5
F24
331
283
  5
283
331
251
  5
251
331
22F
  5
22F
331
1DB
  5
1DB
331
1B1
  5
1B1
331
186
  5
186
331
C1
  5
C1
331
F82
  5
F82
331
F60
  5
F60
331
BF
  5
BF
331
F2B
  5
F2B
331
292
  5
292
331
268
  5
268
331
F6F
  5
F6F
331
F4D
  5
F4D
331
2B4
  5
2B4
331
F91
  5
F91
331
10D5
  5
10D5
331
D40
  5
D40
331
F22
  5
F22
331
281
  5
281
331
24F
  5
24F
331
22D
  5
22D
331
20B
  5
20B
331
1AF
  5
1AF
331
94
  5
94
331
F3C
  5
F3C
331
F5E
  5
F5E
331
F80
  5
F80
331
12A7
  5
12A7
331
10C4
  5
10C4
331
1C0
  5
1C0
331
1A6
  5
1A6
331
184
  5
184
331
73
  5
73
331
20
  5
20
331
F29
  5
F29
331
F6D
  5
F6D
331
F4B
  5
F4B
331
2B2
  5
2B2
331
290
  5
290
331
F8F
  5
F8F
331
24D
  5
24D
331
22B
  5
22B
331
209
  5
209
331
1AD
  5
1AD
331
F20
  5
F20
331
27F
  5
27F
331
2A1
  5
2A1
331
F5C
  5
F5C
331
F7E
  5
F7E
331
266
  5
266
331
1BE
  5
1BE
331
1A4
  5
1A4
331
182
  5
182
331
160
  5
160
331
2F
  5
2F
331
FA3
  5
FA3
331
F6B
  5
F6B
331
F49
  5
F49
331
2B0
  5
2B0
331
F8D
  5
F8D
331
10D1
  5
10D1
331
1262
  5
1262
331
24B
  5
24B
331
229
  5
229
331
207
  5
207
331
1AB
  5
1AB
331
F1E
  5
F1E
331
27D
  5
27D
331
F38
  5
F38
331
29F
  5
29F
331
F5A
  5
F5A
331
F7C
  5
F7C
331
F9E
  5
F9E
331
28E
  5
28E
331
218
  5
218
331
1BC
  5
1BC
331
1A2
  5
1A2
331
180
  5
180
331
15E
  5
15E
331
CC
  5
CC
331
FA1
  5
FA1
331
10CF
  5
10CF
331
1065
  5
1065
331
F1C
  5
F1C
331
F58
  5
F58
331
F36
  5
F36
331
29D
  5
29D
331
27B
  5
27B
331
249
  5
249
331
1A9
  5
1A9
331
F7A
  5
F7A
331
F9C
  5
F9C
331
14A1
  5
14A1
331
12A1
  5
12A1
331
F47
  5
F47
331
2AE
  5
2AE
331
28C
  5
28C
331
216
  5
216
331
1BA
  5
1BA
331
1A0
  5
1A0
331
18F
  5
18F
331
10CD
  5
10CD
331
1009
  5
1009
331
F89
  5
F89
331
279
  5
279
331
247
  5
247
331
225
  5
225
331
F56
  5
F56
331
F34
  5
F34
331
29B
  5
29B
331
F78
  5
F78
331
F9A
  5
F9A
331
129F
  5
129F
331
D49
  5
D49
331
23E
  5
23E
331
214
  5
214
331
1B8
  5
1B8
331
19E
  5
19E
331
141
  5
141
331
6B
  5
6B
331
F45
  5
F45
331
2AC
  5
2AC
331
28A
  5
28A
331
18D
  5
18D
331
42
  5
42
331
125C
  5
125C
331
B06
  5
B06
331
245
  5
245
331
F54
  5
F54
331
299
  5
299
331
F76
  5
F76
331
F98
  5
F98
331
129D
  5
129D
331
D47
  5
D47
331
212
  5
212
331
1E8
  5
1E8
331
1B6
  5
1B6
331
19C
  5
19C
331
69
  5
69
331
F43
  5
F43
331
288
  5
288
331
F87
  5
F87
331
F65
  5
F65
331
18B
  5
18B
331
40
  5
40
331
125A
  5
125A
331
F52
  5
F52
331
F30
  5
F30
331
297
  5
297
331
243
  5
243
331
F74
  5
F74
331
F96
  5
F96
331
D45
  5
D45
331
F41
  5
F41
331
F27
  5
F27
331
286
  5
286
331
210
  5
210
331
1B4
  5
1B4
331
19A
  5
19A
331
F85
  5
F85
331
F63
  5
F63
331
189
  5
189
331
12AA
  5
12AA
331
1258
  5
1258
331
F72
  5
F72
331
F50
  5
F50
331
295
  5
295
331
26B
  5
26B
331
F94
  5
F94
331
D43
  5
D43
331
1B2
  5
1B2
331
C2
  5
C2
331
F3F
  5
F3F
331
F25
  5
F25
331
284
  5
284
331
F83
  5
F83
331
F61
  5
F61
331
187
  5
187
331
3C
  5
3C
  0
XRECORD
  5
16BE
102
{ACAD_REACTORS
330
16BD
102
}
330
16BD
100
AcDbXrecord
280
     1
 40
5795.0
  1
\A1;\U+2205145
  0
XRECORD
  5
16C0
102
{ACAD_REACTORS
330
16BF
102
}
330
16BF
100
AcDbXrecord
280
     1
 40
6453.0
  1
\A1;\U+220511.5
  0
LAYOUT
  5
30F
102
{ACAD_REACTORS
330
30C
102
}
330
30C
100
AcDbPlotSettings
  1

  2
Kein
  4

  6

 40
0.0
 41
0.0
 42
0.0
 43
0.0
 44
0.0
 45
0.0
 46
0.0
 47
0.0
 48
0.0
 49
0.0
140
0.0
141
0.0
142
1.0
143
1.0
 70
   688
 72
     0
 73
     0
 74
     5
  7
Test.ctb
 75
    16
147
1.0
 76
     0
 77
     2
 78
   300
148
0.0
149
0.0
100
AcDbLayout
  1
Layout1
 70
     0
 71
     1
 10
0.0
 20
0.0
 11
420.0
 21
297.0
 12
0.0
 22
0.0
 32
0.0
 14
1.000000000000000E+20
 24
1.000000000000000E+20
 34
1.000000000000000E+20
 15
-1.000000000000000E+20
 25
-1.000000000000000E+20
 35
-1.000000000000000E+20
146
0.0
 13
0.0
 23
0.0
 33
0.0
 16
1.0
 26
0.0
 36
0.0
 17
0.0
 27
1.0
 37
0.0
 76
     0
330
8
  0
LAYOUT
  5
30E
102
{ACAD_REACTORS
330
30C
102
}
330
30C
100
AcDbPlotSettings
  1

  2
Konstruktion
  4
A4
  6

 40
7.143749713897705
 41
7.186082363128662
 42
7.059066772460937
 43
5.027069091796875
 44
209.9733276367187
 45
296.9683227539062
 46
23.43893987676238
 47
0.0
 48
0.0
 49
0.0
140
0.0
141
0.0
142
1.0
143
3.600955235663603
 70
  3764
 72
     1
 73
     1
 74
     1
  7
Zeich.ctb
 75
     0
147
0.2777040908745744
 76
     0
 77
     2
 78
   300
148
-13.18588502843158
149
-53.43437346563951
100
AcDbLayout
  1
Model
 70
     1
 71
     0
 10
0.0
 20
0.0
 11
12.0
 21
9.0
 12
0.0
 22
0.0
 32
0.0
 14
0.0
 24
0.0
 34
0.0
 15
0.0
 25
0.0
 35
0.0
146
0.0
 13
0.0
 23
0.0
 33
0.0
 16
1.0
 26
0.0
 36
0.0
 17
0.0
 27
1.0
 37
0.0
 76
     0
330
2
331
13CA
1001
ACAD_PSEXT
1000
Konstruktion
1000
Kyocera FS-1030D
1000
IP_192.168.10.181
1000

1070
     0
  0
MATERIAL
  5
13CE
102
{ACAD_XDICTIONARY
360
16B7
102
}
102
{ACAD_REACTORS
330
12BF
102
}
330
12BF
100
AcDbMaterial
  1
ByBlock
 73
     1
 78
     1
172
     1
176
     1
270
     1
274
     1
  0
MATERIAL
  5
13CD
102
{ACAD_XDICTIONARY
360
16B5
102
}
102
{ACAD_REACTORS
330
12BF
102
}
330
12BF
100
AcDbMaterial
  1
ByLayer
 73
     1
 78
     1
172
     1
176
     1
270
     1
274
     1
  0
MATERIAL
  5
13CF
102
{ACAD_XDICTIONARY
360
16B9
102
}
102
{ACAD_REACTORS
330
12BF
102
}
330
12BF
100
AcDbMaterial
  1
Global
 73
     1
 78
     1
172
     1
176
     1
270
     1
274
     1
  0
MLEADERSTYLE
  5
1434
102
{ACAD_REACTORS
330
1433
102
}
330
1433
100
AcDbMLeaderStyle
170
     2
171
     1
172
     0
 90
        2
 40
0.0
 41
0.0
173
     1
 91
-1056964608
340
F
 92
       -2
290
     1
 42
0.09
291
     1
 43
0.36
  3
Standard
 44
0.18
300

342
D
174
     1
178
     6
175
     1
176
     0
 93
-1056964608
 45
0.18
292
     0
297
     0
 46
0.18
 94
-1056964608
 47
1.0
 49
1.0
140
1.0
293
     1
141
0.0
294
     1
177
     0
142
1.0
295
     0
296
     0
143
0.125
1001
ACAD_MLEADERVER
1070
     2
  0
MLINESTYLE
  5
1C
102
{ACAD_REACTORS
330
1A
102
}
330
1A
100
AcDbMlineStyle
  2
STANDARD
 70
     0
  3

 62
     0
 51
90.0
 52
90.0
 71
     2
 49
0.5
 62
   256
  6
BYLAYER
 49
-0.5
 62
   256
  6
BYLAYER
  0
ACDBPLACEHOLDER
  5
30B
102
{ACAD_REACTORS
330
30A
102
}
330
30A
  0
SCALE
  5
1412
102
{ACAD_REACTORS
330
1411
102
}
330
1411
100
AcDbScale
 70
     0
300
1:1
140
1.0
141
1.0
290
     1
  0
SCALE
  5
1413
102
{ACAD_REACTORS
330
1411
102
}
330
1411
100
AcDbScale
 70
     0
300
1:2
140
1.0
141
2.0
290
     0
  0
SCALE
  5
1414
102
{ACAD_REACTORS
330
1411
102
}
330
1411
100
AcDbScale
 70
     0
300
1:4
140
1.0
141
4.0
290
     0
  0
SCALE
  5
1415
102
{ACAD_REACTORS
330
1411
102
}
330
1411
100
AcDbScale
 70
     0
300
1:5
140
1.0
141
5.0
290
     0
  0
SCALE
  5
1416
102
{ACAD_REACTORS
330
1411
102
}
330
1411
100
AcDbScale
 70
     0
300
1:8
140
1.0
141
8.0
290
     0
  0
SCALE
  5
1417
102
{ACAD_REACTORS
330
1411
102
}
330
1411
100
AcDbScale
 70
     0
300
1:10
140
1.0
141
10.0
290
     0
  0
SCALE
  5
1418
102
{ACAD_REACTORS
330
1411
102
}
330
1411
100
AcDbScale
 70
     0
300
1:16
140
1.0
141
16.0
290
     0
  0
SCALE
  5
1419
102
{ACAD_REACTORS
330
1411
102
}
330
1411
100
AcDbScale
 70
     0
300
1:20
140
1.0
141
20.0
290
     0
  0
SCALE
  5
141A
102
{ACAD_REACTORS
330
1411
102
}
330
1411
100
AcDbScale
 70
     0
300
1:30
140
1.0
141
30.0
290
     0
  0
SCALE
  5
141B
102
{ACAD_REACTORS
330
1411
102
}
330
1411
100
AcDbScale
 70
     0
300
1:40
140
1.0
141
40.0
290
     0
  0
SCALE
  5
141C
102
{ACAD_REACTORS
330
1411
102
}
330
1411
100
AcDbScale
 70
     0
300
1:50
140
1.0
141
50.0
290
     0
  0
SCALE
  5
141D
102
{ACAD_REACTORS
330
1411
102
}
330
1411
100
AcDbScale
 70
     0
300
1:100
140
1.0
141
100.0
290
     0
  0
SCALE
  5
141E
102
{ACAD_REACTORS
330
1411
102
}
330
1411
100
AcDbScale
 70
     0
300
2:1
140
2.0
141
1.0
290
     0
  0
SCALE
  5
141F
102
{ACAD_REACTORS
330
1411
102
}
330
1411
100
AcDbScale
 70
     0
300
4:1
140
4.0
141
1.0
290
     0
  0
SCALE
  5
1420
102
{ACAD_REACTORS
330
1411
102
}
330
1411
100
AcDbScale
 70
     0
300
8:1
140
8.0
141
1.0
290
     0
  0
SCALE
  5
1421
102
{ACAD_REACTORS
330
1411
102
}
330
1411
100
AcDbScale
 70
     0
300
10:1
140
10.0
141
1.0
290
     0
  0
SCALE
  5
1422
102
{ACAD_REACTORS
330
1411
102
}
330
1411
100
AcDbScale
 70
     0
300
100:1
140
100.0
141
1.0
290
     0
  0
SCALE
  5
1423
102
{ACAD_REACTORS
330
1411
102
}
330
1411
100
AcDbScale
 70
     0
300
1/128" = 1'-0"
140
0.0078125
141
12.0
290
     0
  0
SCALE
  5
1424
102
{ACAD_REACTORS
330
1411
102
}
330
1411
100
AcDbScale
 70
     0
300
1/64" = 1'-0"
140
0.015625
141
12.0
290
     0
  0
SCALE
  5
1425
102
{ACAD_REACTORS
330
1411
102
}
330
1411
100
AcDbScale
 70
     0
300
1/32" = 1'-0"
140
0.03125
141
12.0
290
     0
  0
SCALE
  5
1426
102
{ACAD_REACTORS
330
1411
102
}
330
1411
100
AcDbScale
 70
     0
300
1/16" = 1'-0"
140
0.0625
141
12.0
290
     0
  0
SCALE
  5
1427
102
{ACAD_REACTORS
330
1411
102
}
330
1411
100
AcDbScale
 70
     0
300
3/32" = 1'-0"
140
0.09375
141
12.0
290
     0
  0
SCALE
  5
1428
102
{ACAD_REACTORS
330
1411
102
}
330
1411
100
AcDbScale
 70
     0
300
1/8" = 1'-0"
140
0.125
141
12.0
290
     0
  0
SCALE
  5
1429
102
{ACAD_REACTORS
330
1411
102
}
330
1411
100
AcDbScale
 70
     0
300
3/16" = 1'-0"
140
0.1875
141
12.0
290
     0
  0
SCALE
  5
142A
102
{ACAD_REACTORS
330
1411
102
}
330
1411
100
AcDbScale
 70
     0
300
1/4" = 1'-0"
140
0.25
141
12.0
290
     0
  0
SCALE
  5
142B
102
{ACAD_REACTORS
330
1411
102
}
330
1411
100
AcDbScale
 70
     0
300
3/8" = 1'-0"
140
0.375
141
12.0
290
     0
  0
SCALE
  5
142C
102
{ACAD_REACTORS
330
1411
102
}
330
1411
100
AcDbScale
 70
     0
300
1/2" = 1'-0"
140
0.5
141
12.0
290
     0
  0
SCALE
  5
142D
102
{ACAD_REACTORS
330
1411
102
}
330
1411
100
AcDbScale
 70
     0
300
3/4" = 1'-0"
140
0.75
141
12.0
290
     0
  0
SCALE
  5
142E
102
{ACAD_REACTORS
330
1411
102
}
330
1411
100
AcDbScale
 70
     0
300
1" = 1'-0"
140
1.0
141
12.0
290
     0
  0
SCALE
  5
142F
102
{ACAD_REACTORS
330
1411
102
}
330
1411
100
AcDbScale
 70
     0
300
1-1/2" = 1'-0"
140
1.5
141
12.0
290
     0
  0
SCALE
  5
1430
102
{ACAD_REACTORS
330
1411
102
}
330
1411
100
AcDbScale
 70
     0
300
3" = 1'-0"
140
3.0
141
12.0
290
     0
  0
SCALE
  5
1431
102
{ACAD_REACTORS
330
1411
102
}
330
1411
100
AcDbScale
 70
     0
300
6" = 1'-0"
140
6.0
141
12.0
290
     0
  0
SCALE
  5
1432
102
{ACAD_REACTORS
330
1411
102
}
330
1411
100
AcDbScale
 70
     0
300
1'-0" = 1'-0"
140
12.0
141
12.0
290
     0
  0
TABLESTYLE
  5
13AB
102
{ACAD_XDICTIONARY
360
146A
102
}
102
{ACAD_REACTORS
330
13AA
102
}
330
13AA
100
AcDbTableStyle
  3
Standard
 70
     0
 71
     0
 40
0.06
 41
0.06
280
     0
281
     0
  7
STANDARD
140
0.18
170
     2
 62
     0
 63
     7
283
     0
274
    -2
284
     1
 64
     0
275
    -2
285
     1
 65
     0
276
    -2
286
     1
 66
     0
277
    -2
287
     1
 67
     0
278
    -2
288
     1
 68
     0
279
    -2
289
     1
 69
     0
  7
STANDARD
140
0.25
170
     5
 62
     0
 63
     7
283
     0
274
    -2
284
     1
 64
     0
275
    -2
285
     1
 65
     0
276
    -2
286
     1
 66
     0
277
    -2
287
     1
 67
     0
278
    -2
288
     1
 68
     0
279
    -2
289
     1
 69
     0
  7
STANDARD
140
0.18
170
     5
 62
     0
 63
     7
283
     0
274
    -2
284
     1
 64
     0
275
    -2
285
     1
 65
     0
276
    -2
286
     1
 66
     0
277
    -2
287
     1
 67
     0
278
    -2
288
     1
 68
     0
279
    -2
289
     1
 69
     0
  0
VISUALSTYLE
  5
13D6
102
{ACAD_REACTORS
330
13D0
102
}
330
13D0
100
AcDbVisualStyle
  2
2dWireframe
 70
     4
 71
     0
 72
     2
 73
     0
 90
        0
 40
-0.6
 41
-30.0
 62
     5
 63
     7
421
 16777215
 74
     1
 91
        4
 64
     7
 65
   257
 75
     1
175
     1
 42
1.0
 92
        0
 66
   257
 43
1.0
 76
     1
 77
     6
 78
     2
 67
     7
 79
     5
170
     0
171
     0
290
     0
174
     0
 93
        1
 44
0.0
173
     0
291
     0
 45
0.0
1001
ACAD
1000
AcDbSavedByObjectVersion
1070
     0
  0
VISUALSTYLE
  5
13D8
102
{ACAD_REACTORS
330
13D0
102
}
330
13D0
100
AcDbVisualStyle
  2
3D Hidden
 70
     6
 71
     1
 72
     2
 73
     2
 90
        0
 40
-0.6
 41
-30.0
 62
     5
 63
     7
421
 16777215
 74
     2
 91
        2
 64
     7
 65
   257
 75
     2
175
     1
 42
40.0
 92
        0
 66
   257
 43
1.0
 76
     1
 77
     6
 78
     2
 67
     7
 79
     3
170
     0
171
     0
290
     0
174
     0
 93
        1
 44
0.0
173
     0
291
     0
 45
0.0
1001
ACAD
1000
AcDbSavedByObjectVersion
1070
     0
  0
VISUALSTYLE
  5
13D7
102
{ACAD_REACTORS
330
13D0
102
}
330
13D0
100
AcDbVisualStyle
  2
3dWireframe
 70
     5
 71
     0
 72
     2
 73
     0
 90
        0
 40
-0.6
 41
-30.0
 62
     5
 63
     7
421
 16777215
 74
     1
 91
        4
 64
     7
 65
   257
 75
     1
175
     1
 42
1.0
 92
        0
 66
   257
 43
1.0
 76
     1
 77
     6
 78
     2
 67
     7
 79
     5
170
     0
171
     0
290
     0
174
     0
 93
        1
 44
0.0
173
     0
291
     0
 45
0.0
1001
ACAD
1000
AcDbSavedByObjectVersion
1070
     0
  0
VISUALSTYLE
  5
13D5
102
{ACAD_REACTORS
330
13D0
102
}
330
13D0
100
AcDbVisualStyle
  2
Basic
 70
     7
 71
     1
 72
     0
 73
     1
 90
        0
 40
-0.6
 41
-30.0
 62
     5
 63
     7
421
 16777215
 74
     0
 91
        4
 64
     7
 65
   257
 75
     1
175
     1
 42
1.0
 92
        8
 66
     7
 43
1.0
 76
     1
 77
     6
 78
     2
 67
     7
 79
     5
170
     0
171
     0
290
     0
174
     0
 93
        1
 44
0.0
173
     0
291
     1
 45
0.0
1001
ACAD
1000
AcDbSavedByObjectVersion
1070
     0
  0
VISUALSTYLE
  5
13DC
102
{ACAD_REACTORS
330
13D0
102
}
330
13D0
100
AcDbVisualStyle
  2
Brighten
 70
    12
 71
     2
 72
     2
 73
     0
 90
        0
 40
-0.6
 41
-30.0
 62
     5
 63
     7
421
 16777215
 74
     1
 91
        4
 64
     7
 65
   257
 75
     1
175
     1
 42
1.0
 92
        8
 66
     7
 43
1.0
 76
     1
 77
     6
 78
     2
 67
     7
 79
     5
170
     0
171
     0
290
     0
174
     0
 93
        1
 44
50.0
173
     0
291
     1
 45
0.0
1001
ACAD
1000
AcDbSavedByObjectVersion
1070
     0
  0
VISUALSTYLE
  5
13E0
102
{ACAD_REACTORS
330
13D0
102
}
330
13D0
100
AcDbVisualStyle
  2
ColorChange
 70
    16
 71
     2
 72
     2
 73
     3
 90
        0
 40
-0.6
 41
-30.0
 62
     5
 63
     8
421
  8421504
 74
     1
 91
        4
 64
     7
 65
   257
 75
     1
175
     1
 42
1.0
 92
        8
 66
     8
424
  8421504
 43
1.0
 76
     1
 77
     6
 78
     2
 67
     7
 79
     5
170
     0
171
     0
290
     0
174
     0
 93
        1
 44
0.0
173
     0
291
     1
 45
0.0
1001
ACAD
1000
AcDbSavedByObjectVersion
1070
     0
  0
VISUALSTYLE
  5
13D9
102
{ACAD_REACTORS
330
13D0
102
}
330
13D0
100
AcDbVisualStyle
  2
Conceptual
 70
     9
 71
     3
 72
     2
 73
     0
 90
        0
 40
-0.6
 41
-30.0
 62
     5
 63
     7
421
 16777215
 74
     2
 91
        2
 64
     7
 65
   257
 75
     1
175
     1
 42
40.0
 92
        8
 66
     7
 43
1.0
 76
     1
 77
     6
 78
     2
 67
     7
 79
     3
170
     0
171
     0
290
     0
174
     0
 93
        1
 44
0.0
173
     0
291
     0
 45
0.0
1001
ACAD
1000
AcDbSavedByObjectVersion
1070
     0
  0
VISUALSTYLE
  5
13DB
102
{ACAD_REACTORS
330
13D0
102
}
330
13D0
100
AcDbVisualStyle
  2
Dim
 70
    11
 71
     2
 72
     2
 73
     0
 90
        0
 40
-0.6
 41
-30.0
 62
     5
 63
     7
421
 16777215
 74
     1
 91
        4
 64
     7
 65
   257
 75
     1
175
     1
 42
1.0
 92
        8
 66
     7
 43
1.0
 76
     1
 77
     6
 78
     2
 67
     7
 79
     5
170
     0
171
     0
290
     0
174
     0
 93
        1
 44
-50.0
173
     0
291
     1
 45
0.0
1001
ACAD
1000
AcDbSavedByObjectVersion
1070
     0
  0
VISUALSTYLE
  5
13DF
102
{ACAD_REACTORS
330
13D0
102
}
330
13D0
100
AcDbVisualStyle
  2
Facepattern
 70
    15
 71
     2
 72
     2
 73
     0
 90
        0
 40
-0.6
 41
-30.0
 62
     5
 63
     7
421
 16777215
 74
     1
 91
        4
 64
     7
 65
   257
 75
     1
175
     1
 42
1.0
 92
        8
 66
     7
 43
1.0
 76
     1
 77
     6
 78
     2
 67
     7
 79
     5
170
     0
171
     0
290
     0
174
     0
 93
        1
 44
0.0
173
     0
291
     1
 45
0.0
1001
ACAD
1000
AcDbSavedByObjectVersion
1070
     0
  0
VISUALSTYLE
  5
13D1
102
{ACAD_REACTORS
330
13D0
102
}
330
13D0
100
AcDbVisualStyle
  2
Flat
 70
     0
 71
     2
 72
     1
 73
     1
 90
        2
 40
-0.6
 41
30.0
 62
     5
 63
     7
421
 16777215
 74
     0
 91
        4
 64
     7
 65
   257
 75
     1
175
     1
 42
1.0
 92
        8
 66
     7
 43
1.0
 76
     1
 77
     6
 78
     2
 67
     7
 79
     5
170
     0
171
     0
290
     0
174
     0
 93
       13
 44
0.0
173
     0
291
     1
 45
0.0
1001
ACAD
1000
AcDbSavedByObjectVersion
1070
     0
  0
VISUALSTYLE
  5
13D2
102
{ACAD_REACTORS
330
13D0
102
}
330
13D0
100
AcDbVisualStyle
  2
FlatWithEdges
 70
     1
 71
     2
 72
     1
 73
     1
 90
        2
 40
-0.6
 41
30.0
 62
     5
 63
     7
421
 16777215
 74
     1
 91
        4
 64
     7
 65
   257
 75
     1
175
     1
 42
1.0
 92
        0
 66
   257
 43
1.0
 76
     1
 77
     6
 78
     2
 67
     7
 79
     5
170
     0
171
     0
290
     0
174
     0
 93
       13
 44
0.0
173
     0
291
     1
 45
0.0
1001
ACAD
1000
AcDbSavedByObjectVersion
1070
     0
  0
VISUALSTYLE
  5
13D3
102
{ACAD_REACTORS
330
13D0
102
}
330
13D0
100
AcDbVisualStyle
  2
Gouraud
 70
     2
 71
     2
 72
     2
 73
     1
 90
        2
 40
-0.6
 41
30.0
 62
     5
 63
     7
421
 16777215
 74
     0
 91
        4
 64
     7
 65
   257
 75
     1
175
     1
 42
1.0
 92
        0
 66
     7
 43
1.0
 76
     1
 77
     6
 78
     2
 67
     7
 79
     5
170
     0
171
     0
290
     0
174
     0
 93
       13
 44
0.0
173
     0
291
     1
 45
0.0
1001
ACAD
1000
AcDbSavedByObjectVersion
1070
     0
  0
VISUALSTYLE
  5
13D4
102
{ACAD_REACTORS
330
13D0
102
}
330
13D0
100
AcDbVisualStyle
  2
GouraudWithEdges
 70
     3
 71
     2
 72
     2
 73
     1
 90
        2
 40
-0.6
 41
30.0
 62
     5
 63
     7
421
 16777215
 74
     1
 91
        4
 64
     7
 65
   257
 75
     1
175
     1
 42
1.0
 92
        0
 66
   257
 43
1.0
 76
     1
 77
     6
 78
     2
 67
     7
 79
     5
170
     0
171
     0
290
     0
174
     0
 93
       13
 44
0.0
173
     0
291
     1
 45
0.0
1001
ACAD
1000
AcDbSavedByObjectVersion
1070
     0
  0
VISUALSTYLE
  5
13DE
102
{ACAD_REACTORS
330
13D0
102
}
330
13D0
100
AcDbVisualStyle
  2
Linepattern
 70
    14
 71
     2
 72
     2
 73
     0
 90
        0
 40
-0.6
 41
-30.0
 62
     5
 63
     7
421
 16777215
 74
     1
 91
        4
 64
     7
 65
   257
 75
     7
175
     7
 42
1.0
 92
        8
 66
     7
 43
1.0
 76
     1
 77
     6
 78
     2
 67
     7
 79
     5
170
     0
171
     0
290
     0
174
     0
 93
        1
 44
0.0
173
     0
291
     1
 45
0.0
1001
ACAD
1000
AcDbSavedByObjectVersion
1070
     0
  0
VISUALSTYLE
  5
13DA
102
{ACAD_REACTORS
330
13D0
102
}
330
13D0
100
AcDbVisualStyle
  2
Realistic
 70
     8
 71
     2
 72
     2
 73
     0
 90
        0
 40
-0.6
 41
-30.0
 62
     5
 63
     7
421
 16777215
 74
     1
 91
        0
 64
     7
 65
   257
 75
     1
175
     1
 42
1.0
 92
        8
 66
     8
424
  7895160
 43
1.0
 76
     1
 77
     6
 78
     2
 67
     7
 79
     5
170
     0
171
     0
290
     0
174
     0
 93
       13
 44
0.0
173
     0
291
     0
 45
0.0
1001
ACAD
1000
AcDbSavedByObjectVersion
1070
     0
  0
VISUALSTYLE
  5
13DD
102
{ACAD_REACTORS
330
13D0
102
}
330
13D0
100
AcDbVisualStyle
  2
Thicken
 70
    13
 71
     2
 72
     2
 73
     0
 90
        0
 40
-0.6
 41
-30.0
 62
     5
 63
     7
421
 16777215
 74
     1
 91
        4
 64
     7
 65
   257
 75
     1
175
     1
 42
1.0
 92
       12
 66
     7
 43
1.0
 76
     1
 77
     6
 78
     2
 67
     7
 79
     5
170
     0
171
     0
290
     0
174
     0
 93
        1
 44
0.0
173
     0
291
     1
 45
0.0
1001
ACAD
1000
AcDbSavedByObjectVersion
1070
     0
  0
DICTIONARYVAR
  5
146F
102
{ACAD_REACTORS
330
2D7
102
}
330
2D7
100
DictionaryVariables
280
     0
  1
1:1
  0
DICTIONARYVAR
  5
146D
102
{ACAD_REACTORS
330
2D7
102
}
330
2D7
100
DictionaryVariables
280
     0
  1
STANDARD
  0
DICTIONARYVAR
  5
13CB
102
{ACAD_REACTORS
330
2D7
102
}
330
2D7
100
DictionaryVariables
280
     0
  1
STANDARD
  0
DICTIONARYVAR
  5
747
102
{ACAD_REACTORS
330
2D7
102
}
330
2D7
100
DictionaryVariables
280
     0
  1
1
  0
DICTIONARYVAR
  5
2D8
102
{ACAD_REACTORS
330
2D7
102
}
330
2D7
100
DictionaryVariables
280
     0
  1
1
  0
DICTIONARYVAR
  5
1470
102
{ACAD_REACTORS
330
2D7
102
}
330
2D7
100
DictionaryVariables
280
     0
  1
0
  0
DICTIONARYVAR
  5
146E
102
{ACAD_REACTORS
330
2D7
102
}
330
2D7
100
DictionaryVariables
280
     0
  1
0
  0
DICTIONARY
  5
2B6
102
{ACAD_REACTORS
330
2B5
102
}
330
2B5
100
AcDbDictionary
281
     1
  0
XRECORD
  5
13B4
102
{ACAD_REACTORS
330
2B5
102
}
330
2B5
100
AcDbXrecord
280
     1
 90
-1023410169
  0
XRECORD
  5
14A5
102
{ACAD_REACTORS
330
14A4
102
}
330
14A4
100
AcDbXrecord
280
     1
  0
DICTIONARY
  5
16B7
330
13CE
100
AcDbDictionary
280
     1
281
     1
  3
ACAD_XREC_ROUNDTRIP
360
16B8
  0
DICTIONARY
  5
16B5
330
13CD
100
AcDbDictionary
280
     1
281
     1
  3
ACAD_XREC_ROUNDTRIP
360
16B6
  0
DICTIONARY
  5
16B9
330
13CF
100
AcDbDictionary
280
     1
281
     1
  3
ACAD_XREC_ROUNDTRIP
360
16BA
  0
DICTIONARY
  5
146A
330
13AB
100
AcDbDictionary
280
     1
281
     1
  3
ACAD_ROUNDTRIP_2008_TABLESTYLE_CELLSTYLEMAP
360
16B3
  3
ACAD_XREC_ROUNDTRIP
360
16B4
  0
XRECORD
  5
16B8
102
{ACAD_REACTORS
330
16B7
102
}
330
16B7
100
AcDbXrecord
280
     1
102
MATERIAL
148
0.0
149
0.0
149
0.0
 93
        0
 94
       63
282
     0
 72
     1
 77
     1
171
     1
175
     1
179
     1
273
     0
  0
XRECORD
  5
16B6
102
{ACAD_REACTORS
330
16B5
102
}
330
16B5
100
AcDbXrecord
280
     1
102
MATERIAL
148
0.0
149
0.0
149
0.0
 93
        0
 94
       63
282
     0
 72
     1
 77
     1
171
     1
175
     1
179
     1
273
     0
  0
XRECORD
  5
16BA
102
{ACAD_REACTORS
330
16B9
102
}
330
16B9
100
AcDbXrecord
280
     1
102
MATERIAL
148
0.0
149
0.0
149
0.0
 93
        0
 94
       63
282
     0
 72
     1
 77
     1
171
     1
175
     1
179
     1
273
     0
  0
CELLSTYLEMAP
  5
16B3
102
{ACAD_REACTORS
330
146A
102
}
330
146A
100
AcDbCellStyleMap
 90
        3
300
CELLSTYLE
  1
TABLEFORMAT_BEGIN
 90
        5
170
     1
 91
        0
 92
    32768
 62
   257
 93
        1
300
CONTENTFORMAT
  1
CONTENTFORMAT_BEGIN
 90
        0
 91
        0
 92
        4
 93
        0
300

 40
0.0
140
1.0
 94
        5
 62
     0
340
D
144
0.25
309
CONTENTFORMAT_END
171
     0
 94
        6
 95
        1
302
GRIDFORMAT
  1
GRIDFORMAT_BEGIN
 90
        0
 91
        1
 62
     0
 92
       -2
340
0
 93
        0
 40
0.045
309
GRIDFORMAT_END
 95
        2
302
GRIDFORMAT
  1
GRIDFORMAT_BEGIN
 90
        0
 91
        1
 62
     0
 92
       -2
340
0
 93
        0
 40
0.045
309
GRIDFORMAT_END
 95
        4
302
GRIDFORMAT
  1
GRIDFORMAT_BEGIN
 90
        0
 91
        1
 62
     0
 92
       -2
340
0
 93
        0
 40
0.045
309
GRIDFORMAT_END
 95
        8
302
GRIDFORMAT
  1
GRIDFORMAT_BEGIN
 90
        0
 91
        1
 62
     0
 92
       -2
340
0
 93
        0
 40
0.045
309
GRIDFORMAT_END
 95
       16
302
GRIDFORMAT
  1
GRIDFORMAT_BEGIN
 90
        0
 91
        1
 62
     0
 92
       -2
340
0
 93
        0
 40
0.045
309
GRIDFORMAT_END
 95
       32
302
GRIDFORMAT
  1
GRIDFORMAT_BEGIN
 90
        0
 91
        1
 62
     0
 92
       -2
340
0
 93
        0
 40
0.045
309
GRIDFORMAT_END
309
TABLEFORMAT_END
  1
CELLSTYLE_BEGIN
 90
        1
 91
        1
300
_TITLE
309
CELLSTYLE_END
300
CELLSTYLE
  1
TABLEFORMAT_BEGIN
 90
        5
170
     1
 91
        0
 92
        0
 62
   257
 93
        1
300
CONTENTFORMAT
  1
CONTENTFORMAT_BEGIN
 90
        0
 91
        0
 92
        4
 93
        0
300

 40
0.0
140
1.0
 94
        5
 62
     0
340
D
144
0.18
309
CONTENTFORMAT_END
171
     0
 94
        6
 95
        1
302
GRIDFORMAT
  1
GRIDFORMAT_BEGIN
 90
        0
 91
        1
 62
     0
 92
       -2
340
0
 93
        0
 40
0.045
309
GRIDFORMAT_END
 95
        2
302
GRIDFORMAT
  1
GRIDFORMAT_BEGIN
 90
        0
 91
        1
 62
     0
 92
       -2
340
0
 93
        0
 40
0.045
309
GRIDFORMAT_END
 95
        4
302
GRIDFORMAT
  1
GRIDFORMAT_BEGIN
 90
        0
 91
        1
 62
     0
 92
       -2
340
0
 93
        0
 40
0.045
309
GRIDFORMAT_END
 95
        8
302
GRIDFORMAT
  1
GRIDFORMAT_BEGIN
 90
        0
 91
        1
 62
     0
 92
       -2
340
0
 93
        0
 40
0.045
309
GRIDFORMAT_END
 95
       16
302
GRIDFORMAT
  1
GRIDFORMAT_BEGIN
 90
        0
 91
        1
 62
     0
 92
       -2
340
0
 93
        0
 40
0.045
309
GRIDFORMAT_END
 95
       32
302
GRIDFORMAT
  1
GRIDFORMAT_BEGIN
 90
        0
 91
        1
 62
     0
 92
       -2
340
0
 93
        0
 40
0.045
309
GRIDFORMAT_END
309
TABLEFORMAT_END
  1
CELLSTYLE_BEGIN
 90
        2
 91
        1
300
_HEADER
309
CELLSTYLE_END
300
CELLSTYLE
  1
TABLEFORMAT_BEGIN
 90
        5
170
     1
 91
        0
 92
        0
 62
   257
 93
        1
300
CONTENTFORMAT
  1
CONTENTFORMAT_BEGIN
 90
        0
 91
        0
 92
        4
 93
        0
300

 40
0.0
140
1.0
 94
        2
 62
     0
340
D
144
0.18
309
CONTENTFORMAT_END
171
     0
 94
        6
 95
        1
302
GRIDFORMAT
  1
GRIDFORMAT_BEGIN
 90
        0
 91
        1
 62
     0
 92
       -2
340
0
 93
        0
 40
0.045
309
GRIDFORMAT_END
 95
        2
302
GRIDFORMAT
  1
GRIDFORMAT_BEGIN
 90
        0
 91
        1
 62
     0
 92
       -2
340
0
 93
        0
 40
0.045
309
GRIDFORMAT_END
 95
        4
302
GRIDFORMAT
  1
GRIDFORMAT_BEGIN
 90
        0
 91
        1
 62
     0
 92
       -2
340
0
 93
        0
 40
0.045
309
GRIDFORMAT_END
 95
        8
302
GRIDFORMAT
  1
GRIDFORMAT_BEGIN
 90
        0
 91
        1
 62
     0
 92
       -2
340
0
 93
        0
 40
0.045
309
GRIDFORMAT_END
 95
       16
302
GRIDFORMAT
  1
GRIDFORMAT_BEGIN
 90
        0
 91
        1
 62
     0
 92
       -2
340
0
 93
        0
 40
0.045
309
GRIDFORMAT_END
 95
       32
302
GRIDFORMAT
  1
GRIDFORMAT_BEGIN
 90
        0
 91
        1
 62
     0
 92
       -2
340
0
 93
        0
 40
0.045
309
GRIDFORMAT_END
309
TABLEFORMAT_END
  1
CELLSTYLE_BEGIN
 90
        3
 91
        2
300
_DATA
309
CELLSTYLE_END
  0
XRECORD
  5
16B4
102
{ACAD_REACTORS
330
146A
102
}
330
146A
100
AcDbXrecord
280
     1
102
ACAD_ROUNDTRIP_PRE2007_TABLESTYLE
 90
        4
 91
        0
  1

 92
        4
 93
        0
  2

 94
        4
 95
        0
  3

  0
ENDSEC
  0
EOF
