  0
SECTION
  2
HEADER
  9
$ACADVER
  1
AC1018
  9
$ACADMAINTVER
 70
   104
  9
$DWGCODEPAGE
  3
ANSI_1252
  9
$LASTSAVEDBY
  1
ibasyouni
  9
$CUSTOMPROPERTYTAG
  1
AmdtFileType
  9
$CUSTOMPROPERTY
  1
84
  9
$INSBASE
 10
0.0
 20
0.0
 30
0.0
  9
$EXTMIN
 10
16.26239094419418
 20
166.1119943113026
 30
0.0
  9
$EXTMAX
 10
1041.647238101459
 20
613.9385020558503
 30
0.0
  9
$LIMMIN
 10
0.0
 20
0.0
  9
$LIMMAX
 10
1050.0
 20
625.0
  9
$ORTHOMODE
 70
     1
  9
$REGENMODE
 70
     1
  9
$FILLMODE
 70
     1
  9
$QTEXTMODE
 70
     0
  9
$MIRRTEXT
 70
     1
  9
$LTSCALE
 40
1.0
  9
$ATTMODE
 70
     1
  9
$TEXTSIZE
 40
10.0
  9
$TRACEWID
 40
1.0
  9
$TEXTSTYLE
  7
STANDARD
  9
$CLAYER
  8
0
  9
$CELTYPE
  6
BYLAYER
  9
$CECOLOR
 62
   256
  9
$CELTSCALE
 40
10.0
  9
$DISPSILH
 70
     0
  9
$DIMSCALE
 40
1.0
  9
$DIMASZ
 40
7.0
  9
$DIMEXO
 40
0.0
  9
$DIMDLI
 40
7.0
  9
$DIMRND
 40
0.0
  9
$DIMDLE
 40
0.0
  9
$DIMEXE
 40
1.25
  9
$DIMTP
 40
0.0
  9
$DIMTM
 40
0.0
  9
$DIMTXT
 40
10.0
  9
$DIMCEN
 40
0.0
  9
$DIMTSZ
 40
0.0
  9
$DIMTOL
 70
     0
  9
$DIMLIM
 70
     0
  9
$DIMTIH
 70
     0
  9
$DIMTOH
 70
     0
  9
$DIMSE1
 70
     0
  9
$DIMSE2
 70
     0
  9
$DIMTAD
 70
     1
  9
$DIMZIN
 70
     8
  9
$DIMBLK
  1

  9
$DIMASO
 70
     1
  9
$DIMSHO
 70
     1
  9
$DIMPOST
  1

  9
$DIMAPOST
  1

  9
$DIMALT
 70
     0
  9
$DIMALTD
 70
     2
  9
$DIMALTF
 40
25.4
  9
$DIMLFAC
 40
1.0
  9
$DIMTOFL
 70
     1
  9
$DIMTVP
 40
0.0
  9
$DIMTIX
 70
     0
  9
$DIMSOXD
 70
     0
  9
$DIMSAH
 70
     0
  9
$DIMBLK1
  1

  9
$DIMBLK2
  1

  9
$DIMSTYLE
  2
ISO-25
  9
$DIMCLRD
 70
   256
  9
$DIMCLRE
 70
   256
  9
$DIMCLRT
 70
   256
  9
$DIMTFAC
 40
1.0
  9
$DIMGAP
 40
4.0
  9
$DIMJUST
 70
     0
  9
$DIMSD1
 70
     0
  9
$DIMSD2
 70
     0
  9
$DIMTOLJ
 70
     1
  9
$DIMTZIN
 70
     8
  9
$DIMALTZ
 70
     0
  9
$DIMALTTZ
 70
     0
  9
$DIMUPT
 70
     1
  9
$DIMDEC
 70
     4
  9
$DIMTDEC
 70
     4
  9
$DIMALTU
 70
     2
  9
$DIMALTTD
 70
     2
  9
$DIMTXSTY
  7
STANDARD
  9
$DIMAUNIT
 70
     0
  9
$DIMADEC
 70
     0
  9
$DIMALTRND
 40
0.0
  9
$DIMAZIN
 70
     0
  9
$DIMDSEP
 70
    46
  9
$DIMATFIT
 70
     0
  9
$DIMFRAC
 70
     0
  9
$DIMLDRBLK
  1

  9
$DIMLUNIT
 70
     2
  9
$DIMLWD
 70
    -2
  9
$DIMLWE
 70
    -2
  9
$DIMTMOVE
 70
     0
  9
$LUNITS
 70
     2
  9
$LUPREC
 70
     4
  9
$SKETCHINC
 40
1.0
  9
$FILLETRAD
 40
2.5
  9
$AUNITS
 70
     0
  9
$AUPREC
 70
     0
  9
$MENU
  1
.
  9
$ELEVATION
 40
0.0
  9
$PELEVATION
 40
0.0
  9
$THICKNESS
 40
0.0
  9
$LIMCHECK
 70
     0
  9
$CHAMFERA
 40
2.0
  9
$CHAMFERB
 40
2.0
  9
$CHAMFERC
 40
0.0
  9
$CHAMFERD
 40
0.0
  9
$SKPOLY
 70
     0
  9
$TDCREATE
 40
2450848.795139884
  9
$TDUCREATE
 40
2450848.711806551
  9
$TDUPDATE
 40
2455768.717228924
  9
$TDUUPDATE
 40
2455768.633895591
  9
$TDINDWG
 40
2.3637687731
  9
$TDUSRTIMER
 40
2.3637687731
  9
$USRTIMER
 70
     1
  9
$ANGBASE
 50
0.0
  9
$ANGDIR
 70
     0
  9
$PDMODE
 70
     0
  9
$PDSIZE
 40
0.0
  9
$PLINEWID
 40
0.5
  9
$SPLFRAME
 70
     0
  9
$SPLINETYPE
 70
     6
  9
$SPLINESEGS
 70
     8
  9
$HANDSEED
  5
D71
  9
$SURFTAB1
 70
     6
  9
$SURFTAB2
 70
     6
  9
$SURFTYPE
 70
     6
  9
$SURFU
 70
     6
  9
$SURFV
 70
     6
  9
$UCSBASE
  2

  9
$UCSNAME
  2

  9
$UCSORG
 10
0.0
 20
0.0
 30
0.0
  9
$UCSXDIR
 10
1.0
 20
0.0
 30
0.0
  9
$UCSYDIR
 10
0.0
 20
1.0
 30
0.0
  9
$UCSORTHOREF
  2

  9
$UCSORTHOVIEW
 70
     0
  9
$UCSORGTOP
 10
0.0
 20
0.0
 30
0.0
  9
$UCSORGBOTTOM
 10
0.0
 20
0.0
 30
0.0
  9
$UCSORGLEFT
 10
0.0
 20
0.0
 30
0.0
  9
$UCSORGRIGHT
 10
0.0
 20
0.0
 30
0.0
  9
$UCSORGFRONT
 10
0.0
 20
0.0
 30
0.0
  9
$UCSORGBACK
 10
0.0
 20
0.0
 30
0.0
  9
$PUCSBASE
  2

  9
$PUCSNAME
  2

  9
$PUCSORG
 10
0.0
 20
0.0
 30
0.0
  9
$PUCSXDIR
 10
1.0
 20
0.0
 30
0.0
  9
$PUCSYDIR
 10
0.0
 20
1.0
 30
0.0
  9
$PUCSORTHOREF
  2

  9
$PUCSORTHOVIEW
 70
     0
  9
$PUCSORGTOP
 10
0.0
 20
0.0
 30
0.0
  9
$PUCSORGBOTTOM
 10
0.0
 20
0.0
 30
0.0
  9
$PUCSORGLEFT
 10
0.0
 20
0.0
 30
0.0
  9
$PUCSORGRIGHT
 10
0.0
 20
0.0
 30
0.0
  9
$PUCSORGFRONT
 10
0.0
 20
0.0
 30
0.0
  9
$PUCSORGBACK
 10
0.0
 20
0.0
 30
0.0
  9
$USERI1
 70
     0
  9
$USERI2
 70
     0
  9
$USERI3
 70
     0
  9
$USERI4
 70
     0
  9
$USERI5
 70
     0
  9
$USERR1
 40
0.0
  9
$USERR2
 40
0.0
  9
$USERR3
 40
0.0
  9
$USERR4
 40
0.0
  9
$USERR5
 40
0.0
  9
$WORLDVIEW
 70
     1
  9
$SHADEDGE
 70
     3
  9
$SHADEDIF
 70
    70
  9
$TILEMODE
 70
     1
  9
$MAXACTVP
 70
    16
  9
$PINSBASE
 10
0.0
 20
0.0
 30
0.0
  9
$PLIMCHECK
 70
     0
  9
$PEXTMIN
 10
1.000000000000000E+20
 20
1.000000000000000E+20
 30
1.000000000000000E+20
  9
$PEXTMAX
 10
-1.000000000000000E+20
 20
-1.000000000000000E+20
 30
-1.000000000000000E+20
  9
$PLIMMIN
 10
0.0
 20
0.0
  9
$PLIMMAX
 10
420.0
 20
297.0
  9
$UNITMODE
 70
     0
  9
$VISRETAIN
 70
     0
  9
$PLINEGEN
 70
     0
  9
$PSLTSCALE
 70
     0
  9
$TREEDEPTH
 70
  3020
  9
$CMLSTYLE
  2
STANDARD
  9
$CMLJUST
 70
     0
  9
$CMLSCALE
 40
1.0
  9
$PROXYGRAPHICS
 70
     1
  9
$MEASUREMENT
 70
     0
  9
$CELWEIGHT
370
    -1
  9
$ENDCAPS
280
     0
  9
$JOINSTYLE
280
     0
  9
$LWDISPLAY
290
     0
  9
$INSUNITS
 70
     0
  9
$HYPERLINKBASE
  1

  9
$STYLESHEET
  1
Zeich.ctb
  9
$XEDIT
290
     1
  9
$CEPSNTYPE
380
     0
  9
$PSTYLEMODE
290
     1
  9
$FINGERPRINTGUID
  2
{CDE87578-05EE-4FE9-9F47-0C6861986764}
  9
$VERSIONGUID
  2
{01F88B74-3BEC-435B-B1DD-7B47A07A9B84}
  9
$EXTNAMES
290
     1
  9
$PSVPSCALE
 40
0.0
  9
$OLESTARTUP
290
     0
  9
$SORTENTS
280
   127
  9
$INDEXCTL
280
     0
  9
$HIDETEXT
280
     0
  9
$XCLIPFRAME
290
     0
  9
$HALOGAP
280
     0
  9
$OBSCOLOR
 70
   257
  9
$OBSLTYPE
280
     0
  9
$INTERSECTIONDISPLAY
280
     0
  9
$INTERSECTIONCOLOR
 70
   257
  9
$DIMASSOC
280
     1
  9
$PROJECTNAME
  1

  0
ENDSEC
  0
SECTION
  2
CLASSES
  0
CLASS
  1
IDBUFFER
  2
AcDbIdBuffer
  3
ObjectDBX Classes
 90
        0
 91
        0
280
     0
281
     0
  0
CLASS
  1
DICTIONARYVAR
  2
AcDbDictionaryVar
  3
ObjectDBX Classes
 90
        0
 91
        7
280
     0
281
     0
  0
CLASS
  1
ACMESTATEMGR
  2
AcMeStateMgr
  3
AcMeServices
 90
     1024
 91
        1
280
     0
281
     0
  0
CLASS
  1
ACMESCOPE
  2
AcMeScope
  3
AcMeServices
 90
     1024
 91
        1
280
     0
281
     0
  0
CLASS
  1
ACMECOMMANDHISTORY
  2
AcMeCommandHistory
  3
AcMeServices
 90
     1024
 91
        1
280
     0
281
     0
  0
CLASS
  1
ACRFINSADJUSTERMGR
  2
AcRfInsAdjusterMgr
  3
AcMeServices
 90
     1024
 91
        1
280
     0
281
     0
  0
CLASS
  1
ACMEDRAWINGMAN
  2
AcMeDrawingMan
  3
AcMeServices
 90
     1024
 91
        1
280
     0
281
     0
  0
CLASS
  1
AMATTR
  2
AcMeAttribute
  3
AcMeServices
 90
     1024
 91
        0
280
     0
281
     0
  0
CLASS
  1
ACMEBOMCOLUMN
  2
AcMeBOMColumn
  3
AcMeServices
 90
     1024
 91
        0
280
     0
281
     0
  0
CLASS
  1
ACMEBOMCONF
  2
AcMeBOMConf
  3
AcMeServices
 90
     1024
 91
        0
280
     0
281
     0
  0
CLASS
  1
ACMEBOMTABLE
  2
AcMeBOMTable
  3
AcMeServices
 90
     1024
 91
        0
280
     0
281
     0
  0
CLASS
  1
ACMEBOMENTRY
  2
AcMeBOMEntry
  3
AcMeServices
 90
     1024
 91
        0
280
     0
281
     0
  0
CLASS
  1
ACMEVIEW
  2
AcMeView
  3
AcMeServices
 90
     1024
 91
        0
280
     0
281
     0
  0
CLASS
  1
LAYER_INDEX
  2
AcDbLayerIndex
  3
ObjectDBX Classes
 90
        0
 91
        0
280
     0
281
     0
  0
CLASS
  1
ACIMSYSVARMAN
  2
AcImSysVarManager
  3
AcMeServices
 90
     1024
 91
        5
280
     0
281
     0
  0
CLASS
  1
ACIMINTSYSVAR
  2
AcImIntSysVar
  3
AcMeServices
 90
     1024
 91
       27
280
     0
281
     0
  0
CLASS
  1
ACIMSTRSYSVAR
  2
AcImStrSysVar
  3
AcMeServices
 90
     1024
 91
        5
280
     0
281
     0
  0
CLASS
  1
ACMSTANDARDJIS
  2
AcmStandardJIS
  3
"Amdt_StdImp|Product Description: AutoCAD Mechanical|Company: Autodesk, Inc."
 90
     1024
 91
        1
280
     0
281
     0
  0
CLASS
  1
ACMSTANDARDANSI
  2
AcmStandardANSI
  3
"Amdt_StdImp|Product Description: AutoCAD Mechanical|Company: Autodesk, Inc."
 90
     1024
 91
        1
280
     0
281
     0
  0
CLASS
  1
ACMSTANDARDBSI
  2
AcmStandardBSI
  3
"Amdt_StdImp|Product Description: AutoCAD Mechanical|Company: Autodesk, Inc."
 90
     1024
 91
        1
280
     0
281
     0
  0
CLASS
  1
ACMSTANDARDDIN
  2
AcmStandardDIN
  3
"Amdt_StdImp|Product Description: AutoCAD Mechanical|Company: Autodesk, Inc."
 90
     1024
 91
        1
280
     0
281
     0
  0
CLASS
  1
ACMSTANDARDISO
  2
AcmStandardISO
  3
"Amdt_StdImp|Product Description: AutoCAD Mechanical|Company: Autodesk, Inc."
 90
     1024
 91
        1
280
     0
281
     0
  0
CLASS
  1
ACDBDICTIONARYWDFLT
  2
AcDbDictionaryWithDefault
  3
ObjectDBX Classes
 90
        0
 91
        1
280
     0
281
     0
  0
CLASS
  1
ACME_DOCUMENT
  2
AcMeDbDoc
  3
AcMeServices
 90
     1024
 91
        2
280
     0
281
     0
  0
CLASS
  1
AMGSETTINGSOBJ
  2
AmgSettingsObj
  3
"AcadM|Product Description: AutoCAD Mechanical|Company: Autodesk, Inc."
 90
     1024
 91
        2
280
     0
281
     0
  0
CLASS
  1
ACIMREALSYSVAR
  2
AcImRealSysVar
  3
AcMeServices
 90
     1024
 91
        3
280
     0
281
     0
  0
CLASS
  1
ACDBENTITYCACHE
  2
AcMeEntityCache
  3
AcMeServices
 90
     1024
 91
        1
280
     0
281
     0
  0
CLASS
  1
GSMANAGER
  2
AcMeGSManager
  3
AcMeServices
 90
     1024
 91
        1
280
     0
281
     0
  0
CLASS
  1
AMDTINTERNALREACTOR
  2
AmdtInternalReactor
  3
AcMeServices
 90
     1024
 91
        2
280
     0
281
     0
  0
CLASS
  1
ACME_DATABASE
  2
AcMeDbDatabase
  3
AcMeServices
 90
     1024
 91
        1
280
     0
281
     0
  0
CLASS
  1
ACMDATADICTIONARY
  2
AcmDataDictionary
  3
"AcmSymBB|Product Description: AutoCAD Mechanical|Company: Autodesk, Inc."
 90
     1024
 91
        1
280
     0
281
     0
  0
CLASS
  1
ACMDATAENTRYBLOCK
  2
AcmDataEntryBlock
  3
AcmSymBB|Product Description: AutoCAD Mechanical|Company: Autodesk, Inc.
 90
     1024
 91
        1
280
     0
281
     0
  0
CLASS
  1
ACMSURFSTANDARDJIS
  2
AcmSurfTextStdJIS
  3
"Amdt_StdImp|Product Description: AutoCAD Mechanical|Company: Autodesk, Inc."
 90
     1024
 91
        2
280
     0
281
     0
  0
CLASS
  1
ACMFCFSTANDARDJIS
  2
AcmFCFStdJIS
  3
"Amdt_StdImp|Product Description: AutoCAD Mechanical|Company: Autodesk, Inc."
 90
     1024
 91
        2
280
     0
281
     0
  0
CLASS
  1
ACMWELDSTANDARDJIS
  2
AcmWeldingStdJIS
  3
"Amdt_StdImp|Product Description: AutoCAD Mechanical|Company: Autodesk, Inc."
 90
     1024
 91
        2
280
     0
281
     0
  0
CLASS
  1
ACMIDSTANDARDJIS
  2
AcmIdStdJIS
  3
"Amdt_StdImp|Product Description: AutoCAD Mechanical|Company: Autodesk, Inc."
 90
     1024
 91
        2
280
     0
281
     0
  0
CLASS
  1
ACMDATUMSTANDARDJIS
  2
AcmDatumStdJIS
  3
"Amdt_StdImp|Product Description: AutoCAD Mechanical|Company: Autodesk, Inc."
 90
     1024
 91
        2
280
     0
281
     0
  0
CLASS
  1
ACMBOMSTANDARDJIS
  2
AcmBOMStdJIS
  3
"Amdt_StdImp|Product Description: AutoCAD Mechanical|Company: Autodesk, Inc."
 90
     1024
 91
        2
280
     0
281
     0
  0
CLASS
  1
AMGOBJPROPCFG
  2
AmgObjPropCfg
  3
"AmgLay|Product Description: AutoCAD Mechanical|Company: Autodesk, Inc."
 90
     1025
 91
        1
280
     0
281
     0
  0
CLASS
  1
ACMSURFSTANDARDANSI
  2
AcmSurfTextStdANSI
  3
"Amdt_StdImp|Product Description: AutoCAD Mechanical|Company: Autodesk, Inc."
 90
     1024
 91
        2
280
     0
281
     0
  0
CLASS
  1
ACMFCFSTANDARDANSI
  2
AcmFCFStdANSI
  3
"Amdt_StdImp|Product Description: AutoCAD Mechanical|Company: Autodesk, Inc."
 90
     1024
 91
        2
280
     0
281
     0
  0
CLASS
  1
ACMWELDSTANDARDANSI
  2
AcmWeldingStdANSI
  3
"Amdt_StdImp|Product Description: AutoCAD Mechanical|Company: Autodesk, Inc."
 90
     1024
 91
        2
280
     0
281
     0
  0
CLASS
  1
ACMIDSTANDARDANSI
  2
AcmIdStdANSI
  3
"Amdt_StdImp|Product Description: AutoCAD Mechanical|Company: Autodesk, Inc."
 90
     1024
 91
        2
280
     0
281
     0
  0
CLASS
  1
ACMDATUMSTANDARDANSI
  2
AcmDatumStdANSI
  3
"Amdt_StdImp|Product Description: AutoCAD Mechanical|Company: Autodesk, Inc."
 90
     1024
 91
        2
280
     0
281
     0
  0
CLASS
  1
ACMBOMSTANDARDANSI
  2
AcmBOMStdANSI
  3
"Amdt_StdImp|Product Description: AutoCAD Mechanical|Company: Autodesk, Inc."
 90
     1024
 91
        2
280
     0
281
     0
  0
CLASS
  1
ACMSURFSTANDARDBSI
  2
AcmSurfTextStdBSI
  3
"Amdt_StdImp|Product Description: AutoCAD Mechanical|Company: Autodesk, Inc."
 90
     1024
 91
        2
280
     0
281
     0
  0
CLASS
  1
ACMFCFSTANDARDBSI
  2
AcmFCFStdBSI
  3
"Amdt_StdImp|Product Description: AutoCAD Mechanical|Company: Autodesk, Inc."
 90
     1024
 91
        2
280
     0
281
     0
  0
CLASS
  1
ACMWELDSTANDARDBSI
  2
AcmWeldingStdBSI
  3
"Amdt_StdImp|Product Description: AutoCAD Mechanical|Company: Autodesk, Inc."
 90
     1024
 91
        2
280
     0
281
     0
  0
CLASS
  1
ACMIDSTANDARDBSI
  2
AcmIdStdBSI
  3
"Amdt_StdImp|Product Description: AutoCAD Mechanical|Company: Autodesk, Inc."
 90
     1024
 91
        2
280
     0
281
     0
  0
CLASS
  1
ACMDATUMSTANDARDBSI
  2
AcmDatumStdBSI
  3
"Amdt_StdImp|Product Description: AutoCAD Mechanical|Company: Autodesk, Inc."
 90
     1024
 91
        2
280
     0
281
     0
  0
CLASS
  1
ACMBOMSTANDARDBSI
  2
AcmBOMStdBSI
  3
"Amdt_StdImp|Product Description: AutoCAD Mechanical|Company: Autodesk, Inc."
 90
     1024
 91
        2
280
     0
281
     0
  0
CLASS
  1
AMDTEDGESTANDARDDIN
  2
AmdtEdgeStdDIN
  3
"Amdt_StdImp|Product Description: AutoCAD Mechanical|Company: Autodesk, Inc."
 90
     1024
 91
        2
280
     0
281
     0
  0
CLASS
  1
ACMSURFSTANDARDDIN
  2
AcmSurfTextStdDIN
  3
"Amdt_StdImp|Product Description: AutoCAD Mechanical|Company: Autodesk, Inc."
 90
     1024
 91
        2
280
     0
281
     0
  0
CLASS
  1
ACMFCFSTANDARDDIN
  2
AcmFCFStdDIN
  3
"Amdt_StdImp|Product Description: AutoCAD Mechanical|Company: Autodesk, Inc."
 90
     1024
 91
        2
280
     0
281
     0
  0
CLASS
  1
ACMWELDSTANDARDDIN
  2
AcmWeldingStdDIN
  3
"Amdt_StdImp|Product Description: AutoCAD Mechanical|Company: Autodesk, Inc."
 90
     1024
 91
        2
280
     0
281
     0
  0
CLASS
  1
ACMIDSTANDARDDIN
  2
AcmIdStdDIN
  3
"Amdt_StdImp|Product Description: AutoCAD Mechanical|Company: Autodesk, Inc."
 90
     1024
 91
        2
280
     0
281
     0
  0
CLASS
  1
ACMDATUMSTANDARDDIN
  2
AcmDatumStdDIN
  3
"Amdt_StdImp|Product Description: AutoCAD Mechanical|Company: Autodesk, Inc."
 90
     1024
 91
        2
280
     0
281
     0
  0
CLASS
  1
ACMBOMSTANDARDDIN
  2
AcmBOMStdDIN
  3
"Amdt_StdImp|Product Description: AutoCAD Mechanical|Company: Autodesk, Inc."
 90
     1024
 91
        2
280
     0
281
     0
  0
CLASS
  1
AMDTEDGESTANDARDISO
  2
AmdtEdgeStdISO
  3
"Amdt_StdImp|Product Description: AutoCAD Mechanical|Company: Autodesk, Inc."
 90
     1024
 91
        2
280
     0
281
     0
  0
CLASS
  1
ACMSURFSTANDARDISO
  2
AcmSurfTextStdISO
  3
"Amdt_StdImp|Product Description: AutoCAD Mechanical|Company: Autodesk, Inc."
 90
     1024
 91
        2
280
     0
281
     0
  0
CLASS
  1
ACMFCFSTANDARDISO
  2
AcmFCFStdISO
  3
"Amdt_StdImp|Product Description: AutoCAD Mechanical|Company: Autodesk, Inc."
 90
     1024
 91
        2
280
     0
281
     0
  0
CLASS
  1
ACMWELDSTANDARDISO
  2
AcmWeldingStdISO
  3
"Amdt_StdImp|Product Description: AutoCAD Mechanical|Company: Autodesk, Inc."
 90
     1024
 91
        2
280
     0
281
     0
  0
CLASS
  1
ACMIDSTANDARDISO
  2
AcmIdStdISO
  3
"Amdt_StdImp|Product Description: AutoCAD Mechanical|Company: Autodesk, Inc."
 90
     1024
 91
        2
280
     0
281
     0
  0
CLASS
  1
ACMDATUMSTANDARDISO
  2
AcmDatumStdISO
  3
"Amdt_StdImp|Product Description: AutoCAD Mechanical|Company: Autodesk, Inc."
 90
     1024
 91
        2
280
     0
281
     0
  0
CLASS
  1
ACMBOMSTANDARDISO
  2
AcmBOMStdISO
  3
"Amdt_StdImp|Product Description: AutoCAD Mechanical|Company: Autodesk, Inc."
 90
     1024
 91
        2
280
     0
281
     0
  0
CLASS
  1
ACAMGFILTERDAT
  2
AcAmgFilterDat
  3
"AcadM|Product Description: AutoCAD Mechanical|Company: Autodesk, Inc."
 90
     1024
 91
        5
280
     0
281
     0
  0
CLASS
  1
ACMDIMBREAKPERSREACTOR
  2
AcmDimBreakPersReactor
  3
AmgDim|Product Description: AutoCAD Mechanical|Company: Autodesk, Inc.
 90
     4095
 91
        3
280
     0
281
     0
  0
CLASS
  1
ACGREFMASTER
  2
AcGrefMaster
  3
AcAttribServices
 90
     1024
 91
        1
280
     0
281
     0
  0
CLASS
  1
AM_DRAWING_MGR
  2
AcDmDwgMgr
  3
AcMechDwgViewMgmt
 90
     1024
 91
        1
280
     0
281
     0
  0
CLASS
  1
AM_DWG_DOCUMENT
  2
AcDmDwgDocument
  3
AcMechDwgViewMgmt
 90
     1024
 91
        1
280
     0
281
     0
  0
CLASS
  1
AM_DWG_SHEET
  2
AcDmSheet
  3
AcMechDwgViewMgmt
 90
     1024
 91
        1
280
     0
281
     0
  0
CLASS
  1
AM_VIEWDIMPARMAP
  2
AcDmViewDimParMap
  3
AcMechDwgViewMgmt
 90
     1024
 91
        1
280
     0
281
     0
  0
CLASS
  1
AM_DWGMGR_NAME
  2
AcDmDwgMgrName
  3
AcMechDwgViewMgmt
 90
     1024
 91
        1
280
     0
281
     0
  0
CLASS
  1
ACGREFACADMASTER
  2
AcGrefacadMaster
  3
AcGrefServices
 90
     1024
 91
        1
280
     0
281
     0
  0
CLASS
  1
AMDTMENUSTATEMGR
  2
AmdtMenuStateMgr
  3
McadcomServices
 90
     1024
 91
        1
280
     0
281
     0
  0
CLASS
  1
AMDTMCOMMENUSTATE
  2
AmdtMcomMenuState
  3
McadcomServices
 90
     1024
 91
        1
280
     0
281
     0
  0
CLASS
  1
AMIMASTER
  2
AmiMaster
  3
AmiServices
 90
     1024
 91
        1
280
     0
281
     0
  0
CLASS
  1
MAPIAMMOUDLE
  2
MApiAmModule
  3
MApiAmServices
 90
     1024
 91
        1
280
     0
281
     0
  0
CLASS
  1
AMDTADMENUSTATE
  2
AmdtAdMenuState
  3
DesignerServices
 90
     1024
 91
        1
280
     0
281
     0
  0
CLASS
  1
ADAPPL
  2
AcAdAppl
  3
DesignerServices
 90
     1024
 91
        1
280
     0
281
     0
  0
CLASS
  1
DEPMGR
  2
AcAdDepMgr
  3
DesignerServices
 90
     1024
 91
        1
280
     0
281
     0
  0
CLASS
  1
PARAMMGR
  2
AcAdParamMgr
  3
DesignerServices
 90
     1024
 91
        1
280
     0
281
     0
  0
CLASS
  1
PARAMSCOPE
  2
AcAdParamScope
  3
DesignerServices
 90
     1024
 91
        1
280
     0
281
     0
  0
CLASS
  1
NAMEDAPPL
  2
AcAdNamedAppl
  3
DesignerServices
 90
     1024
 91
        1
280
     0
281
     0
  0
CLASS
  1
AMDTDMMENUSTATE
  2
AmdtDmMenuState
  3
AcMechDwgViewMgmt
 90
     1024
 91
        1
280
     0
281
     0
  0
CLASS
  1
AMDTAMMENUSTATE
  2
AmdtAmMenuState
  3
DesignerAssemblies
 90
     1024
 91
        1
280
     0
281
     0
  0
CLASS
  1
ACAMPROJECT
  2
AcAmProject
  3
DesignerAssemblies
 90
     1024
 91
        1
280
     0
281
     0
  0
CLASS
  1
ACAMGRCOMPDEF
  2
AcAmGrCompDef
  3
DesignerAssemblies
 90
     1024
 91
        1
280
     0
281
     0
  0
CLASS
  1
ACCMCONTEXT
  2
AcCmContext
  3
DesignerAssemblies
 90
     1024
 91
        1
280
     0
281
     0
  0
CLASS
  1
ACAMCOMPDEF
  2
AcAmCompDef
  3
DesignerAssemblies
 90
     1024
 91
        1
280
     0
281
     0
  0
CLASS
  1
ACAMCOMPDEFMGR
  2
AcAmCompDefMgr
  3
DesignerAssemblies
 90
     1024
 91
        1
280
     0
281
     0
  0
CLASS
  1
AMCONTEXTMGR
  2
AcAmContextMgr
  3
DesignerAssemblies
 90
     1024
 91
        1
280
     0
281
     0
  0
CLASS
  1
ACAMCONTEXTMODELER
  2
AcAmContextModeler
  3
DesignerAssemblies
 90
     1024
 91
        1
280
     0
281
     0
  0
CLASS
  1
ACAMGTITLESTD
  2
AcAmgTitleStd
  3
"AmgTitle|Product Description: AutoCAD Mechanical|Company: Autodesk, Inc."
 90
     4095
 91
        5
280
     0
281
     0
  0
CLASS
  1
ACMDETAILSTANDARDJIS
  2
AmdtDetailSymStdJIS
  3
"Amdt_StdImp|Product Description: AutoCAD Mechanical|Company: Autodesk, Inc."
 90
     1024
 91
        1
280
     0
281
     0
  0
CLASS
  1
ACMSECTIONSTANDARDJIS
  2
AmdtSectionSymStdJIS
  3
"Amdt_StdImp|Product Description: AutoCAD Mechanical|Company: Autodesk, Inc."
 90
     1024
 91
        1
280
     0
281
     0
  0
CLASS
  1
ACMCENTERLINESTANDARDJIS
  2
AmdtCenterLineStdJIS
  3
"Amdt_StdImp|Product Description: AutoCAD Mechanical|Company: Autodesk, Inc."
 90
     1024
 91
        1
280
     0
281
     0
  0
CLASS
  1
ACMTHREADLINESTANDARDJIS
  2
AmdtThreadLineStdJIS
  3
"Amdt_StdImp|Product Description: AutoCAD Mechanical|Company: Autodesk, Inc."
 90
     1024
 91
        1
280
     0
281
     0
  0
CLASS
  1
ACMNOTESTANDARDJIS
  2
AmdtNoteStdJIS
  3
"Amdt_StdImp|Product Description: AutoCAD Mechanical|Company: Autodesk, Inc."
 90
     1024
 91
        1
280
     0
281
     0
  0
CLASS
  1
AMDTNOTETEMPLATEDB
  2
AmdtNoteTemplateDB
  3
AcmSymBB|Product Description: AutoCAD Mechanical|Company: Autodesk, Inc.
 90
     1024
 91
       20
280
     0
281
     0
  0
CLASS
  1
ACMDETAILSTANDARDANSI
  2
AmdtDetailSymStdANSI
  3
"Amdt_StdImp|Product Description: AutoCAD Mechanical|Company: Autodesk, Inc."
 90
     1024
 91
        1
280
     0
281
     0
  0
CLASS
  1
ACMSECTIONSTANDARDANSI
  2
AmdtSectionSymStdANSI
  3
"Amdt_StdImp|Product Description: AutoCAD Mechanical|Company: Autodesk, Inc."
 90
     1024
 91
        1
280
     0
281
     0
  0
CLASS
  1
ACMCENTERLINESTANDARDANSI
  2
AmdtCenterLineStdANSI
  3
"Amdt_StdImp|Product Description: AutoCAD Mechanical|Company: Autodesk, Inc."
 90
     1024
 91
        1
280
     0
281
     0
  0
CLASS
  1
ACMTHREADLINESTANDARDANSI
  2
AmdtThreadLineStdANSI
  3
"Amdt_StdImp|Product Description: AutoCAD Mechanical|Company: Autodesk, Inc."
 90
     1024
 91
        1
280
     0
281
     0
  0
CLASS
  1
ACMNOTESTANDARDANSI
  2
AmdtNoteStdANSI
  3
"Amdt_StdImp|Product Description: AutoCAD Mechanical|Company: Autodesk, Inc."
 90
     1024
 91
        1
280
     0
281
     0
  0
CLASS
  1
ACMDETAILSTANDARDBSI
  2
AmdtDetailSymStdBSI
  3
"Amdt_StdImp|Product Description: AutoCAD Mechanical|Company: Autodesk, Inc."
 90
     1024
 91
        1
280
     0
281
     0
  0
CLASS
  1
ACMSECTIONSTANDARDBSI
  2
AmdtSectionSymStdBSI
  3
"Amdt_StdImp|Product Description: AutoCAD Mechanical|Company: Autodesk, Inc."
 90
     1024
 91
        1
280
     0
281
     0
  0
CLASS
  1
ACMCENTERLINESTANDARDBSI
  2
AmdtCenterLineStdBSI
  3
"Amdt_StdImp|Product Description: AutoCAD Mechanical|Company: Autodesk, Inc."
 90
     1024
 91
        1
280
     0
281
     0
  0
CLASS
  1
ACMTHREADLINESTANDARDBSI
  2
AmdtThreadLineStdBSI
  3
"Amdt_StdImp|Product Description: AutoCAD Mechanical|Company: Autodesk, Inc."
 90
     1024
 91
        1
280
     0
281
     0
  0
CLASS
  1
ACMNOTESTANDARDBSI
  2
AmdtNoteStdBSI
  3
"Amdt_StdImp|Product Description: AutoCAD Mechanical|Company: Autodesk, Inc."
 90
     1024
 91
        1
280
     0
281
     0
  0
CLASS
  1
ACMDETAILSTANDARDDIN
  2
AmdtDetailSymStdDIN
  3
"Amdt_StdImp|Product Description: AutoCAD Mechanical|Company: Autodesk, Inc."
 90
     1024
 91
        1
280
     0
281
     0
  0
CLASS
  1
ACMSECTIONSTANDARDDIN
  2
AmdtSectionSymStdDIN
  3
"Amdt_StdImp|Product Description: AutoCAD Mechanical|Company: Autodesk, Inc."
 90
     1024
 91
        1
280
     0
281
     0
  0
CLASS
  1
ACMCENTERLINESTANDARDDIN
  2
AmdtCenterLineStdDIN
  3
"Amdt_StdImp|Product Description: AutoCAD Mechanical|Company: Autodesk, Inc."
 90
     1024
 91
        1
280
     0
281
     0
  0
CLASS
  1
ACMTHREADLINESTANDARDDIN
  2
AmdtThreadLineStdDIN
  3
"Amdt_StdImp|Product Description: AutoCAD Mechanical|Company: Autodesk, Inc."
 90
     1024
 91
        1
280
     0
281
     0
  0
CLASS
  1
ACMNOTESTANDARDDIN
  2
AmdtNoteStdDIN
  3
"Amdt_StdImp|Product Description: AutoCAD Mechanical|Company: Autodesk, Inc."
 90
     1024
 91
        1
280
     0
281
     0
  0
CLASS
  1
ACMDETAILSTANDARDISO
  2
AmdtDetailSymStdISO
  3
"Amdt_StdImp|Product Description: AutoCAD Mechanical|Company: Autodesk, Inc."
 90
     1024
 91
        1
280
     0
281
     0
  0
CLASS
  1
ACMSECTIONSTANDARDISO
  2
AmdtSectionSymStdISO
  3
"Amdt_StdImp|Product Description: AutoCAD Mechanical|Company: Autodesk, Inc."
 90
     1024
 91
        1
280
     0
281
     0
  0
CLASS
  1
ACMCENTERLINESTANDARDISO
  2
AmdtCenterLineStdISO
  3
"Amdt_StdImp|Product Description: AutoCAD Mechanical|Company: Autodesk, Inc."
 90
     1024
 91
        1
280
     0
281
     0
  0
CLASS
  1
ACMTHREADLINESTANDARDISO
  2
AmdtThreadLineStdISO
  3
"Amdt_StdImp|Product Description: AutoCAD Mechanical|Company: Autodesk, Inc."
 90
     1024
 91
        1
280
     0
281
     0
  0
CLASS
  1
ACMNOTESTANDARDISO
  2
AmdtNoteStdISO
  3
"Amdt_StdImp|Product Description: AutoCAD Mechanical|Company: Autodesk, Inc."
 90
     1024
 91
        1
280
     0
281
     0
  0
CLASS
  1
ACAMGLAYSTD
  2
AcAmgLayStd
  3
"AmgLay|Product Description: AutoCAD Mechanical|Company: Autodesk, Inc."
 90
     1024
 91
        5
280
     0
281
     0
  0
CLASS
  1
ACAMGDIMSTD
  2
AcAmgDimStd
  3
"AmgDim|Product Description: AutoCAD Mechanical|Company: Autodesk, Inc."
 90
     1024
 91
        5
280
     0
281
     0
  0
CLASS
  1
ACAMGHOLECHARTSTDANSI
  2
AcAmgHoleChartStdANSI
  3
AmgDim|Product Description: AutoCAD Mechanical|Company: Autodesk, Inc.
 90
     1024
 91
        1
280
     0
281
     0
  0
CLASS
  1
ACAMGHOLECHARTSTDBSI
  2
AcAmgHoleChartStdBSI
  3
AmgDim|Product Description: AutoCAD Mechanical|Company: Autodesk, Inc.
 90
     1024
 91
        1
280
     0
281
     0
  0
CLASS
  1
ACAMGHOLECHARTSTDDIN
  2
AcAmgHoleChartStdDIN
  3
AmgDim|Product Description: AutoCAD Mechanical|Company: Autodesk, Inc.
 90
     1024
 91
        1
280
     0
281
     0
  0
CLASS
  1
ACAMGHOLECHARTSTDISO
  2
AcAmgHoleChartStdISO
  3
AmgDim|Product Description: AutoCAD Mechanical|Company: Autodesk, Inc.
 90
     1024
 91
        1
280
     0
281
     0
  0
CLASS
  1
ACAMGHOLECHARTSTDJIS
  2
AcAmgHoleChartStdJIS
  3
AmgDim|Product Description: AutoCAD Mechanical|Company: Autodesk, Inc.
 90
     1024
 91
        1
280
     0
281
     0
  0
CLASS
  1
CATALOGSTATE
  2
AcAmCatalogState
  3
DesignerAssemblies
 90
     1024
 91
        1
280
     0
281
     0
  0
CLASS
  1
ACAMGRCOMPDEFSET
  2
AcAmGrCompDefSet
  3
DesignerAssemblies
 90
     1024
 91
        1
280
     0
281
     0
  0
CLASS
  1
AMDTBROWSERDBTAB
  2
AmdtBrowserDbTab
  3
McadcomServices
 90
     1024
 91
        1
280
     0
281
     0
  0
CLASS
  1
CBROWSERAPPOBJECT
  2
CBrowserAppObject
  3
McadcomServices
 90
     1024
 91
        3
280
     0
281
     0
  0
CLASS
  1
DM_PLACEHOLDER
  2
AcDmSelsetPlaceholder
  3
AcMechDwgViewMgmt
 90
     1024
 91
        1
280
     0
281
     0
  0
CLASS
  1
TABLESTYLE
  2
AcDbTableStyle
  3
ObjectDBX Classes
 90
     4095
 91
        1
280
     0
281
     0
  0
CLASS
  1
VAACXREFPANELOBJECT
  2
VaAcXREFPanelObject
  3
VAAC_ADDIN
 90
        0
 91
        0
280
     0
281
     0
  0
CLASS
  1
VAACIMAGEINVENTORY
  2
VaAcImageInventory
  3
VAAC_ADDIN
 90
        0
 91
        0
280
     0
281
     0
  0
CLASS
  1
MATERIAL
  2
AcDbMaterial
  3
ObjectDBX Classes
 90
     1153
 91
        3
280
     0
281
     0
  0
CLASS
  1
VISUALSTYLE
  2
AcDbVisualStyle
  3
ObjectDBX Classes
 90
     4095
 91
       16
280
     0
281
     0
  0
CLASS
  1
ACRFATTGENMGR
  2
AcRfAttGeneralMgr
  3
AcAttribServices
 90
     1024
 91
        1
280
     0
281
     0
  0
CLASS
  1
ACRFOBJATTMGR
  2
AcRfObjAttGroupMgr
  3
AcAttribServices
 90
     1024
 91
        1
280
     0
281
     0
  0
CLASS
  1
ACRFMCADAPIATTHOLDER
  2
AcRfMCADAPIAttHolder
  3
AcAttribServices
 90
     1024
 91
        1
280
     0
281
     0
  0
CLASS
  1
AMDTSYSATTR
  2
AmdtSystemAttribute
  3
AcAttribServices
 90
     1024
 91
        1
280
     0
281
     0
  0
CLASS
  1
ACMTAPERSTANDARDJIS
  2
AcmTaperStdJIS
  3
"Amdt_StdImp|Product Description: AutoCAD Mechanical|Company: Autodesk, Inc."
 90
     1024
 91
        1
280
     0
281
     0
  0
CLASS
  1
ACMTAPERSTANDARDANSI
  2
AcmTaperStdANSI
  3
"Amdt_StdImp|Product Description: AutoCAD Mechanical|Company: Autodesk, Inc."
 90
     1024
 91
        1
280
     0
281
     0
  0
CLASS
  1
ACMTAPERSTANDARDBSI
  2
AcmTaperStdBSI
  3
"Amdt_StdImp|Product Description: AutoCAD Mechanical|Company: Autodesk, Inc."
 90
     1024
 91
        1
280
     0
281
     0
  0
CLASS
  1
ACMTAPERSTANDARDDIN
  2
AcmTaperStdDIN
  3
"Amdt_StdImp|Product Description: AutoCAD Mechanical|Company: Autodesk, Inc."
 90
     1024
 91
        1
280
     0
281
     0
  0
CLASS
  1
ACMTAPERSTANDARDISO
  2
AcmTaperStdISO
  3
"Amdt_StdImp|Product Description: AutoCAD Mechanical|Company: Autodesk, Inc."
 90
     1024
 91
        1
280
     0
281
     0
  0
CLASS
  1
CAMSSTRUCTBTNSTATE
  2
StructBtnState
  3
DesignerAssemblies
 90
     1024
 91
        1
280
     0
281
     0
  0
CLASS
  1
SCALE
  2
AcDbScale
  3
ObjectDBX Classes
 90
     1153
 91
       33
280
     0
281
     0
  0
CLASS
  1
MLEADERSTYLE
  2
AcDbMLeaderStyle
  3
ACDB_MLEADERSTYLE_CLASS
 90
     4095
 91
        1
280
     0
281
     0
  0
CLASS
  1
ACMANOOTATIONVIEWSTANDARDJIS
  2
AmdtAnViewStdJIS
  3
"Amdt_StdImp|Product Description: AutoCAD Mechanical|Company: Autodesk, Inc."
 90
     1024
 91
        1
280
     0
281
     0
  0
CLASS
  1
ACMANOOTATIONVIEWSTANDARDANSI
  2
AmdtAnViewStdANSI
  3
"Amdt_StdImp|Product Description: AutoCAD Mechanical|Company: Autodesk, Inc."
 90
     1024
 91
        1
280
     0
281
     0
  0
CLASS
  1
ACMANOOTATIONVIEWSTANDARDBSI
  2
AmdtAnViewStdBSI
  3
"Amdt_StdImp|Product Description: AutoCAD Mechanical|Company: Autodesk, Inc."
 90
     1024
 91
        1
280
     0
281
     0
  0
CLASS
  1
ACMANOOTATIONVIEWSTANDARDDIN
  2
AmdtAnViewStdDIN
  3
"Amdt_StdImp|Product Description: AutoCAD Mechanical|Company: Autodesk, Inc."
 90
     1024
 91
        1
280
     0
281
     0
  0
CLASS
  1
ACMANOOTATIONVIEWSTANDARDISO
  2
AmdtAnViewStdISO
  3
"Amdt_StdImp|Product Description: AutoCAD Mechanical|Company: Autodesk, Inc."
 90
     1024
 91
        1
280
     0
281
     0
  0
CLASS
  1
CELLSTYLEMAP
  2
AcDbCellStyleMap
  3
ObjectDBX Classes
 90
     1152
 91
        2
280
     0
281
     0
  0
ENDSEC
  0
SECTION
  2
TABLES
  0
TABLE
  2
VPORT
  5
13
330
0
100
AcDbSymbolTable
 70
     1
  0
VPORT
  5
C05
330
13
100
AcDbSymbolTableRecord
100
AcDbViewportTableRecord
  2
*Active
 70
     0
 10
0.0
 20
0.0
 11
1.0
 21
1.0
 12
507.840952680298
 22
339.4693012220115
 13
0.0
 23
0.0
 14
10.0
 24
10.0
 15
10.0
 25
10.0
 16
0.0
 26
0.0
 36
1.0
 17
0.0
 27
0.0
 37
0.0
 40
764.3642633182955
 41
1.516516516516516
 42
50.0
 43
0.0
 44
0.0
 50
0.0
 51
0.0
 71
     0
 72
   100
 73
     1
 74
     0
 75
     0
 76
     0
 77
     0
 78
     0
281
     0
 65
     1
110
0.0
120
0.0
130
0.0
111
1.0
121
0.0
131
0.0
112
0.0
122
1.0
132
0.0
 79
     0
146
0.0
  0
ENDTAB
  0
TABLE
  2
LTYPE
  5
E
330
0
100
AcDbSymbolTable
 70
    21
  0
LTYPE
  5
F
330
E
100
AcDbSymbolTableRecord
100
AcDbLinetypeTableRecord
  2
BYBLOCK
 70
     0
  3

 72
    65
 73
     0
 40
0.0
  0
LTYPE
  5
10
330
E
100
AcDbSymbolTableRecord
100
AcDbLinetypeTableRecord
  2
BYLAYER
 70
     0
  3

 72
    65
 73
     0
 40
0.0
  0
LTYPE
  5
6
330
E
100
AcDbSymbolTableRecord
100
AcDbLinetypeTableRecord
  2
CONTINUOUS
 70
     0
  3
Solid line
 72
    65
 73
     0
 40
0.0
  0
LTYPE
  5
3E
330
E
100
AcDbSymbolTableRecord
100
AcDbLinetypeTableRecord
  2
MITTE
 70
     0
  3
____ _ ____ _ ____ _ ____ _ ____ _ ____ _ ____ 
 72
    65
 73
     4
 40
2.0
 49
1.25
 74
     0
 49
-0.25
 74
     0
 49
0.25
 74
     0
 49
-0.25
 74
     0
  0
LTYPE
  5
EA
330
E
100
AcDbSymbolTableRecord
100
AcDbLinetypeTableRecord
  2
GESTRICHELT
 70
     0
  3
__ __ __ __ __ __ __ __ __ __ __ __ __ __ __ __
 72
    65
 73
     2
 40
0.75
 49
0.5
 74
     0
 49
-0.25
 74
     0
  0
LTYPE
  5
2FA
330
E
100
AcDbSymbolTableRecord
100
AcDbLinetypeTableRecord
  2
ACJISTGB
 70
     0
  3
__ . . __ . .
 72
    65
 73
     6
 40
9.0
 49
4.0
 74
     0
 49
-1.0
 74
     0
 49
1.0
 74
     0
 49
-1.0
 74
     0
 49
1.0
 74
     0
 49
-1.0
 74
     0
  0
LTYPE
  5
2FB
330
E
100
AcDbSymbolTableRecord
100
AcDbLinetypeTableRecord
  2
ACJISTGL
 70
     0
  3
_ _ _ _ _
 72
    65
 73
     2
 40
3.0
 49
2.0
 74
     0
 49
-1.0
 74
     0
  0
LTYPE
  5
2FE
330
E
100
AcDbSymbolTableRecord
100
AcDbLinetypeTableRecord
  2
ACANSTGB
 70
     0
  3
__ . . __ . .
 72
    65
 73
     6
 40
0.35433070866
 49
0.15748031496
 74
     0
 49
-0.03937007874
 74
     0
 49
0.03937007874
 74
     0
 49
-0.03937007874
 74
     0
 49
0.03937007874
 74
     0
 49
-0.03937007874
 74
     0
  0
LTYPE
  5
2FF
330
E
100
AcDbSymbolTableRecord
100
AcDbLinetypeTableRecord
  2
ACANSTGL
 70
     0
  3
_ _ _ _ _
 72
    65
 73
     2
 40
0.11811023622
 49
0.07874015748
 74
     0
 49
-0.03937007874
 74
     0
  0
LTYPE
  5
302
330
E
100
AcDbSymbolTableRecord
100
AcDbLinetypeTableRecord
  2
ACBSIWELD
 70
     0
  3
_ _ _ _ _
 72
    65
 73
     2
 40
2.0
 49
2.0
 74
     0
 49
-1.0
 74
     0
  0
LTYPE
  5
303
330
E
100
AcDbSymbolTableRecord
100
AcDbLinetypeTableRecord
  2
ACBSITGB
 70
     0
  3
__ . . __ . .
 72
    65
 73
     6
 40
9.0
 49
4.0
 74
     0
 49
-1.0
 74
     0
 49
1.0
 74
     0
 49
-1.0
 74
     0
 49
1.0
 74
     0
 49
-1.0
 74
     0
  0
LTYPE
  5
304
330
E
100
AcDbSymbolTableRecord
100
AcDbLinetypeTableRecord
  2
ACBSITGL
 70
     0
  3
_ _ _ _ _
 72
    65
 73
     2
 40
3.0
 49
2.0
 74
     0
 49
-1.0
 74
     0
  0
LTYPE
  5
307
330
E
100
AcDbSymbolTableRecord
100
AcDbLinetypeTableRecord
  2
ACDINWELD
 70
     0
  3
_ _ _ _ _
 72
    65
 73
     2
 40
2.0
 49
2.0
 74
     0
 49
-1.0
 74
     0
  0
LTYPE
  5
308
330
E
100
AcDbSymbolTableRecord
100
AcDbLinetypeTableRecord
  2
ACDINTGB
 70
     0
  3
__ . . __ . .
 72
    65
 73
     6
 40
9.0
 49
4.0
 74
     0
 49
-1.0
 74
     0
 49
1.0
 74
     0
 49
-1.0
 74
     0
 49
1.0
 74
     0
 49
-1.0
 74
     0
  0
LTYPE
  5
309
330
E
100
AcDbSymbolTableRecord
100
AcDbLinetypeTableRecord
  2
ACDINTGL
 70
     0
  3
_ _ _ _ _
 72
    65
 73
     2
 40
3.0
 49
2.0
 74
     0
 49
-1.0
 74
     0
  0
LTYPE
  5
30C
330
E
100
AcDbSymbolTableRecord
100
AcDbLinetypeTableRecord
  2
ACISOWELD
 70
     0
  3
_ _ _ _ _
 72
    65
 73
     2
 40
2.0
 49
2.0
 74
     0
 49
-1.0
 74
     0
  0
LTYPE
  5
30D
330
E
100
AcDbSymbolTableRecord
100
AcDbLinetypeTableRecord
  2
ACISOTGB
 70
     0
  3
__ . . __ . .
 72
    65
 73
     6
 40
9.0
 49
4.0
 74
     0
 49
-1.0
 74
     0
 49
1.0
 74
     0
 49
-1.0
 74
     0
 49
1.0
 74
     0
 49
-1.0
 74
     0
  0
LTYPE
  5
30E
330
E
100
AcDbSymbolTableRecord
100
AcDbLinetypeTableRecord
  2
ACISOTGL
 70
     0
  3
_ _ _ _ _
 72
    65
 73
     2
 40
3.0
 49
2.0
 74
     0
 49
-1.0
 74
     0
  0
LTYPE
  5
347
330
E
100
AcDbSymbolTableRecord
100
AcDbLinetypeTableRecord
  2
Amconstr
 70
     0
  3
_______________________
 72
    65
 73
     2
 40
9999.0
 49
9999.0
 74
     0
 49
0.0
 74
     0
  0
LTYPE
  5
34D
330
E
100
AcDbSymbolTableRecord
100
AcDbLinetypeTableRecord
  2
PHANTOM2
 70
     0
  3
Phantom (.5x) ___ _ _ ___ _ _ ___ _ _ ___ _ _
 72
    65
 73
     6
 40
1.25
 49
0.625
 74
     0
 49
-0.125
 74
     0
 49
0.125
 74
     0
 49
-0.125
 74
     0
 49
0.125
 74
     0
 49
-0.125
 74
     0
  0
LTYPE
  5
34E
330
E
100
AcDbSymbolTableRecord
100
AcDbLinetypeTableRecord
  2
Amzigzag2
 70
     0
  3
/\/-/\/-/\/-/\/-/\/-/\/
 72
    65
 73
     2
 40
0.4401
 49
0.0001
 74
     4
 75
   135
340
34B
 46
0.0016
 50
0.0
 44
0.0
 45
0.0
 49
-0.4400000000000001
 74
     0
  0
LTYPE
  5
B32
330
E
100
AcDbSymbolTableRecord
100
AcDbLinetypeTableRecord
  2
HIDDEN
 70
     0
  3
Verdeckt
 72
    65
 73
     2
 40
0.375
 49
0.25
 74
     0
 49
-0.125
 74
     0
  0
LTYPE
  5
B33
330
E
100
AcDbSymbolTableRecord
100
AcDbLinetypeTableRecord
  2
CENTER
 70
     0
  3
Mitte ____ _ ____ _ ____ _ ____ _ ____ _ ____
 72
    65
 73
     4
 40
2.0
 49
1.25
 74
     0
 49
-0.25
 74
     0
 49
0.25
 74
     0
 49
-0.25
 74
     0
  0
ENDTAB
  0
TABLE
  2
LAYER
  5
B
330
0
100
AcDbSymbolTable
 70
     5
  0
LAYER
  5
5
102
{ACAD_XDICTIONARY
360
CAB
102
}
330
B
100
AcDbSymbolTableRecord
100
AcDbLayerTableRecord
  2
0
 70
     0
 62
     7
  6
CONTINUOUS
370
    -3
390
31C
  0
LAYER
  5
21
102
{ACAD_XDICTIONARY
360
CAD
102
}
330
B
100
AcDbSymbolTableRecord
100
AcDbLayerTableRecord
  2
BEM
 70
     1
 62
     1
  6
CONTINUOUS
370
    -3
390
31C
  0
LAYER
  5
3D
102
{ACAD_XDICTIONARY
360
CAF
102
}
330
B
100
AcDbSymbolTableRecord
100
AcDbLayerTableRecord
  2
MITTE
 70
     0
 62
     6
  6
MITTE
370
    -3
390
31C
  0
LAYER
  5
62
102
{ACAD_XDICTIONARY
360
CB1
102
}
330
B
100
AcDbSymbolTableRecord
100
AcDbLayerTableRecord
  2
LINIE
 70
     0
 62
     6
  6
CONTINUOUS
370
    -3
390
31C
  0
LAYER
  5
2A
330
B
100
AcDbSymbolTableRecord
100
AcDbLayerTableRecord
  2
Defpoints
 70
     0
 62
     7
  6
CONTINUOUS
290
     0
370
    -3
390
31C
  0
ENDTAB
  0
TABLE
  2
STYLE
  5
C
330
0
100
AcDbSymbolTable
 70
    13
  0
STYLE
  5
D
330
C
100
AcDbSymbolTableRecord
100
AcDbTextStyleTableRecord
  2
STANDARD
 70
     0
 40
0.0
 41
1.0
 50
0.0
 71
     0
 42
10.0
  3
romans.shx
  4

  0
STYLE
  5
2F8
330
C
100
AcDbSymbolTableRecord
100
AcDbTextStyleTableRecord
  2
ACJISTS
 70
     0
 40
1.0
 41
1.0
 50
0.0
 71
     0
 42
10.0
  3
isocp.shx
  4
bigfont.shx
  0
STYLE
  5
2F9
330
C
100
AcDbSymbolTableRecord
100
AcDbTextStyleTableRecord
  2
ACJISGDT
 70
     0
 40
0.0
 41
1.0
 50
0.0
 71
     0
 42
10.0
  3
amgdt.shx
  4

  0
STYLE
  5
2FC
330
C
100
AcDbSymbolTableRecord
100
AcDbTextStyleTableRecord
  2
ACANSTSB
 70
     0
 40
1.0
 41
1.0
 50
0.0
 71
     0
 42
10.0
  3
romans.shx
  4

  0
STYLE
  5
2FD
330
C
100
AcDbSymbolTableRecord
100
AcDbTextStyleTableRecord
  2
ACANSGDT
 70
     0
 40
0.0
 41
1.0
 50
0.0
 71
     0
 42
10.0
  3
amgdt.shx
  4

  0
STYLE
  5
300
330
C
100
AcDbSymbolTableRecord
100
AcDbTextStyleTableRecord
  2
ACBSITS
 70
     0
 40
1.0
 41
1.0
 50
0.0
 71
     0
 42
10.0
  3
isocp.shx
  4

  0
STYLE
  5
301
330
C
100
AcDbSymbolTableRecord
100
AcDbTextStyleTableRecord
  2
ACBSIGDT
 70
     0
 40
0.0
 41
1.0
 50
0.0
 71
     0
 42
10.0
  3
amgdt.shx
  4

  0
STYLE
  5
305
330
C
100
AcDbSymbolTableRecord
100
AcDbTextStyleTableRecord
  2
ACDINTS
 70
     0
 40
1.0
 41
1.0
 50
0.0
 71
     0
 42
10.0
  3
isocp.shx
  4

  0
STYLE
  5
306
330
C
100
AcDbSymbolTableRecord
100
AcDbTextStyleTableRecord
  2
ACDINGDT
 70
     0
 40
0.0
 41
1.0
 50
0.0
 71
     0
 42
10.0
  3
amgdt.shx
  4

  0
STYLE
  5
30A
330
C
100
AcDbSymbolTableRecord
100
AcDbTextStyleTableRecord
  2
ACISOTS
 70
     0
 40
1.0
 41
1.0
 50
0.0
 71
     0
 42
10.0
  3
isocp.shx
  4

  0
STYLE
  5
30B
330
C
100
AcDbSymbolTableRecord
100
AcDbTextStyleTableRecord
  2
ACISOGDT
 70
     0
 40
0.0
 41
1.0
 50
0.0
 71
     0
 42
10.0
  3
amgdt.shx
  4

  0
STYLE
  5
34B
330
C
100
AcDbSymbolTableRecord
100
AcDbTextStyleTableRecord
  2

 70
     1
 40
0.0
 41
1.0
 50
0.0
 71
     0
 42
10.0
  3
ltypeshp.shx
  4

  0
ENDTAB
  0
TABLE
  2
VIEW
  5
11
330
0
100
AcDbSymbolTable
 70
     0
  0
ENDTAB
  0
TABLE
  2
UCS
  5
12
330
0
100
AcDbSymbolTable
 70
     0
  0
ENDTAB
  0
TABLE
  2
APPID
  5
15
330
0
100
AcDbSymbolTable
 70
    13
  0
APPID
  5
16
330
15
100
AcDbSymbolTableRecord
100
AcDbRegAppTableRecord
  2
ACAD
 70
     0
  0
APPID
  5
2BA
330
15
100
AcDbSymbolTableRecord
100
AcDbRegAppTableRecord
  2
MCAD_NO_VIS
 70
     0
  0
APPID
  5
32B
330
15
100
AcDbSymbolTableRecord
100
AcDbRegAppTableRecord
  2
ACAD_TEMP_GRAPHIC
 70
     0
  0
APPID
  5
607
330
15
100
AcDbSymbolTableRecord
100
AcDbRegAppTableRecord
  2
GENIUS_GENODEF_13
 70
     0
  0
APPID
  5
608
330
15
100
AcDbSymbolTableRecord
100
AcDbRegAppTableRecord
  2
GENIUS_GENOBJ-N-FIL_13
 70
     0
  0
APPID
  5
B48
330
15
100
AcDbSymbolTableRecord
100
AcDbRegAppTableRecord
  2
AD_DRAW
 70
     0
  0
APPID
  5
B4B
330
15
100
AcDbSymbolTableRecord
100
AcDbRegAppTableRecord
  2
ACATTRIBSERVICES
 70
     0
  0
APPID
  5
B69
330
15
100
AcDbSymbolTableRecord
100
AcDbRegAppTableRecord
  2
DESIGNERASSEMBLIES
 70
     0
  0
APPID
  5
BDC
330
15
100
AcDbSymbolTableRecord
100
AcDbRegAppTableRecord
  2
ACADM_DIM_EDIT
 70
     0
  0
APPID
  5
BDD
330
15
100
AcDbSymbolTableRecord
100
AcDbRegAppTableRecord
  2
AMDT_DM_ADJ
 70
     0
  0
APPID
  5
C65
330
15
100
AcDbSymbolTableRecord
100
AcDbRegAppTableRecord
  2
ACAD_PSEXT
 70
     0
  0
APPID
  5
C8B
330
15
100
AcDbSymbolTableRecord
100
AcDbRegAppTableRecord
  2
ACAD_MLEADERVER
 70
     0
  0
APPID
  5
CBE
330
15
100
AcDbSymbolTableRecord
100
AcDbRegAppTableRecord
  2
DCO15
 70
     0
  0
ENDTAB
  0
TABLE
  2
DIMSTYLE
  5
17
330
0
100
AcDbSymbolTable
 70
    37
100
AcDbDimStyleTable
 71
     1
340
1D
  0
DIMSTYLE
105
1D
102
{ACAD_REACTORS
330
789
330
78A
330
78E
330
78F
330
792
330
797
330
7B6
330
7FB
330
7FD
330
80F
330
838
330
847
330
84D
330
87A
330
87E
330
87F
330
880
330
881
330
88D
330
88F
330
8AE
330
8EB
330
8FB
102
}
330
17
100
AcDbSymbolTableRecord
100
AcDbDimStyleTableRecord
  2
ISO-25
 70
     0
 41
7.0
 42
0.0
 43
7.0
 44
1.25
 73
     0
 74
     0
 77
     1
 78
     8
140
10.0
141
0.0
144
0.5
147
4.0
172
     1
176
   256
177
   256
178
   256
284
     8
288
     1
340
D
  0
DIMSTYLE
105
CE
330
17
100
AcDbSymbolTableRecord
100
AcDbDimStyleTableRecord
  2
STANDARD
 70
     0
  4
"
 41
7.0
 42
0.0
 43
7.0
 44
1.25
 47
0.1
 48
0.1
 73
     0
 74
     0
 77
     1
 78
     8
140
10.0
141
0.0
143
0.0393701
144
0.5
147
4.0
172
     1
176
   256
177
   256
178
   256
271
     2
272
     3
274
     4
283
     0
284
     8
288
     1
340
D
  0
DIMSTYLE
105
BA4
330
17
100
AcDbSymbolTableRecord
100
AcDbDimStyleTableRecord
  2
AM_ANSI
 70
     0
  4
mm
 41
0.1
 42
0.05
 43
0.5
 44
0.1
 47
0.1
 48
0.1
 78
     7
 79
     2
140
0.12
141
0.0
146
0.71
147
0.06
176
   256
177
   256
178
     2
274
     4
284
     7
340
D
371
    -1
372
    -1
  0
DIMSTYLE
105
BA5
330
17
100
AcDbSymbolTableRecord
100
AcDbDimStyleTableRecord
  2
AM_ANSI$3
 70
     0
  4
mm
 41
0.1
 42
0.05
 43
0.5
 44
0.1
 47
0.1
 48
0.1
 78
     7
 79
     2
140
0.12
141
0.0
146
0.71
147
0.06
176
   256
177
   256
178
     2
274
     4
284
     7
288
     1
289
     0
340
D
371
    -1
372
    -1
  0
DIMSTYLE
105
BA6
330
17
100
AcDbSymbolTableRecord
100
AcDbDimStyleTableRecord
  2
AM_ANSI$4
 70
     0
  4
mm
 41
0.1
 42
0.05
 43
0.5
 44
0.1
 47
0.1
 48
0.1
 78
     7
 79
     2
140
0.12
141
0.0
146
0.71
147
0.06
176
   256
177
   256
178
     2
274
     4
284
     7
288
     1
289
     0
340
D
371
    -1
372
    -1
  0
DIMSTYLE
105
BA7
330
17
100
AcDbSymbolTableRecord
100
AcDbDimStyleTableRecord
  2
AM_ANSI$7
 70
     0
  4
mm
 41
0.1
 42
0.05
 43
0.5
 44
0.1
 47
0.1
 48
0.1
 78
     7
 79
     2
140
0.24
141
0.0
146
0.71
147
0.06
176
   256
177
   256
178
     2
274
     4
284
     7
340
D
371
    -1
372
    -1
  0
DIMSTYLE
105
BA8
330
17
100
AcDbSymbolTableRecord
100
AcDbDimStyleTableRecord
  2
AM_ANSI$SF
 70
     0
  4
mm
 41
0.1
 42
0.05
 43
0.5
 44
0.1
 47
0.1
 48
0.1
 75
     1
 76
     1
 78
     7
 79
     2
140
0.12
141
0.0
146
0.71
147
0.06
176
   256
177
   256
178
     2
274
     4
284
     7
340
D
371
    -1
372
    -1
  0
DIMSTYLE
105
BAD
330
17
100
AcDbSymbolTableRecord
100
AcDbDimStyleTableRecord
  2
AM_ANSI$SH
 70
     0
  4
mm
 41
0.1
 42
0.05
 43
0.5
 44
0.1
 47
0.1
 48
0.1
 75
     1
 76
     1
 78
     7
 79
     2
140
0.12
141
0.0
146
0.71
147
0.06
173
     1
176
   256
177
   256
178
     2
274
     4
284
     7
340
D
343
BA9
371
    -1
372
    -1
  0
DIMSTYLE
105
BB0
330
17
100
AcDbSymbolTableRecord
100
AcDbDimStyleTableRecord
  2
AM_BSI
 70
     0
  4
mm
 41
0.1574803149606299
 42
0.05
 43
0.5
 44
0.1
 47
0.1
 48
0.1
 73
     0
 74
     0
 77
     1
 78
     7
 79
     2
140
0.12
141
0.0
146
0.71
147
0.06
172
     1
176
   256
177
   256
178
     2
274
     4
283
     0
284
     7
340
D
371
    -1
372
    -1
  0
DIMSTYLE
105
BB1
330
17
100
AcDbSymbolTableRecord
100
AcDbDimStyleTableRecord
  2
AM_BSI$3
 70
     0
  4
mm
 41
0.1574803149606299
 42
0.05
 43
0.5
 44
0.1
 47
0.1
 48
0.1
 73
     0
 77
     1
 78
     7
 79
     2
140
0.12
141
0.0
146
0.71
147
0.06
176
   256
177
   256
178
     2
274
     4
283
     0
284
     7
288
     1
289
     0
340
D
371
    -1
372
    -1
  0
DIMSTYLE
105
BB2
330
17
100
AcDbSymbolTableRecord
100
AcDbDimStyleTableRecord
  2
AM_BSI$4
 70
     0
  4
mm
 41
0.1574803149606299
 42
0.05
 43
0.5
 44
0.1
 47
0.1
 48
0.1
 73
     0
 77
     1
 78
     7
 79
     2
140
0.12
141
0.0
146
0.71
147
0.06
176
   256
177
   256
178
     2
274
     4
283
     0
284
     7
288
     1
289
     0
340
D
371
    -1
372
    -1
  0
DIMSTYLE
105
BB3
330
17
100
AcDbSymbolTableRecord
100
AcDbDimStyleTableRecord
  2
AM_BSI$6
 70
     0
  4
mm
 41
0.1574803149606299
 42
0.05
 43
0.5
 44
0.1
 47
0.1
 48
0.1
 73
     0
 74
     0
 78
     7
 79
     2
140
0.12
141
0.0
146
0.71
147
0.06
172
     1
176
   256
177
   256
178
     2
274
     4
283
     0
284
     7
340
D
371
    -1
372
    -1
  0
DIMSTYLE
105
BB4
330
17
100
AcDbSymbolTableRecord
100
AcDbDimStyleTableRecord
  2
AM_BSI$7
 70
     0
  4
mm
 41
0.1
 42
0.05
 43
0.5
 44
0.1
 47
0.1
 48
0.1
 73
     0
 74
     0
 77
     1
 78
     7
 79
     2
140
0.24
141
0.0
146
0.71
147
0.06
172
     1
176
   256
177
   256
178
     2
274
     4
283
     0
284
     7
340
D
371
    -1
372
    -1
  0
DIMSTYLE
105
BB5
330
17
100
AcDbSymbolTableRecord
100
AcDbDimStyleTableRecord
  2
AM_BSI$SF
 70
     0
  4
mm
 41
0.1574803149606299
 42
0.05
 43
0.5
 44
0.1
 47
0.1
 48
0.1
 73
     0
 74
     0
 75
     1
 76
     1
 77
     1
 78
     7
 79
     2
140
0.12
141
0.0
146
0.71
147
0.06
172
     1
176
   256
177
   256
178
     2
274
     4
283
     0
284
     7
340
D
371
    -1
372
    -1
  0
DIMSTYLE
105
BB6
330
17
100
AcDbSymbolTableRecord
100
AcDbDimStyleTableRecord
  2
AM_BSI$SH
 70
     0
  4
mm
 41
0.1574803149606299
 42
0.05
 43
0.5
 44
0.1
 47
0.1
 48
0.1
 73
     0
 74
     0
 75
     1
 76
     1
 77
     1
 78
     7
 79
     2
140
0.12
141
0.0
144
2.0
146
0.71
147
0.06
172
     1
173
     1
176
   256
177
   256
178
     2
274
     4
283
     0
284
     7
340
D
343
BA9
371
    -1
372
    -1
  0
DIMSTYLE
105
BB9
330
17
100
AcDbSymbolTableRecord
100
AcDbDimStyleTableRecord
  2
AM_DIN
 70
     0
  4
mm
 41
0.1
 42
0.05
 43
0.5
 44
0.1
 47
0.1
 48
0.1
 73
     0
 74
     0
 77
     1
 78
     7
 79
     2
140
0.12
141
0.0
146
0.71
147
0.06
172
     1
176
   256
177
   256
178
     2
274
     4
283
     0
284
     7
340
D
371
    -1
372
    -1
  0
DIMSTYLE
105
BBA
330
17
100
AcDbSymbolTableRecord
100
AcDbDimStyleTableRecord
  2
AM_DIN$3
 70
     0
  4
mm
 41
0.1
 42
0.05
 43
0.5
 44
0.1
 47
0.1
 48
0.1
 73
     0
 77
     1
 78
     7
 79
     2
140
0.12
141
0.0
146
0.71
147
0.06
176
   256
177
   256
178
     2
274
     4
283
     0
284
     7
288
     1
289
     0
340
D
371
    -1
372
    -1
  0
DIMSTYLE
105
BBB
330
17
100
AcDbSymbolTableRecord
100
AcDbDimStyleTableRecord
  2
AM_DIN$4
 70
     0
  4
mm
 41
0.1
 42
0.05
 43
0.5
 44
0.1
 47
0.1
 48
0.1
 73
     0
 77
     1
 78
     7
 79
     2
140
0.12
141
0.0
146
0.71
147
0.06
176
   256
177
   256
178
     2
274
     4
283
     0
284
     7
288
     1
289
     0
340
D
371
    -1
372
    -1
  0
DIMSTYLE
105
BBC
330
17
100
AcDbSymbolTableRecord
100
AcDbDimStyleTableRecord
  2
AM_DIN$6
 70
     0
  4
mm
 41
0.1
 42
0.05
 43
0.5
 44
0.1
 47
0.1
 48
0.1
 73
     0
 74
     0
 78
     7
 79
     2
140
0.12
141
0.0
146
0.71
147
0.06
172
     1
176
   256
177
   256
178
     2
274
     4
283
     0
284
     7
340
D
371
    -1
372
    -1
  0
DIMSTYLE
105
BBD
330
17
100
AcDbSymbolTableRecord
100
AcDbDimStyleTableRecord
  2
AM_DIN$7
 70
     0
  4
mm
 41
0.1
 42
0.05
 43
0.5
 44
0.1
 47
0.1
 48
0.1
 73
     0
 74
     0
 77
     1
 78
     7
 79
     2
140
0.24
141
0.0
146
0.71
147
0.06
172
     1
176
   256
177
   256
178
     2
274
     4
283
     0
284
     7
340
D
371
    -1
372
    -1
  0
DIMSTYLE
105
BBE
330
17
100
AcDbSymbolTableRecord
100
AcDbDimStyleTableRecord
  2
AM_DIN$SF
 70
     0
  4
mm
 41
0.1
 42
0.05
 43
0.5
 44
0.1
 47
0.1
 48
0.1
 73
     0
 74
     0
 75
     1
 76
     1
 77
     1
 78
     7
 79
     2
140
0.12
141
0.0
146
0.71
147
0.06
172
     1
176
   256
177
   256
178
     2
274
     4
283
     0
284
     7
340
D
371
    -1
372
    -1
  0
DIMSTYLE
105
BBF
330
17
100
AcDbSymbolTableRecord
100
AcDbDimStyleTableRecord
  2
AM_DIN$SH
 70
     0
  4
mm
 41
0.1
 42
0.05
 43
0.5
 44
0.1
 47
0.1
 48
0.1
 73
     0
 74
     0
 75
     1
 76
     1
 77
     1
 78
     7
 79
     2
140
0.12
141
0.0
144
2.0
146
0.71
147
0.06
172
     1
173
     1
176
   256
177
   256
178
     2
274
     4
283
     0
284
     7
340
D
343
BA9
371
    -1
372
    -1
  0
DIMSTYLE
105
BC2
330
17
100
AcDbSymbolTableRecord
100
AcDbDimStyleTableRecord
  2
AM_ISO
 70
     0
  4
mm
 41
0.1
 42
0.05
 43
0.5
 44
0.1
 47
0.1
 48
0.1
 73
     0
 74
     0
 77
     1
 78
     7
 79
     2
140
0.12
141
0.0
146
0.71
147
0.06
172
     1
176
   256
177
   256
178
     2
274
     4
283
     0
284
     7
340
D
371
    -1
372
    -1
  0
DIMSTYLE
105
BC3
330
17
100
AcDbSymbolTableRecord
100
AcDbDimStyleTableRecord
  2
AM_ISO$3
 70
     0
  4
mm
 41
0.1
 42
0.05
 43
0.5
 44
0.1
 47
0.1
 48
0.1
 73
     0
 77
     1
 78
     7
 79
     2
140
0.12
141
0.0
146
0.71
147
0.06
176
   256
177
   256
178
     2
274
     4
283
     0
284
     7
288
     1
289
     0
340
D
371
    -1
372
    -1
  0
DIMSTYLE
105
BC4
330
17
100
AcDbSymbolTableRecord
100
AcDbDimStyleTableRecord
  2
AM_ISO$4
 70
     0
  4
mm
 41
0.1
 42
0.05
 43
0.5
 44
0.1
 47
0.1
 48
0.1
 73
     0
 77
     1
 78
     7
 79
     2
140
0.12
141
0.0
146
0.71
147
0.06
176
   256
177
   256
178
     2
274
     4
283
     0
284
     7
288
     1
289
     0
340
D
371
    -1
372
    -1
  0
DIMSTYLE
105
BC5
330
17
100
AcDbSymbolTableRecord
100
AcDbDimStyleTableRecord
  2
AM_ISO$6
 70
     0
  4
mm
 41
0.1
 42
0.05
 43
0.5
 44
0.1
 47
0.1
 48
0.1
 73
     0
 74
     0
 78
     7
 79
     2
140
0.12
141
0.0
146
0.71
147
0.06
172
     1
176
   256
177
   256
178
     2
274
     4
283
     0
284
     7
340
D
371
    -1
372
    -1
  0
DIMSTYLE
105
BC6
330
17
100
AcDbSymbolTableRecord
100
AcDbDimStyleTableRecord
  2
AM_ISO$7
 70
     0
  4
mm
 41
0.1
 42
0.05
 43
0.5
 44
0.1
 47
0.1
 48
0.1
 73
     0
 74
     0
 77
     1
 78
     7
 79
     2
140
0.24
141
0.0
146
0.71
147
0.06
172
     1
176
   256
177
   256
178
     2
274
     4
283
     0
284
     7
340
D
371
    -1
372
    -1
  0
DIMSTYLE
105
BC7
330
17
100
AcDbSymbolTableRecord
100
AcDbDimStyleTableRecord
  2
AM_ISO$SF
 70
     0
  4
mm
 41
0.1
 42
0.05
 43
0.5
 44
0.1
 47
0.1
 48
0.1
 73
     0
 74
     0
 75
     1
 76
     1
 77
     1
 78
     7
 79
     2
140
0.12
141
0.0
146
0.71
147
0.06
172
     1
176
   256
177
   256
178
     2
274
     4
283
     0
284
     7
340
D
371
    -1
372
    -1
  0
DIMSTYLE
105
BC8
330
17
100
AcDbSymbolTableRecord
100
AcDbDimStyleTableRecord
  2
AM_ISO$SH
 70
     0
  4
mm
 41
0.1
 42
0.05
 43
0.5
 44
0.1
 47
0.1
 48
0.1
 73
     0
 74
     0
 75
     1
 76
     1
 77
     1
 78
     7
 79
     2
140
0.12
141
0.0
144
2.0
146
0.71
147
0.06
172
     1
173
     1
176
   256
177
   256
178
     2
274
     4
283
     0
284
     7
340
D
343
BA9
371
    -1
372
    -1
  0
DIMSTYLE
105
BCB
330
17
100
AcDbSymbolTableRecord
100
AcDbDimStyleTableRecord
  2
AM_JIS
 70
     0
  4
mm
 41
0.1
 42
0.05
 43
0.5
 44
0.1
 47
0.1
 48
0.1
 73
     0
 74
     0
 77
     3
 78
     7
 79
     2
140
0.12
141
0.0
146
0.71
147
0.06
172
     1
176
   256
177
   256
178
     2
274
     4
283
     0
284
     7
340
D
341
BCC
342
BCC
343
BCC
344
BCC
371
    -1
372
    -1
  0
DIMSTYLE
105
BD2
330
17
100
AcDbSymbolTableRecord
100
AcDbDimStyleTableRecord
  2
AM_JIS$3
 70
     0
  4
mm
 41
0.1
 42
0.05
 43
0.5
 44
0.1
 47
0.1
 48
0.1
 73
     0
 77
     3
 78
     7
 79
     2
140
0.12
141
0.0
146
0.71
147
0.06
176
   256
177
   256
178
     2
274
     4
283
     0
284
     7
288
     1
289
     0
340
D
341
BCC
342
BCC
343
BCC
344
BCC
371
    -1
372
    -1
  0
DIMSTYLE
105
BD3
330
17
100
AcDbSymbolTableRecord
100
AcDbDimStyleTableRecord
  2
AM_JIS$4
 70
     0
  4
mm
 41
0.1
 42
0.05
 43
0.5
 44
0.1
 47
0.1
 48
0.1
 73
     0
 77
     3
 78
     7
 79
     2
140
0.12
141
0.0
146
0.71
147
0.06
176
   256
177
   256
178
     2
274
     4
283
     0
284
     7
288
     1
289
     0
340
D
341
BCC
342
BCC
343
BCC
344
BCC
371
    -1
372
    -1
  0
DIMSTYLE
105
BD4
330
17
100
AcDbSymbolTableRecord
100
AcDbDimStyleTableRecord
  2
AM_JIS$6
 70
     0
  4
mm
 41
0.1
 42
0.05
 43
0.5
 44
0.1
 47
0.1
 48
0.1
 73
     0
 74
     0
 78
     7
 79
     2
140
0.12
141
0.0
146
0.71
147
0.06
172
     1
176
   256
177
   256
178
     2
274
     4
283
     0
284
     7
340
D
341
BCC
342
BCC
343
BCC
344
BCC
371
    -1
372
    -1
  0
DIMSTYLE
105
BD5
330
17
100
AcDbSymbolTableRecord
100
AcDbDimStyleTableRecord
  2
AM_JIS$7
 70
     0
  4
mm
 41
0.1
 42
0.05
 43
0.5
 44
0.1
 47
0.1
 48
0.1
 73
     0
 74
     0
 77
     3
 78
     7
 79
     2
140
0.24
141
0.0
146
0.71
147
0.06
172
     1
176
   256
177
   256
178
     2
274
     4
283
     0
284
     7
340
D
341
BCC
342
BCC
343
BCC
344
BCC
371
    -1
372
    -1
  0
DIMSTYLE
105
BD6
330
17
100
AcDbSymbolTableRecord
100
AcDbDimStyleTableRecord
  2
AM_JIS$SF
 70
     0
  4
mm
 41
0.1
 42
0.05
 43
0.5
 44
0.1
 47
0.1
 48
0.1
 73
     0
 74
     0
 75
     1
 76
     1
 77
     3
 78
     7
 79
     2
140
0.12
141
0.0
146
0.71
147
0.06
172
     1
176
   256
177
   256
178
     2
274
     4
283
     0
284
     7
340
D
341
BCC
342
BCC
343
BCC
344
BCC
371
    -1
372
    -1
  0
DIMSTYLE
105
BD7
330
17
100
AcDbSymbolTableRecord
100
AcDbDimStyleTableRecord
  2
AM_JIS$SH
 70
     0
  4
mm
 41
0.1
 42
0.05
 43
0.5
 44
0.1
 47
0.1
 48
0.1
 73
     0
 74
     0
 75
     1
 76
     1
 77
     3
 78
     7
 79
     2
140
0.12
141
0.0
144
2.0
146
0.71
147
0.06
172
     1
173
     1
176
   256
177
   256
178
     2
274
     4
283
     0
284
     7
340
D
341
BCC
342
BCC
343
BA9
344
BCC
371
    -1
372
    -1
  0
ENDTAB
  0
TABLE
  2
BLOCK_RECORD
  5
1
330
0
100
AcDbSymbolTable
 70
    27
  0
BLOCK_RECORD
  5
2
102
{ACAD_XDICTIONARY
360
3
102
}
330
1
100
AcDbSymbolTableRecord
100
AcDbBlockTableRecord
  2
*MODEL_SPACE
340
31F
  0
BLOCK_RECORD
  5
8
330
1
100
AcDbSymbolTableRecord
100
AcDbBlockTableRecord
  2
*PAPER_SPACE
340
320
  0
BLOCK_RECORD
  5
901
330
1
100
AcDbSymbolTableRecord
100
AcDbBlockTableRecord
  2
*D0
340
0
  0
BLOCK_RECORD
  5
90D
330
1
100
AcDbSymbolTableRecord
100
AcDbBlockTableRecord
  2
*D1
340
0
  0
BLOCK_RECORD
  5
919
330
1
100
AcDbSymbolTableRecord
100
AcDbBlockTableRecord
  2
*D2
340
0
  0
BLOCK_RECORD
  5
927
330
1
100
AcDbSymbolTableRecord
100
AcDbBlockTableRecord
  2
*D3
340
0
  0
BLOCK_RECORD
  5
92F
330
1
100
AcDbSymbolTableRecord
100
AcDbBlockTableRecord
  2
*D4
340
0
  0
BLOCK_RECORD
  5
93B
330
1
100
AcDbSymbolTableRecord
100
AcDbBlockTableRecord
  2
*D5
340
0
  0
BLOCK_RECORD
  5
949
330
1
100
AcDbSymbolTableRecord
100
AcDbBlockTableRecord
  2
*D6
340
0
  0
BLOCK_RECORD
  5
957
330
1
100
AcDbSymbolTableRecord
100
AcDbBlockTableRecord
  2
*D7
340
0
  0
BLOCK_RECORD
  5
965
330
1
100
AcDbSymbolTableRecord
100
AcDbBlockTableRecord
  2
*D8
340
0
  0
BLOCK_RECORD
  5
971
330
1
100
AcDbSymbolTableRecord
100
AcDbBlockTableRecord
  2
*D9
340
0
  0
BLOCK_RECORD
  5
97F
330
1
100
AcDbSymbolTableRecord
100
AcDbBlockTableRecord
  2
*D10
340
0
  0
BLOCK_RECORD
  5
988
330
1
100
AcDbSymbolTableRecord
100
AcDbBlockTableRecord
  2
*D11
340
0
  0
BLOCK_RECORD
  5
994
330
1
100
AcDbSymbolTableRecord
100
AcDbBlockTableRecord
  2
*D12
340
0
  0
BLOCK_RECORD
  5
9A0
330
1
100
AcDbSymbolTableRecord
100
AcDbBlockTableRecord
  2
*D13
340
0
  0
BLOCK_RECORD
  5
9AC
330
1
100
AcDbSymbolTableRecord
100
AcDbBlockTableRecord
  2
*D14
340
0
  0
BLOCK_RECORD
  5
9B8
330
1
100
AcDbSymbolTableRecord
100
AcDbBlockTableRecord
  2
*D15
340
0
  0
BLOCK_RECORD
  5
9C6
330
1
100
AcDbSymbolTableRecord
100
AcDbBlockTableRecord
  2
*D16
340
0
  0
BLOCK_RECORD
  5
9D2
330
1
100
AcDbSymbolTableRecord
100
AcDbBlockTableRecord
  2
*D17
340
0
  0
BLOCK_RECORD
  5
9E0
330
1
100
AcDbSymbolTableRecord
100
AcDbBlockTableRecord
  2
*D18
340
0
  0
BLOCK_RECORD
  5
9EC
330
1
100
AcDbSymbolTableRecord
100
AcDbBlockTableRecord
  2
*D19
340
0
  0
BLOCK_RECORD
  5
A14
330
1
100
AcDbSymbolTableRecord
100
AcDbBlockTableRecord
  2
*D20
340
0
  0
BLOCK_RECORD
  5
A20
330
1
100
AcDbSymbolTableRecord
100
AcDbBlockTableRecord
  2
*D21
340
0
  0
BLOCK_RECORD
  5
A5B
330
1
100
AcDbSymbolTableRecord
100
AcDbBlockTableRecord
  2
*D22
340
0
  0
BLOCK_RECORD
  5
BA9
330
1
100
AcDbSymbolTableRecord
100
AcDbBlockTableRecord
  2
GENAXEH
340
0
  0
BLOCK_RECORD
  5
BCC
330
1
100
AcDbSymbolTableRecord
100
AcDbBlockTableRecord
  2
_Open30
340
0
  0
ENDTAB
  0
ENDSEC
  0
SECTION
  2
BLOCKS
  0
BLOCK
  5
4
330
2
100
AcDbEntity
  8
0
100
AcDbBlockBegin
  2
*MODEL_SPACE
 70
     0
 10
0.0
 20
0.0
 30
0.0
  3
*MODEL_SPACE
  1

  0
ENDBLK
  5
7
330
2
100
AcDbEntity
  8
0
100
AcDbBlockEnd
  0
BLOCK
  5
9
330
8
100
AcDbEntity
 67
     1
  8
0
100
AcDbBlockBegin
  2
*PAPER_SPACE
 70
     0
 10
0.0
 20
0.0
 30
0.0
  3
*PAPER_SPACE
  1

  0
ENDBLK
  5
A
330
8
100
AcDbEntity
 67
     1
  8
0
100
AcDbBlockEnd
  0
BLOCK
  5
90B
330
901
100
AcDbEntity
  8
0
 48
10.0
100
AcDbBlockBegin
  2
*D0
 70
     1
 10
0.0
 20
0.0
 30
0.0
  3
*D0
  1

  0
LINE
  5
9F7
330
901
100
AcDbEntity
  8
BEM
 48
10.0
370
    -2
100
AcDbLine
 10
650.6706079018791
 20
260.6395690623165
 30
0.0
 11
650.6706079018791
 21
166.1119943113026
 31
0.0
  0
LINE
  5
9F8
330
901
100
AcDbEntity
  8
BEM
 48
10.0
370
    -2
100
AcDbLine
 10
427.7706079018789
 20
287.0363990084901
 30
0.0
 11
427.7706079018789
 21
166.1119943113026
 31
0.0
  0
LINE
  5
9F9
330
901
100
AcDbEntity
  8
BEM
 48
10.0
370
    -2
100
AcDbLine
 10
643.6706079018791
 20
167.3619943113026
 30
0.0
 11
434.770607901879
 21
167.3619943113026
 31
0.0
  0
SOLID
  5
9FA
330
901
100
AcDbEntity
  8
BEM
 48
10.0
100
AcDbTrace
 10
643.6706079018791
 20
168.5286609779693
 30
0.0
 11
643.6706079018791
 21
166.1953276446359
 31
0.0
 12
650.6706079018791
 22
167.3619943113026
 32
0.0
 13
650.6706079018791
 23
167.3619943113026
 33
0.0
  0
SOLID
  5
9FB
330
901
100
AcDbEntity
  8
BEM
 48
10.0
100
AcDbTrace
 10
434.770607901879
 20
168.5286609779693
 30
0.0
 11
434.770607901879
 21
166.1953276446359
 31
0.0
 12
427.7706079018789
 22
167.3619943113026
 32
0.0
 13
427.7706079018789
 23
167.3619943113026
 33
0.0
  0
MTEXT
  5
9FC
330
901
100
AcDbEntity
  8
BEM
 48
10.0
100
AcDbMText
 10
539.220607901879
 20
176.3619943113026
 30
0.0
 40
10.0
 41
0.0
 71
     5
 72
     1
  1
\A1;223
 73
     1
 44
1.0
  0
POINT
  5
9FD
330
901
100
AcDbEntity
  8
Defpoints
 62
     0
 48
10.0
100
AcDbPoint
 10
650.6706079018791
 20
260.6395690623165
 30
0.0
  0
POINT
  5
9FE
330
901
100
AcDbEntity
  8
Defpoints
 62
     0
 48
10.0
100
AcDbPoint
 10
427.7706079018789
 20
287.0363990084901
 30
0.0
  0
POINT
  5
9FF
330
901
100
AcDbEntity
  8
Defpoints
 62
     0
 48
10.0
100
AcDbPoint
 10
427.7706079018789
 20
167.3619943113026
 30
0.0
  0
ENDBLK
  5
90C
330
901
100
AcDbEntity
  8
0
 48
10.0
100
AcDbBlockEnd
  0
BLOCK
  5
917
330
90D
100
AcDbEntity
  8
0
 48
10.0
100
AcDbBlockBegin
  2
*D1
 70
     1
 10
0.0
 20
0.0
 30
0.0
  3
*D1
  1

  0
LINE
  5
A00
330
90D
100
AcDbEntity
  8
BEM
 48
10.0
370
    -2
100
AcDbLine
 10
723.170607901879
 20
327.1067601845545
 30
0.0
 11
723.170607901879
 21
541.0815199071075
 31
0.0
  0
LINE
  5
A01
330
90D
100
AcDbEntity
  8
BEM
 48
10.0
370
    -2
100
AcDbLine
 10
427.7706079018789
 20
467.0363990084901
 30
0.0
 11
427.7706079018789
 21
541.0815199071075
 31
0.0
  0
LINE
  5
A02
330
90D
100
AcDbEntity
  8
BEM
 48
10.0
370
    -2
100
AcDbLine
 10
716.1706079018791
 20
539.8315199071076
 30
0.0
 11
434.7706079018788
 21
539.8315199071076
 31
0.0
  0
SOLID
  5
A03
330
90D
100
AcDbEntity
  8
BEM
 48
10.0
100
AcDbTrace
 10
716.1706079018791
 20
540.9981865737742
 30
0.0
 11
716.1706079018791
 21
538.6648532404409
 31
0.0
 12
723.170607901879
 22
539.8315199071076
 32
0.0
 13
723.170607901879
 23
539.8315199071076
 33
0.0
  0
SOLID
  5
A04
330
90D
100
AcDbEntity
  8
BEM
 48
10.0
100
AcDbTrace
 10
434.7706079018788
 20
540.9981865737742
 30
0.0
 11
434.7706079018788
 21
538.6648532404409
 31
0.0
 12
427.7706079018789
 22
539.8315199071076
 32
0.0
 13
427.7706079018789
 23
539.8315199071076
 33
0.0
  0
MTEXT
  5
A05
330
90D
100
AcDbEntity
  8
BEM
 48
10.0
100
AcDbMText
 10
575.470607901879
 20
548.8315199071076
 30
0.0
 40
10.0
 41
0.0
 71
     5
 72
     1
  1
\A1;295.5
 73
     1
 44
1.0
  0
POINT
  5
A06
330
90D
100
AcDbEntity
  8
Defpoints
 62
     0
 48
10.0
100
AcDbPoint
 10
723.170607901879
 20
327.1067601845545
 30
0.0
  0
POINT
  5
A07
330
90D
100
AcDbEntity
  8
Defpoints
 62
     0
 48
10.0
100
AcDbPoint
 10
427.7706079018789
 20
467.0363990084901
 30
0.0
  0
POINT
  5
A08
330
90D
100
AcDbEntity
  8
Defpoints
 62
     0
 48
10.0
100
AcDbPoint
 10
427.7706079018789
 20
539.8315199071076
 30
0.0
  0
ENDBLK
  5
918
330
90D
100
AcDbEntity
  8
0
 48
10.0
100
AcDbBlockEnd
  0
BLOCK
  5
925
330
919
100
AcDbEntity
  8
0
 48
10.0
100
AcDbBlockBegin
  2
*D2
 70
     1
 10
0.0
 20
0.0
 30
0.0
  3
*D2
  1

  0
LINE
  5
A09
330
919
100
AcDbEntity
  8
BEM
 48
10.0
370
    -2
100
AcDbLine
 10
164.8790691366891
 20
453.6682577472887
 30
0.0
 11
178.9559424087586
 21
492.3441491988254
 31
0.0
  0
LINE
  5
A0A
330
919
100
AcDbEntity
  8
BEM
 48
10.0
370
    -2
100
AcDbLine
 10
136.9873535592745
 20
476.0435787874307
 30
0.0
 11
136.9873535592745
 21
499.7443437552496
 31
0.0
  0
ARC
  5
A0B
330
919
100
AcDbEntity
  8
BEM
 48
10.0
370
    -2
100
AcDbCircle
 10
136.9873535592745
 20
377.0363990084883
 30
0.0
 40
121.4579447467613
100
AcDbArc
 50
73.30259157549761
 51
86.69740842450311
  0
SOLID
  5
A0C
330
919
100
AcDbEntity
  8
BEM
 48
10.0
100
AcDbTrace
 10
172.2515756167523
 20
494.4804804895167
 30
0.0
 11
171.5170436823094
 21
492.2657779628266
 31
0.0
 12
178.5284172296016
 22
491.169533422843
 32
0.0
 13
178.5284172296016
 23
491.169533422843
 33
0.0
  0
SOLID
  5
A0D
330
919
100
AcDbEntity
  8
BEM
 48
10.0
100
AcDbTrace
 10
143.9508272579236
 20
497.1264456744945
 30
0.0
 11
144.0180658949983
 21
499.4588100135565
 31
0.0
 12
136.9873535592745
 22
498.4943437552496
 32
0.0
 13
136.9873535592745
 23
498.4943437552496
 33
0.0
  0
MTEXT
  5
A0E
330
919
100
AcDbEntity
  8
BEM
 48
10.0
100
AcDbMText
 10
162.4627196562164
 20
504.9827982144675
 30
0.0
 40
10.0
 41
0.0
 71
     5
 72
     1
  1
\A1;20°
 11
0.9807482361794265
 21
-0.1952764635867404
 31
0.0
 73
     1
 44
1.0
  0
POINT
  5
A0F
330
919
100
AcDbEntity
  8
Defpoints
 62
     0
 48
10.0
100
AcDbPoint
 10
151.0877603085867
 20
497.6730885834732
 30
0.0
  0
POINT
  5
A10
330
919
100
AcDbEntity
  8
Defpoints
 62
     0
 48
10.0
100
AcDbPoint
 10
136.9873535592745
 20
476.0435787874307
 30
0.0
  0
POINT
  5
A11
330
919
100
AcDbEntity
  8
Defpoints
 62
     0
 48
10.0
100
AcDbPoint
 10
158.6500285993932
 20
436.5541095261999
 30
0.0
  0
POINT
  5
A12
330
919
100
AcDbEntity
  8
Defpoints
 62
     0
 48
10.0
100
AcDbPoint
 10
164.8790691366891
 20
453.6682577472887
 30
0.0
  0
POINT
  5
A13
330
919
100
AcDbEntity
  8
Defpoints
 62
     0
 48
10.0
100
AcDbPoint
 10
136.9873535592745
 20
262.1912532599122
 30
0.0
  0
ENDBLK
  5
926
330
919
100
AcDbEntity
  8
0
 48
10.0
100
AcDbBlockEnd
  0
BLOCK
  5
92D
330
927
100
AcDbEntity
  8
0
 48
10.0
100
AcDbBlockBegin
  2
*D3
 70
     1
 10
0.0
 20
0.0
 30
0.0
  3
*D3
  1

  0
LINE
  5
A2C
330
927
100
AcDbEntity
  8
BEM
 48
10.0
370
    -2
100
AcDbLine
 10
373.190675951903
 20
319.7142590104131
 30
0.0
 11
420.6859246919657
 21
354.3832729346716
 31
0.0
  0
MTEXT
  5
A2D
330
927
100
AcDbEntity
  8
BEM
 48
10.0
100
AcDbMText
 10
383.4231753048476
 20
338.3260903384155
 30
0.0
 40
10.0
 41
0.0
 71
     5
 72
     1
  1
\A1;R2.5
 11
0.8077073799807156
 21
0.5895835719596401
 31
0.0
 73
     1
 44
1.0
  0
SOLID
  5
A2E
330
927
100
AcDbEntity
  8
BEM
 48
10.0
100
AcDbTrace
 10
419.9980771913461
 20
355.3255982113158
 30
0.0
 11
421.3737721925853
 21
353.4409476580275
 31
0.0
 12
426.3398763518307
 22
358.5103579383892
 32
0.0
 13
426.3398763518307
 23
358.5103579383892
 33
0.0
  0
POINT
  5
A2F
330
927
100
AcDbEntity
  8
Defpoints
 62
     0
 48
10.0
100
AcDbPoint
 10
426.3398763518307
 20
358.5103579383892
 30
0.0
  0
POINT
  5
A30
330
927
100
AcDbEntity
  8
Defpoints
 62
     0
 48
10.0
100
AcDbPoint
 10
424.3206079018789
 20
357.03639900849
 30
0.0
  0
ENDBLK
  5
92E
330
927
100
AcDbEntity
  8
0
 48
10.0
100
AcDbBlockEnd
  0
BLOCK
  5
939
330
92F
100
AcDbEntity
  8
0
 48
10.0
100
AcDbBlockBegin
  2
*D4
 70
     1
 10
0.0
 20
0.0
 30
0.0
  3
*D4
  1

  0
LINE
  5
A31
330
92F
100
AcDbEntity
  8
BEM
 48
10.0
370
    -2
100
AcDbLine
 10
170.5108807741015
 20
311.3664200794898
 30
0.0
 11
170.5108807741015
 21
232.0344383342058
 31
0.0
  0
LINE
  5
A32
330
92F
100
AcDbEntity
  8
BEM
 48
10.0
370
    -2
100
AcDbLine
 10
133.5108807741015
 20
311.2056902225535
 30
0.0
 11
133.5108807741015
 21
232.0344383342058
 31
0.0
  0
LINE
  5
A33
330
92F
100
AcDbEntity
  8
BEM
 48
10.0
370
    -2
100
AcDbLine
 10
163.5108807741015
 20
233.2844383342058
 30
0.0
 11
140.5108807741015
 21
233.2844383342058
 31
0.0
  0
SOLID
  5
A34
330
92F
100
AcDbEntity
  8
BEM
 48
10.0
100
AcDbTrace
 10
163.5108807741015
 20
234.4511050008724
 30
0.0
 11
163.5108807741015
 21
232.1177716675391
 31
0.0
 12
170.5108807741015
 22
233.2844383342058
 32
0.0
 13
170.5108807741015
 23
233.2844383342058
 33
0.0
  0
SOLID
  5
A35
330
92F
100
AcDbEntity
  8
BEM
 48
10.0
100
AcDbTrace
 10
140.5108807741015
 20
234.4511050008724
 30
0.0
 11
140.5108807741015
 21
232.1177716675391
 31
0.0
 12
133.5108807741015
 22
233.2844383342058
 32
0.0
 13
133.5108807741015
 23
233.2844383342058
 33
0.0
  0
MTEXT
  5
A36
330
92F
100
AcDbEntity
  8
BEM
 48
10.0
100
AcDbMText
 10
152.0108807741015
 20
242.2844383342058
 30
0.0
 40
10.0
 41
0.0
 71
     5
 72
     1
  1
\A1;37
 73
     1
 44
1.0
  0
POINT
  5
A37
330
92F
100
AcDbEntity
  8
Defpoints
 62
     0
 48
10.0
100
AcDbPoint
 10
170.5108807741015
 20
311.3664200794898
 30
0.0
  0
POINT
  5
A38
330
92F
100
AcDbEntity
  8
Defpoints
 62
     0
 48
10.0
100
AcDbPoint
 10
133.5108807741015
 20
311.2056902225535
 30
0.0
  0
POINT
  5
A39
330
92F
100
AcDbEntity
  8
Defpoints
 62
     0
 48
10.0
100
AcDbPoint
 10
133.5108807741015
 20
233.2844383342058
 30
0.0
  0
ENDBLK
  5
93A
330
92F
100
AcDbEntity
  8
0
 48
10.0
100
AcDbBlockEnd
  0
BLOCK
  5
947
330
93B
100
AcDbEntity
  8
0
 48
10.0
100
AcDbBlockBegin
  2
*D5
 70
     1
 10
0.0
 20
0.0
 30
0.0
  3
*D5
  1

  0
LINE
  5
A3A
330
93B
100
AcDbEntity
  8
BEM
 48
10.0
370
    -2
100
AcDbLine
 10
427.770607901879
 20
287.0363990084901
 30
0.0
 11
427.770607901879
 21
203.450534147184
 31
0.0
  0
LINE
  5
A3B
330
93B
100
AcDbEntity
  8
BEM
 48
10.0
370
    -2
100
AcDbLine
 10
441.2706079018788
 20
289.0363990084901
 30
0.0
 11
441.2706079018788
 21
203.450534147184
 31
0.0
  0
LINE
  5
A3C
330
93B
100
AcDbEntity
  8
BEM
 48
10.0
370
    -2
100
AcDbLine
 10
420.770607901879
 20
204.700534147184
 30
0.0
 11
413.7706079018791
 21
204.700534147184
 31
0.0
  0
LINE
  5
A3D
330
93B
100
AcDbEntity
  8
BEM
 48
10.0
370
    -2
100
AcDbLine
 10
448.2706079018789
 20
204.700534147184
 30
0.0
 11
492.3182269494978
 21
204.700534147184
 31
0.0
  0
LINE
  5
A3E
330
93B
100
AcDbEntity
  8
BEM
 48
10.0
370
    -2
100
AcDbLine
 10
427.770607901879
 20
204.700534147184
 30
0.0
 11
441.2706079018788
 21
204.700534147184
 31
0.0
  0
SOLID
  5
A3F
330
93B
100
AcDbEntity
  8
BEM
 48
10.0
100
AcDbTrace
 10
420.770607901879
 20
205.8672008138507
 30
0.0
 11
420.770607901879
 21
203.5338674805174
 31
0.0
 12
427.770607901879
 22
204.700534147184
 32
0.0
 13
427.770607901879
 23
204.700534147184
 33
0.0
  0
SOLID
  5
A40
330
93B
100
AcDbEntity
  8
BEM
 48
10.0
100
AcDbTrace
 10
448.2706079018789
 20
205.8672008138507
 30
0.0
 11
448.2706079018789
 21
203.5338674805174
 31
0.0
 12
441.2706079018788
 22
204.700534147184
 32
0.0
 13
441.2706079018788
 23
204.700534147184
 33
0.0
  0
MTEXT
  5
A41
330
93B
100
AcDbEntity
  8
BEM
 48
10.0
100
AcDbMText
 10
473.7944174256884
 20
213.700534147184
 30
0.0
 40
10.0
 41
0.0
 71
     5
 72
     1
  1
\A1;13.5
 73
     1
 44
1.0
  0
POINT
  5
A42
330
93B
100
AcDbEntity
  8
Defpoints
 62
     0
 48
10.0
100
AcDbPoint
 10
427.770607901879
 20
287.0363990084901
 30
0.0
  0
POINT
  5
A43
330
93B
100
AcDbEntity
  8
Defpoints
 62
     0
 48
10.0
100
AcDbPoint
 10
441.2706079018788
 20
289.0363990084901
 30
0.0
  0
POINT
  5
A44
330
93B
100
AcDbEntity
  8
Defpoints
 62
     0
 48
10.0
100
AcDbPoint
 10
441.2706079018788
 20
204.700534147184
 30
0.0
  0
ENDBLK
  5
948
330
93B
100
AcDbEntity
  8
0
 48
10.0
100
AcDbBlockEnd
  0
BLOCK
  5
955
330
949
100
AcDbEntity
  8
0
 48
10.0
100
AcDbBlockBegin
  2
*D6
 70
     1
 10
0.0
 20
0.0
 30
0.0
  3
*D6
  1

  0
LINE
  5
A45
330
949
100
AcDbEntity
  8
BEM
 48
10.0
370
    -2
100
AcDbLine
 10
432.770607901879
 20
314.7363990084901
 30
0.0
 11
432.770607901879
 21
244.3527117460726
 31
0.0
  0
LINE
  5
A46
330
949
100
AcDbEntity
  8
BEM
 48
10.0
370
    -2
100
AcDbLine
 10
427.7706079018789
 20
287.0363990084901
 30
0.0
 11
427.7706079018789
 21
244.3527117460726
 31
0.0
  0
LINE
  5
A47
330
949
100
AcDbEntity
  8
BEM
 48
10.0
370
    -2
100
AcDbLine
 10
420.7706079018789
 20
245.6027117460726
 30
0.0
 11
413.7706079018789
 21
245.6027117460726
 31
0.0
  0
LINE
  5
A48
330
949
100
AcDbEntity
  8
BEM
 48
10.0
370
    -2
100
AcDbLine
 10
439.770607901879
 20
245.6027117460726
 30
0.0
 11
461.4372745685458
 21
245.6027117460726
 31
0.0
  0
LINE
  5
A49
330
949
100
AcDbEntity
  8
BEM
 48
10.0
370
    -2
100
AcDbLine
 10
427.7706079018789
 20
245.6027117460726
 30
0.0
 11
432.770607901879
 21
245.6027117460726
 31
0.0
  0
SOLID
  5
A4A
330
949
100
AcDbEntity
  8
BEM
 48
10.0
100
AcDbTrace
 10
420.7706079018789
 20
246.7693784127392
 30
0.0
 11
420.7706079018789
 21
244.4360450794059
 31
0.0
 12
427.7706079018789
 22
245.6027117460726
 32
0.0
 13
427.7706079018789
 23
245.6027117460726
 33
0.0
  0
SOLID
  5
A4B
330
949
100
AcDbEntity
  8
BEM
 48
10.0
100
AcDbTrace
 10
439.770607901879
 20
246.7693784127392
 30
0.0
 11
439.770607901879
 21
244.4360450794059
 31
0.0
 12
432.770607901879
 22
245.6027117460726
 32
0.0
 13
432.770607901879
 23
245.6027117460726
 33
0.0
  0
MTEXT
  5
A4C
330
949
100
AcDbEntity
  8
BEM
 48
10.0
100
AcDbMText
 10
454.1039412352124
 20
254.6027117460726
 30
0.0
 40
10.0
 41
0.0
 71
     5
 72
     1
  1
\A1;5
 73
     1
 44
1.0
  0
POINT
  5
A4D
330
949
100
AcDbEntity
  8
Defpoints
 62
     0
 48
10.0
100
AcDbPoint
 10
432.770607901879
 20
314.7363990084901
 30
0.0
  0
POINT
  5
A4E
330
949
100
AcDbEntity
  8
Defpoints
 62
     0
 48
10.0
100
AcDbPoint
 10
427.7706079018789
 20
287.0363990084901
 30
0.0
  0
POINT
  5
A4F
330
949
100
AcDbEntity
  8
Defpoints
 62
     0
 48
10.0
100
AcDbPoint
 10
427.7706079018789
 20
245.6027117460726
 30
0.0
  0
ENDBLK
  5
956
330
949
100
AcDbEntity
  8
0
 48
10.0
100
AcDbBlockEnd
  0
BLOCK
  5
963
330
957
100
AcDbEntity
  8
0
 48
10.0
100
AcDbBlockBegin
  2
*D7
 70
     1
 10
0.0
 20
0.0
 30
0.0
  3
*D7
  1

  0
LINE
  5
A50
330
957
100
AcDbEntity
  8
BEM
 48
10.0
370
    -2
100
AcDbLine
 10
57.56233432179318
 20
377.0363990084901
 30
0.0
 11
29.01239094419425
 21
377.0363990084901
 31
0.0
  0
LINE
  5
A51
330
957
100
AcDbEntity
  8
BEM
 48
10.0
370
    -2
100
AcDbLine
 10
91.63475150038847
 20
370.2488958082853
 30
0.0
 11
29.01239094419424
 21
370.2488958082853
 31
0.0
  0
LINE
  5
A52
330
957
100
AcDbEntity
  8
BEM
 48
10.0
370
    -2
100
AcDbLine
 10
30.26239094419425
 20
384.0363990084901
 30
0.0
 11
30.26239094419425
 21
391.0363990084901
 31
0.0
  0
LINE
  5
A53
330
957
100
AcDbEntity
  8
BEM
 48
10.0
370
    -2
100
AcDbLine
 10
30.26239094419424
 20
363.2488958082853
 30
0.0
 11
30.26239094419424
 21
356.2488958082853
 31
0.0
  0
LINE
  5
A54
330
957
100
AcDbEntity
  8
BEM
 48
10.0
370
    -2
100
AcDbLine
 10
30.26239094419425
 20
377.0363990084901
 30
0.0
 11
30.26239094419424
 21
370.2488958082853
 31
0.0
  0
SOLID
  5
A55
330
957
100
AcDbEntity
  8
BEM
 48
10.0
100
AcDbTrace
 10
29.09572427752758
 20
384.0363990084901
 30
0.0
 11
31.42905761086091
 21
384.0363990084901
 31
0.0
 12
30.26239094419425
 22
377.0363990084901
 32
0.0
 13
30.26239094419425
 23
377.0363990084901
 33
0.0
  0
SOLID
  5
A56
330
957
100
AcDbEntity
  8
BEM
 48
10.0
100
AcDbTrace
 10
29.09572427752758
 20
363.2488958082853
 30
0.0
 11
31.42905761086091
 21
363.2488958082853
 31
0.0
 12
30.26239094419424
 22
370.2488958082853
 32
0.0
 13
30.26239094419424
 23
370.2488958082853
 33
0.0
  0
MTEXT
  5
A57
330
957
100
AcDbEntity
  8
BEM
 48
10.0
100
AcDbMText
 10
21.26239094419418
 20
373.6426474083877
 30
0.0
 40
10.0
 41
0.0
 71
     5
 72
     1
  1
\A1;6.7
 11
0.0000000000000001
 21
1.0
 31
0.0
 73
     1
 44
1.0
  0
POINT
  5
A58
330
957
100
AcDbEntity
  8
Defpoints
 62
     0
 48
10.0
100
AcDbPoint
 10
57.56233432179318
 20
377.0363990084901
 30
0.0
  0
POINT
  5
A59
330
957
100
AcDbEntity
  8
Defpoints
 62
     0
 48
10.0
100
AcDbPoint
 10
91.63475150038847
 20
370.2488958082853
 30
0.0
  0
POINT
  5
A5A
330
957
100
AcDbEntity
  8
Defpoints
 62
     0
 48
10.0
100
AcDbPoint
 10
30.26239094419424
 20
370.2488958082853
 30
0.0
  0
ENDBLK
  5
964
330
957
100
AcDbEntity
  8
0
 48
10.0
100
AcDbBlockEnd
  0
BLOCK
  5
96F
330
965
100
AcDbEntity
  8
0
 48
10.0
100
AcDbBlockBegin
  2
*D8
 70
     1
 10
0.0
 20
0.0
 30
0.0
  3
*D8
  1

  0
LINE
  5
A67
330
965
100
AcDbEntity
  8
BEM
 48
10.0
370
    -2
100
AcDbLine
 10
358.8206079018791
 20
394.5363990084901
 30
0.0
 11
325.1495621370921
 21
394.5363990084901
 31
0.0
  0
LINE
  5
A68
330
965
100
AcDbEntity
  8
BEM
 48
10.0
370
    -2
100
AcDbLine
 10
358.8206079018791
 20
359.5363990084901
 30
0.0
 11
325.149562137092
 21
359.5363990084901
 31
0.0
  0
LINE
  5
A69
330
965
100
AcDbEntity
  8
BEM
 48
10.0
370
    -2
100
AcDbLine
 10
326.399562137092
 20
387.5363990084901
 30
0.0
 11
326.399562137092
 21
366.5363990084901
 31
0.0
  0
SOLID
  5
A6A
330
965
100
AcDbEntity
  8
BEM
 48
10.0
100
AcDbTrace
 10
325.2328954704254
 20
387.5363990084901
 30
0.0
 11
327.5662288037588
 21
387.5363990084901
 31
0.0
 12
326.399562137092
 22
394.5363990084901
 32
0.0
 13
326.399562137092
 23
394.5363990084901
 33
0.0
  0
SOLID
  5
A6B
330
965
100
AcDbEntity
  8
BEM
 48
10.0
100
AcDbTrace
 10
325.2328954704253
 20
366.5363990084901
 30
0.0
 11
327.5662288037587
 21
366.5363990084901
 31
0.0
 12
326.399562137092
 22
359.5363990084901
 32
0.0
 13
326.399562137092
 23
359.5363990084901
 33
0.0
  0
MTEXT
  5
A6C
330
965
100
AcDbEntity
  8
BEM
 48
10.0
100
AcDbMText
 10
317.399562137092
 20
377.5750136442111
 30
0.0
 40
10.0
 41
0.0
 71
     5
 72
     1
  1
\A1;%%c35
 11
0.0000000000000001
 21
1.0
 31
0.0
 73
     1
 44
1.0
  0
POINT
  5
A6D
330
965
100
AcDbEntity
  8
Defpoints
 62
     0
 48
10.0
100
AcDbPoint
 10
358.8206079018791
 20
394.5363990084901
 30
0.0
  0
POINT
  5
A6E
330
965
100
AcDbEntity
  8
Defpoints
 62
     0
 48
10.0
100
AcDbPoint
 10
358.8206079018791
 20
359.5363990084901
 30
0.0
  0
POINT
  5
A6F
330
965
100
AcDbEntity
  8
Defpoints
 62
     0
 48
10.0
100
AcDbPoint
 10
326.399562137092
 20
359.5363990084901
 30
0.0
  0
ENDBLK
  5
970
330
965
100
AcDbEntity
  8
0
 48
10.0
100
AcDbBlockEnd
  0
BLOCK
  5
97D
330
971
100
AcDbEntity
  8
0
 48
10.0
100
AcDbBlockBegin
  2
*D9
 70
     1
 10
0.0
 20
0.0
 30
0.0
  3
*D9
  1

  0
LINE
  5
A70
330
971
100
AcDbEntity
  8
BEM
 48
10.0
370
    -2
100
AcDbLine
 10
427.7706079018789
 20
399.5363990084901
 30
0.0
 11
427.7706079018789
 21
500.7123033676239
 31
0.0
  0
LINE
  5
A71
330
971
100
AcDbEntity
  8
BEM
 48
10.0
370
    -2
100
AcDbLine
 10
426.820607901879
 20
399.1899888469764
 30
0.0
 11
426.820607901879
 21
500.7123033676239
 31
0.0
  0
LINE
  5
A72
330
971
100
AcDbEntity
  8
BEM
 48
10.0
370
    -2
100
AcDbLine
 10
419.820607901879
 20
499.4623033676239
 30
0.0
 11
412.820607901879
 21
499.4623033676239
 31
0.0
  0
LINE
  5
A73
330
971
100
AcDbEntity
  8
BEM
 48
10.0
370
    -2
100
AcDbLine
 10
434.7706079018788
 20
499.4623033676239
 30
0.0
 11
452.1515602828312
 21
499.4623033676239
 31
0.0
  0
LINE
  5
A74
330
971
100
AcDbEntity
  8
BEM
 48
10.0
370
    -2
100
AcDbLine
 10
426.820607901879
 20
499.4623033676239
 30
0.0
 11
427.7706079018789
 21
499.4623033676239
 31
0.0
  0
SOLID
  5
A75
330
971
100
AcDbEntity
  8
BEM
 48
10.0
100
AcDbTrace
 10
419.820607901879
 20
500.6289700342906
 30
0.0
 11
419.820607901879
 21
498.2956367009572
 31
0.0
 12
426.820607901879
 22
499.4623033676239
 32
0.0
 13
426.820607901879
 23
499.4623033676239
 33
0.0
  0
SOLID
  5
A76
330
971
100
AcDbEntity
  8
BEM
 48
10.0
100
AcDbTrace
 10
434.7706079018788
 20
500.6289700342906
 30
0.0
 11
434.7706079018788
 21
498.2956367009572
 31
0.0
 12
427.7706079018789
 22
499.4623033676239
 32
0.0
 13
427.7706079018789
 23
499.4623033676239
 33
0.0
  0
MTEXT
  5
A77
330
971
100
AcDbEntity
  8
BEM
 48
10.0
100
AcDbMText
 10
446.961084092355
 20
508.4623033676239
 30
0.0
 40
10.0
 41
0.0
 71
     5
 72
     1
  1
\A1;1
 73
     1
 44
1.0
  0
POINT
  5
A78
330
971
100
AcDbEntity
  8
Defpoints
 62
     0
 48
10.0
100
AcDbPoint
 10
427.7706079018789
 20
399.5363990084901
 30
0.0
  0
POINT
  5
A79
330
971
100
AcDbEntity
  8
Defpoints
 62
     0
 48
10.0
100
AcDbPoint
 10
426.820607901879
 20
399.1899888469764
 30
0.0
  0
POINT
  5
A7A
330
971
100
AcDbEntity
  8
Defpoints
 62
     0
 48
10.0
100
AcDbPoint
 10
426.820607901879
 20
499.4623033676239
 30
0.0
  0
ENDBLK
  5
97E
330
971
100
AcDbEntity
  8
0
 48
10.0
100
AcDbBlockEnd
  0
BLOCK
  5
986
330
97F
100
AcDbEntity
  8
0
 48
10.0
100
AcDbBlockBegin
  2
*D10
 70
     1
 10
0.0
 20
0.0
 30
0.0
  3
*D10
  1

  0
LINE
  5
A7B
330
97F
100
AcDbEntity
  8
BEM
 48
10.0
370
    -2
100
AcDbLine
 10
871.0329792219434
 20
425.3199186267611
 30
0.0
 11
959.5530726080678
 21
328.7528793902187
 31
0.0
  0
SOLID
  5
A7C
330
97F
100
AcDbEntity
  8
BEM
 48
10.0
100
AcDbTrace
 10
871.8929910217598
 20
426.1082655144238
 30
0.0
 11
870.1729674221267
 21
424.5315717390984
 31
0.0
 12
866.3028978959673
 22
430.4799894256603
 32
0.0
 13
866.3028978959673
 23
430.4799894256603
 33
0.0
  0
SOLID
  5
A7D
330
97F
100
AcDbEntity
  8
BEM
 48
10.0
100
AcDbTrace
 10
960.4130844078843
 20
329.5412262778813
 30
0.0
 11
958.6930608082514
 21
327.964532502556
 31
0.0
 12
964.283153934044
 22
323.5928085913195
 32
0.0
 13
964.283153934044
 23
323.5928085913195
 33
0.0
  0
MTEXT
  5
A7E
102
{ACAD_XDICTIONARY
360
D66
102
}
330
97F
100
AcDbEntity
  8
BEM
 48
10.0
100
AcDbMText
 10
946.2263653629058
 20
356.6100648846028
 30
0.0
 40
10.0
 41
0.0
 71
     5
 72
     1
  1
\A1;\U+2205145
 11
0.6757259037108714
 21
-0.7371529712713137
 31
0.0
 73
     1
 44
1.0
  0
POINT
  5
A7F
330
97F
100
AcDbEntity
  8
Defpoints
 62
     0
 48
10.0
100
AcDbPoint
 10
964.283153934044
 20
323.5928085913195
 30
0.0
  0
POINT
  5
A80
330
97F
100
AcDbEntity
  8
Defpoints
 62
     0
 48
10.0
100
AcDbPoint
 10
866.3028978959673
 20
430.4799894256603
 30
0.0
  0
ENDBLK
  5
987
330
97F
100
AcDbEntity
  8
0
 48
10.0
100
AcDbBlockEnd
  0
BLOCK
  5
992
330
988
100
AcDbEntity
  8
0
 48
10.0
100
AcDbBlockBegin
  2
*D11
 70
     1
 10
0.0
 20
0.0
 30
0.0
  3
*D11
  1

  0
LINE
  5
A81
330
988
100
AcDbEntity
  8
BEM
 48
10.0
370
    -2
100
AcDbLine
 10
538.820607901879
 20
377.0363990084901
 30
0.0
 11
550.4687003545142
 21
377.0363990084901
 31
0.0
  0
LINE
  5
A82
330
988
100
AcDbEntity
  8
BEM
 48
10.0
370
    -2
100
AcDbLine
 10
547.6910944668762
 20
275.03639900849
 30
0.0
 11
550.4687003545142
 21
275.03639900849
 31
0.0
  0
LINE
  5
A83
330
988
100
AcDbEntity
  8
BEM
 48
10.0
370
    -2
100
AcDbLine
 10
549.2187003545142
 20
370.0363990084901
 30
0.0
 11
549.2187003545142
 21
282.03639900849
 31
0.0
  0
SOLID
  5
A84
330
988
100
AcDbEntity
  8
BEM
 48
10.0
100
AcDbTrace
 10
548.0520336878476
 20
370.0363990084901
 30
0.0
 11
550.3853670211809
 21
370.0363990084901
 31
0.0
 12
549.2187003545142
 22
377.0363990084901
 32
0.0
 13
549.2187003545142
 23
377.0363990084901
 33
0.0
  0
SOLID
  5
A85
330
988
100
AcDbEntity
  8
BEM
 48
10.0
100
AcDbTrace
 10
548.0520336878476
 20
282.03639900849
 30
0.0
 11
550.3853670211809
 21
282.03639900849
 31
0.0
 12
549.2187003545142
 22
275.03639900849
 32
0.0
 13
549.2187003545142
 23
275.03639900849
 33
0.0
  0
MTEXT
  5
A86
330
988
100
AcDbEntity
  8
BEM
 48
10.0
100
AcDbMText
 10
540.2187003545141
 20
326.0363990084901
 30
0.0
 40
10.0
 41
0.0
 71
     5
 72
     1
  1
\A1;102
 11
0.0000000000000001
 21
1.0
 31
0.0
 73
     1
 44
1.0
  0
POINT
  5
A87
330
988
100
AcDbEntity
  8
Defpoints
 62
     0
 48
10.0
100
AcDbPoint
 10
538.820607901879
 20
377.0363990084901
 30
0.0
  0
POINT
  5
A88
330
988
100
AcDbEntity
  8
Defpoints
 62
     0
 48
10.0
100
AcDbPoint
 10
547.6910944668762
 20
275.03639900849
 30
0.0
  0
POINT
  5
A89
330
988
100
AcDbEntity
  8
Defpoints
 62
     0
 48
10.0
100
AcDbPoint
 10
549.2187003545142
 20
275.03639900849
 30
0.0
  0
ENDBLK
  5
993
330
988
100
AcDbEntity
  8
0
 48
10.0
100
AcDbBlockEnd
  0
BLOCK
  5
99E
330
994
100
AcDbEntity
  8
0
 48
10.0
100
AcDbBlockBegin
  2
*D12
 70
     1
 10
0.0
 20
0.0
 30
0.0
  3
*D12
  1

  0
LINE
  5
A8A
330
994
100
AcDbEntity
  8
BEM
 48
10.0
370
    -2
100
AcDbLine
 10
709.8277192486435
 20
424.2488958082852
 30
0.0
 11
787.2222267023673
 21
424.2488958082852
 31
0.0
  0
LINE
  5
A8B
330
994
100
AcDbEntity
  8
BEM
 48
10.0
370
    -2
100
AcDbLine
 10
720.6706079018792
 20
305.2488958082855
 30
0.0
 11
787.2222267023673
 21
305.2488958082855
 31
0.0
  0
LINE
  5
A8C
330
994
100
AcDbEntity
  8
BEM
 48
10.0
370
    -2
100
AcDbLine
 10
785.9722267023673
 20
417.2488958082852
 30
0.0
 11
785.9722267023673
 21
312.2488958082855
 31
0.0
  0
SOLID
  5
A8D
330
994
100
AcDbEntity
  8
BEM
 48
10.0
100
AcDbTrace
 10
784.8055600357006
 20
417.2488958082852
 30
0.0
 11
787.1388933690338
 21
417.2488958082852
 31
0.0
 12
785.9722267023673
 22
424.2488958082852
 32
0.0
 13
785.9722267023673
 23
424.2488958082852
 33
0.0
  0
SOLID
  5
A8E
330
994
100
AcDbEntity
  8
BEM
 48
10.0
100
AcDbTrace
 10
784.8055600357006
 20
312.2488958082855
 30
0.0
 11
787.1388933690338
 21
312.2488958082855
 31
0.0
 12
785.9722267023673
 22
305.2488958082855
 32
0.0
 13
785.9722267023673
 23
305.2488958082855
 33
0.0
  0
MTEXT
  5
A8F
330
994
100
AcDbEntity
  8
BEM
 48
10.0
100
AcDbMText
 10
776.9722267023671
 20
364.7488958082855
 30
0.0
 40
10.0
 41
0.0
 71
     5
 72
     1
  1
\A1;119
 11
0.0000000000000001
 21
1.0
 31
0.0
 73
     1
 44
1.0
  0
POINT
  5
A90
330
994
100
AcDbEntity
  8
Defpoints
 62
     0
 48
10.0
100
AcDbPoint
 10
709.8277192486435
 20
424.2488958082852
 30
0.0
  0
POINT
  5
A91
330
994
100
AcDbEntity
  8
Defpoints
 62
     0
 48
10.0
100
AcDbPoint
 10
720.6706079018792
 20
305.2488958082855
 30
0.0
  0
POINT
  5
A92
330
994
100
AcDbEntity
  8
Defpoints
 62
     0
 48
10.0
100
AcDbPoint
 10
785.9722267023673
 20
305.2488958082855
 30
0.0
  0
ENDBLK
  5
99F
330
994
100
AcDbEntity
  8
0
 48
10.0
100
AcDbBlockEnd
  0
BLOCK
  5
9AA
330
9A0
100
AcDbEntity
  8
0
 48
10.0
100
AcDbBlockBegin
  2
*D13
 70
     1
 10
0.0
 20
0.0
 30
0.0
  3
*D13
  1

  0
LINE
  5
A93
330
9A0
100
AcDbEntity
  8
BEM
 48
10.0
370
    -2
100
AcDbLine
 10
722.6933689698245
 20
370.2488958082853
 30
0.0
 11
760.2997261479019
 21
370.2488958082853
 31
0.0
  0
LINE
  5
A94
330
9A0
100
AcDbEntity
  8
BEM
 48
10.0
370
    -2
100
AcDbLine
 10
720.6706079018792
 20
305.2488958082855
 30
0.0
 11
760.2997261479019
 21
305.2488958082855
 31
0.0
  0
LINE
  5
A95
330
9A0
100
AcDbEntity
  8
BEM
 48
10.0
370
    -2
100
AcDbLine
 10
759.0497261479018
 20
363.2488958082853
 30
0.0
 11
759.0497261479018
 21
312.2488958082855
 31
0.0
  0
SOLID
  5
A96
330
9A0
100
AcDbEntity
  8
BEM
 48
10.0
100
AcDbTrace
 10
757.8830594812352
 20
363.2488958082853
 30
0.0
 11
760.2163928145685
 21
363.2488958082853
 31
0.0
 12
759.0497261479018
 22
370.2488958082853
 32
0.0
 13
759.0497261479018
 23
370.2488958082853
 33
0.0
  0
SOLID
  5
A97
330
9A0
100
AcDbEntity
  8
BEM
 48
10.0
100
AcDbTrace
 10
757.8830594812352
 20
312.2488958082855
 30
0.0
 11
760.2163928145685
 21
312.2488958082855
 31
0.0
 12
759.0497261479018
 22
305.2488958082855
 32
0.0
 13
759.0497261479018
 23
305.2488958082855
 33
0.0
  0
MTEXT
  5
A98
330
9A0
100
AcDbEntity
  8
BEM
 48
10.0
100
AcDbMText
 10
750.0497261479018
 20
337.7488958082855
 30
0.0
 40
10.0
 41
0.0
 71
     5
 72
     1
  1
\A1;65
 11
0.0000000000000001
 21
1.0
 31
0.0
 73
     1
 44
1.0
  0
POINT
  5
A99
330
9A0
100
AcDbEntity
  8
Defpoints
 62
     0
 48
10.0
100
AcDbPoint
 10
722.6933689698245
 20
370.2488958082853
 30
0.0
  0
POINT
  5
A9A
330
9A0
100
AcDbEntity
  8
Defpoints
 62
     0
 48
10.0
100
AcDbPoint
 10
720.6706079018792
 20
305.2488958082855
 30
0.0
  0
POINT
  5
A9B
330
9A0
100
AcDbEntity
  8
Defpoints
 62
     0
 48
10.0
100
AcDbPoint
 10
759.0497261479018
 20
305.2488958082855
 30
0.0
  0
ENDBLK
  5
9AB
330
9A0
100
AcDbEntity
  8
0
 48
10.0
100
AcDbBlockEnd
  0
BLOCK
  5
9B6
330
9AC
100
AcDbEntity
  8
0
 48
10.0
100
AcDbBlockBegin
  2
*D14
 70
     1
 10
0.0
 20
0.0
 30
0.0
  3
*D14
  1

  0
LINE
  5
A9C
330
9AC
100
AcDbEntity
  8
BEM
 48
10.0
370
    -2
100
AcDbLine
 10
915.293025915005
 20
467.03639900849
 30
0.0
 11
1041.647238101459
 21
467.03639900849
 31
0.0
  0
LINE
  5
A9D
330
9AC
100
AcDbEntity
  8
BEM
 48
10.0
370
    -2
100
AcDbLine
 10
967.5606465776201
 20
262.709093252634
 30
0.0
 11
1041.647238101459
 21
262.709093252634
 31
0.0
  0
LINE
  5
A9E
330
9AC
100
AcDbEntity
  8
BEM
 48
10.0
370
    -2
100
AcDbLine
 10
1040.397238101459
 20
460.03639900849
 30
0.0
 11
1040.397238101459
 21
269.709093252634
 31
0.0
  0
SOLID
  5
A9F
330
9AC
100
AcDbEntity
  8
BEM
 48
10.0
100
AcDbTrace
 10
1039.230571434792
 20
460.03639900849
 30
0.0
 11
1041.563904768126
 21
460.03639900849
 31
0.0
 12
1040.397238101459
 22
467.03639900849
 32
0.0
 13
1040.397238101459
 23
467.03639900849
 33
0.0
  0
SOLID
  5
AA0
330
9AC
100
AcDbEntity
  8
BEM
 48
10.0
100
AcDbTrace
 10
1039.230571434792
 20
269.709093252634
 30
0.0
 11
1041.563904768126
 21
269.709093252634
 31
0.0
 12
1040.397238101459
 22
262.709093252634
 32
0.0
 13
1040.397238101459
 23
262.709093252634
 33
0.0
  0
MTEXT
  5
AA1
330
9AC
100
AcDbEntity
  8
BEM
 48
10.0
100
AcDbMText
 10
1031.397238101459
 20
363.4914886959773
 30
0.0
 40
10.0
 41
0.0
 71
     5
 72
     1
  1
\A1;204
 11
0.0000000000000001
 21
1.0
 31
0.0
 73
     1
 44
1.0
  0
POINT
  5
AA2
330
9AC
100
AcDbEntity
  8
Defpoints
 62
     0
 48
10.0
100
AcDbPoint
 10
915.293025915005
 20
467.03639900849
 30
0.0
  0
POINT
  5
AA3
330
9AC
100
AcDbEntity
  8
Defpoints
 62
     0
 48
10.0
100
AcDbPoint
 10
967.5606465776201
 20
262.709093252634
 30
0.0
  0
POINT
  5
AA4
330
9AC
100
AcDbEntity
  8
Defpoints
 62
     0
 48
10.0
100
AcDbPoint
 10
1040.397238101459
 20
262.709093252634
 30
0.0
  0
ENDBLK
  5
9B7
330
9AC
100
AcDbEntity
  8
0
 48
10.0
100
AcDbBlockEnd
  0
BLOCK
  5
9C4
330
9B8
100
AcDbEntity
  8
0
 48
10.0
100
AcDbBlockBegin
  2
*D15
 70
     1
 10
0.0
 20
0.0
 30
0.0
  3
*D15
  1

  0
LINE
  5
AA5
330
9B8
100
AcDbEntity
  8
BEM
 48
10.0
370
    -2
100
AcDbLine
 10
915.293025915005
 20
478.6757613877394
 30
0.0
 11
915.293025915005
 21
519.2167311604361
 31
0.0
  0
LINE
  5
AA6
330
9B8
100
AcDbEntity
  8
BEM
 48
10.0
370
    -2
100
AcDbLine
 10
886.8156065361491
 20
455.2774657162341
 30
0.0
 11
866.6644883343046
 21
510.6422079525631
 31
0.0
  0
ARC
  5
AA7
330
9B8
100
AcDbEntity
  8
BEM
 48
10.0
370
    -2
100
AcDbCircle
 10
915.293025915005
 20
377.036399008488
 30
0.0
 40
140.930332151948
100
AcDbArc
 50
92.84617009213953
 51
107.1538299078604
  0
SOLID
  5
AA8
330
9B8
100
AcDbEntity
  8
BEM
 48
10.0
100
AcDbTrace
 10
908.266210835397
 20
518.9591932242466
 30
0.0
 11
908.324159089275
 21
516.6265795733569
 31
0.0
 12
915.293025915005
 22
517.9667311604361
 32
0.0
 13
915.293025915005
 23
517.9667311604361
 33
0.0
  0
SOLID
  5
AA9
330
9B8
100
AcDbEntity
  8
BEM
 48
10.0
100
AcDbTrace
 10
874.0989650827309
 20
510.5917544500216
 30
0.0
 11
873.3556177740869
 21
512.8035137550039
 31
0.0
 12
867.0920135134617
 22
509.4675921765807
 32
0.0
 13
867.0920135134617
 23
509.4675921765807
 33
0.0
  0
MTEXT
  5
AAA
330
9B8
100
AcDbEntity
  8
BEM
 48
10.0
100
AcDbMText
 10
889.1659545549886
 20
524.6727110775115
 30
0.0
 40
10.0
 41
0.0
 71
     5
 72
     1
  1
\A1;20°
 11
0.9846994263935886
 21
0.1742614118505223
 31
0.0
 73
     1
 44
1.0
  0
POINT
  5
AAB
330
9B8
100
AcDbEntity
  8
Defpoints
 62
     0
 48
10.0
100
AcDbPoint
 10
898.9320129668486
 20
517.0138106711154
 30
0.0
  0
POINT
  5
AAC
330
9B8
100
AcDbEntity
  8
Defpoints
 62
     0
 48
10.0
100
AcDbPoint
 10
893.5793867774666
 20
436.6941322330608
 30
0.0
  0
POINT
  5
AAD
330
9B8
100
AcDbEntity
  8
Defpoints
 62
     0
 48
10.0
100
AcDbPoint
 10
915.293025915005
 20
478.6757613877394
 30
0.0
  0
POINT
  5
AAE
330
9B8
100
AcDbEntity
  8
Defpoints
 62
     0
 48
10.0
100
AcDbPoint
 10
915.293025915005
 20
264.8013901728138
 30
0.0
  0
POINT
  5
AAF
330
9B8
100
AcDbEntity
  8
Defpoints
 62
     0
 48
10.0
100
AcDbPoint
 10
886.8156065361491
 20
455.2774657162341
 30
0.0
  0
ENDBLK
  5
9C5
330
9B8
100
AcDbEntity
  8
0
 48
10.0
100
AcDbBlockEnd
  0
BLOCK
  5
9D0
330
9C6
100
AcDbEntity
  8
0
 48
10.0
100
AcDbBlockBegin
  2
*D16
 70
     1
 10
0.0
 20
0.0
 30
0.0
  3
*D16
  1

  0
LINE
  5
AB0
330
9C6
100
AcDbEntity
  8
BEM
 48
10.0
370
    -2
100
AcDbLine
 10
705.1706079018791
 20
293.7488958082853
 30
0.0
 11
705.1706079018791
 21
166.1119943113026
 31
0.0
  0
LINE
  5
AB1
330
9C6
100
AcDbEntity
  8
BEM
 48
10.0
370
    -2
100
AcDbLine
 10
650.6706079018791
 20
260.6395690623165
 30
0.0
 11
650.6706079018791
 21
166.1119943113026
 31
0.0
  0
LINE
  5
AB2
330
9C6
100
AcDbEntity
  8
BEM
 48
10.0
370
    -2
100
AcDbLine
 10
698.1706079018792
 20
167.3619943113026
 30
0.0
 11
657.6706079018792
 21
167.3619943113026
 31
0.0
  0
SOLID
  5
AB3
330
9C6
100
AcDbEntity
  8
BEM
 48
10.0
100
AcDbTrace
 10
698.1706079018792
 20
168.5286609779693
 30
0.0
 11
698.1706079018792
 21
166.1953276446359
 31
0.0
 12
705.1706079018791
 22
167.3619943113026
 32
0.0
 13
705.1706079018791
 23
167.3619943113026
 33
0.0
  0
SOLID
  5
AB4
330
9C6
100
AcDbEntity
  8
BEM
 48
10.0
100
AcDbTrace
 10
657.6706079018792
 20
168.5286609779693
 30
0.0
 11
657.6706079018792
 21
166.1953276446359
 31
0.0
 12
650.6706079018791
 22
167.3619943113026
 32
0.0
 13
650.6706079018791
 23
167.3619943113026
 33
0.0
  0
MTEXT
  5
AB5
330
9C6
100
AcDbEntity
  8
BEM
 48
10.0
100
AcDbMText
 10
678.932512663784
 20
176.3619943113026
 30
0.0
 40
10.0
 41
0.0
 71
     5
 72
     1
  1
\A1;54.5
 73
     1
 44
1.0
  0
POINT
  5
AB6
330
9C6
100
AcDbEntity
  8
Defpoints
 62
     0
 48
10.0
100
AcDbPoint
 10
705.1706079018791
 20
293.7488958082853
 30
0.0
  0
POINT
  5
AB7
330
9C6
100
AcDbEntity
  8
Defpoints
 62
     0
 48
10.0
100
AcDbPoint
 10
650.6706079018791
 20
260.6395690623165
 30
0.0
  0
POINT
  5
AB8
330
9C6
100
AcDbEntity
  8
Defpoints
 62
     0
 48
10.0
100
AcDbPoint
 10
650.6706079018791
 20
167.3619943113026
 30
0.0
  0
ENDBLK
  5
9D1
330
9C6
100
AcDbEntity
  8
0
 48
10.0
100
AcDbBlockEnd
  0
BLOCK
  5
9DE
330
9D2
100
AcDbEntity
  8
0
 48
10.0
100
AcDbBlockBegin
  2
*D17
 70
     1
 10
0.0
 20
0.0
 30
0.0
  3
*D17
  1

  0
LINE
  5
AB9
330
9D2
100
AcDbEntity
  8
BEM
 48
10.0
370
    -2
100
AcDbLine
 10
659.6706079018791
 20
270.3153866384063
 30
0.0
 11
659.6706079018791
 21
267.4685505682427
 31
0.0
  0
LINE
  5
ABA
330
9D2
100
AcDbEntity
  8
BEM
 48
10.0
370
    -2
100
AcDbLine
 10
641.6706079018791
 20
270.7457784191967
 30
0.0
 11
641.6706079018791
 21
267.4685505682427
 31
0.0
  0
LINE
  5
ABB
330
9D2
100
AcDbEntity
  8
BEM
 48
10.0
370
    -2
100
AcDbLine
 10
666.6706079018791
 20
268.7185505682427
 30
0.0
 11
673.6706079018792
 21
268.7185505682427
 31
0.0
  0
LINE
  5
ABC
330
9D2
100
AcDbEntity
  8
BEM
 48
10.0
370
    -2
100
AcDbLine
 10
634.6706079018791
 20
268.7185505682427
 30
0.0
 11
627.6706079018792
 21
268.7185505682427
 31
0.0
  0
LINE
  5
ABD
330
9D2
100
AcDbEntity
  8
BEM
 48
10.0
370
    -2
100
AcDbLine
 10
659.6706079018791
 20
268.7185505682427
 30
0.0
 11
641.6706079018791
 21
268.7185505682427
 31
0.0
  0
SOLID
  5
ABE
330
9D2
100
AcDbEntity
  8
BEM
 48
10.0
100
AcDbTrace
 10
666.6706079018791
 20
269.8852172349094
 30
0.0
 11
666.6706079018791
 21
267.551883901576
 31
0.0
 12
659.6706079018791
 22
268.7185505682427
 32
0.0
 13
659.6706079018791
 23
268.7185505682427
 33
0.0
  0
SOLID
  5
ABF
330
9D2
100
AcDbEntity
  8
BEM
 48
10.0
100
AcDbTrace
 10
634.6706079018791
 20
269.8852172349094
 30
0.0
 11
634.6706079018791
 21
267.551883901576
 31
0.0
 12
641.6706079018791
 22
268.7185505682427
 32
0.0
 13
641.6706079018791
 23
268.7185505682427
 33
0.0
  0
MTEXT
  5
AC0
330
9D2
100
AcDbEntity
  8
BEM
 48
10.0
100
AcDbMText
 10
650.6706079018791
 20
277.7185505682427
 30
0.0
 40
10.0
 41
0.0
 71
     5
 72
     1
  1
\A1;M18x1.5
 73
     1
 44
1.0
  0
POINT
  5
AC1
330
9D2
100
AcDbEntity
  8
Defpoints
 62
     0
 48
10.0
100
AcDbPoint
 10
659.6706079018791
 20
270.3153866384063
 30
0.0
  0
POINT
  5
AC2
330
9D2
100
AcDbEntity
  8
Defpoints
 62
     0
 48
10.0
100
AcDbPoint
 10
641.6706079018791
 20
270.7457784191967
 30
0.0
  0
POINT
  5
AC3
330
9D2
100
AcDbEntity
  8
Defpoints
 62
     0
 48
10.0
100
AcDbPoint
 10
641.6706079018791
 20
268.7185505682427
 30
0.0
  0
ENDBLK
  5
9DF
330
9D2
100
AcDbEntity
  8
0
 48
10.0
100
AcDbBlockEnd
  0
BLOCK
  5
9EA
330
9E0
100
AcDbEntity
  8
0
 48
10.0
100
AcDbBlockBegin
  2
*D18
 70
     1
 10
0.0
 20
0.0
 30
0.0
  3
*D18
  1

  0
LINE
  5
AC4
330
9E0
100
AcDbEntity
  8
BEM
 48
10.0
370
    -2
100
AcDbLine
 10
556.2706079018788
 20
432.03639900849
 30
0.0
 11
547.9687003545142
 21
432.03639900849
 31
0.0
  0
LINE
  5
AC5
330
9E0
100
AcDbEntity
  8
BEM
 48
10.0
370
    -2
100
AcDbLine
 10
556.1947775710924
 20
377.0363990084901
 30
0.0
 11
547.9687003545142
 21
377.0363990084901
 31
0.0
  0
LINE
  5
AC6
330
9E0
100
AcDbEntity
  8
BEM
 48
10.0
370
    -2
100
AcDbLine
 10
549.2187003545142
 20
425.0363990084901
 30
0.0
 11
549.2187003545142
 21
384.0363990084901
 31
0.0
  0
SOLID
  5
AC7
330
9E0
100
AcDbEntity
  8
BEM
 48
10.0
100
AcDbTrace
 10
548.0520336878476
 20
425.0363990084901
 30
0.0
 11
550.3853670211809
 21
425.0363990084901
 31
0.0
 12
549.2187003545142
 22
432.03639900849
 32
0.0
 13
549.2187003545142
 23
432.03639900849
 33
0.0
  0
SOLID
  5
AC8
330
9E0
100
AcDbEntity
  8
BEM
 48
10.0
100
AcDbTrace
 10
548.0520336878476
 20
384.0363990084901
 30
0.0
 11
550.3853670211809
 21
384.0363990084901
 31
0.0
 12
549.2187003545142
 22
377.0363990084901
 32
0.0
 13
549.2187003545142
 23
377.0363990084901
 33
0.0
  0
MTEXT
  5
AC9
330
9E0
100
AcDbEntity
  8
BEM
 48
10.0
100
AcDbMText
 10
540.2187003545141
 20
404.5363990084901
 30
0.0
 40
10.0
 41
0.0
 71
     5
 72
     1
  1
\A1;55
 11
0.0000000000000001
 21
1.0
 31
0.0
 73
     1
 44
1.0
  0
POINT
  5
ACA
330
9E0
100
AcDbEntity
  8
Defpoints
 62
     0
 48
10.0
100
AcDbPoint
 10
556.2706079018788
 20
432.03639900849
 30
0.0
  0
POINT
  5
ACB
330
9E0
100
AcDbEntity
  8
Defpoints
 62
     0
 48
10.0
100
AcDbPoint
 10
556.1947775710924
 20
377.0363990084901
 30
0.0
  0
POINT
  5
ACC
330
9E0
100
AcDbEntity
  8
Defpoints
 62
     0
 48
10.0
100
AcDbPoint
 10
549.2187003545142
 20
377.0363990084901
 30
0.0
  0
ENDBLK
  5
9EB
330
9E0
100
AcDbEntity
  8
0
 48
10.0
100
AcDbBlockEnd
  0
BLOCK
  5
9F5
330
9EC
100
AcDbEntity
  8
0
 48
10.0
100
AcDbBlockBegin
  2
*D19
 70
     1
 10
0.0
 20
0.0
 30
0.0
  3
*D19
  1

  0
LINE
  5
ACD
330
9EC
100
AcDbEntity
  8
BEM
 48
10.0
370
    -2
100
AcDbLine
 10
974.846846723369
 20
392.3961842292364
 30
0.0
 11
970.1396106927573
 21
387.2152645278599
 31
0.0
  0
LINE
  5
ACE
330
9EC
100
AcDbEntity
  8
BEM
 48
10.0
370
    -2
100
AcDbLine
 10
991.9946351205974
 20
411.2695345699651
 30
0.0
 11
1030.084916909028
 21
453.1927969824129
 31
0.0
  0
LINE
  5
ACF
330
9EC
100
AcDbEntity
  8
BEM
 48
10.0
370
    -2
100
AcDbLine
 10
979.5540827539808
 20
397.577103930613
 30
0.0
 11
987.287399089986
 21
406.0886148685887
 31
0.0
  0
SOLID
  5
AD0
330
9EC
100
AcDbEntity
  8
BEM
 48
10.0
100
AcDbTrace
 10
973.9833601064729
 20
393.1807235676718
 30
0.0
 11
975.7103333402652
 21
391.6116448908011
 31
0.0
 12
979.5540827539808
 22
397.577103930613
 32
0.0
 13
979.5540827539808
 23
397.577103930613
 33
0.0
  0
SOLID
  5
AD1
330
9EC
100
AcDbEntity
  8
BEM
 48
10.0
100
AcDbTrace
 10
991.1311485037012
 20
412.0540739084004
 30
0.0
 11
992.8581217374935
 21
410.4849952315298
 31
0.0
 12
987.287399089986
 22
406.0886148685887
 32
0.0
 13
987.287399089986
 23
406.0886148685887
 33
0.0
  0
MTEXT
  5
AD2
102
{ACAD_XDICTIONARY
360
D68
102
}
330
9EC
100
AcDbEntity
  8
BEM
 48
10.0
100
AcDbMText
 10
1007.444749542801
 20
441.6580260898872
 30
0.0
 40
10.0
 41
0.0
 71
     5
 72
     1
  1
\A1;\U+220511.5
 11
0.6724622900873834
 21
0.7401313859109287
 31
0.0
 73
     1
 44
1.0
  0
POINT
  5
AD3
330
9EC
100
AcDbEntity
  8
Defpoints
 62
     0
 48
10.0
100
AcDbPoint
 10
987.287399089986
 20
406.0886148685887
 30
0.0
  0
POINT
  5
AD4
330
9EC
100
AcDbEntity
  8
Defpoints
 62
     0
 48
10.0
100
AcDbPoint
 10
979.5540827539808
 20
397.577103930613
 30
0.0
  0
ENDBLK
  5
9F6
330
9EC
100
AcDbEntity
  8
0
 48
10.0
100
AcDbBlockEnd
  0
BLOCK
  5
A1E
330
A14
100
AcDbEntity
  8
0
 48
10.0
100
AcDbBlockBegin
  2
*D20
 70
     1
 10
0.0
 20
0.0
 30
0.0
  3
*D20
  1

  0
LINE
  5
D02
330
A14
100
AcDbEntity
  8
BEM
370
    -2
100
AcDbLine
 10
427.7706079018789
 20
439.53639900849
 30
0.0
 11
374.6318767443209
 21
439.53639900849
 31
0.0
  0
LINE
  5
D03
330
A14
100
AcDbEntity
  8
BEM
370
    -2
100
AcDbLine
 10
427.770607901879
 20
314.5363990084901
 30
0.0
 11
290.5713878602788
 21
314.5363990084902
 31
0.0
  0
LINE
  5
D04
330
A14
100
AcDbEntity
  8
BEM
370
    -2
100
AcDbLine
 10
291.8213878602789
 20
432.5363990084901
 30
0.0
 11
291.8213878602788
 21
321.5363990084902
 31
0.0
  0
SOLID
  5
D05
330
A14
100
AcDbEntity
  8
BEM
100
AcDbTrace
 10
290.6547211936122
 20
432.5363990084901
 30
0.0
 11
292.9880545269456
 21
432.5363990084901
 31
0.0
 12
291.8213878602789
 22
439.5363990084901
 32
0.0
 13
291.8213878602789
 23
439.5363990084901
 33
0.0
  0
SOLID
  5
D06
330
A14
100
AcDbEntity
  8
BEM
100
AcDbTrace
 10
290.6547211936121
 20
321.5363990084902
 30
0.0
 11
292.9880545269455
 21
321.5363990084902
 31
0.0
 12
291.8213878602788
 22
314.5363990084902
 32
0.0
 13
291.8213878602788
 23
314.5363990084902
 33
0.0
  0
MTEXT
  5
D07
330
A14
100
AcDbEntity
  8
BEM
100
AcDbMText
 10
282.8213878602788
 20
377.0363990084902
 30
0.0
 40
10.0
 41
0.0
 71
     5
 72
     1
  1
\A1;%%c125
 11
0.0000000000000001
 21
1.0
 31
0.0
 73
     1
 44
1.0
  0
POINT
  5
D08
330
A14
100
AcDbEntity
  8
Defpoints
 62
     0
100
AcDbPoint
 10
427.7706079018789
 20
439.53639900849
 30
0.0
  0
POINT
  5
D09
330
A14
100
AcDbEntity
  8
Defpoints
 62
     0
100
AcDbPoint
 10
427.770607901879
 20
314.5363990084901
 30
0.0
  0
POINT
  5
D0A
330
A14
100
AcDbEntity
  8
Defpoints
 62
     0
100
AcDbPoint
 10
291.8213878602788
 20
314.5363990084902
 30
0.0
  0
LINE
  5
D0B
330
A14
100
AcDbEntity
  8
BEM
370
    -2
100
AcDbLine
 10
349.9836940019341
 20
439.5363990084901
 30
0.0
 11
290.5713878602789
 21
439.5363990084901
 31
0.0
  0
ENDBLK
  5
A1F
330
A14
100
AcDbEntity
  8
0
 48
10.0
100
AcDbBlockEnd
  0
BLOCK
  5
A2A
330
A20
100
AcDbEntity
  8
0
 48
10.0
100
AcDbBlockBegin
  2
*D21
 70
     1
 10
0.0
 20
0.0
 30
0.0
  3
*D21
  1

  0
LINE
  5
CED
330
A20
100
AcDbEntity
  8
BEM
370
    -2
100
AcDbLine
 10
427.7706079018789
 20
467.0363990084901
 30
0.0
 11
362.4274373466797
 21
467.0363990084901
 31
0.0
  0
LINE
  5
CEE
330
A20
100
AcDbEntity
  8
BEM
370
    -2
100
AcDbLine
 10
427.7706079018789
 20
287.0363990084901
 30
0.0
 11
265.5409247807389
 21
287.0363990084901
 31
0.0
  0
LINE
  5
CEF
330
A20
100
AcDbEntity
  8
BEM
370
    -2
100
AcDbLine
 10
266.790924780739
 20
460.0363990084901
 30
0.0
 11
266.7909247807389
 21
294.0363990084902
 31
0.0
  0
SOLID
  5
CF0
330
A20
100
AcDbEntity
  8
BEM
100
AcDbTrace
 10
265.6242581140723
 20
460.0363990084901
 30
0.0
 11
267.9575914474057
 21
460.0363990084901
 31
0.0
 12
266.790924780739
 22
467.0363990084901
 32
0.0
 13
266.790924780739
 23
467.0363990084901
 33
0.0
  0
SOLID
  5
CF1
330
A20
100
AcDbEntity
  8
BEM
100
AcDbTrace
 10
265.6242581140722
 20
294.0363990084902
 30
0.0
 11
267.9575914474056
 21
294.0363990084902
 31
0.0
 12
266.7909247807389
 22
287.0363990084901
 32
0.0
 13
266.7909247807389
 23
287.0363990084901
 33
0.0
  0
MTEXT
  5
CF2
330
A20
100
AcDbEntity
  8
BEM
100
AcDbMText
 10
257.7909247807389
 20
377.0363990084902
 30
0.0
 40
10.0
 41
0.0
 71
     5
 72
     1
  1
\A1;%%c180
 11
0.0000000000000001
 21
1.0
 31
0.0
 73
     1
 44
1.0
  0
POINT
  5
CF3
330
A20
100
AcDbEntity
  8
Defpoints
 62
     0
100
AcDbPoint
 10
427.7706079018789
 20
467.0363990084901
 30
0.0
  0
POINT
  5
CF4
330
A20
100
AcDbEntity
  8
Defpoints
 62
     0
100
AcDbPoint
 10
427.7706079018789
 20
287.0363990084901
 30
0.0
  0
POINT
  5
CF5
330
A20
100
AcDbEntity
  8
Defpoints
 62
     0
100
AcDbPoint
 10
266.7909247807389
 20
287.0363990084901
 30
0.0
  0
LINE
  5
CF6
330
A20
100
AcDbEntity
  8
BEM
370
    -2
100
AcDbLine
 10
344.4797292836625
 20
467.0363990084901
 30
0.0
 11
265.540924780739
 21
467.0363990084901
 31
0.0
  0
ENDBLK
  5
A2B
330
A20
100
AcDbEntity
  8
0
 48
10.0
100
AcDbBlockEnd
  0
BLOCK
  5
A65
330
A5B
100
AcDbEntity
  8
0
 48
10.0
100
AcDbBlockBegin
  2
*D22
 70
     1
 10
0.0
 20
0.0
 30
0.0
  3
*D22
  1

  0
LINE
  5
D17
330
A5B
100
AcDbEntity
  8
BEM
370
    -2
100
AcDbLine
 10
356.8206079018791
 20
392.5363990084901
 30
0.0
 11
356.8206079018791
 21
447.0375414140837
 31
0.0
  0
LINE
  5
D18
330
A5B
100
AcDbEntity
  8
BEM
370
    -2
100
AcDbLine
 10
426.820607901879
 20
399.1899888469764
 30
0.0
 11
426.820607901879
 21
541.0815199071075
 31
0.0
  0
LINE
  5
D19
330
A5B
100
AcDbEntity
  8
BEM
370
    -2
100
AcDbLine
 10
363.820607901879
 20
539.8315199071076
 30
0.0
 11
419.820607901879
 21
539.8315199071076
 31
0.0
  0
SOLID
  5
D1A
330
A5B
100
AcDbEntity
  8
BEM
100
AcDbTrace
 10
363.820607901879
 20
540.9981865737742
 30
0.0
 11
363.820607901879
 21
538.6648532404409
 31
0.0
 12
356.8206079018791
 22
539.8315199071076
 32
0.0
 13
356.8206079018791
 23
539.8315199071076
 33
0.0
  0
SOLID
  5
D1B
330
A5B
100
AcDbEntity
  8
BEM
100
AcDbTrace
 10
419.820607901879
 20
540.9981865737742
 30
0.0
 11
419.820607901879
 21
538.6648532404409
 31
0.0
 12
426.820607901879
 22
539.8315199071076
 32
0.0
 13
426.820607901879
 23
539.8315199071076
 33
0.0
  0
MTEXT
  5
D1C
330
A5B
100
AcDbEntity
  8
BEM
100
AcDbMText
 10
391.8206079018791
 20
548.8315199071076
 30
0.0
 40
10.0
 41
0.0
 71
     5
 72
     1
  1
\A1;70
 73
     1
 44
1.0
  0
POINT
  5
D1D
330
A5B
100
AcDbEntity
  8
Defpoints
 62
     0
100
AcDbPoint
 10
356.8206079018791
 20
392.5363990084901
 30
0.0
  0
POINT
  5
D1E
330
A5B
100
AcDbEntity
  8
Defpoints
 62
     0
100
AcDbPoint
 10
426.820607901879
 20
399.1899888469764
 30
0.0
  0
POINT
  5
D1F
330
A5B
100
AcDbEntity
  8
Defpoints
 62
     0
100
AcDbPoint
 10
426.820607901879
 20
539.8315199071076
 30
0.0
  0
LINE
  5
D20
330
A5B
100
AcDbEntity
  8
BEM
370
    -2
100
AcDbLine
 10
356.8206079018791
 20
473.3518782843105
 30
0.0
 11
356.8206079018791
 21
541.0815199071075
 31
0.0
  0
ENDBLK
  5
A66
330
A5B
100
AcDbEntity
  8
0
 48
10.0
100
AcDbBlockEnd
  0
BLOCK
  5
BAB
330
BA9
100
AcDbEntity
  8
0
 48
10.0
100
AcDbBlockBegin
  2
GENAXEH
 70
     0
 10
0.0
 20
0.0
 30
0.0
  3
GENAXEH
  1

  0
LINE
  5
BAA
330
BA9
100
AcDbEntity
  8
0
100
AcDbLine
 10
-1.0
 20
0.0
 30
0.0
 11
1.0
 21
0.0
 31
0.0
  0
ENDBLK
  5
BAC
330
BA9
100
AcDbEntity
  8
0
 48
10.0
100
AcDbBlockEnd
  0
BLOCK
  5
BD0
330
BCC
100
AcDbEntity
  8
0
 48
10.0
100
AcDbBlockBegin
  2
_Open30
 70
     0
 10
0.0
 20
0.0
 30
0.0
  3
_Open30
  1

  0
LINE
  5
BCD
330
BCC
100
AcDbEntity
  8
0
  6
ByBlock
 62
     0
370
    -2
100
AcDbLine
 10
-1.0
 20
0.26794919
 30
0.0
 11
0.0
 21
0.0
 31
0.0
  0
LINE
  5
BCE
330
BCC
100
AcDbEntity
  8
0
  6
ByBlock
 62
     0
370
    -2
100
AcDbLine
 10
0.0
 20
0.0
 30
0.0
 11
-1.0
 21
-0.26794919
 31
0.0
  0
LINE
  5
BCF
330
BCC
100
AcDbEntity
  8
0
  6
ByBlock
 62
     0
370
    -2
100
AcDbLine
 10
0.0
 20
0.0
 30
0.0
 11
-1.0
 21
0.0
 31
0.0
  0
ENDBLK
  5
BD1
330
BCC
100
AcDbEntity
  8
0
 48
10.0
100
AcDbBlockEnd
  0
ENDSEC
  0
SECTION
  2
ENTITIES
  0
ARC
  5
787
330
2
100
AcDbEntity
  8
0
100
AcDbCircle
 10
534.2706079018788
 20
281.0363990084901
 30
0.0
 40
6.0
100
AcDbArc
 50
180.0
 51
270.0
1001
ACAD
1000
ASC_BOUNDS
1002
{
1070
    19
1002
}
  0
LINE
  5
788
330
2
100
AcDbEntity
  8
MITTE
 48
10.0
100
AcDbLine
 10
352.626570618366
 20
377.0363990084901
 30
0.0
 11
593.2849818038899
 21
377.0363990084901
 31
0.0
  0
DIMENSION
  5
789
330
2
100
AcDbEntity
  8
BEM
100
AcDbDimension
  2
*D0
 10
427.7706079018789
 20
167.3619943113026
 30
0.0
 11
539.220607901879
 21
176.3619943113026
 31
0.0
 70
    32
  1
223
 71
     5
 42
222.9000000000002
  3
ISO-25
100
AcDbAlignedDimension
 13
650.6706079018791
 23
260.6395690623165
 33
0.0
 14
427.7706079018789
 24
287.0363990084901
 34
0.0
100
AcDbRotatedDimension
1001
ACAD
1000
DSTYLE
1002
{
1070
   144
1040
1.0
1070
   289
1070
     0
1002
}
  0
DIMENSION
  5
78A
330
2
100
AcDbEntity
  8
BEM
100
AcDbDimension
  2
*D1
 10
427.7706079018789
 20
539.8315199071076
 30
0.0
 11
575.470607901879
 21
548.8315199071076
 31
0.0
 70
    32
  1
295.5
 71
     5
 42
295.4000000000002
  3
ISO-25
100
AcDbAlignedDimension
 13
723.170607901879
 23
327.1067601845545
 33
0.0
 14
427.7706079018789
 24
467.0363990084901
 34
0.0
100
AcDbRotatedDimension
1001
ACAD
1000
DSTYLE
1002
{
1070
   144
1040
1.0
1070
   289
1070
     0
1002
}
  0
LINE
  5
78B
330
2
100
AcDbEntity
  8
0
100
AcDbLine
 10
507.2706079018789
 20
432.03639900849
 30
0.0
 11
556.2706079018788
 21
432.03639900849
 31
0.0
1001
ACAD
1000
ASC_BOUNDS
1002
{
1070
    19
1002
}
  0
LINE
  5
78C
330
2
100
AcDbEntity
  8
0
100
AcDbLine
 10
505.2706079018791
 20
297.0363990084901
 30
0.0
 11
530.4684132663445
 21
276.394921231584
 31
0.0
  0
ARC
  5
78D
330
2
100
AcDbEntity
  8
0
100
AcDbCircle
 10
518.270607901879
 20
287.0363990084901
 30
0.0
 40
10.0
100
AcDbArc
 50
0.0
 51
90.0
1001
ACAD
1000
ASC_BOUNDS
1002
{
1070
    19
1002
}
  0
DIMENSION
  5
78E
330
2
100
AcDbEntity
  8
BEM
 48
10.0
100
AcDbDimension
  2
*D2
 10
136.9873535592745
 20
262.1912532599122
 30
0.0
 11
160.7052314839357
 21
496.1560640888527
 31
0.0
 70
   162
 71
     5
 42
0.3490658503988533
  3
ISO-25
100
AcDb2LineAngularDimension
 13
158.6500285993932
 23
436.5541095261999
 33
0.0
 14
164.8790691366891
 24
453.6682577472887
 34
0.0
 15
136.9873535592745
 25
476.0435787874307
 35
0.0
 16
151.0877603085867
 26
497.6730885834732
 36
0.0
1001
ACAD
1000
DSTYLE
1002
{
1070
   144
1040
1.0
1070
   289
1070
     0
1002
}
  0
DIMENSION
  5
78F
102
{ACAD_XDICTIONARY
360
CF7
102
}
102
{ACAD_REACTORS
330
CF8
102
}
330
2
100
AcDbEntity
  8
BEM
100
AcDbDimension
  2
*D20
 10
291.8213878602788
 20
314.5363990084902
 30
0.0
 11
282.8213878602788
 21
377.0363990084902
 31
0.0
 70
    32
  1
%%c<>
 71
     5
 42
125.0
  3
ISO-25
100
AcDbAlignedDimension
 13
427.7706079018789
 23
439.53639900849
 33
0.0
 14
427.770607901879
 24
314.5363990084901
 34
0.0
 50
90.0
100
AcDbRotatedDimension
1001
ACAD
1000
DSTYLE
1002
{
1070
   144
1040
1.0
1070
   289
1070
     0
1002
}
  0
DIMENSION
  5
792
102
{ACAD_XDICTIONARY
360
CE2
102
}
102
{ACAD_REACTORS
330
CE3
102
}
330
2
100
AcDbEntity
  8
BEM
100
AcDbDimension
  2
*D21
 10
266.7909247807389
 20
287.0363990084901
 30
0.0
 11
257.7909247807389
 21
377.0363990084902
 31
0.0
 70
    32
  1
%%c<>
 71
     5
 42
180.0
  3
ISO-25
100
AcDbAlignedDimension
 13
427.7706079018789
 23
467.0363990084901
 33
0.0
 14
427.7706079018789
 24
287.0363990084901
 34
0.0
 50
90.0
100
AcDbRotatedDimension
1001
ACAD
1000
DSTYLE
1002
{
1070
   144
1040
1.0
1070
   289
1070
     0
1002
}
  0
ARC
  5
795
330
2
100
AcDbEntity
  8
0
100
AcDbCircle
 10
446.5676688810531
 20
345.4755956113951
 30
0.0
 40
10.0
100
AcDbArc
 50
283.600285190082
 51
315.0
1001
ACAD
1000
ASC_BOUNDS
1002
{
1070
    19
1002
}
  0
ARC
  5
796
330
2
100
AcDbEntity
  8
0
100
AcDbCircle
 10
476.2706079018788
 20
333.5363990084901
 30
0.0
 40
10.0
100
AcDbArc
 50
0.0
 51
90.0
1001
ACAD
1000
ASC_BOUNDS
1002
{
1070
    19
1002
}
  0
DIMENSION
  5
797
330
2
100
AcDbEntity
  8
BEM
100
AcDbDimension
  2
*D3
 10
424.3206079018789
 20
357.03639900849
 30
0.0
 11
388.7294274524844
 21
331.056723918589
 31
0.0
 70
   164
 71
     5
 42
2.5
  3
ISO-25
100
AcDbRadialDimension
 15
426.3398763518307
 25
358.5103579383892
 35
0.0
 40
0.0
1001
ACAD
1000
DSTYLE
1002
{
1070
   144
1040
1.0
1070
   279
1070
     1
1002
}
  0
ARC
  5
798
330
2
100
AcDbEntity
  8
0
100
AcDbCircle
 10
451.2706079018788
 20
326.0363990084901
 30
0.0
 40
10.0
100
AcDbArc
 50
103.600285190082
 51
180.0
1001
ACAD
1000
ASC_BOUNDS
1002
{
1070
    19
1002
}
  0
LINE
  5
799
330
2
100
AcDbEntity
  8
LINIE
  6
GESTRICHELT
 48
10.0
100
AcDbLine
 10
432.7706079018789
 20
439.33639900849
 30
0.0
 11
432.770607901879
 21
314.7363990084901
 31
0.0
1001
ACAD
1000
ASC_BOUNDS
1002
{
1070
    19
1002
}
  0
LINE
  5
79A
330
2
100
AcDbEntity
  8
0
100
AcDbLine
 10
501.2706079018788
 20
426.0363990084901
 30
0.0
 11
501.2706079018788
 21
333.5031557486063
 31
0.0
  0
LINE
  5
79B
330
2
100
AcDbEntity
  8
0
100
AcDbLine
 10
301.5889656250932
 20
370.2488958082853
 30
0.0
 11
301.5889656250932
 21
323.2488958082854
 31
0.0
  0
LINE
  5
79C
330
2
100
AcDbEntity
  8
0
100
AcDbLine
 10
302.5889656250932
 20
370.2488958082853
 30
0.0
 11
302.5889656250932
 21
330.2048124333835
 31
0.0
  0
LINE
  5
79D
330
2
100
AcDbEntity
  8
LINIE
  6
GESTRICHELT
 48
7.0
100
AcDbLine
 10
257.9009656250931
 20
333.7488958082853
 30
0.0
 11
266.0889656250932
 21
338.47623981241
 31
0.0
  0
LINE
  5
79E
330
2
100
AcDbEntity
  8
LINIE
  6
GESTRICHELT
 48
7.0
100
AcDbLine
 10
266.0889656250932
 20
338.47623981241
 30
0.0
 11
274.2769656250931
 21
333.7488958082853
 31
0.0
  0
ARC
  5
79F
330
2
100
AcDbEntity
  8
0
100
AcDbCircle
 10
271.5889656250935
 20
339.0726081197588
 30
0.0
 40
10.0
100
AcDbArc
 50
180.0
 51
219.3842076829997
  0
LINE
  5
7A0
330
2
100
AcDbEntity
  8
LINIE
  6
GESTRICHELT
 48
7.0
100
AcDbLine
 10
220.9009656250931
 20
333.7488958082853
 30
0.0
 11
229.0889656250932
 21
338.47623981241
 31
0.0
  0
LINE
  5
7A1
330
2
100
AcDbEntity
  8
LINIE
  6
GESTRICHELT
 48
7.0
100
AcDbLine
 10
229.0889656250932
 20
338.47623981241
 30
0.0
 11
237.2769656250931
 21
333.7488958082853
 31
0.0
  0
ARC
  5
7A2
330
2
100
AcDbEntity
  8
0
100
AcDbCircle
 10
223.588965625093
 20
339.0726081197588
 30
0.0
 40
10.0
100
AcDbArc
 50
320.6157923170004
 51
0.0
  0
LINE
  5
7A3
330
2
100
AcDbEntity
  8
0
100
AcDbLine
 10
193.5889656250932
 20
370.2488958082853
 30
0.0
 11
193.5889656250932
 21
323.2488958082854
 31
0.0
  0
LINE
  5
7A4
330
2
100
AcDbEntity
  8
0
100
AcDbLine
 10
192.5889656250932
 20
370.2488958082853
 30
0.0
 11
192.588965625093
 21
330.2048124333835
 31
0.0
  0
LINE
  5
7A5
330
2
100
AcDbEntity
  8
0
100
AcDbLine
 10
427.7706079018789
 20
467.0363990084901
 30
0.0
 11
427.7706079018789
 21
287.0363990084901
 31
0.0
1001
ACAD
1000
ASC_BOUNDS
1002
{
1070
    19
1002
}
  0
LINE
  5
7A6
330
2
100
AcDbEntity
  8
0
100
AcDbLine
 10
441.2706079018789
 20
465.03639900849
 30
0.0
 11
441.2706079018784
 21
289.0363990084897
 31
0.0
1001
ACAD
1000
ASC_BOUNDS
1002
{
1070
    19
1002
}
  0
LINE
  5
7A7
330
2
100
AcDbEntity
  8
0
100
AcDbLine
 10
486.2706079018786
 20
372.0363990084901
 30
0.0
 11
486.270607901879
 21
303.0363990084902
 31
0.0
1001
ACAD
1000
ASC_BOUNDS
1002
{
1070
    19
1002
}
  0
LINE
  5
7A8
330
2
100
AcDbEntity
  8
0
100
AcDbLine
 10
439.270607901879
 20
467.0363990084901
 30
0.0
 11
439.2706079018788
 21
287.0363990084901
 31
0.0
  0
LINE
  5
7A9
330
2
100
AcDbEntity
  8
MITTE
 48
20.0
100
AcDbLine
 10
247.5889656250932
 20
429.934422253284
 30
0.0
 11
247.5889656250932
 21
290.8173026071618
 31
0.0
  0
ARC
  5
7AA
330
2
100
AcDbEntity
  8
0
100
AcDbCircle
 10
232.5654384102662
 20
377.0363990084901
 30
0.0
 40
90.0
100
AcDbArc
 50
342.170826285421
 51
229.4415405741457
  0
LINE
  5
7AB
330
2
100
AcDbEntity
  8
0
100
AcDbLine
 10
156.9788518912136
 20
373.9605578518028
 30
0.0
 11
183.7113031585499
 21
271.674801026918
 31
0.0
  0
ARC
  5
7AC
330
2
100
AcDbEntity
  8
0
100
AcDbCircle
 10
232.5654384102662
 20
377.0363990084901
 30
0.0
 40
88.0
100
AcDbArc
 50
189.5202251796866
 51
227.5209141935995
  0
ARC
  5
7AD
330
2
100
AcDbEntity
  8
0
100
AcDbCircle
 10
245.2439862624872
 20
349.8471653973906
 30
0.0
 40
73.0
100
AcDbArc
 50
294.9999999999997
 51
28.59399549309625
  0
LINE
  5
7AE
330
2
100
AcDbEntity
  8
MITTE
 48
5.0
100
AcDbLine
 10
266.0889656250932
 20
343.0048837193796
 30
0.0
 11
266.0889656250932
 21
311.3664200794898
 31
0.0
  0
LINE
  5
7AF
330
2
100
AcDbEntity
  8
MITTE
 48
5.0
100
AcDbLine
 10
229.0889656250932
 20
343.0048837193796
 30
0.0
 11
229.0889656250932
 21
311.2056902225535
 31
0.0
  0
HATCH
  5
7B0
330
2
100
AcDbEntity
  8
LINIE
 48
10.0
100
AcDbHatch
 10
0.0
 20
0.0
 30
0.0
210
0.0
220
0.0
230
1.0
  2
AR-CONC
 70
     0
 71
     0
 91
        7
 92
        7
 72
     1
 73
     1
 93
        3
 10
247.5889656250932
 20
424.2488958082852
 42
0.0
 10
247.5889656250932
 20
370.2488958082853
 42
0.0
 10
301.5889656250932
 20
370.2488958082853
 42
0.4142135623730951
 97
        0
 92
        7
 72
     1
 73
     1
 93
        3
 10
247.5889656250932
 20
424.2488958082852
 42
0.3777644791310694
 10
194.0172398706693
 20
377.0363990084901
 42
0.0
 10
247.5889656250932
 20
377.0363990084901
 42
0.0
 97
        0
 92
        7
 72
     1
 73
     1
 93
        4
 10
247.5889656250932
 20
370.2488958082853
 42
0.0
 10
247.5889656250932
 20
377.0363990084901
 42
0.0
 10
194.0172398706693
 20
377.0363990084901
 42
0.0315173936867916
 10
193.5889656250932
 20
370.2488958082853
 42
0.0
 97
        0
 92
        7
 72
     1
 73
     1
 93
       16
 10
247.5889656250932
 20
370.2488958082853
 42
0.0
 10
193.5889656250932
 20
370.2488958082853
 42
0.0
 10
193.5889656250932
 20
323.2488958082853
 42
0.4142135623730907
 10
201.5889656250932
 20
315.2488958082854
 42
0.0
 10
220.0889656250932
 20
315.2488958082854
 42
0.0
 10
220.0889656250932
 20
328.7488958082853
 42
0.0
 10
220.9009656250933
 20
328.7488958082853
 42
0.0
 10
220.9009656250931
 20
333.7488958082853
 42
0.0
 10
229.0889656250932
 20
338.47623981241
 42
0.0
 10
237.2769656250931
 20
333.7488958082853
 42
0.0
 10
237.2769656250931
 20
328.7488958082853
 42
0.0
 10
238.0889656250932
 20
328.7488958082853
 42
0.0
 10
238.0889656250932
 20
314.7488958082853
 42
0.0
 10
243.0889656250932
 20
314.7488958082853
 42
0.0
 10
243.0889656250932
 20
313.2488958082853
 42
0.0
 10
247.5889656250932
 20
313.2488958082853
 42
0.0
 97
        0
 92
        7
 72
     1
 73
     1
 93
       16
 10
301.5889656250932
 20
370.2488958082853
 42
0.0
 10
247.5889656250932
 20
370.2488958082853
 42
0.0
 10
247.5889656250932
 20
313.2488958082853
 42
0.0
 10
252.0889656250933
 20
313.2488958082853
 42
0.0
 10
252.0889656250933
 20
314.7488958082853
 42
0.0
 10
257.0889656250932
 20
314.7488958082853
 42
0.0
 10
257.0889656250932
 20
328.7488958082853
 42
0.0
 10
257.9009656250934
 20
328.7488958082853
 42
0.0
 10
257.9009656250934
 20
333.7488958082854
 42
0.0
 10
266.0889656250932
 20
338.47623981241
 42
0.0
 10
274.2769656250931
 20
333.7488958082853
 42
0.0
 10
274.2769656250931
 20
328.7488958082853
 42
0.0
 10
275.0889656250933
 20
328.7488958082853
 42
0.0
 10
275.0889656250933
 20
315.2488958082853
 42
0.0
 10
293.5889656250935
 20
315.2488958082854
 42
0.4142135623730857
 10
301.5889656250932
 20
323.2488958082854
 42
0.0
 97
        0
 92
        7
 72
     1
 73
     1
 93
        5
 10
247.5889656250932
 20
305.2488958082854
 42
0.0
 10
247.5889656250932
 20
313.2488958082853
 42
0.0
 10
229.5889656250929
 20
313.2488958082853
 42
0.0
 10
229.588965625093
 20
306.7488958082853
 42
0.1622776601683737
 10
230.088965625093
 20
305.2488958082854
 42
0.0
 97
        0
 92
        7
 72
     1
 73
     1
 93
        5
 10
247.5889656250932
 20
313.2488958082853
 42
0.0
 10
247.5889656250932
 20
305.2488958082854
 42
0.0
 10
265.0889656250933
 20
305.2488958082854
 42
0.1622776601683939
 10
265.5889656250935
 20
306.7488958082855
 42
0.0
 10
265.5889656250935
 20
313.2488958082853
 42
0.0
 97
        0
 75
     0
 76
     1
 52
0.0
 41
3.0
 77
     0
 78
    13
 53
50.0
 43
240.0662056901289
 44
0.0
 45
21.5178054780226
 46
-1.882564049477853
 79
     2
 49
2.25
 49
-24.75
 53
355.0
 43
240.0662056901289
 44
0.0
 45
-4.162540008389999
 46
22.56576401100035
 79
     2
 49
1.799999999999999
 49
-19.8
 53
100.4514
 43
241.8593560901288
 44
-0.1568801999999891
 45
17.35528145142065
 46
20.68318626182861
 79
     2
 49
1.912205699999996
 49
-21.03426335999994
 53
46.1842
 43
240.0662056901289
 44
6.0
 45
32.01723145876933
 46
-4.965570429870542
 79
     2
 49
3.375
 49
-37.125
 53
96.63559999999996
 43
242.7343080401289
 44
5.58620079000002
 45
28.0398811664611
 46
29.22353612701325
 79
     2
 49
2.868308639999992
 49
-31.55138999999994
 53
351.1842000000001
 43
240.0662056901289
 44
6.0
 45
28.03985835400882
 46
29.22355802775974
 79
     2
 49
2.7
 49
-29.7
 53
21.0
 43
243.0662056901289
 44
4.5
 45
17.90721156355385
 46
-12.07856671996016
 79
     2
 49
2.25
 49
-24.75
 53
326.0
 43
243.0662056901289
 44
4.5
 45
7.299459957647451
 46
21.75450135140559
 79
     2
 49
1.799999999999999
 49
-19.8
 53
71.45140000000001
 43
244.5584726801288
 44
3.493451820000018
 45
25.2066788574447
 46
9.675914901298572
 79
     2
 49
1.9122057
 49
-21.03426336
 53
37.5
 43
240.0662056901289
 44
0.0
 45
0.3647956595187201
 46
9.986815614939345
 79
     6
 49
0.0
 49
-19.56
 49
0.0
 49
-20.1
 49
0.0
 49
-19.875
 53
7.499999999999999
 43
240.0662056901289
 44
0.0
 45
7.892086123264458
 46
11.8323513564708
 79
     6
 49
0.0
 49
-11.46
 49
0.0
 49
-19.11
 49
0.0
 49
-7.574999999999999
 53
327.5
 43
233.3762056901289
 44
0.0
 45
16.01467308517227
 46
-0.676646152031394
 79
     6
 49
0.0
 49
-7.5
 49
0.0
 49
-23.4
 49
0.0
 49
-31.05
 53
317.5
 43
230.3762056901289
 44
0.0
 45
17.49558508027159
 46
3.003149469969529
 79
     6
 49
0.0
 49
-9.75
 49
0.0
 49
-15.54
 49
0.0
 49
-22.05
 47
0.3771958435050378
 98
        7
 10
271.8800986241032
 20
405.3722407854627
 10
233.7701810794425
 20
398.205519290909
 10
235.2794846506873
 20
371.8018093196824
 10
236.7887882219317
 20
351.0560385234012
 10
296.0289557640173
 20
350.3016465210717
 10
239.8073953644213
 20
308.8101032434588
 10
257.5417123265457
 20
309.5644952457883
  0
ARC
  5
7B1
330
2
100
AcDbEntity
  8
0
100
AcDbCircle
 10
293.5889656250935
 20
323.2488958082853
 30
0.0
 40
8.0
100
AcDbArc
 50
269.9999999999935
 51
0.0
  0
LINE
  5
7B4
330
2
100
AcDbEntity
  8
LINIE
100
AcDbLine
 10
269.6805433403345
 20
320.6154278551732
 30
0.0
 11
298.6659823976904
 21
232.2484860840796
 31
0.0
  0
LINE
  5
7B5
330
2
100
AcDbEntity
  8
0
100
AcDbLine
 10
297.7458839089099
 20
315.9892162328791
 30
0.0
 11
268.3825057246037
 21
299.2574078949369
 31
0.0
  0
DIMENSION
  5
7B6
330
2
100
AcDbEntity
  8
BEM
100
AcDbDimension
  2
*D4
 10
133.5108807741015
 20
233.2844383342058
 30
0.0
 11
152.0108807741015
 21
242.2844383342058
 31
0.0
 70
    32
 71
     5
 42
37.0
  3
ISO-25
100
AcDbAlignedDimension
 13
170.5108807741015
 23
311.3664200794898
 33
0.0
 14
133.5108807741015
 24
311.2056902225535
 34
0.0
100
AcDbRotatedDimension
1001
ACAD
1000
DSTYLE
1002
{
1070
   144
1040
1.0
1070
   289
1070
     0
1002
}
  0
LINE
  5
7B7
330
2
100
AcDbEntity
  8
LINIE
100
AcDbLine
 10
225.497387909852
 20
320.6154278551734
 30
0.0
 11
196.5119488524956
 21
232.2484860840799
 31
0.0
  0
TEXT
  5
7B8
330
2
100
AcDbEntity
  8
0
100
AcDbText
 10
190.6689485776743
 20
220.5770815893934
 30
0.0
 40
10.0
  1
L
100
AcDbText
  0
LINE
  5
7BB
330
2
100
AcDbEntity
  8
LINIE
  6
GESTRICHELT
 48
10.0
100
AcDbLine
 10
207.5384553678765
 20
313.2488958082853
 30
0.0
 11
287.63947588231
 21
313.2488958082853
 31
0.0
  0
LINE
  5
7BC
330
2
100
AcDbEntity
  8
0
100
AcDbLine
 10
201.5889656250932
 20
315.2488958082854
 30
0.0
 11
227.088965625093
 21
315.2488958082854
 31
0.0
  0
LINE
  5
7BD
330
2
100
AcDbEntity
  8
0
100
AcDbLine
 10
234.7575195052809
 20
267.443548714914
 30
0.0
 11
196.7783449003046
 21
262.7978737020939
 31
0.0
  0
LINE
  5
7BE
330
2
100
AcDbEntity
  8
0
100
AcDbLine
 10
207.5889656250932
 20
312.2488958082852
 30
0.0
 11
229.588965625093
 21
312.2488958082852
 31
0.0
  0
LINE
  5
7BF
330
2
100
AcDbEntity
  8
0
100
AcDbLine
 10
197.4320473412766
 20
315.9892162328791
 30
0.0
 11
226.7954255255828
 21
299.2574078949369
 31
0.0
  0
ARC
  5
7C0
330
2
100
AcDbEntity
  8
0
100
AcDbCircle
 10
195.321344962478
 20
274.7090932526341
 30
0.0
 40
12.0
100
AcDbArc
 50
194.6466799560687
 51
276.9738691867131
  0
LWPOLYLINE
  5
7C1
330
2
100
AcDbEntity
  8
0
 48
10.0
100
AcDbPolyline
 90
        6
 70
     1
 43
0.0
 10
196.4919144546444
 20
278.0075424433918
 10
193.050088916273
 20
277.372060765124
 10
191.8795194241066
 20
274.0736115743665
 10
194.1507754703118
 20
271.4106440618766
 10
197.5926010086832
 20
272.0461257401443
 10
198.7631705008496
 20
275.3445749309019
  0
LINE
  5
7C2
330
2
100
AcDbEntity
  8
MITTE
 48
4.0
100
AcDbLine
 10
191.5525629166895
 20
282.7912724317198
 30
0.0
 11
199.0901270082665
 21
266.6269140735485
 31
0.0
  0
LINE
  5
7C3
330
2
100
AcDbEntity
  8
MITTE
 48
4.0
100
AcDbLine
 10
203.4035241415637
 20
278.4778752984227
 30
0.0
 11
187.2391657833924
 21
270.9403112068457
 31
0.0
  0
CIRCLE
  5
7C4
330
2
100
AcDbEntity
  8
0
 48
10.0
100
AcDbCircle
 10
195.321344962478
 20
274.7090932526341
 30
0.0
 40
7.4
  0
CIRCLE
  5
7C5
330
2
100
AcDbEntity
  8
0
 48
10.0
100
AcDbCircle
 10
195.321344962478
 20
274.7090932526341
 30
0.0
 40
6.5
  0
LINE
  5
7C6
330
2
100
AcDbEntity
  8
0
100
AcDbLine
 10
207.588965625093
 20
312.7488958082854
 30
0.0
 11
207.5889656250932
 21
312.2488958082852
 31
0.0
  0
ARC
  5
7C7
330
2
100
AcDbEntity
  8
0
100
AcDbCircle
 10
198.5889656250932
 20
324.0403984304145
 30
0.0
 40
8.0
100
AcDbArc
 50
144.0494323803785
 51
256.8171228859242
  0
ARC
  5
7C8
330
2
100
AcDbEntity
  8
0
100
AcDbCircle
 10
201.588965625093
 20
323.2488958082853
 30
0.0
 40
8.0
100
AcDbArc
 50
180.0
 51
270.0
  0
ARC
  5
7C9
330
2
100
AcDbEntity
  8
0
100
AcDbCircle
 10
190.0889656250932
 20
330.2048124333835
 30
0.0
 40
2.5
100
AcDbArc
 50
324.0494323803785
 51
0.0
  0
ARC
  5
7CA
330
2
100
AcDbEntity
  8
0
100
AcDbCircle
 10
196.1943366210677
 20
313.8171038570845
 30
0.0
 40
2.5
100
AcDbArc
 50
60.32469145801071
 51
76.81712288592416
  0
ARC
  5
7CB
330
2
100
AcDbEntity
  8
0
100
AcDbCircle
 10
205.0889656250932
 20
312.7488958082854
 30
0.0
 40
2.5
100
AcDbArc
 50
0.0
 51
90.0
  0
LINE
  5
7CC
330
2
100
AcDbEntity
  8
0
100
AcDbLine
 10
276.0951193695581
 20
283.6866969437151
 30
0.0
 11
251.6248091195686
 21
272.2760038767161
 31
0.0
  0
ARC
  5
7CD
330
2
100
AcDbEntity
  8
0
100
AcDbCircle
 10
227.9581864620896
 20
323.0292399507686
 30
0.0
 40
56.0
100
AcDbArc
 50
276.9738691867131
 51
294.9999999999997
  0
LINE
  5
7CE
330
2
100
AcDbEntity
  8
LINIE
  6
GESTRICHELT
 48
7.0
100
AcDbLine
 10
252.0889656250933
 20
314.7488958082853
 30
0.0
 11
280.0889656250932
 21
314.7488958082853
 31
0.0
  0
LINE
  5
7CF
330
2
100
AcDbEntity
  8
0
100
AcDbLine
 10
230.088965625093
 20
305.2488958082854
 30
0.0
 11
265.0889656250935
 21
305.2488958082854
 31
0.0
  0
ARC
  5
7D0
330
2
100
AcDbEntity
  8
0
100
AcDbCircle
 10
247.5889656250932
 20
335.7488958082853
 30
0.0
 40
42.0
100
AcDbArc
 50
240.3246914580107
 51
299.6753085419893
  0
LINE
  5
7D1
330
2
100
AcDbEntity
  8
0
100
AcDbLine
 10
229.5889656250925
 20
327.1067601845541
 30
0.0
 11
229.588965625093
 21
306.7488958082854
 31
0.0
  0
ARC
  5
7D2
330
2
100
AcDbEntity
  8
0
100
AcDbCircle
 10
232.088965625093
 20
306.7488958082854
 30
0.0
 40
2.5
100
AcDbArc
 50
180.0
 51
216.8698976458402
  0
LINE
  5
7D3
330
2
100
AcDbEntity
  8
LINIE
  6
GESTRICHELT
 48
7.0
100
AcDbLine
 10
220.9009656250934
 20
315.5608958082853
 30
0.0
 11
237.2769656250931
 21
315.5608958082853
 31
0.0
  0
LINE
  5
7D4
330
2
100
AcDbEntity
  8
LINIE
  6
GESTRICHELT
 48
7.0
100
AcDbLine
 10
215.0889656250932
 20
314.7488958082853
 30
0.0
 11
243.0889656250932
 21
314.7488958082853
 31
0.0
  0
LINE
  5
7D5
330
2
100
AcDbEntity
  8
LINIE
  6
GESTRICHELT
 48
7.0
100
AcDbLine
 10
220.0889656250932
 20
328.7488958082853
 30
0.0
 11
238.0889656250932
 21
328.7488958082853
 31
0.0
  0
LINE
  5
7D6
330
2
100
AcDbEntity
  8
LINIE
  6
GESTRICHELT
 48
7.0
100
AcDbLine
 10
220.9009656250931
 20
333.7488958082853
 30
0.0
 11
237.2769656250931
 21
333.7488958082853
 31
0.0
  0
LINE
  5
7D7
330
2
100
AcDbEntity
  8
LINIE
  6
GESTRICHELT
 48
7.0
100
AcDbLine
 10
220.0889656250932
 20
328.7488958082853
 30
0.0
 11
220.0889656250932
 21
314.7488958082853
 31
0.0
  0
LINE
  5
7D8
330
2
100
AcDbEntity
  8
LINIE
  6
GESTRICHELT
 48
7.0
100
AcDbLine
 10
220.9009656250931
 20
333.7488958082853
 30
0.0
 11
220.9009656250934
 21
315.5608958082853
 31
0.0
  0
LINE
  5
7D9
330
2
100
AcDbEntity
  8
LINIE
  6
GESTRICHELT
 48
7.0
100
AcDbLine
 10
220.9009656250934
 20
315.5608958082853
 30
0.0
 11
220.0889656250932
 21
314.7488958082853
 31
0.0
  0
LINE
  5
7DA
330
2
100
AcDbEntity
  8
LINIE
  6
GESTRICHELT
 48
7.0
100
AcDbLine
 10
215.0889656250932
 20
314.7488958082853
 30
0.0
 11
215.0889656250932
 21
313.2488958082853
 31
0.0
  0
ARC
  5
7DB
330
2
100
AcDbEntity
  8
0
100
AcDbCircle
 10
227.088965625093
 20
312.7488958082854
 30
0.0
 40
2.5
100
AcDbArc
 50
0.0
 51
90.0
  0
LWPOLYLINE
  5
7DC
330
2
100
AcDbEntity
  8
BEM
100
AcDbPolyline
 90
        2
 70
     1
 43
1.0
 10
130.302937686431
 20
320.6436459884395
 42
-1.0
 10
129.302937686431
 20
320.6436459884395
 42
-1.0
  0
ARC
  5
7DD
330
2
100
AcDbEntity
  8
0
100
AcDbCircle
 10
239.588965625093
 20
327.1067601845544
 30
0.0
 40
10.0
100
AcDbArc
 50
145.8011143785778
 51
180.0
  0
LINE
  5
7DE
330
2
100
AcDbEntity
  8
LINIE
  6
GESTRICHELT
 48
7.0
100
AcDbLine
 10
237.2769656250931
 20
333.7488958082853
 30
0.0
 11
237.2769656250931
 21
315.5608958082852
 31
0.0
  0
LINE
  5
7DF
330
2
100
AcDbEntity
  8
LINIE
  6
GESTRICHELT
 48
7.0
100
AcDbLine
 10
238.0889656250932
 20
328.7488958082853
 30
0.0
 11
238.0889656250932
 21
314.7488958082853
 31
0.0
  0
LINE
  5
7E0
330
2
100
AcDbEntity
  8
LINIE
  6
GESTRICHELT
 48
7.0
100
AcDbLine
 10
243.0889656250932
 20
314.7488958082853
 30
0.0
 11
243.0889656250932
 21
313.2488958082853
 31
0.0
  0
LINE
  5
7E1
330
2
100
AcDbEntity
  8
LINIE
  6
GESTRICHELT
 48
7.0
100
AcDbLine
 10
237.2769656250931
 20
315.5608958082853
 30
0.0
 11
238.0889656250932
 21
314.7488958082853
 31
0.0
  0
LINE
  5
7E2
330
2
100
AcDbEntity
  8
LINIE
  6
GESTRICHELT
 48
7.0
100
AcDbLine
 10
252.0889656250933
 20
314.7488958082853
 30
0.0
 11
252.0889656250933
 21
313.2488958082853
 31
0.0
  0
LINE
  5
7E3
330
2
100
AcDbEntity
  8
0
100
AcDbLine
 10
265.5889656250935
 20
327.1067601845544
 30
0.0
 11
265.5889656250935
 21
306.7488958082855
 31
0.0
  0
LINE
  5
7E4
330
2
100
AcDbEntity
  8
0
100
AcDbLine
 10
287.5889656250935
 20
312.7488958082854
 30
0.0
 11
287.5889656250933
 21
312.2488958082852
 31
0.0
  0
LINE
  5
7E5
330
2
100
AcDbEntity
  8
0
100
AcDbLine
 10
265.5889656250935
 20
312.2488958082852
 30
0.0
 11
287.5889656250933
 21
312.2488958082852
 31
0.0
  0
ARC
  5
7E6
330
2
100
AcDbEntity
  8
0
100
AcDbCircle
 10
263.0889656250935
 20
306.7488958082855
 30
0.0
 40
2.5
100
AcDbArc
 50
323.1301023541532
 51
0.0
  0
LINE
  5
7E7
330
2
100
AcDbEntity
  8
0
100
AcDbLine
 10
268.0889656250935
 20
315.2488958082853
 30
0.0
 11
293.5889656250932
 21
315.2488958082854
 31
0.0
  0
LINE
  5
7E8
330
2
100
AcDbEntity
  8
LINIE
  6
GESTRICHELT
 48
7.0
100
AcDbLine
 10
274.2769656250931
 20
315.5608958082853
 30
0.0
 11
275.0889656250933
 21
314.7488958082853
 31
0.0
  0
LINE
  5
7E9
330
2
100
AcDbEntity
  8
LINIE
  6
GESTRICHELT
 48
7.0
100
AcDbLine
 10
257.0889656250932
 20
328.7488958082853
 30
0.0
 11
275.0889656250933
 21
328.7488958082853
 31
0.0
  0
LINE
  5
7EA
330
2
100
AcDbEntity
  8
LINIE
  6
GESTRICHELT
 48
7.0
100
AcDbLine
 10
257.0889656250932
 20
328.7488958082853
 30
0.0
 11
257.0889656250932
 21
314.7488958082853
 31
0.0
  0
LINE
  5
7EB
330
2
100
AcDbEntity
  8
LINIE
  6
GESTRICHELT
 48
7.0
100
AcDbLine
 10
257.9009656250934
 20
333.7488958082853
 30
0.0
 11
257.9009656250934
 21
315.5608958082853
 31
0.0
  0
LINE
  5
7EC
330
2
100
AcDbEntity
  8
LINIE
  6
GESTRICHELT
 48
7.0
100
AcDbLine
 10
274.2769656250931
 20
333.7488958082853
 30
0.0
 11
274.2769656250931
 21
315.5608958082853
 31
0.0
  0
LINE
  5
7ED
330
2
100
AcDbEntity
  8
LINIE
  6
GESTRICHELT
 48
7.0
100
AcDbLine
 10
257.9009656250931
 20
315.5608958082852
 30
0.0
 11
274.2769656250931
 21
315.5608958082853
 31
0.0
  0
LINE
  5
7EE
330
2
100
AcDbEntity
  8
LINIE
  6
GESTRICHELT
 48
7.0
100
AcDbLine
 10
257.9009656250934
 20
315.5608958082853
 30
0.0
 11
257.0889656250932
 21
314.7488958082853
 31
0.0
  0
LWPOLYLINE
  5
7EF
330
2
100
AcDbEntity
  8
BEM
100
AcDbPolyline
 90
        2
 70
     1
 43
1.0
 10
173.7188238617721
 20
320.6436459884396
 42
1.0
 10
174.7188238617721
 20
320.6436459884396
 42
1.0
  0
ARC
  5
7F0
330
2
100
AcDbEntity
  8
0
100
AcDbCircle
 10
268.0889656250935
 20
312.7488958082854
 30
0.0
 40
2.5
100
AcDbArc
 50
90.0
 51
180.0
  0
LINE
  5
7F1
330
2
100
AcDbEntity
  8
LINIE
  6
GESTRICHELT
 48
7.0
100
AcDbLine
 10
257.9009656250934
 20
333.7488958082853
 30
0.0
 11
274.2769656250931
 21
333.7488958082853
 31
0.0
  0
ARC
  5
7F2
330
2
100
AcDbEntity
  8
0
100
AcDbCircle
 10
255.5889656250935
 20
327.1067601845544
 30
0.0
 40
10.0
100
AcDbArc
 50
0.0
 51
34.19888562142219
  0
LINE
  5
7F3
330
2
100
AcDbEntity
  8
MITTE
 48
10.0
100
AcDbLine
 10
274.588965625093
 20
332.7439299232921
 30
0.0
 11
274.588965625093
 21
324.8701011477393
 31
0.0
  0
LINE
  5
7F4
330
2
100
AcDbEntity
  8
LINIE
  6
GESTRICHELT
 48
7.0
100
AcDbLine
 10
275.0889656250933
 20
328.7488958082853
 30
0.0
 11
275.0889656250933
 21
314.7488958082853
 31
0.0
  0
LINE
  5
7F5
330
2
100
AcDbEntity
  8
LINIE
  6
GESTRICHELT
 48
7.0
100
AcDbLine
 10
280.0889656250932
 20
314.7488958082853
 30
0.0
 11
280.0889656250932
 21
313.2488958082853
 31
0.0
  0
ARC
  5
7F6
330
2
100
AcDbEntity
  8
0
100
AcDbCircle
 10
290.088965625093
 20
312.7488958082854
 30
0.0
 40
2.5
100
AcDbArc
 50
90.0
 51
180.0
  0
TEXT
  5
7F7
330
2
100
AcDbEntity
  8
0
100
AcDbText
 10
297.9581893679907
 20
220.4961216004472
 30
0.0
 40
10.0
  1
R
100
AcDbText
  0
ARC
  5
7F8
330
2
100
AcDbEntity
  8
0
100
AcDbCircle
 10
296.5889656250933
 20
324.0403984304145
 30
0.0
 40
8.0
100
AcDbArc
 50
283.1828771140758
 51
35.95056761962151
  0
ARC
  5
7F9
330
2
100
AcDbEntity
  8
0
100
AcDbCircle
 10
298.9835946291188
 20
313.8171038570845
 30
0.0
 40
2.5
100
AcDbArc
 50
103.1828771140758
 51
119.6753085419893
  0
ARC
  5
7FA
330
2
100
AcDbEntity
  8
0
100
AcDbCircle
 10
305.0889656250932
 20
330.2048124333835
 30
0.0
 40
2.5
100
AcDbArc
 50
180.0
 51
215.9505676196215
  0
DIMENSION
  5
7FB
330
2
100
AcDbEntity
  8
BEM
100
AcDbDimension
  2
*D5
 10
441.2706079018788
 20
204.700534147184
 30
0.0
 11
473.7944174256884
 21
204.700534147184
 31
0.0
 70
   160
 71
     5
 42
13.49999999999977
  3
ISO-25
100
AcDbAlignedDimension
 13
427.770607901879
 23
287.0363990084901
 33
0.0
 14
441.2706079018788
 24
289.0363990084901
 34
0.0
100
AcDbRotatedDimension
1001
ACAD
1000
DSTYLE
1002
{
1070
   144
1040
1.0
1070
   289
1070
     0
1002
}
  0
LINE
  5
7FC
330
2
100
AcDbEntity
  8
0
100
AcDbLine
 10
487.7984719468795
 20
299.0363990084901
 30
0.0
 11
441.2706079018789
 21
299.0363990084901
 31
0.0
  0
DIMENSION
  5
7FD
330
2
100
AcDbEntity
  8
BEM
100
AcDbDimension
  2
*D6
 10
427.7706079018789
 20
245.6027117460726
 30
0.0
 11
454.1039412352124
 21
245.6027117460726
 31
0.0
 70
   160
 71
     5
 42
5.000000000000113
  3
ISO-25
100
AcDbAlignedDimension
 13
432.770607901879
 23
314.7363990084901
 33
0.0
 14
427.7706079018789
 24
287.0363990084901
 34
0.0
100
AcDbRotatedDimension
1001
ACAD
1000
DSTYLE
1002
{
1070
   144
1040
1.0
1070
   289
1070
     0
1002
}
  0
LINE
  5
7FE
330
2
100
AcDbEntity
  8
0
100
AcDbLine
 10
441.2706079018788
 20
289.0363990084901
 30
0.0
 11
439.2706079018788
 21
287.0363990084901
 31
0.0
  0
LINE
  5
7FF
330
2
100
AcDbEntity
  8
0
100
AcDbLine
 10
427.770607901879
 20
287.0363990084901
 30
0.0
 11
439.2706079018788
 21
287.0363990084901
 31
0.0
  0
ARC
  5
800
330
2
100
AcDbEntity
  8
LINIE
  6
GESTRICHELT
 48
10.0
100
AcDbCircle
 10
432.570607901879
 20
314.7363990084901
 30
0.0
 40
0.2
100
AcDbArc
 50
270.0
 51
0.0
1001
ACAD
1000
ASC_BOUNDS
1002
{
1070
    19
1002
}
  0
LINE
  5
801
330
2
100
AcDbEntity
  8
LINIE
  6
GESTRICHELT
 48
10.0
100
AcDbLine
 10
427.770607901879
 20
314.5363990084901
 30
0.0
 11
432.570607901879
 21
314.5363990084901
 31
0.0
  0
ARC
  5
802
330
2
100
AcDbEntity
  8
0
100
AcDbCircle
 10
492.2706079018791
 20
303.0363990084902
 30
0.0
 40
6.0
100
AcDbArc
 50
180.0
 51
270.0
1001
ACAD
1000
ASC_BOUNDS
1002
{
1070
    19
1002
}
  0
LINE
  5
803
330
2
100
AcDbEntity
  8
0
100
AcDbLine
 10
492.2706079018789
 20
297.0363990084902
 30
0.0
 11
518.270607901879
 21
297.0363990084901
 31
0.0
1001
ACAD
1000
ASC_BOUNDS
1002
{
1070
    19
1002
}
  0
LINE
  5
804
330
2
100
AcDbEntity
  8
MITTE
 48
4.0
100
AcDbLine
 10
311.1979261603541
 20
408.4556514521424
 30
0.0
 11
293.5043498638226
 21
410.7003588729053
 31
0.0
  0
CIRCLE
  5
805
330
2
100
AcDbEntity
  8
0
 48
10.0
100
AcDbCircle
 10
302.3511380120883
 20
409.5780051625238
 30
0.0
 40
7.4
  0
LINE
  5
806
330
2
100
AcDbEntity
  8
MITTE
 48
10.0
100
AcDbLine
 10
326.2440567841546
 20
377.0363990084901
 30
0.0
 11
138.1168919579579
 21
377.0363990084901
 31
0.0
  0
LEADER
  5
807
330
2
100
AcDbEntity
  8
BEM
100
AcDbLeader
  3
STANDARD
 73
     0
 75
     1
 40
78.57142857142855
 41
162.8571428571429
 76
     3
 10
386.4383012957938
 20
397.8363990084901
 30
0.0
 10
323.6343872298604
 20
531.3255518711391
 30
0.0
 10
316.6343872298603
 20
531.3255518711391
 30
0.0
340
808
213
-0.8206305724136768
223
-0.0415216132826188
233
0.0
  0
MTEXT
  5
808
102
{ACAD_REACTORS
330
807
102
}
330
2
100
AcDbEntity
  8
BEM
100
AcDbMText
 10
150.5978749451311
 20
613.9385020558503
 30
0.0
 40
10.0
 41
0.0
 71
     1
 72
     1
  1
Paßfeder\PFitting key\PClavette d'ajustage\PLinguetta\PA 10x8x50 DIN 6885
 73
     1
 44
1.0
  0
ARC
  5
809
330
2
100
AcDbEntity
  8
0
100
AcDbCircle
 10
247.5889656250932
 20
370.2488958082853
 30
0.0
 40
54.0
100
AcDbArc
 50
0.0
 51
180.0
  0
LINE
  5
80A
330
2
100
AcDbEntity
  8
MITTE
 48
10.0
100
AcDbLine
 10
183.7704789581207
 20
370.2488958082853
 30
0.0
 11
311.0037898763371
 21
370.2488958082853
 31
0.0
  0
ARC
  5
80B
330
2
100
AcDbEntity
  8
0
100
AcDbCircle
 10
247.5889656250932
 20
370.2488958082853
 30
0.0
 40
55.0
100
AcDbArc
 50
0.0
 51
37.69136182995639
  0
ARC
  5
80C
330
2
100
AcDbEntity
  8
0
100
AcDbCircle
 10
232.5654384102662
 20
377.0363990084901
 30
0.0
 40
89.0
100
AcDbArc
 50
40.26856469884808
 51
99.73143530115821
  0
LINE
  5
80D
330
2
100
AcDbEntity
  8
0
100
AcDbLine
 10
307.5224766849921
 20
420.4065441373868
 30
0.0
 11
287.6496572168871
 21
429.8971208526402
 31
0.0
  0
ARC
  5
80E
330
2
100
AcDbEntity
  8
0
100
AcDbCircle
 10
275.3179563259749
 20
494.4979766067284
 30
0.0
 40
65.0
100
AcDbArc
 50
279.7469712997371
 51
292.7694271590542
  0
DIMENSION
  5
80F
330
2
100
AcDbEntity
  8
BEM
100
AcDbDimension
  2
*D7
 10
30.26239094419424
 20
370.2488958082853
 30
0.0
 11
30.26239094419418
 21
373.6426474083877
 31
0.0
 70
   160
  1
6.7
 71
     5
 42
6.78750320020481
  3
ISO-25
100
AcDbAlignedDimension
 13
57.56233432179318
 23
377.0363990084901
 33
0.0
 14
91.63475150038847
 24
370.2488958082853
 34
0.0
 50
90.0
100
AcDbRotatedDimension
1001
ACAD
1000
DSTYLE
1002
{
1070
   144
1040
1.0
1070
   289
1070
     0
1002
}
  0
ARC
  5
810
330
2
100
AcDbEntity
  8
0
100
AcDbCircle
 10
275.3179563259749
 20
494.4979766067284
 30
0.0
 40
65.0
100
AcDbArc
 50
207.2305728409486
 51
253.7467412799676
  0
LINE
  5
811
330
2
100
AcDbEntity
  8
0
100
AcDbLine
 10
196.1262207136601
 20
443.3495456210537
 30
0.0
 11
204.4618000112552
 21
425.4738381309048
 31
0.0
  0
ARC
  5
812
330
2
100
AcDbEntity
  8
0
100
AcDbCircle
 10
232.5654384102662
 20
377.0363990084901
 30
0.0
 40
56.0
100
AcDbArc
 50
87.70168236141797
 51
133.4896255071043
  0
LINE
  5
813
330
2
100
AcDbEntity
  8
0
100
AcDbLine
 10
205.1892985840268
 20
447.5757282384607
 30
0.0
 11
213.5248778816218
 21
429.7000207483117
 31
0.0
  0
LINE
  5
814
330
2
100
AcDbEntity
  8
MITTE
 48
20.0
100
AcDbLine
 10
232.5654384102662
 20
476.0435787874307
 30
0.0
 11
232.5654384102662
 21
349.590440975818
 31
0.0
  0
ARC
  5
815
330
2
100
AcDbEntity
  8
0
100
AcDbCircle
 10
115.1038608120277
 20
419.7889169241987
 30
0.0
 40
65.0
100
AcDbArc
 50
344.2477660926273
 51
22.76942715904989
  0
ARC
  5
816
330
2
100
AcDbEntity
  8
0
100
AcDbCircle
 10
232.5654384102662
 20
377.0363990084901
 30
0.0
 40
89.0
100
AcDbArc
 50
130.2685646988435
 51
189.7314353011545
  0
ARC
  5
817
330
2
100
AcDbEntity
  8
0
100
AcDbCircle
 10
212.433020298569
 20
415.7495497398326
 30
0.0
 40
2.5
100
AcDbArc
 50
270.8412395351307
 51
307.6913618299517
  0
ARC
  5
818
330
2
100
AcDbEntity
  8
0
100
AcDbCircle
 10
247.5889656250932
 20
370.2488958082853
 30
0.0
 40
55.0
100
AcDbArc
 50
142.3086381700436
 51
180.0
  0
ARC
  5
819
330
2
100
AcDbEntity
  8
0
100
AcDbCircle
 10
168.5888936951416
 20
376.994850077519
 30
0.0
 40
12.0
100
AcDbArc
 50
133.4896255071043
 51
194.6466799560687
  0
LINE
  5
81A
330
2
100
AcDbEntity
  8
0
100
AcDbLine
 10
160.3302150364775
 20
385.7008380635507
 30
0.0
 11
194.0249380031672
 21
417.6643429433043
 31
0.0
  0
LINE
  5
81B
330
2
100
AcDbEntity
  8
MITTE
 48
4.0
100
AcDbLine
 10
162.3873210714664
 20
383.3579824353401
 30
0.0
 11
174.8277736811549
 21
370.5776658339366
 31
0.0
  0
LINE
  5
81C
330
2
100
AcDbEntity
  8
MITTE
 48
4.0
100
AcDbLine
 10
174.9977056770124
 20
383.1880504394826
 30
0.0
 11
162.2173890756089
 21
370.7475978297941
 31
0.0
  0
CIRCLE
  5
81D
330
2
100
AcDbEntity
  8
0
 48
10.0
100
AcDbCircle
 10
168.5888936951416
 20
376.994850077519
 30
0.0
 40
6.5
  0
CIRCLE
  5
81E
330
2
100
AcDbEntity
  8
0
 48
10.0
100
AcDbCircle
 10
168.5888936951416
 20
376.994850077519
 30
0.0
 40
7.4
  0
CIRCLE
  5
81F
330
2
100
AcDbEntity
  8
0
100
AcDbCircle
 10
172.1481729965869
 20
359.8971446509332
 30
0.0
 40
1.95
  0
LINE
  5
820
330
2
100
AcDbEntity
  8
MITTE
 48
5.0
100
AcDbLine
 10
170.3333964799393
 20
363.7889454500625
 30
0.0
 11
173.9758728922024
 21
355.9776295761711
 31
0.0
  0
LINE
  5
821
330
2
100
AcDbEntity
  8
MITTE
 48
5.0
100
AcDbLine
 10
176.4174805258178
 20
361.8879554468324
 30
0.0
 11
168.5674716990876
 21
358.2274362143437
 31
0.0
  0
ARC
  5
822
330
2
100
AcDbEntity
  8
0
100
AcDbCircle
 10
115.1038608120277
 20
419.7889169241987
 30
0.0
 40
65.0
100
AcDbArc
 50
297.2305728409513
 51
311.0711476672101
  0
LWPOLYLINE
  5
823
330
2
100
AcDbEntity
  8
0
 48
10.0
100
AcDbPolyline
 90
        6
 70
     1
 43
0.0
 10
165.2317188634935
 20
376.3709506122385
 10
167.449965081905
 20
373.6636671556158
 10
170.9036644397914
 20
374.2310830042977
 10
172.1391175792662
 20
377.5057823096023
 10
169.9208713608545
 20
380.2130657662249
 10
166.4671720029682
 20
379.645649917543
  0
LINE
  5
824
330
2
100
AcDbEntity
  8
MITTE
 48
10.0
100
AcDbLine
 10
172.9077051856951
 20
398.7500381460273
 30
0.0
 11
154.3243717025216
 21
405.5138183873449
 31
0.0
  0
ARC
  5
825
330
2
100
AcDbEntity
  8
MITTE
 48
15.0
100
AcDbCircle
 10
232.5654384102662
 20
377.0363990084901
 30
0.0
 40
72.5
100
AcDbArc
 50
151.593118988807
 51
169.1811683713778
  0
CIRCLE
  5
826
330
2
100
AcDbEntity
  8
0
100
AcDbCircle
 10
164.4377234032879
 20
401.832859399601
 30
0.0
 40
5.75
  0
ARC
  5
827
330
2
100
AcDbEntity
  8
0
100
AcDbCircle
 10
212.5871799563591
 20
405.2506814770192
 30
0.0
 40
8.0
100
AcDbArc
 50
90.84123953513069
 51
179.158760464866
  0
ARC
  5
828
330
2
100
AcDbEntity
  8
0
100
AcDbCircle
 10
202.0883116935457
 20
405.4048411348101
 30
0.0
 40
2.5
100
AcDbArc
 50
322.3086381700436
 51
359.1587604648661
  0
LINE
  5
829
330
2
100
AcDbEntity
  8
LINIE
100
AcDbLine
 10
234.9404047694717
 20
339.0726081197589
 30
0.0
 11
260.5543772444279
 21
339.0726081197589
 31
0.0
  0
LINE
  5
82A
330
2
100
AcDbEntity
  8
MITTE
 48
20.0
100
AcDbLine
 10
247.5889656250932
 20
382.6152214963734
 30
0.0
 11
247.5889656250932
 21
366.1997561272667
 31
0.0
  0
LINE
  5
82B
330
2
100
AcDbEntity
  8
0
100
AcDbLine
 10
282.9595479850711
 20
431.0589287545371
 30
0.0
 11
234.8111758020098
 21
432.9913511000371
 31
0.0
  0
ARC
  5
82C
330
2
100
AcDbEntity
  8
0
100
AcDbCircle
 10
247.5889656250932
 20
370.2488958082853
 30
0.0
 40
55.0
100
AcDbArc
 50
52.30863817004827
 51
127.6913618299517
  0
ARC
  5
82D
330
2
100
AcDbEntity
  8
0
100
AcDbCircle
 10
282.5907512938274
 20
405.2506814770192
 30
0.0
 40
8.0
100
AcDbArc
 50
0.8412395351339249
 51
89.1587604648693
  0
ARC
  5
82E
330
2
100
AcDbEntity
  8
0
100
AcDbCircle
 10
293.0896195566408
 20
405.4048411348101
 30
0.0
 40
2.5
100
AcDbArc
 50
180.8412395351339
 51
217.6913618299564
  0
ARC
  5
82F
330
2
100
AcDbEntity
  8
0
100
AcDbCircle
 10
282.7449109516175
 20
415.7495497398326
 30
0.0
 40
2.5
100
AcDbArc
 50
232.3086381700483
 51
269.1587604648693
  0
ARC
  5
830
330
2
100
AcDbEntity
  8
0
100
AcDbCircle
 10
282.4783185439833
 20
419.0685818777772
 30
0.0
 40
12.0
100
AcDbArc
 50
64.4724598483414
 51
87.70168236141797
  0
ARC
  5
831
330
2
100
AcDbEntity
  8
0
100
AcDbCircle
 10
232.5654384102662
 20
377.0363990084901
 30
0.0
 40
88.0
100
AcDbArc
 50
99.52022517967961
 51
130.4797748203127
  0
LINE
  5
832
330
2
100
AcDbEntity
  8
0
100
AcDbLine
 10
197.3354445269
 20
446.671860742997
 30
0.0
 11
201.8669834620833
 21
448.7849520517004
 31
0.0
  0
ARC
  5
833
330
2
100
AcDbEntity
  8
0
100
AcDbCircle
 10
198.3919901812518
 20
444.4060912754054
 30
0.0
 40
2.5
100
AcDbArc
 50
114.9999999999996
 51
204.9999999999994
  0
ARC
  5
834
330
2
100
AcDbEntity
  8
0
100
AcDbCircle
 10
202.923529116435
 20
446.5191825841088
 30
0.0
 40
2.5
100
AcDbArc
 50
24.9999999999994
 51
114.9999999999996
  0
CIRCLE
  5
835
330
2
100
AcDbEntity
  8
0
100
AcDbCircle
 10
257.3618988013773
 20
445.1641140154683
 30
0.0
 40
5.75
  0
LINE
  5
836
330
2
100
AcDbEntity
  8
MITTE
 48
10.0
100
AcDbLine
 10
254.2281134503848
 20
436.5541095261999
 30
0.0
 11
260.4571539876809
 21
453.6682577472887
 31
0.0
  0
ARC
  5
837
330
2
100
AcDbEntity
  8
MITTE
 48
15.0
100
AcDbCircle
 10
232.5654384102662
 20
377.0363990084901
 30
0.0
 40
72.5
100
AcDbArc
 50
61.42334422562076
 51
78.5117163400897
  0
DIMENSION
  5
838
102
{ACAD_XDICTIONARY
360
D0C
102
}
102
{ACAD_REACTORS
330
D0D
102
}
330
2
100
AcDbEntity
  8
BEM
100
AcDbDimension
  2
*D22
 10
426.820607901879
 20
539.8315199071076
 30
0.0
 11
391.8206079018791
 21
548.8315199071076
 31
0.0
 70
    32
 71
     5
 42
70.0
  3
ISO-25
100
AcDbAlignedDimension
 13
356.8206079018791
 23
392.5363990084901
 33
0.0
 14
426.820607901879
 24
399.1899888469764
 34
0.0
100
AcDbRotatedDimension
1001
ACAD
1000
DSTYLE
1002
{
1070
   144
1040
1.0
1070
   289
1070
     0
1002
}
  0
LINE
  5
83B
330
2
100
AcDbEntity
  8
0
100
AcDbLine
 10
358.8206079018791
 20
394.5363990084901
 30
0.0
 11
424.320607901879
 21
394.5363990084901
 31
0.0
  0
LINE
  5
83C
330
2
100
AcDbEntity
  8
0
100
AcDbLine
 10
358.8206079018791
 20
359.5363990084901
 30
0.0
 11
424.320607901879
 21
359.5363990084901
 31
0.0
  0
ARC
  5
83E
330
2
100
AcDbEntity
  8
0
100
AcDbCircle
 10
317.2427034763781
 20
389.0923526125659
 30
0.0
 40
9.0
100
AcDbArc
 50
159.9999999999993
 51
208.5939954930962
  0
ARC
  5
83F
330
2
100
AcDbEntity
  8
0
100
AcDbCircle
 10
232.5654384102662
 20
377.0363990084901
 30
0.0
 40
88.0
100
AcDbArc
 50
346.108992245929
 51
21.66142379757176
  0
LINE
  5
840
330
2
100
AcDbEntity
  8
MITTE
 48
4.0
100
AcDbLine
 10
303.4734917224698
 20
418.4247933107895
 30
0.0
 11
301.2287843017068
 21
400.7312170142581
 31
0.0
  0
LWPOLYLINE
  5
841
330
2
100
AcDbEntity
  8
0
 48
10.0
100
AcDbPolyline
 90
        6
 70
     1
 43
0.0
 10
302.0615881031261
 20
413.0660075779787
 10
299.1856643573617
 20
411.0712487934265
 10
299.4752142663239
 20
407.5832463779715
 10
302.6406879210505
 20
406.0900027470687
 10
305.5166116668149
 20
408.0847615316209
 10
305.2270617578528
 20
411.572763947076
  0
CIRCLE
  5
842
330
2
100
AcDbEntity
  8
0
 48
10.0
100
AcDbCircle
 10
302.3511380120883
 20
409.5780051625238
 30
0.0
 40
6.5
  0
ARC
  5
843
330
2
100
AcDbEntity
  8
0
100
AcDbCircle
 10
302.3511380120883
 20
409.5780051625238
 30
0.0
 40
12.0
100
AcDbArc
 50
339.9999999999994
 51
64.4724598483414
  0
LINE
  5
844
330
2
100
AcDbEntity
  8
0
100
AcDbLine
 10
313.6274494615192
 20
405.4737634426158
 30
0.0
 11
308.7854698893051
 21
392.170533902497
 31
0.0
  0
ARC
  5
845
330
2
100
AcDbEntity
  8
0
100
AcDbCircle
 10
232.5654384102662
 20
377.0363990084901
 30
0.0
 40
88.0
100
AcDbArc
 50
28.33857620242939
 51
40.47977482031511
  0
LINE
  5
846
330
2
100
AcDbEntity
  8
0
100
AcDbLine
 10
356.8206079018791
 20
392.5363990084901
 30
0.0
 11
356.8206079018791
 21
361.5363990084902
 31
0.0
  0
DIMENSION
  5
847
330
2
100
AcDbEntity
  8
BEM
100
AcDbDimension
  2
*D8
 10
326.399562137092
 20
359.5363990084901
 30
0.0
 11
326.399562137092
 21
377.5750136442111
 31
0.0
 70
   160
  1
%%c<>
 71
     5
 42
35.0
  3
ISO-25
100
AcDbAlignedDimension
 13
358.8206079018791
 23
394.5363990084901
 33
0.0
 14
358.8206079018791
 24
359.5363990084901
 34
0.0
 50
90.0
100
AcDbRotatedDimension
1001
ACAD
1000
DSTYLE
1002
{
1070
   144
1040
1.0
1070
   289
1070
     0
1002
}
  0
LINE
  5
848
330
2
100
AcDbEntity
  8
0
100
AcDbLine
 10
358.8206079018791
 20
394.5363990084901
 30
0.0
 11
358.8206079018791
 21
359.5363990084901
 31
0.0
  0
LINE
  5
849
330
2
100
AcDbEntity
  8
0
100
AcDbLine
 10
358.8206079018791
 20
359.5363990084901
 30
0.0
 11
356.8206079018791
 21
361.5363990084901
 31
0.0
  0
LINE
  5
84B
330
2
100
AcDbEntity
  8
0
100
AcDbLine
 10
358.8206079018791
 20
394.5363990084901
 30
0.0
 11
356.8206079018791
 21
392.5363990084901
 31
0.0
  0
LINE
  5
84C
330
2
100
AcDbEntity
  8
0
100
AcDbLine
 10
441.2706079018789
 20
455.0363990084901
 30
0.0
 11
502.2093362660367
 21
431.1281645160074
 31
0.0
  0
DIMENSION
  5
84D
330
2
100
AcDbEntity
  8
BEM
100
AcDbDimension
  2
*D9
 10
426.820607901879
 20
499.4623033676239
 30
0.0
 11
446.961084092355
 21
499.4623033676239
 31
0.0
 70
   160
  1
1
 71
     5
 42
0.9499999999998181
  3
ISO-25
100
AcDbAlignedDimension
 13
427.7706079018789
 23
399.5363990084901
 33
0.0
 14
426.820607901879
 24
399.1899888469764
 34
0.0
100
AcDbRotatedDimension
1001
ACAD
1000
DSTYLE
1002
{
1070
   144
1040
1.0
1070
   289
1070
     0
1002
}
  0
ARC
  5
84E
330
2
100
AcDbEntity
  8
0
100
AcDbCircle
 10
451.2706079018788
 20
428.03639900849
 30
0.0
 40
10.0
100
AcDbArc
 50
180.0
 51
256.399714809918
1001
ACAD
1000
ASC_BOUNDS
1002
{
1070
    19
1002
}
  0
ARC
  5
84F
330
2
100
AcDbEntity
  8
0
100
AcDbCircle
 10
451.2706079018787
 20
392.0363990084901
 30
0.0
 40
10.0
100
AcDbArc
 50
180.0
 51
270.0
  0
ARC
  5
850
330
2
100
AcDbEntity
  8
0
100
AcDbCircle
 10
451.2706079018786
 20
362.03639900849
 30
0.0
 40
10.0
100
AcDbArc
 50
90.0
 51
180.0
  0
LINE
  5
851
330
2
100
AcDbEntity
  8
0
100
AcDbLine
 10
426.820607901879
 20
399.1899888469763
 30
0.0
 11
426.820607901879
 21
354.8828091700038
 31
0.0
  0
LINE
  5
852
330
2
100
AcDbEntity
  8
0
100
AcDbLine
 10
427.4206079018791
 20
399.5363990084901
 30
0.0
 11
427.4206079018791
 21
354.5363990084901
 31
0.0
  0
ARC
  5
853
330
2
100
AcDbEntity
  8
0
100
AcDbCircle
 10
424.320607901879
 20
357.0363990084901
 30
0.0
 40
2.5
100
AcDbArc
 50
0.0
 51
90.0
  0
LINE
  5
854
330
2
100
AcDbEntity
  8
0
100
AcDbLine
 10
427.4206079018791
 20
354.5363990084901
 30
0.0
 11
426.820607901879
 21
354.8828091700038
 31
0.0
  0
LINE
  5
855
330
2
100
AcDbEntity
  8
0
100
AcDbLine
 10
427.4206079018791
 20
354.5363990084901
 30
0.0
 11
427.7706079018789
 21
354.5363990084901
 31
0.0
  0
LINE
  5
856
330
2
100
AcDbEntity
  8
0
100
AcDbLine
 10
366.8206079018791
 20
397.8363990084901
 30
0.0
 11
416.820607901879
 21
397.8363990084901
 31
0.0
  0
LINE
  5
857
330
2
100
AcDbEntity
  8
0
100
AcDbLine
 10
366.8206079018791
 20
394.5363990084902
 30
0.0
 11
366.8206079018791
 21
397.8363990084901
 31
0.0
  0
ARC
  5
858
330
2
100
AcDbEntity
  8
0
100
AcDbCircle
 10
424.320607901879
 20
397.0363990084901
 30
0.0
 40
2.5
100
AcDbArc
 50
270.0
 51
0.0
  0
LINE
  5
859
330
2
100
AcDbEntity
  8
0
100
AcDbLine
 10
416.820607901879
 20
394.5363990084901
 30
0.0
 11
416.820607901879
 21
397.8363990084901
 31
0.0
  0
LINE
  5
85A
330
2
100
AcDbEntity
  8
0
100
AcDbLine
 10
427.4206079018791
 20
399.5363990084901
 30
0.0
 11
426.820607901879
 21
399.1899888469763
 31
0.0
  0
LINE
  5
85B
330
2
100
AcDbEntity
  8
0
100
AcDbLine
 10
427.4206079018791
 20
399.5363990084901
 30
0.0
 11
427.7706079018789
 21
399.5363990084901
 31
0.0
  0
ARC
  5
85C
330
2
100
AcDbEntity
  8
0
100
AcDbCircle
 10
491.2706079018788
 20
392.0363990084901
 30
0.0
 40
10.0
100
AcDbArc
 50
270.0
 51
0.0
  0
LINE
  5
85D
330
2
100
AcDbEntity
  8
0
100
AcDbLine
 10
491.2706079018788
 20
372.0363990084901
 30
0.0
 11
451.2706079018787
 21
372.03639900849
 31
0.0
  0
LINE
  5
85E
330
2
100
AcDbEntity
  8
0
100
AcDbLine
 10
491.2706079018788
 20
382.0363990084901
 30
0.0
 11
451.2706079018787
 21
382.0363990084901
 31
0.0
  0
LINE
  5
85F
330
2
100
AcDbEntity
  8
0
100
AcDbLine
 10
476.2706079018788
 20
343.5363990084901
 30
0.0
 11
462.9127435256099
 21
343.5363990084901
 31
0.0
1001
ACAD
1000
ASC_BOUNDS
1002
{
1070
    19
1002
}
  0
ARC
  5
860
330
2
100
AcDbEntity
  8
0
100
AcDbCircle
 10
462.9127435256099
 20
333.5363990084901
 30
0.0
 40
10.0
100
AcDbArc
 50
90.0
 51
135.0
1001
ACAD
1000
ASC_BOUNDS
1002
{
1070
    19
1002
}
  0
LINE
  5
861
330
2
100
AcDbEntity
  8
0
100
AcDbLine
 10
453.6387366929186
 20
338.4045277995296
 30
0.0
 11
455.8416757137445
 21
340.6074668203556
 31
0.0
1001
ACAD
1000
ASC_BOUNDS
1002
{
1070
    19
1002
}
  0
ARC
  5
862
330
2
100
AcDbEntity
  8
0
100
AcDbCircle
 10
491.2706079018788
 20
362.0363990084901
 30
0.0
 40
10.0
100
AcDbArc
 50
0.0
 51
90.0
  0
LINE
  5
863
330
2
100
AcDbEntity
  8
0
100
AcDbLine
 10
491.2706079018788
 20
410.53639900849
 30
0.0
 11
462.9127435256099
 21
410.53639900849
 31
0.0
1001
ACAD
1000
ASC_BOUNDS
1002
{
1070
    19
1002
}
  0
LINE
  5
864
330
2
100
AcDbEntity
  8
0
100
AcDbLine
 10
487.7706079018788
 20
416.0363990084902
 30
0.0
 11
477.7706079018789
 21
416.0363990084902
 31
0.0
  0
LINE
  5
865
330
2
100
AcDbEntity
  8
0
100
AcDbLine
 10
491.7706079018788
 20
414.03639900849
 30
0.0
 11
475.7706079018788
 21
414.03639900849
 31
0.0
  0
LINE
  5
866
330
2
100
AcDbEntity
  8
0
100
AcDbLine
 10
487.7706079018788
 20
416.0363990084902
 30
0.0
 11
486.7706079018788
 21
417.0363990084901
 31
0.0
  0
ARC
  5
867
330
2
100
AcDbEntity
  8
0
100
AcDbCircle
 10
473.2706079018789
 20
413.0363990084901
 30
0.0
 40
2.5
100
AcDbArc
 50
270.0
 51
0.0
  0
ARC
  5
868
330
2
100
AcDbEntity
  8
0
100
AcDbCircle
 10
462.9127435256099
 20
420.5363990084901
 30
0.0
 40
10.0
100
AcDbArc
 50
225.0
 51
270.0
1001
ACAD
1000
ASC_BOUNDS
1002
{
1070
    19
1002
}
  0
LINE
  5
869
330
2
100
AcDbEntity
  8
0
100
AcDbLine
 10
453.6387366929186
 20
415.6682702174504
 30
0.0
 11
455.8416757137445
 21
413.4653311966245
 31
0.0
1001
ACAD
1000
ASC_BOUNDS
1002
{
1070
    19
1002
}
  0
ARC
  5
86A
330
2
100
AcDbEntity
  8
0
100
AcDbCircle
 10
446.5676688810531
 20
408.5972024055851
 30
0.0
 40
10.0
100
AcDbArc
 50
45.0
 51
76.39971480991796
1001
ACAD
1000
ASC_BOUNDS
1002
{
1070
    19
1002
}
  0
LINE
  5
86B
330
2
100
AcDbEntity
  8
0
100
AcDbLine
 10
475.7706079018789
 20
414.03639900849
 30
0.0
 11
475.7706079018789
 21
413.0363990084901
 31
0.0
1001
ACAD
1000
ASC_BOUNDS
1002
{
1070
    19
1005
0
1002
}
  0
LINE
  5
86C
330
2
100
AcDbEntity
  8
0
100
AcDbLine
 10
486.7706079018788
 20
417.0363990084901
 30
0.0
 11
478.7706079018788
 21
417.0363990084901
 31
0.0
  0
LINE
  5
86D
330
2
100
AcDbEntity
  8
0
100
AcDbLine
 10
477.7706079018789
 20
416.0363990084902
 30
0.0
 11
477.7706079018789
 21
414.03639900849
 31
0.0
1001
ACAD
1000
ASC_BOUNDS
1002
{
1070
    19
1002
}
  0
LINE
  5
86E
330
2
100
AcDbEntity
  8
0
100
AcDbLine
 10
478.7706079018788
 20
417.0363990084901
 30
0.0
 11
477.7706079018789
 21
416.0363990084902
 31
0.0
  0
ARC
  5
86F
330
2
100
AcDbEntity
  8
0
100
AcDbCircle
 10
491.2706079018788
 20
420.5363990084901
 30
0.0
 40
10.0
100
AcDbArc
 50
270.0
 51
0.0
1001
ACAD
1000
ASC_BOUNDS
1002
{
1070
    19
1002
}
  0
ARC
  5
870
330
2
100
AcDbEntity
  8
0
100
AcDbCircle
 10
494.2706079018789
 20
413.0363990084901
 30
0.0
 40
2.5
100
AcDbArc
 50
180.0
 51
246.6828661559622
  0
LINE
  5
871
330
2
100
AcDbEntity
  8
0
100
AcDbLine
 10
491.7706079018788
 20
414.03639900849
 30
0.0
 11
491.7706079018788
 21
413.0363990084901
 31
0.0
1001
ACAD
1000
ASC_BOUNDS
1002
{
1070
    19
1005
0
1002
}
  0
LINE
  5
872
330
2
100
AcDbEntity
  8
0
100
AcDbLine
 10
487.7706079018788
 20
416.0363990084902
 30
0.0
 11
487.7706079018788
 21
414.0363990084901
 31
0.0
1001
ACAD
1000
ASC_BOUNDS
1002
{
1070
    19
1002
}
  0
ARC
  5
873
330
2
100
AcDbEntity
  8
0
100
AcDbCircle
 10
507.2706079018789
 20
426.0363990084901
 30
0.0
 40
6.0
100
AcDbArc
 50
90.0
 51
119.2107476043123
1001
ACAD
1000
ASC_BOUNDS
1002
{
1070
    19
1002
}
  0
ARC
  5
874
330
2
100
AcDbEntity
  8
0
100
AcDbCircle
 10
503.1224090509884
 20
433.4554586721854
 30
0.0
 40
2.5
100
AcDbArc
 50
248.5783165533331
 51
299.2107476043123
  0
ARC
  5
875
330
2
100
AcDbEntity
  8
0
100
AcDbCircle
 10
507.2706079018789
 20
426.0363990084901
 30
0.0
 40
6.0
100
AcDbArc
 50
119.2107476043123
 51
180.0
1001
ACAD
1000
ASC_BOUNDS
1002
{
1070
    19
1002
}
  0
ARC
  5
876
330
2
100
AcDbEntity
  8
LINIE
  6
GESTRICHELT
 48
10.0
100
AcDbCircle
 10
432.570607901879
 20
439.33639900849
 30
0.0
 40
0.2
100
AcDbArc
 50
0.0
 51
90.0
  0
LINE
  5
877
330
2
100
AcDbEntity
  8
LINIE
  6
GESTRICHELT
 48
10.0
100
AcDbLine
 10
427.7706079018789
 20
439.53639900849
 30
0.0
 11
432.570607901879
 21
439.53639900849
 31
0.0
  0
LINE
  5
878
330
2
100
AcDbEntity
  8
0
100
AcDbLine
 10
427.7706079018789
 20
467.0363990084901
 30
0.0
 11
439.270607901879
 21
467.0363990084901
 31
0.0
  0
LINE
  5
879
330
2
100
AcDbEntity
  8
0
100
AcDbLine
 10
441.2706079018789
 20
465.03639900849
 30
0.0
 11
439.270607901879
 21
467.0363990084901
 31
0.0
  0
DIMENSION
  5
87A
330
2
100
AcDbEntity
  8
BEM
100
AcDbDimension
  2
*D10
 10
866.3028978959673
 20
430.4799894256603
 30
0.0
 11
939.591988621464
 21
350.528531751205
 31
0.0
 70
   163
 71
     5
 42
145.0000000000005
  3
ISO-25
100
AcDbDiametricDimension
 15
964.283153934044
 25
323.5928085913195
 35
0.0
 40
0.0
1001
ACAD
1000
DSTYLE
1002
{
1070
   144
1040
1.0
1070
   289
1070
     0
1002
}
  0
ARC
  5
87B
330
2
100
AcDbEntity
  8
0
100
AcDbCircle
 10
729.1706079018791
 20
339.0726081197589
 30
0.0
 40
10.0
100
AcDbArc
 50
180.0
 51
219.384207682993
  0
LINE
  5
87C
330
2
100
AcDbEntity
  8
0
100
AcDbLine
 10
719.1706079018792
 20
401.2488958082851
 30
0.0
 11
719.170607901879
 21
323.2488958082854
 31
0.0
  0
LINE
  5
87D
330
2
100
AcDbEntity
  8
LINIE
100
AcDbLine
 10
595.5295068454197
 20
404.4173357492288
 30
0.0
 11
595.5295068454196
 21
329.9734332716537
 31
0.0
  0
DIMENSION
  5
87E
330
2
100
AcDbEntity
  8
BEM
100
AcDbDimension
  2
*D11
 10
549.2187003545142
 20
275.03639900849
 30
0.0
 11
540.2187003545141
 21
326.0363990084901
 31
0.0
 70
    32
 71
     5
 42
102.0
  3
ISO-25
100
AcDbAlignedDimension
 13
538.820607901879
 23
377.0363990084901
 33
0.0
 14
547.6910944668762
 24
275.03639900849
 34
0.0
 50
90.0
100
AcDbRotatedDimension
1001
ACAD
1000
DSTYLE
1002
{
1070
   144
1040
1.0
1070
   289
1070
     0
1002
}
  0
DIMENSION
  5
87F
330
2
100
AcDbEntity
  8
BEM
100
AcDbDimension
  2
*D12
 10
785.9722267023673
 20
305.2488958082855
 30
0.0
 11
776.9722267023671
 21
364.7488958082855
 31
0.0
 70
    32
 71
     5
 42
118.9999999999997
  3
ISO-25
100
AcDbAlignedDimension
 13
709.8277192486435
 23
424.2488958082852
 33
0.0
 14
720.6706079018792
 24
305.2488958082855
 34
0.0
 50
90.0
100
AcDbRotatedDimension
1001
ACAD
1000
DSTYLE
1002
{
1070
   144
1040
1.0
1070
   289
1070
     0
1002
}
  0
DIMENSION
  5
880
330
2
100
AcDbEntity
  8
BEM
100
AcDbDimension
  2
*D13
 10
759.0497261479018
 20
305.2488958082855
 30
0.0
 11
750.0497261479018
 21
337.7488958082855
 31
0.0
 70
    32
 71
     5
 42
64.99999999999977
  3
ISO-25
100
AcDbAlignedDimension
 13
722.6933689698245
 23
370.2488958082853
 33
0.0
 14
720.6706079018792
 24
305.2488958082855
 34
0.0
 50
90.0
100
AcDbRotatedDimension
1001
ACAD
1000
DSTYLE
1002
{
1070
   144
1040
1.0
1070
   289
1070
     0
1002
}
  0
DIMENSION
  5
881
330
2
100
AcDbEntity
  8
BEM
100
AcDbDimension
  2
*D14
 10
1040.397238101459
 20
262.709093252634
 30
0.0
 11
1040.397238101459
 21
363.4914886959773
 31
0.0
 70
   160
  1
204
 71
     5
 42
204.327305755856
  3
ISO-25
100
AcDbAlignedDimension
 13
915.293025915005
 23
467.03639900849
 33
0.0
 14
967.5606465776201
 24
262.709093252634
 34
0.0
 50
90.0
100
AcDbRotatedDimension
1001
ACAD
1000
DSTYLE
1002
{
1070
   144
1040
1.0
1070
   289
1070
     0
1002
}
  0
LINE
  5
882
330
2
100
AcDbEntity
  8
LINIE
 48
10.0
100
AcDbLine
 10
528.2706079018789
 20
287.0363990084901
 30
0.0
 11
528.2706079018789
 21
390.6401751143685
 31
0.0
  0
LINE
  5
883
330
2
100
AcDbEntity
  8
MITTE
 48
20.0
100
AcDbLine
 10
844.182928389239
 20
478.6757613877393
 30
0.0
 11
844.182928389239
 21
264.8013901728138
 31
0.0
  0
LINE
  5
884
330
2
100
AcDbEntity
  8
LINIE
 48
10.0
100
AcDbLine
 10
558.2706079018788
 20
427.867080480363
 30
0.0
 11
558.2706079018788
 21
278.6521180362231
 31
0.0
  0
ARC
  5
885
330
2
100
AcDbEntity
  8
0
100
AcDbCircle
 10
844.182928389239
 20
377.03639900849
 30
0.0
 40
90.0
100
AcDbArc
 50
346.7968803211823
 51
218.3212863366492
  0
ARC
  5
886
330
2
100
AcDbEntity
  8
0
100
AcDbCircle
 10
844.182928389239
 20
377.03639900849
 30
0.0
 40
90.0
100
AcDbArc
 50
218.3212863366492
 51
346.7968803211823
  0
LINE
  5
887
330
2
100
AcDbEntity
  8
0
100
AcDbLine
 10
591.1706079018789
 20
433.0363990084901
 30
0.0
 11
591.1706079018783
 21
262.7978737020939
 31
0.0
1001
ACAD
1000
ASC_BOUNDS
1002
{
1070
    19
1002
}
  0
LINE
  5
888
330
2
100
AcDbEntity
  8
0
100
AcDbLine
 10
584.7706079018795
 20
433.0363990084899
 30
0.0
 11
584.770607901879
 21
262.7978737020939
 31
0.0
1001
ACAD
1000
ASC_BOUNDS
1002
{
1070
    19
1002
}
  0
LINE
  5
889
330
2
100
AcDbEntity
  8
0
100
AcDbLine
 10
591.1706079018789
 20
422.480049822386
 30
0.0
 11
591.1706079018787
 21
290.4800498223863
 31
0.0
1001
ACAD
1000
ASC_BOUNDS
1002
{
1070
    19
1005
0
1002
}
  0
LINE
  5
88A
330
2
100
AcDbEntity
  8
0
100
AcDbLine
 10
591.1706079018792
 20
425.2488958082851
 30
0.0
 11
591.1706079018792
 21
293.7488958082853
 31
0.0
  0
ARC
  5
88B
330
2
100
AcDbEntity
  8
MITTE
 48
15.0
100
AcDbCircle
 10
844.1829283892388
 20
377.0363990084898
 30
0.0
 40
72.5
100
AcDbArc
 50
281.4882836599036
 51
327.5671739695385
  0
LINE
  5
88C
330
2
100
AcDbEntity
  8
0
100
AcDbLine
 10
925.5379145020556
 20
338.5478781927544
 30
0.0
 11
908.0605908557824
 21
271.6748010269178
 31
0.0
  0
DIMENSION
  5
88D
330
2
100
AcDbEntity
  8
BEM
100
AcDbDimension
  2
*D15
 10
886.8156065361489
 20
455.2774657162341
 30
0.0
 11
890.7343072616434
 21
515.8104162399691
 31
0.0
 70
   162
 71
     5
 42
0.3490658503988644
  3
ISO-25
100
AcDb2LineAngularDimension
 13
915.293025915005
 23
478.6757613877393
 33
0.0
 14
915.293025915005
 24
264.8013901728138
 34
0.0
 15
893.5793867774664
 25
436.6941322330607
 35
0.0
 16
898.9320129668486
 26
517.0138106711154
 36
0.0
1001
ACAD
1000
DSTYLE
1002
{
1070
    79
1070
     2
1070
   144
1040
1.0
1070
   179
1070
     4
1070
   289
1070
     0
1002
}
  0
LINE
  5
88E
330
2
100
AcDbEntity
  8
0
100
AcDbLine
 10
671.2107932596646
 20
315.2488958082853
 30
0.0
 11
711.170607901879
 21
315.2488958082854
 31
0.0
  0
DIMENSION
  5
88F
330
2
100
AcDbEntity
  8
BEM
100
AcDbDimension
  2
*D16
 10
650.6706079018791
 20
167.3619943113026
 30
0.0
 11
678.932512663784
 21
167.3619943113026
 31
0.0
 70
   160
 71
     5
 42
54.5
  3
ISO-25
100
AcDbAlignedDimension
 13
705.1706079018791
 23
293.7488958082853
 33
0.0
 14
650.6706079018791
 24
260.6395690623165
 34
0.0
100
AcDbRotatedDimension
1001
ACAD
1000
DSTYLE
1002
{
1070
   144
1040
1.0
1070
   289
1070
     0
1002
}
  0
HATCH
  5
890
330
2
100
AcDbEntity
  8
LINIE
 48
10.0
100
AcDbHatch
 10
0.0
 20
0.0
 30
0.0
210
0.0
220
0.0
230
1.0
  2
ANSI31
 70
     0
 71
     0
 91
        4
 92
        5
 93
        5
 72
     1
 10
718.3911079018791
 20
305.2488958082855
 11
720.6706079018792
 21
305.2488958082855
 72
     2
 10
720.6706079018792
 20
307.7488958082855
 40
2.499999999999999
 50
270.0
 51
360.0000000000013
 73
     1
 72
     1
 10
723.1706079018793
 20
307.7488958082855
 11
723.1706079018792
 21
309.5009017488937
 72
     4
 94
        3
 73
     0
 74
     0
 95
        9
 96
        5
 40
31.73585995709382
 40
31.73585995709382
 40
31.73585995709382
 40
31.73585995709382
 40
33.63609640649291
 40
36.857751855649
 40
36.857751855649
 40
36.857751855649
 40
36.857751855649
 10
723.1706079018793
 20
309.5009017488938
 10
722.6123006743214
 20
309.8038134742284
 10
721.1074409677106
 20
310.6202808735663
 10
719.4544513976731
 20
311.070925832745
 10
718.3911079018776
 20
311.2679570796228
 72
     1
 10
718.3911079018791
 20
311.2679570796223
 11
718.3911079018791
 21
305.2488958082855
 97
        0
 92
        5
 93
        4
 72
     4
 94
        3
 73
     0
 74
     0
 95
        8
 96
        4
 40
30.57003609658486
 40
30.57003609658486
 40
30.57003609658486
 40
30.57003609658486
 40
31.73585995709381
 40
31.73585995709381
 40
31.73585995709381
 40
31.73585995709381
 10
718.3911079018777
 20
311.2679570796228
 10
718.0063146678153
 20
311.3392569850599
 10
717.618428673299
 20
311.3992397216033
 10
717.2291079018791
 20
311.4506684351362
 72
     1
 10
717.2291079018791
 20
311.4506684351362
 11
717.2291079018791
 21
306.4108958082854
 72
     1
 10
717.2291079018791
 20
306.4108958082854
 11
718.3911079018793
 21
305.2488958082855
 72
     1
 10
718.3911079018793
 20
305.2488958082855
 11
718.3911079018791
 21
311.2679570796225
 97
        0
 92
        5
 93
        4
 72
     1
 10
691.9501079018792
 20
305.2488958082853
 11
693.1121079018792
 21
306.4108958082853
 72
     1
 10
693.1121079018792
 20
306.4108958082853
 11
693.1121079018792
 21
311.2857220674751
 72
     4
 94
        3
 73
     0
 74
     0
 95
        8
 96
        4
 40
5.132474026507138
 40
5.132474026507138
 40
5.132474026507138
 40
5.132474026507138
 40
6.360436656674873
 40
6.360436656674873
 40
6.360436656674873
 40
6.360436656674873
 10
693.1121079018959
 20
311.2857220674804
 10
692.7229263705592
 20
311.1684918766699
 10
692.3357201572708
 20
311.040313443389
 10
691.9501079019329
 20
310.9033004641249
 72
     1
 10
691.950107901879
 20
310.9033004641065
 11
691.9501079018792
 21
305.2488958082853
 97
        0
 92
        5
 93
        5
 72
     4
 94
        3
 73
     0
 74
     0
 95
        8
 96
        4
 40
0.0
 40
0.0
 40
0.0
 40
0.0
 40
5.132474026507137
 40
5.132474026507137
 40
5.132474026507137
 40
5.132474026507137
 10
691.9501079019329
 20
310.9033004641249
 10
690.3383773523196
 20
310.3306319316378
 10
688.7544926270993
 20
309.6036273227354
 10
687.1706079018791
 20
308.876622713833
 72
     1
 10
687.1706079018791
 20
308.876622713833
 11
687.1706079018791
 21
307.7488958082855
 72
     2
 10
689.670607901879
 20
307.7488958082854
 40
2.5
 50
180.0
 51
270.0
 73
     1
 72
     1
 10
689.670607901879
 20
305.2488958082854
 11
691.9501079018791
 21
305.2488958082854
 72
     1
 10
691.9501079018791
 20
305.2488958082854
 11
691.950107901879
 21
310.9033004641035
 97
        0
 75
     0
 76
     1
 52
0.0
 41
20.0
 77
     0
 78
     1
 53
45.0
 43
131.7710831090722
 44
81.11924967273978
 45
-1.767766952966368
 46
1.767766952966368
 79
     0
 47
0.1218544639141766
 98
        4
 10
719.6111357233782
 20
307.735511908256
 10
717.9045972101222
 20
308.4666373986532
 10
692.4284155006873
 20
308.1010756101572
 10
690.9656689662329
 20
307.735511908256
  0
SPLINE
  5
891
330
2
100
AcDbEntity
  8
LINIE
 48
10.0
100
AcDbSpline
210
0.0
220
0.0
230
1.0
 70
     8
 71
     3
 72
    12
 73
     8
 74
     6
 42
0.0000000001
 43
0.0000000001
 44
0.0000000001
 40
0.0
 40
0.0
 40
0.0
 40
0.0
 40
8.823504819814441
 40
17.17642179202402
 40
29.12386730704584
 40
34.9575154062499
 40
36.85775185564901
 40
36.85775185564901
 40
36.85775185564901
 40
36.85775185564901
 10
687.1706079018791
 20
308.876622713833
 30
0.0
 10
689.8935470604279
 20
310.1264544007637
 30
0.0
 10
695.1942016706261
 20
312.5594599537896
 30
0.0
 10
705.0909266892177
 20
311.6461952520506
 30
0.0
 10
713.6979780520854
 20
312.0514329646023
 30
0.0
 10
720.3400131166604
 20
311.0366517943728
 30
0.0
 10
722.6123006743214
 20
309.8038134742282
 30
0.0
 10
723.1706079018793
 20
309.5009017488938
 30
0.0
 11
687.1706079018791
 21
308.876622713833
 31
0.0
 11
695.4809080260134
 21
311.8419471736687
 31
0.0
 11
703.8334604848061
 21
311.9199815747001
 31
0.0
 11
715.7768278180171
 21
311.6078420571697
 31
0.0
 11
721.4752971643312
 21
310.3592839870483
 31
0.0
 11
723.1706079018793
 21
309.5009017488938
 31
0.0
  0
LINE
  5
892
330
2
100
AcDbEntity
  8
0
100
AcDbLine
 10
689.670607901879
 20
305.2488958082854
 30
0.0
 11
720.6706079018792
 21
305.2488958082855
 31
0.0
  0
LINE
  5
893
330
2
100
AcDbEntity
  8
0
100
AcDbLine
 10
693.1121079018792
 20
306.4108958082853
 30
0.0
 11
691.9501079018791
 21
305.2488958082854
 31
0.0
  0
LINE
  5
894
330
2
100
AcDbEntity
  8
0
100
AcDbLine
 10
600.6706079018792
 20
315.2488958082852
 30
0.0
 11
631.4072307955509
 21
315.2488958082853
 31
0.0
  0
LINE
  5
895
330
2
100
AcDbEntity
  8
0
100
AcDbLine
 10
591.1706079018792
 20
328.7370948136289
 30
0.0
 11
613.6706079018791
 21
328.7370948136289
 31
0.0
  0
LINE
  5
896
330
2
100
AcDbEntity
  8
0
100
AcDbLine
 10
591.1706079018792
 20
316.2512216126393
 30
0.0
 11
613.6706079018791
 21
316.2512216126393
 31
0.0
  0
LINE
  5
897
330
2
100
AcDbEntity
  8
0
100
AcDbLine
 10
600.6706079018792
 20
312.248895808285
 30
0.0
 11
615.6706079018792
 21
312.248895808285
 31
0.0
  0
ARC
  5
898
330
2
100
AcDbEntity
  8
0
100
AcDbCircle
 10
570.441044807932
 20
265.2978737020954
 30
0.0
 40
2.5
100
AcDbArc
 50
205.2429158870733
 51
269.999999999987
1001
GENIUS_GENODEF_13
1002
{
1000
HIER
1070
     0
1002
}
1002
{
1000
MANEDIT
1070
     0
1002
}
1002
{
1000
NOSEL
1070
     0
1002
}
1002
{
1000
BEHIND
1070
     0
1002
}
1002
{
1000
REACTOR
1002
}
1001
GENIUS_GENOBJ-N-FIL_13
1002
{
1000
OWNER
1000
GEN
1002
}
  0
LINE
  5
899
330
2
100
AcDbEntity
  8
0
100
AcDbLine
 10
534.2706079018788
 20
275.0363990084901
 30
0.0
 11
556.2706079018788
 21
275.0363990084901
 31
0.0
1001
ACAD
1000
ASC_BOUNDS
1002
{
1070
    19
1002
}
  0
LINE
  5
89A
330
2
100
AcDbEntity
  8
0
100
AcDbLine
 10
528.2706079018788
 20
287.0363990084901
 30
0.0
 11
528.2706079018788
 21
281.0363990084901
 31
0.0
1001
ACAD
1000
ASC_BOUNDS
1002
{
1070
    19
1002
}
  0
ARC
  5
89B
330
2
100
AcDbEntity
  8
0
100
AcDbCircle
 10
549.800479514937
 20
255.5662706215482
 30
0.0
 40
20.31966332204827
100
AcDbArc
 50
25.2429158870471
 51
65.36450845374805
1001
ACAD
1000
ASC_BOUNDS
1002
{
1070
    19
1002
}
  0
ARC
  5
89C
330
2
100
AcDbEntity
  8
0
100
AcDbCircle
 10
556.2706079018788
 20
272.5363990084901
 30
0.0
 40
2.5
100
AcDbArc
 50
36.86989764584663
 51
90.0
1001
ACAD
1000
ASC_BOUNDS
1002
{
1070
    19
1002
}
  0
LINE
  5
89D
330
2
100
AcDbEntity
  8
0
100
AcDbLine
 10
570.4410448079316
 20
262.7978737020939
 30
0.0
 11
591.1706079018783
 21
262.7978737020939
 31
0.0
  0
LINE
  5
89E
330
2
100
AcDbEntity
  8
MITTE
 48
5.0
100
AcDbLine
 10
602.668309219984
 20
274.7090932526341
 30
0.0
 11
586.3481711534997
 21
274.7090932526341
 31
0.0
  0
LINE
  5
89F
330
2
100
AcDbEntity
  8
0
 48
10.0
100
AcDbLine
 10
601.1706079018782
 20
269.0090932526342
 30
0.0
 11
601.1706079018782
 21
280.4090932526341
 31
0.0
  0
LINE
  5
8A0
330
2
100
AcDbEntity
  8
0
 48
10.0
100
AcDbLine
 10
593.1706079018782
 20
267.3090932526342
 30
0.0
 11
593.1706079018782
 21
282.1090932526341
 31
0.0
  0
LINE
  5
8A1
330
2
100
AcDbEntity
  8
0
 48
10.0
100
AcDbLine
 10
593.1706079018782
 20
268.2090932526342
 30
0.0
 11
593.1706079018782
 21
281.2090932526341
 31
0.0
  0
LINE
  5
8A2
330
2
100
AcDbEntity
  8
0
 48
10.0
100
AcDbLine
 10
593.1706079018782
 20
268.2090932526342
 30
0.0
 11
600.3706079018783
 21
268.2090932526342
 31
0.0
  0
LINE
  5
8A3
330
2
100
AcDbEntity
  8
0
 48
10.0
100
AcDbLine
 10
593.1706079018782
 20
267.3090932526342
 30
0.0
 11
591.1706079018783
 21
267.3090932526342
 31
0.0
  0
ARC
  5
8A4
330
2
100
AcDbEntity
  8
0
 48
10.0
100
AcDbCircle
 10
600.3706079018783
 20
269.0090932526342
 30
0.0
 40
0.8
100
AcDbArc
 50
270.0
 51
0.0
1001
GENIUS_GENODEF_13
1002
{
1000
HIER
1070
     0
1002
}
1002
{
1000
MANEDIT
1070
     0
1002
}
1002
{
1000
NOSEL
1070
     0
1002
}
1002
{
1000
BEHIND
1070
     0
1002
}
1002
{
1000
REACTOR
1002
}
1001
GENIUS_GENOBJ-N-FIL_13
1002
{
1000
OWNER
1000
GEN
1002
}
  0
LINE
  5
8A5
330
2
100
AcDbEntity
  8
0
 48
10.0
100
AcDbLine
 10
593.1706079018782
 20
281.2090932526341
 30
0.0
 11
600.3706079018783
 21
281.2090932526341
 31
0.0
  0
LINE
  5
8A6
330
2
100
AcDbEntity
  8
0
 48
10.0
100
AcDbLine
 10
593.1706079018782
 20
282.1090932526341
 30
0.0
 11
591.1706079018783
 21
282.1090932526341
 31
0.0
  0
ARC
  5
8A7
330
2
100
AcDbEntity
  8
0
 48
10.0
100
AcDbCircle
 10
600.3706079018783
 20
280.4090932526341
 30
0.0
 40
0.8
100
AcDbArc
 50
0.0
 51
90.0
1001
GENIUS_GENODEF_13
1002
{
1000
HIER
1070
     0
1002
}
1002
{
1000
MANEDIT
1070
     0
1002
}
1002
{
1000
NOSEL
1070
     0
1002
}
1002
{
1000
BEHIND
1070
     0
1002
}
1002
{
1000
REACTOR
1002
}
1001
GENIUS_GENOBJ-N-FIL_13
1002
{
1000
OWNER
1000
GEN
1002
}
  0
ARC
  5
8A8
330
2
100
AcDbEntity
  8
0
100
AcDbCircle
 10
600.6706079018792
 20
309.7488958082851
 30
0.0
 40
2.5
100
AcDbArc
 50
90.0
 51
180.0
  0
LINE
  5
8A9
330
2
100
AcDbEntity
  8
0
100
AcDbLine
 10
598.1706079018794
 20
312.7488958082852
 30
0.0
 11
598.1706079018792
 21
296.7488958082851
 31
0.0
  0
ARC
  5
8AA
330
2
100
AcDbEntity
  8
0
100
AcDbCircle
 10
595.1706079018792
 20
296.7488958082851
 30
0.0
 40
3.0
100
AcDbArc
 50
270.0
 51
0.0
  0
LINE
  5
8AB
330
2
100
AcDbEntity
  8
0
100
AcDbLine
 10
591.1706079018792
 20
293.7488958082853
 30
0.0
 11
595.170607901879
 21
293.7488958082852
 31
0.0
  0
LINE
  5
8AC
330
2
100
AcDbEntity
  8
0
100
AcDbLine
 10
591.1706079018788
 20
290.4800498223861
 30
0.0
 11
591.1706079018788
 21
290.4800498223861
 31
0.0
1001
ACAD
1000
ASC_BOUNDS
1002
{
1070
    19
1005
0
1002
}
  0
ARC
  5
8AD
330
2
100
AcDbEntity
  8
0
100
AcDbCircle
 10
600.6706079018792
 20
312.7488958082852
 30
0.0
 40
2.5
100
AcDbArc
 50
90.0
 51
180.0
  0
DIMENSION
  5
8AE
330
2
100
AcDbEntity
  8
BEM
100
AcDbDimension
  2
*D17
 10
641.6706079018791
 20
268.7185505682427
 30
0.0
 11
650.6706079018791
 21
268.7185505682427
 31
0.0
 70
   160
  1
M<>x1.5
 71
     5
 42
18.0
  3
ISO-25
100
AcDbAlignedDimension
 13
659.6706079018791
 23
270.3153866384063
 33
0.0
 14
641.6706079018791
 24
270.7457784191967
 34
0.0
100
AcDbRotatedDimension
1001
ACAD
1000
DSTYLE
1002
{
1070
   144
1040
1.0
1070
   289
1070
     0
1002
}
  0
HATCH
  5
8AF
330
2
100
AcDbEntity
  8
LINIE
 48
10.0
100
AcDbHatch
 10
0.0
 20
0.0
 30
0.0
210
0.0
220
0.0
230
1.0
  2
ANSI31
 70
     0
 71
     0
 91
        4
 92
        5
 93
        5
 72
     4
 94
        3
 73
     0
 74
     0
 95
       10
 96
        6
 40
32.20332906069053
 40
32.20332906069053
 40
32.20332906069053
 40
32.20332906069053
 40
36.07354258304438
 40
41.88446131772932
 40
47.39498654027875
 40
47.39498654027875
 40
47.39498654027875
 40
47.39498654027875
 10
671.6450772400736
 20
313.2488958082853
 10
671.3994344139299
 20
314.5958964405756
 10
670.7849720143352
 20
317.9653465229026
 10
665.2188729095455
 20
319.6849346425953
 10
661.4745375746596
 20
320.0247309658335
 10
659.6706079018798
 20
320.1217518623149
 72
     1
 10
659.6706079018791
 20
320.121751862315
 11
659.6706079018791
 21
314.7488958082853
 72
     1
 10
659.6706079018791
 20
314.7488958082853
 11
664.6706079018791
 21
314.7488958082853
 72
     1
 10
664.6706079018791
 20
314.7488958082853
 11
664.6706079018791
 21
313.2488958082853
 72
     1
 10
664.6706079018791
 20
313.2488958082853
 11
671.6450772400736
 21
313.2488958082853
 97
        0
 92
        5
 93
        4
 72
     1
 10
658.8586079018791
 20
315.5608958082854
 11
659.670607901879
 21
314.7488958082853
 72
     1
 10
659.670607901879
 20
314.7488958082853
 11
659.6706079018791
 21
320.1217518623149
 72
     4
 94
        3
 73
     0
 74
     0
 95
        8
 96
        4
 40
31.37550076964246
 40
31.37550076964246
 40
31.37550076964246
 40
31.37550076964246
 40
32.20332906069053
 40
32.20332906069053
 40
32.20332906069053
 40
32.20332906069053
 10
659.6706079018798
 20
320.1217518623149
 10
659.3996094111957
 20
320.1363269962061
 10
659.1290298629671
 20
320.1493591657893
 10
658.858607901879
 20
320.1613729596335
 72
     1
 10
658.8586079018791
 20
320.1613729596335
 11
658.8586079018791
 21
315.5608958082853
 97
        0
 92
        5
 93
        4
 72
     1
 10
641.6706079018791
 20
314.7488958082853
 11
642.4826079018791
 21
315.5608958082852
 72
     1
 10
642.4826079018791
 20
315.5608958082853
 11
642.4826079018791
 21
320.1918315452674
 72
     4
 94
        3
 73
     0
 74
     0
 95
        8
 96
        4
 40
14.07287279079752
 40
14.07287279079752
 40
14.07287279079752
 40
14.07287279079752
 40
14.88854677267786
 40
14.88854677267786
 40
14.88854677267786
 40
14.88854677267786
 10
642.4826079018786
 20
320.1918315452673
 10
642.2125112034616
 20
320.1615064844177
 10
641.941900647905
 20
320.1295281519424
 10
641.6706079018772
 20
320.0960074585121
 72
     1
 10
641.6706079018791
 20
320.0960074585123
 11
641.6706079018791
 21
314.7488958082853
 97
        0
 92
        5
 93
        5
 72
     1
 10
641.6706079018791
 20
314.7488958082853
 11
641.6706079018791
 21
320.0960074585124
 72
     4
 94
        3
 73
     0
 74
     0
 95
       10
 96
        6
 40
0.0
 40
0.0
 40
0.0
 40
0.0
 40
2.557235650529396
 40
7.727877917640146
 40
14.07287279079752
 40
14.07287279079752
 40
14.07287279079752
 40
14.07287279079752
 10
641.6706079018772
 20
320.0960074585121
 10
640.8200726423449
 20
319.9909160688459
 10
638.2295214439235
 20
319.6275210342451
 10
633.314215937275
 20
318.7704839983725
 10
631.3402291616257
 20
315.2104416668784
 10
630.2525832225766
 20
313.2488958082853
 72
     1
 10
630.2525832225767
 20
313.2488958082853
 11
636.6706079018792
 21
313.2488958082853
 72
     1
 10
636.6706079018792
 20
313.2488958082853
 11
636.6706079018792
 21
314.7488958082853
 72
     1
 10
636.6706079018792
 20
314.7488958082853
 11
641.6706079018791
 21
314.7488958082853
 97
        0
 75
     0
 76
     1
 52
0.0
 41
20.0
 77
     0
 78
     1
 53
45.0
 43
131.7710831090722
 44
81.11924967273978
 45
-1.767766952966368
 46
1.767766952966368
 79
     0
 47
0.1339110804423528
 98
        4
 10
665.7509999037612
 20
317.1943612391004
 10
659.1871405666539
 20
318.131740321062
 10
642.040737895201
 20
316.7926284402055
 10
638.6918305604032
 20
316.9265400109722
  0
SPLINE
  5
8B0
330
2
100
AcDbEntity
  8
LINIE
 48
10.0
100
AcDbSpline
210
0.0
220
0.0
230
1.0
 70
     8
 71
     3
 72
    14
 73
    10
 74
     8
 42
0.0000000001
 43
0.0000000001
 44
0.0000000001
 40
0.0
 40
0.0
 40
0.0
 40
0.0
 40
6.344994873157406
 40
11.51563714026816
 40
20.12640737688697
 40
28.43601387734805
 40
37.71385428324001
 40
43.52477301792495
 40
47.39498654027879
 40
47.39498654027879
 40
47.39498654027879
 40
47.39498654027879
 10
630.2525832225766
 20
313.2488958082853
 30
0.0
 10
631.3402291616256
 20
315.2104416668784
 30
0.0
 10
633.3142159372748
 20
318.7704839983726
 30
0.0
 10
640.3438709678635
 20
319.9961808960471
 30
0.0
 10
647.5060620130398
 20
320.794866284192
 30
0.0
 10
656.3776977738477
 20
320.1659984960258
 30
0.0
 10
663.8385594251454
 20
320.1113680611422
 30
0.0
 10
670.7849720143351
 20
317.9653465229026
 30
0.0
 10
671.39943441393
 20
314.5958964405757
 30
0.0
 10
671.6450772400736
 20
313.2488958082853
 30
0.0
 11
630.2525832225766
 21
313.2488958082853
 31
0.0
 11
634.1373145565036
 21
318.2656499784235
 31
0.0
 11
639.093699227045
 21
319.7386715166416
 31
0.0
 11
647.6669018973599
 21
320.5421390278365
 31
0.0
 11
655.9721912335218
 21
320.2743158863031
 31
0.0
 11
665.2151759046315
 21
319.4708502885134
 31
0.0
 11
670.4394712401491
 21
316.9265400109722
 31
0.0
 11
671.6450772400736
 21
313.2488958082853
 31
0.0
  0
LINE
  5
8B1
330
2
100
AcDbEntity
  8
0
100
AcDbLine
 10
615.6706079018792
 20
313.2488958082853
 30
0.0
 11
685.6706079018792
 21
313.2488958082853
 31
0.0
  0
LINE
  5
8B2
330
2
100
AcDbEntity
  8
0
100
AcDbLine
 10
636.6706079018792
 20
314.7488958082853
 30
0.0
 11
664.6706079018791
 21
314.7488958082853
 31
0.0
  0
LINE
  5
8B3
330
2
100
AcDbEntity
  8
0
100
AcDbLine
 10
642.482607901879
 20
315.5608958082852
 30
0.0
 11
658.8586079018791
 21
315.5608958082853
 31
0.0
  0
LINE
  5
8B4
330
2
100
AcDbEntity
  8
BEM
100
AcDbLine
 10
641.6706079018791
 20
314.7488958082853
 30
0.0
 11
641.6706079018791
 21
290.7725287836678
 31
0.0
  0
LINE
  5
8B5
330
2
100
AcDbEntity
  8
MITTE
 48
10.0
100
AcDbLine
 10
650.6706079018791
 20
325.2825542922711
 30
0.0
 11
650.6706079018791
 21
300.8851388956704
 31
0.0
  0
LINE
  5
8B6
330
2
100
AcDbEntity
  8
0
100
AcDbLine
 10
615.6706079018793
 20
313.2488958082853
 30
0.0
 11
615.6706079018792
 21
312.248895808285
 31
0.0
  0
LINE
  5
8B7
330
2
100
AcDbEntity
  8
BEM
100
AcDbLine
 10
650.6706079018791
 20
300.8851388956704
 30
0.0
 11
650.6706079018791
 21
288.6332894643015
 31
0.0
  0
LINE
  5
8B8
330
2
100
AcDbEntity
  8
LINIE
100
AcDbLine
 10
613.1706079018791
 20
328.1234202011766
 30
0.0
 11
613.1706079018791
 21
317.2382167197024
 31
0.0
  0
ARC
  5
8B9
330
2
100
AcDbEntity
  8
0
100
AcDbCircle
 10
613.6706079018791
 20
313.7512216126392
 30
0.0
 40
2.5
100
AcDbArc
 50
36.80329727510642
 51
90.0
  0
ARC
  5
8BA
330
2
100
AcDbEntity
  8
0
100
AcDbCircle
 10
613.6706079018791
 20
331.2370948136289
 30
0.0
 40
2.5
100
AcDbArc
 50
270.0
 51
0.0
  0
LINE
  5
8BB
330
2
100
AcDbEntity
  8
0
100
AcDbLine
 10
636.6706079018792
 20
314.7488958082853
 30
0.0
 11
636.6706079018792
 21
313.2488958082853
 31
0.0
  0
LINE
  5
8BC
330
2
100
AcDbEntity
  8
LINIE
 48
10.0
100
AcDbLine
 10
641.6706079018791
 20
320.0960074585165
 30
0.0
 11
641.6706079018791
 21
314.7488958082853
 31
0.0
  0
LINE
  5
8BD
330
2
100
AcDbEntity
  8
0
100
AcDbLine
 10
642.4826079018791
 20
320.1918315452693
 30
0.0
 11
642.4826079018791
 21
315.5608958082853
 31
0.0
  0
LINE
  5
8BE
330
2
100
AcDbEntity
  8
0
100
AcDbLine
 10
642.4826079018791
 20
315.5608958082853
 30
0.0
 11
641.6706079018791
 21
314.7488958082853
 31
0.0
  0
LINE
  5
8BF
330
2
100
AcDbEntity
  8
BEM
100
AcDbLine
 10
659.6706079018791
 20
314.7488958082853
 30
0.0
 11
659.6706079018791
 21
290.7725287836678
 31
0.0
  0
LINE
  5
8C0
330
2
100
AcDbEntity
  8
0
100
AcDbLine
 10
685.6706079018792
 20
313.2488958082853
 30
0.0
 11
685.6706079018792
 21
312.040183655763
 31
0.0
  0
ARC
  5
8C1
330
2
100
AcDbEntity
  8
0
100
AcDbCircle
 10
684.670607901879
 20
309.7488958082852
 30
0.0
 40
2.5
100
AcDbArc
 50
0.0
 51
66.42182152179285
  0
LINE
  5
8C2
330
2
100
AcDbEntity
  8
LINIE
 48
10.0
100
AcDbLine
 10
691.9501079018791
 20
310.9033004641057
 30
0.0
 11
691.9501079018791
 21
305.2488958082854
 31
0.0
  0
LINE
  5
8C3
330
2
100
AcDbEntity
  8
0
100
AcDbLine
 10
687.1706079018791
 20
309.7488958082852
 30
0.0
 11
687.1706079018791
 21
307.7488958082854
 31
0.0
  0
ARC
  5
8C4
330
2
100
AcDbEntity
  8
0
100
AcDbCircle
 10
689.670607901879
 20
307.7488958082854
 30
0.0
 40
2.5
100
AcDbArc
 50
180.0
 51
270.0
  0
LINE
  5
8C5
330
2
100
AcDbEntity
  8
LINIE
 48
10.0
100
AcDbLine
 10
659.6706079018791
 20
320.1217518623177
 30
0.0
 11
659.6706079018791
 21
314.7488958082853
 31
0.0
  0
LINE
  5
8C6
330
2
100
AcDbEntity
  8
0
100
AcDbLine
 10
658.8586079018791
 20
315.5608958082853
 30
0.0
 11
659.6706079018791
 21
314.7488958082853
 31
0.0
  0
LINE
  5
8C7
330
2
100
AcDbEntity
  8
0
100
AcDbLine
 10
658.8586079018791
 20
320.1613729596337
 30
0.0
 11
658.8586079018791
 21
315.5608958082853
 31
0.0
  0
LINE
  5
8C8
330
2
100
AcDbEntity
  8
0
100
AcDbLine
 10
664.6706079018791
 20
314.7488958082853
 30
0.0
 11
664.6706079018791
 21
313.2488958082853
 31
0.0
  0
ARC
  5
8C9
330
2
100
AcDbEntity
  8
0
100
AcDbCircle
 10
681.6706079018792
 20
312.7488958082852
 30
0.0
 40
2.5
100
AcDbArc
 50
90.0
 51
168.4630409671818
  0
LEADER
  5
8CE
330
2
100
AcDbEntity
  8
BEM
100
AcDbLeader
  3
ISO-25
 73
     0
 74
     0
 75
     1
 40
15.23809523809523
 41
53.80952380952382
 76
     3
 10
705.1706079018791
 20
305.2488958082854
 30
0.0
 10
737.1130860575517
 20
246.3195209059132
 30
0.0
 10
744.1130860575517
 20
246.3195209059132
 30
0.0
340
8CF
1001
ACAD
1000
DSTYLE
1002
{
1070
   144
1040
1.0
1070
   287
1070
     0
1002
}
  0
MTEXT
  5
8CF
102
{ACAD_REACTORS
330
8CE
102
}
330
2
100
AcDbEntity
  8
BEM
100
AcDbMText
 10
748.1130860575517
 20
257.9385685249608
 30
0.0
 40
10.0
 41
0.0
 71
     4
 72
     1
  1
G 3/4"
 73
     1
 44
1.0
  0
LINE
  5
8D0
330
2
100
AcDbEntity
  8
MITTE
 48
10.0
100
AcDbLine
 10
705.1706079018791
 20
324.795137298673
 30
0.0
 11
705.1706079018791
 21
293.7488958082853
 31
0.0
  0
LINE
  5
8D1
330
2
100
AcDbEntity
  8
0
100
AcDbLine
 10
723.170607901879
 20
327.1067601845546
 30
0.0
 11
723.1706079018793
 21
307.7488958082855
 31
0.0
  0
LINE
  5
8D2
330
2
100
AcDbEntity
  8
0
100
AcDbLine
 10
693.1121079018793
 20
306.4108958082854
 30
0.0
 11
717.2291079018793
 21
306.4108958082855
 31
0.0
  0
LINE
  5
8D3
330
2
100
AcDbEntity
  8
0
100
AcDbLine
 10
693.1121079018792
 20
311.2857220675731
 30
0.0
 11
693.1121079018792
 21
306.4108958082854
 31
0.0
  0
ARC
  5
8D4
330
2
100
AcDbEntity
  8
0
100
AcDbCircle
 10
720.6706079018792
 20
307.7488958082855
 30
0.0
 40
2.5
100
AcDbArc
 50
270.0
 51
0.0
  0
LINE
  5
8D5
330
2
100
AcDbEntity
  8
LINIE
 48
10.0
100
AcDbLine
 10
718.3911079018791
 20
311.2679570796288
 30
0.0
 11
718.3911079018791
 21
305.2488958082855
 31
0.0
  0
LINE
  5
8D6
330
2
100
AcDbEntity
  8
0
100
AcDbLine
 10
717.2291079018791
 20
311.4506684351368
 30
0.0
 11
717.2291079018791
 21
306.4108958082855
 31
0.0
  0
LINE
  5
8D7
330
2
100
AcDbEntity
  8
0
100
AcDbLine
 10
717.2291079018791
 20
306.4108958082855
 30
0.0
 11
718.3911079018791
 21
305.2488958082855
 31
0.0
  0
ARC
  5
8D8
330
2
100
AcDbEntity
  8
0
100
AcDbCircle
 10
711.170607901879
 20
323.2488958082854
 30
0.0
 40
8.0
100
AcDbArc
 50
270.0
 51
0.0
  0
ARC
  5
8D9
330
2
100
AcDbEntity
  8
0
100
AcDbCircle
 10
713.170607901879
 20
327.1067601845544
 30
0.0
 40
10.0
100
AcDbArc
 50
0.0
 51
34.19888562142212
  0
LINE
  5
8DA
330
2
100
AcDbEntity
  8
0
100
AcDbLine
 10
857.0143745090515
 20
267.4435487149138
 30
0.0
 11
894.9935491140276
 21
262.7978737020937
 31
0.0
  0
LINE
  5
8DB
330
2
100
AcDbEntity
  8
MITTE
 48
10.0
100
AcDbLine
 10
865.8456034293573
 20
317.5186884907798
 30
0.0
 11
872.0746439666532
 21
300.4045402696912
 31
0.0
  0
CIRCLE
  5
8DC
330
2
100
AcDbEntity
  8
0
100
AcDbCircle
 10
868.9793887803499
 20
308.9086840015114
 30
0.0
 40
5.75
  0
ARC
  5
8DD
330
2
100
AcDbEntity
  8
0
100
AcDbCircle
 10
846.5279077518449
 20
349.8471653973904
 30
0.0
 40
73.0
100
AcDbArc
 50
215.496628826018
 51
245.0000000000003
  0
LINE
  5
8DE
330
2
100
AcDbEntity
  8
0
100
AcDbLine
 10
815.6767746447741
 20
283.6866969437149
 30
0.0
 11
840.1470848947637
 21
272.2760038767159
 31
0.0
  0
ARC
  5
8DF
330
2
100
AcDbEntity
  8
0
100
AcDbCircle
 10
863.8137075522427
 20
323.0292399507685
 30
0.0
 40
56.0
100
AcDbArc
 50
245.0000000000003
 51
263.0261308132869
  0
ARC
  5
8E0
330
2
100
AcDbEntity
  8
0
100
AcDbCircle
 10
896.4505490518542
 20
274.709093252634
 30
0.0
 40
12.0
100
AcDbArc
 50
263.0261308132869
 51
345.3533200439312
  0
CIRCLE
  5
8E1
330
2
100
AcDbEntity
  8
0
100
AcDbCircle
 10
896.4505490518542
 20
274.709093252634
 30
0.0
 40
3.3235
  0
LINE
  5
8E2
330
2
100
AcDbEntity
  8
MITTE
 48
10.0
100
AcDbLine
 10
899.005674653107
 20
280.1885777872922
 30
0.0
 11
893.6774534294338
 21
268.7621704991185
 31
0.0
  0
LINE
  5
8E3
330
2
100
AcDbEntity
  8
MITTE
 48
10.0
100
AcDbLine
 10
892.1574208134234
 20
276.7110118276557
 30
0.0
 11
902.8404469540225
 21
271.7294349260243
 31
0.0
  0
ARC
  5
8E4
330
2
100
AcDbEntity
  8
LINIE
 48
10.0
100
AcDbCircle
 10
896.4505490518542
 20
274.709093252634
 30
0.0
 40
4.0
100
AcDbArc
 50
138.3492982195119
 51
73.85437576424681
  0
LINE
  5
8E5
330
2
100
AcDbEntity
  8
MITTE
 48
20.0
100
AcDbLine
 10
751.1487398213573
 20
377.03639900849
 30
0.0
 11
937.0454222947829
 21
377.03639900849
 31
0.0
  0
ARC
  5
8E6
330
2
100
AcDbEntity
  8
MITTE
 48
15.0
100
AcDbCircle
 10
844.1829283892388
 20
377.0363990084898
 30
0.0
 40
72.5
100
AcDbArc
 50
101.5931189888038
 51
141.6167398146159
  0
LINE
  5
8E7
330
2
100
AcDbEntity
  8
MITTE
 48
10.0
100
AcDbLine
 10
586.8341920518715
 20
370.2488958082853
 30
0.0
 11
722.6933689698245
 21
370.2488958082853
 31
0.0
  0
LINE
  5
8E8
330
2
100
AcDbEntity
  8
0
100
AcDbLine
 10
595.5295068454197
 20
424.2488958082852
 30
0.0
 11
709.8277192486435
 21
424.2488958082852
 31
0.0
  0
LINE
  5
8E9
330
2
100
AcDbEntity
  8
0
100
AcDbLine
 10
591.1706079018792
 20
413.2498192010675
 30
0.0
 11
613.6706079018791
 21
413.2498192010675
 31
0.0
  0
LINE
  5
8EA
330
2
100
AcDbEntity
  8
0
100
AcDbLine
 10
591.1706079018792
 20
405.3681364543836
 30
0.0
 11
613.6706079018791
 21
405.3681364543836
 31
0.0
  0
DIMENSION
  5
8EB
330
2
100
AcDbEntity
  8
BEM
100
AcDbDimension
  2
*D18
 10
549.2187003545142
 20
377.0363990084901
 30
0.0
 11
540.2187003545141
 21
404.5363990084901
 31
0.0
 70
    32
 71
     5
 42
55.0
  3
ISO-25
100
AcDbAlignedDimension
 13
556.2706079018788
 23
432.03639900849
 33
0.0
 14
556.1947775710924
 24
377.0363990084901
 34
0.0
 50
90.0
100
AcDbRotatedDimension
1001
ACAD
1000
DSTYLE
1002
{
1070
   144
1040
1.0
1070
   289
1070
     0
1002
}
  0
LINE
  5
8EC
330
2
100
AcDbEntity
  8
MITTE
 48
5.0
100
AcDbLine
 10
581.4562827558071
 20
370.2488958082853
 30
0.0
 11
599.0321379100342
 21
370.2488958082853
 31
0.0
  0
LINE
  5
8ED
330
2
100
AcDbEntity
  8
0
100
AcDbLine
 10
558.2706079018788
 20
433.0363990084901
 30
0.0
 11
591.1706079018789
 21
433.0363990084899
 31
0.0
1001
ACAD
1000
ASC_BOUNDS
1002
{
1070
    19
1002
}
  0
ARC
  5
8EE
330
2
100
AcDbEntity
  8
0
100
AcDbCircle
 10
556.2706079018788
 20
434.5363990084901
 30
0.0
 40
2.5
100
AcDbArc
 50
270.0
 51
323.1301023541534
1001
ACAD
1000
ASC_BOUNDS
1002
{
1070
    19
1002
}
  0
LINE
  5
8EF
330
2
100
AcDbEntity
  8
0
100
AcDbLine
 10
591.1706079018787
 20
422.4800498223862
 30
0.0
 11
591.1706079018788
 21
406.4800498223861
 31
0.0
1001
ACAD
1000
ASC_BOUNDS
1002
{
1070
    19
1005
0
1005
0
1002
}
  0
LINE
  5
8F0
330
2
100
AcDbEntity
  8
LINIE
100
AcDbLine
 10
595.5295068454197
 20
421.2537359223962
 30
0.0
 11
595.5295068454197
 21
414.0389746528218
 31
0.0
  0
LINE
  5
8F1
330
2
100
AcDbEntity
  8
0
100
AcDbLine
 10
594.1706079018792
 20
425.2488958082851
 30
0.0
 11
591.1706079018792
 21
425.2488958082851
 31
0.0
  0
ARC
  5
8F2
330
2
100
AcDbEntity
  8
0
100
AcDbCircle
 10
594.0921808066385
 20
423.71901814204
 30
0.0
 40
1.53188657639655
100
AcDbArc
 50
20.23666902886393
 51
87.06537877672955
  0
LINE
  5
8F3
330
2
100
AcDbEntity
  8
LINIE
100
AcDbLine
 10
613.1706079018791
 20
412.6863304730606
 30
0.0
 11
613.1706079018791
 21
405.9042583289056
 31
0.0
  0
ARC
  5
8F4
330
2
100
AcDbEntity
  8
0
100
AcDbCircle
 10
613.6706079018791
 20
402.8681364543837
 30
0.0
 40
2.5
100
AcDbArc
 50
0.0
 51
90.0
  0
ARC
  5
8F5
330
2
100
AcDbEntity
  8
0
100
AcDbCircle
 10
613.6706079018791
 20
415.7498192010676
 30
0.0
 40
2.5
100
AcDbArc
 50
270.0
 51
0.0
  0
LINE
  5
8F6
330
2
100
AcDbEntity
  8
0
100
AcDbLine
 10
719.1706079018792
 20
401.2488958082853
 30
0.0
 11
717.7972768333773
 21
416.9461417502665
 31
0.0
  0
ARC
  5
8F7
330
2
100
AcDbEntity
  8
0
100
AcDbCircle
 10
709.8277192486435
 20
416.2488958082852
 30
0.0
 40
8.0
100
AcDbArc
 50
5.000000000000026
 51
90.0
  0
ARC
  5
8F8
330
2
100
AcDbEntity
  8
MITTE
 48
15.0
100
AcDbCircle
 10
844.1829283892388
 20
377.0363990084898
 30
0.0
 40
72.5
100
AcDbArc
 50
190.8188316286221
 51
208.406881011193
  0
LINE
  5
8F9
330
2
100
AcDbEntity
  8
MITTE
 48
10.0
100
AcDbLine
 10
784.5251951646674
 20
355.3227598709525
 30
0.0
 11
765.941861681494
 21
348.5589796296348
 31
0.0
  0
CIRCLE
  5
8FA
330
2
100
AcDbEntity
  8
0
100
AcDbCircle
 10
776.0552133822606
 20
352.2399386173788
 30
0.0
 40
5.75
  0
DIMENSION
  5
8FB
330
2
100
AcDbEntity
  8
BEM
100
AcDbDimension
  2
*D19
 10
979.5540827539808
 20
397.577103930613
 30
0.0
 11
1014.105932015999
 21
435.6058654791007
 31
0.0
 70
   163
 71
     5
 42
11.5
  3
ISO-25
100
AcDbDiametricDimension
 15
987.287399089986
 25
406.0886148685887
 35
0.0
 40
0.0
1001
ACAD
1000
DSTYLE
1002
{
1070
   144
1040
1.0
1070
   289
1070
     0
1002
}
  0
LINE
  5
8FC
330
2
100
AcDbEntity
  8
MITTE
 48
10.0
100
AcDbLine
 10
903.7006389069485
 20
398.6990740486091
 30
0.0
 11
920.814787128037
 21
404.9281145859053
 31
0.0
  0
CIRCLE
  5
8FD
330
2
100
AcDbEntity
  8
0
100
AcDbCircle
 10
912.3106433962172
 20
401.8328593996007
 30
0.0
 40
5.75
  0
ARC
  5
8FE
330
2
100
AcDbEntity
  8
MITTE
 48
15.0
100
AcDbCircle
 10
844.1829283892388
 20
377.0363990084898
 30
0.0
 40
72.5
100
AcDbArc
 50
11.42334422562022
 51
28.51171634009315
  0
LINE
  5
8FF
330
2
100
AcDbEntity
  8
MITTE
 48
10.0
100
AcDbLine
 10
822.4692892517007
 20
436.6941322330607
 30
0.0
 11
815.7055090103829
 21
455.2774657162341
 31
0.0
  0
CIRCLE
  5
900
330
2
100
AcDbEntity
  8
0
100
AcDbCircle
 10
819.3864679981279
 20
445.1641140154682
 30
0.0
 40
5.75
  0
ENDSEC
  0
SECTION
  2
OBJECTS
  0
DICTIONARY
  5
1B
330
0
100
AcDbDictionary
281
     1
  3
ACAD_COLOR
350
B18
  3
ACAD_GROUP
350
19
  3
ACAD_LAYOUT
350
31D
  3
ACAD_MATERIAL
350
B17
  3
ACAD_MLEADERSTYLE
350
C89
  3
ACAD_MLINESTYLE
350
1A
  3
ACAD_PLOTSETTINGS
350
31E
  3
ACAD_PLOTSTYLENAME
350
31B
  3
ACAD_SCALELIST
350
C67
  3
ACAD_TABLESTYLE
350
BE5
  3
ACAD_VISUALSTYLE
350
C0B
  3
ACDB_RECOMPOSE_DATA
350
CC2
  3
ACDBVARIABLEDICTIONARY
350
2D7
  3
ACMDICTIONARY
350
2B5
  3
AMG
350
326
  3
AMGSNAPSETTINGS
350
392
  3
ASE_INDEX_DICTIONARY
350
D21
  0
DICTIONARY
  5
CAB
330
5
100
AcDbDictionary
280
     1
281
     1
  3
ADSK_XREC_LAYER_RECONCILED
360
CAC
  0
DICTIONARY
  5
CAD
330
21
100
AcDbDictionary
280
     1
281
     1
  3
ADSK_XREC_LAYER_RECONCILED
360
CAE
  0
DICTIONARY
  5
CAF
330
3D
100
AcDbDictionary
280
     1
281
     1
  3
ADSK_XREC_LAYER_RECONCILED
360
CB0
  0
DICTIONARY
  5
CB1
330
62
100
AcDbDictionary
280
     1
281
     1
  3
ADSK_XREC_LAYER_RECONCILED
360
CB2
  0
DICTIONARY
  5
3
330
2
100
AcDbDictionary
280
     1
281
     1
  0
DICTIONARY
  5
D66
330
A7E
100
AcDbDictionary
280
     1
281
     1
  3
ACAD_MTEXT_2008_RT
360
D67
  0
DICTIONARY
  5
D68
330
AD2
100
AcDbDictionary
280
     1
281
     1
  3
ACAD_MTEXT_2008_RT
360
D69
  0
DICTIONARY
  5
CF7
330
78F
100
AcDbDictionary
280
     1
281
     1
  3
ACMDIMBREAKPERSREACTOR
360
CF8
  0
DICTIONARY
  5
CE2
330
792
100
AcDbDictionary
280
     1
281
     1
  3
ACMDIMBREAKPERSREACTOR
360
CE3
  0
DICTIONARY
  5
D0C
330
838
100
AcDbDictionary
280
     1
281
     1
  3
ACMDIMBREAKPERSREACTOR
360
D0D
  0
DICTIONARY
  5
B18
102
{ACAD_REACTORS
330
1B
102
}
330
1B
100
AcDbDictionary
281
     1
  0
DICTIONARY
  5
19
102
{ACAD_REACTORS
330
1B
102
}
330
1B
100
AcDbDictionary
281
     1
  0
DICTIONARY
  5
31D
102
{ACAD_REACTORS
330
1B
102
}
330
1B
100
AcDbDictionary
281
     1
  3
Layout1
350
320
  3
Model
350
31F
  0
DICTIONARY
  5
B17
102
{ACAD_REACTORS
330
1B
102
}
330
1B
100
AcDbDictionary
281
     1
  3
ByBlock
350
C09
  3
ByLayer
350
C08
  3
Global
350
C0A
  0
DICTIONARY
  5
C89
102
{ACAD_REACTORS
330
1B
102
}
330
1B
100
AcDbDictionary
281
     1
  3
Standard
350
C8A
  0
DICTIONARY
  5
1A
102
{ACAD_REACTORS
330
1B
102
}
330
1B
100
AcDbDictionary
281
     1
  3
STANDARD
350
1C
  0
DICTIONARY
  5
31E
102
{ACAD_REACTORS
330
1B
102
}
330
1B
100
AcDbDictionary
281
     1
  0
ACDBDICTIONARYWDFLT
  5
31B
102
{ACAD_REACTORS
330
1B
102
}
330
1B
100
AcDbDictionary
281
     1
  3
Normal
350
31C
100
AcDbDictionaryWithDefault
340
31C
  0
DICTIONARY
  5
C67
102
{ACAD_REACTORS
330
1B
102
}
330
1B
100
AcDbDictionary
281
     1
  3
A0
350
C68
  3
A1
350
C69
  3
A2
350
C6A
  3
A3
350
C6B
  3
A4
350
C6C
  3
A5
350
C6D
  3
A6
350
C6E
  3
A7
350
C6F
  3
A8
350
C70
  3
A9
350
C71
  3
B0
350
C72
  3
B1
350
C73
  3
B2
350
C74
  3
B3
350
C75
  3
B4
350
C76
  3
B5
350
C77
  3
B6
350
C78
  3
B7
350
C79
  3
B8
350
C7A
  3
B9
350
C7B
  3
C0
350
C7C
  3
C1
350
C7D
  3
C2
350
C7E
  3
C3
350
C7F
  3
C4
350
C80
  3
C5
350
C81
  3
C6
350
C82
  3
C7
350
C83
  3
C8
350
C84
  3
C9
350
C85
  3
D0
350
C86
  3
D1
350
C87
  3
D2
350
C88
  0
DICTIONARY
  5
BE5
102
{ACAD_REACTORS
330
1B
102
}
330
1B
100
AcDbDictionary
281
     1
  3
Standard
350
BE6
  0
DICTIONARY
  5
C0B
102
{ACAD_REACTORS
330
1B
102
}
330
1B
100
AcDbDictionary
281
     1
  3
2dWireframe
350
C11
  3
3D Hidden
350
C13
  3
3dWireframe
350
C12
  3
Basic
350
C10
  3
Brighten
350
C17
  3
ColorChange
350
C1B
  3
Conceptual
350
C14
  3
Dim
350
C16
  3
Facepattern
350
C1A
  3
Flat
350
C0C
  3
FlatWithEdges
350
C0D
  3
Gouraud
350
C0E
  3
GouraudWithEdges
350
C0F
  3
Linepattern
350
C19
  3
Realistic
350
C15
  3
Thicken
350
C18
  0
XRECORD
  5
CC2
102
{ACAD_REACTORS
330
1B
102
}
330
1B
100
AcDbXrecord
280
     1
 90
        1
330
BE6
  0
DICTIONARY
  5
2D7
102
{ACAD_REACTORS
330
1B
102
}
330
1B
100
AcDbDictionary
281
     1
  3
CANNOSCALE
350
CC5
  3
CMLEADERSTYLE
350
CC3
  3
CTABLESTYLE
350
C06
  3
DIMASSOC
350
390
  3
INDEXCTL
350
2D8
  3
LIGHTINGUNITS
350
CC6
  3
MSLTSCALE
350
CC4
  0
DICTIONARY
  5
2B5
102
{ACAD_REACTORS
330
1B
102
}
330
1B
100
AcDbDictionary
280
     1
281
     1
  3
ACMSTDDICTIONARY
360
2B6
  3
AMDTSECTSYM_ARROWCOLOR
360
BEF
  0
DICTIONARY
  5
326
102
{ACAD_REACTORS
330
1B
102
}
330
1B
100
AcDbDictionary
281
     1
  0
DICTIONARY
  5
392
102
{ACAD_REACTORS
330
1B
102
}
330
1B
100
AcDbDictionary
281
     1
  0
DICTIONARY
  5
D21
102
{ACAD_REACTORS
330
1B
102
}
330
1B
100
AcDbDictionary
281
     1
  3
ASEBlockHierarchyIndexRecord
350
D22
1001
DCO15
1040
1725019664.579
  0
XRECORD
  5
CAC
102
{ACAD_REACTORS
330
CAB
102
}
330
CAB
100
AcDbXrecord
280
     1
290
     1
  0
XRECORD
  5
CAE
102
{ACAD_REACTORS
330
CAD
102
}
330
CAD
100
AcDbXrecord
280
     1
290
     1
  0
XRECORD
  5
CB0
102
{ACAD_REACTORS
330
CAF
102
}
330
CAF
100
AcDbXrecord
280
     1
290
     1
  0
XRECORD
  5
CB2
102
{ACAD_REACTORS
330
CB1
102
}
330
CB1
100
AcDbXrecord
280
     1
290
     1
  0
XRECORD
  5
D67
102
{ACAD_REACTORS
330
D66
102
}
330
D66
100
AcDbXrecord
280
     1
 40
5795.0
  1
\A1;\U+2205145
  0
XRECORD
  5
D69
102
{ACAD_REACTORS
330
D68
102
}
330
D68
100
AcDbXrecord
280
     1
 40
6453.0
  1
\A1;\U+220511.5
  0
LAYOUT
  5
320
102
{ACAD_REACTORS
330
31D
102
}
330
31D
100
AcDbPlotSettings
  1

  2
Kein
  4

  6

 40
0.0
 41
0.0
 42
0.0
 43
0.0
 44
0.0
 45
0.0
 46
0.0
 47
0.0
 48
0.0
 49
0.0
140
0.0
141
0.0
142
1.0
143
1.0
 70
   688
 72
     0
 73
     0
 74
     5
  7
Test.ctb
 75
    16
147
1.0
 76
     0
 77
     2
 78
   300
148
0.0
149
0.0
100
AcDbLayout
  1
Layout1
 70
     0
 71
     1
 10
0.0
 20
0.0
 11
420.0
 21
297.0
 12
0.0
 22
0.0
 32
0.0
 14
1.000000000000000E+20
 24
1.000000000000000E+20
 34
1.000000000000000E+20
 15
-1.000000000000000E+20
 25
-1.000000000000000E+20
 35
-1.000000000000000E+20
146
0.0
 13
0.0
 23
0.0
 33
0.0
 16
1.0
 26
0.0
 36
0.0
 17
0.0
 27
1.0
 37
0.0
 76
     0
330
8
  0
LAYOUT
  5
31F
102
{ACAD_REACTORS
330
31D
102
}
330
31D
100
AcDbPlotSettings
  1

  2
Konstruktion
  4
A4
  6

 40
7.143749713897705
 41
7.186082363128662
 42
7.059066772460937
 43
5.027069091796875
 44
209.9733276367187
 45
296.9683227539062
 46
23.19317789896825
 47
0.0
 48
0.0
 49
0.0
140
0.0
141
0.0
142
1.0
143
3.601236560291725
 70
  3764
 72
     1
 73
     1
 74
     1
  7
Zeich.ctb
 75
     0
147
0.2776823969372879
 76
     0
 77
     2
 78
   300
148
-16.23001344994418
149
-75.98877107490398
100
AcDbLayout
  1
Model
 70
     1
 71
     0
 10
0.0
 20
0.0
 11
12.0
 21
9.0
 12
0.0
 22
0.0
 32
0.0
 14
0.0
 24
0.0
 34
0.0
 15
0.0
 25
0.0
 35
0.0
146
0.0
 13
0.0
 23
0.0
 33
0.0
 16
1.0
 26
0.0
 36
0.0
 17
0.0
 27
1.0
 37
0.0
 76
     0
330
2
331
C05
1001
ACAD_PSEXT
1000
Konstruktion
1000
Kyocera FS-1030D
1000
IP_192.168.10.181
1000

1070
     0
  0
MATERIAL
  5
C09
102
{ACAD_XDICTIONARY
360
D6D
102
}
102
{ACAD_REACTORS
330
B17
102
}
330
B17
100
AcDbMaterial
  1
ByBlock
 73
     1
 78
     1
172
     1
176
     1
270
     1
274
     1
  0
MATERIAL
  5
C08
102
{ACAD_XDICTIONARY
360
D6B
102
}
102
{ACAD_REACTORS
330
B17
102
}
330
B17
100
AcDbMaterial
  1
ByLayer
 73
     1
 78
     1
172
     1
176
     1
270
     1
274
     1
  0
MATERIAL
  5
C0A
102
{ACAD_XDICTIONARY
360
D6F
102
}
102
{ACAD_REACTORS
330
B17
102
}
330
B17
100
AcDbMaterial
  1
Global
 73
     1
 78
     1
172
     1
176
     1
270
     1
274
     1
  0
MLEADERSTYLE
  5
C8A
102
{ACAD_REACTORS
330
C89
102
}
330
C89
100
AcDbMLeaderStyle
170
     2
171
     1
172
     0
 90
        2
 40
0.0
 41
0.0
173
     1
 91
-1056964608
340
F
 92
       -2
290
     1
 42
0.09
291
     1
 43
0.36
  3
Standard
 44
0.18
300

342
D
174
     1
178
     6
175
     1
176
     0
 93
-1056964608
 45
0.18
292
     0
297
     0
 46
0.18
 94
-1056964608
 47
1.0
 49
1.0
140
1.0
293
     1
141
0.0
294
     1
177
     0
142
1.0
295
     0
296
     0
143
0.125
1001
ACAD_MLEADERVER
1070
     2
  0
MLINESTYLE
  5
1C
102
{ACAD_REACTORS
330
1A
102
}
330
1A
100
AcDbMlineStyle
  2
STANDARD
 70
     0
  3

 62
     0
 51
90.0
 52
90.0
 71
     2
 49
0.5
 62
   256
  6
BYLAYER
 49
-0.5
 62
   256
  6
BYLAYER
  0
ACDBPLACEHOLDER
  5
31C
102
{ACAD_REACTORS
330
31B
102
}
330
31B
  0
SCALE
  5
C68
102
{ACAD_REACTORS
330
C67
102
}
330
C67
100
AcDbScale
 70
     0
300
1:1
140
1.0
141
1.0
290
     1
  0
SCALE
  5
C69
102
{ACAD_REACTORS
330
C67
102
}
330
C67
100
AcDbScale
 70
     0
300
1:2
140
1.0
141
2.0
290
     0
  0
SCALE
  5
C6A
102
{ACAD_REACTORS
330
C67
102
}
330
C67
100
AcDbScale
 70
     0
300
1:4
140
1.0
141
4.0
290
     0
  0
SCALE
  5
C6B
102
{ACAD_REACTORS
330
C67
102
}
330
C67
100
AcDbScale
 70
     0
300
1:5
140
1.0
141
5.0
290
     0
  0
SCALE
  5
C6C
102
{ACAD_REACTORS
330
C67
102
}
330
C67
100
AcDbScale
 70
     0
300
1:8
140
1.0
141
8.0
290
     0
  0
SCALE
  5
C6D
102
{ACAD_REACTORS
330
C67
102
}
330
C67
100
AcDbScale
 70
     0
300
1:10
140
1.0
141
10.0
290
     0
  0
SCALE
  5
C6E
102
{ACAD_REACTORS
330
C67
102
}
330
C67
100
AcDbScale
 70
     0
300
1:16
140
1.0
141
16.0
290
     0
  0
SCALE
  5
C6F
102
{ACAD_REACTORS
330
C67
102
}
330
C67
100
AcDbScale
 70
     0
300
1:20
140
1.0
141
20.0
290
     0
  0
SCALE
  5
C70
102
{ACAD_REACTORS
330
C67
102
}
330
C67
100
AcDbScale
 70
     0
300
1:30
140
1.0
141
30.0
290
     0
  0
SCALE
  5
C71
102
{ACAD_REACTORS
330
C67
102
}
330
C67
100
AcDbScale
 70
     0
300
1:40
140
1.0
141
40.0
290
     0
  0
SCALE
  5
C72
102
{ACAD_REACTORS
330
C67
102
}
330
C67
100
AcDbScale
 70
     0
300
1:50
140
1.0
141
50.0
290
     0
  0
SCALE
  5
C73
102
{ACAD_REACTORS
330
C67
102
}
330
C67
100
AcDbScale
 70
     0
300
1:100
140
1.0
141
100.0
290
     0
  0
SCALE
  5
C74
102
{ACAD_REACTORS
330
C67
102
}
330
C67
100
AcDbScale
 70
     0
300
2:1
140
2.0
141
1.0
290
     0
  0
SCALE
  5
C75
102
{ACAD_REACTORS
330
C67
102
}
330
C67
100
AcDbScale
 70
     0
300
4:1
140
4.0
141
1.0
290
     0
  0
SCALE
  5
C76
102
{ACAD_REACTORS
330
C67
102
}
330
C67
100
AcDbScale
 70
     0
300
8:1
140
8.0
141
1.0
290
     0
  0
SCALE
  5
C77
102
{ACAD_REACTORS
330
C67
102
}
330
C67
100
AcDbScale
 70
     0
300
10:1
140
10.0
141
1.0
290
     0
  0
SCALE
  5
C78
102
{ACAD_REACTORS
330
C67
102
}
330
C67
100
AcDbScale
 70
     0
300
100:1
140
100.0
141
1.0
290
     0
  0
SCALE
  5
C79
102
{ACAD_REACTORS
330
C67
102
}
330
C67
100
AcDbScale
 70
     0
300
1/128" = 1'-0"
140
0.0078125
141
12.0
290
     0
  0
SCALE
  5
C7A
102
{ACAD_REACTORS
330
C67
102
}
330
C67
100
AcDbScale
 70
     0
300
1/64" = 1'-0"
140
0.015625
141
12.0
290
     0
  0
SCALE
  5
C7B
102
{ACAD_REACTORS
330
C67
102
}
330
C67
100
AcDbScale
 70
     0
300
1/32" = 1'-0"
140
0.03125
141
12.0
290
     0
  0
SCALE
  5
C7C
102
{ACAD_REACTORS
330
C67
102
}
330
C67
100
AcDbScale
 70
     0
300
1/16" = 1'-0"
140
0.0625
141
12.0
290
     0
  0
SCALE
  5
C7D
102
{ACAD_REACTORS
330
C67
102
}
330
C67
100
AcDbScale
 70
     0
300
3/32" = 1'-0"
140
0.09375
141
12.0
290
     0
  0
SCALE
  5
C7E
102
{ACAD_REACTORS
330
C67
102
}
330
C67
100
AcDbScale
 70
     0
300
1/8" = 1'-0"
140
0.125
141
12.0
290
     0
  0
SCALE
  5
C7F
102
{ACAD_REACTORS
330
C67
102
}
330
C67
100
AcDbScale
 70
     0
300
3/16" = 1'-0"
140
0.1875
141
12.0
290
     0
  0
SCALE
  5
C80
102
{ACAD_REACTORS
330
C67
102
}
330
C67
100
AcDbScale
 70
     0
300
1/4" = 1'-0"
140
0.25
141
12.0
290
     0
  0
SCALE
  5
C81
102
{ACAD_REACTORS
330
C67
102
}
330
C67
100
AcDbScale
 70
     0
300
3/8" = 1'-0"
140
0.375
141
12.0
290
     0
  0
SCALE
  5
C82
102
{ACAD_REACTORS
330
C67
102
}
330
C67
100
AcDbScale
 70
     0
300
1/2" = 1'-0"
140
0.5
141
12.0
290
     0
  0
SCALE
  5
C83
102
{ACAD_REACTORS
330
C67
102
}
330
C67
100
AcDbScale
 70
     0
300
3/4" = 1'-0"
140
0.75
141
12.0
290
     0
  0
SCALE
  5
C84
102
{ACAD_REACTORS
330
C67
102
}
330
C67
100
AcDbScale
 70
     0
300
1" = 1'-0"
140
1.0
141
12.0
290
     0
  0
SCALE
  5
C85
102
{ACAD_REACTORS
330
C67
102
}
330
C67
100
AcDbScale
 70
     0
300
1-1/2" = 1'-0"
140
1.5
141
12.0
290
     0
  0
SCALE
  5
C86
102
{ACAD_REACTORS
330
C67
102
}
330
C67
100
AcDbScale
 70
     0
300
3" = 1'-0"
140
3.0
141
12.0
290
     0
  0
SCALE
  5
C87
102
{ACAD_REACTORS
330
C67
102
}
330
C67
100
AcDbScale
 70
     0
300
6" = 1'-0"
140
6.0
141
12.0
290
     0
  0
SCALE
  5
C88
102
{ACAD_REACTORS
330
C67
102
}
330
C67
100
AcDbScale
 70
     0
300
1'-0" = 1'-0"
140
12.0
141
12.0
290
     0
  0
TABLESTYLE
  5
BE6
102
{ACAD_XDICTIONARY
360
CC0
102
}
102
{ACAD_REACTORS
330
BE5
102
}
330
BE5
100
AcDbTableStyle
  3
Standard
 70
     0
 71
     0
 40
0.06
 41
0.06
280
     0
281
     0
  7
STANDARD
140
0.18
170
     2
 62
     0
 63
     7
283
     0
274
    -2
284
     1
 64
     0
275
    -2
285
     1
 65
     0
276
    -2
286
     1
 66
     0
277
    -2
287
     1
 67
     0
278
    -2
288
     1
 68
     0
279
    -2
289
     1
 69
     0
  7
STANDARD
140
0.25
170
     5
 62
     0
 63
     7
283
     0
274
    -2
284
     1
 64
     0
275
    -2
285
     1
 65
     0
276
    -2
286
     1
 66
     0
277
    -2
287
     1
 67
     0
278
    -2
288
     1
 68
     0
279
    -2
289
     1
 69
     0
  7
STANDARD
140
0.18
170
     5
 62
     0
 63
     7
283
     0
274
    -2
284
     1
 64
     0
275
    -2
285
     1
 65
     0
276
    -2
286
     1
 66
     0
277
    -2
287
     1
 67
     0
278
    -2
288
     1
 68
     0
279
    -2
289
     1
 69
     0
  0
VISUALSTYLE
  5
C11
102
{ACAD_REACTORS
330
C0B
102
}
330
C0B
100
AcDbVisualStyle
  2
2dWireframe
 70
     4
 71
     0
 72
     2
 73
     0
 90
        0
 40
-0.6
 41
-30.0
 62
     5
 63
     7
421
 16777215
 74
     1
 91
        4
 64
     7
 65
   257
 75
     1
175
     1
 42
1.0
 92
        0
 66
   257
 43
1.0
 76
     1
 77
     6
 78
     2
 67
     7
 79
     5
170
     0
171
     0
290
     0
174
     0
 93
        1
 44
0.0
173
     0
291
     0
 45
0.0
1001
ACAD
1000
AcDbSavedByObjectVersion
1070
     0
  0
VISUALSTYLE
  5
C13
102
{ACAD_REACTORS
330
C0B
102
}
330
C0B
100
AcDbVisualStyle
  2
3D Hidden
 70
     6
 71
     1
 72
     2
 73
     2
 90
        0
 40
-0.6
 41
-30.0
 62
     5
 63
     7
421
 16777215
 74
     2
 91
        2
 64
     7
 65
   257
 75
     2
175
     1
 42
40.0
 92
        0
 66
   257
 43
1.0
 76
     1
 77
     6
 78
     2
 67
     7
 79
     3
170
     0
171
     0
290
     0
174
     0
 93
        1
 44
0.0
173
     0
291
     0
 45
0.0
1001
ACAD
1000
AcDbSavedByObjectVersion
1070
     0
  0
VISUALSTYLE
  5
C12
102
{ACAD_REACTORS
330
C0B
102
}
330
C0B
100
AcDbVisualStyle
  2
3dWireframe
 70
     5
 71
     0
 72
     2
 73
     0
 90
        0
 40
-0.6
 41
-30.0
 62
     5
 63
     7
421
 16777215
 74
     1
 91
        4
 64
     7
 65
   257
 75
     1
175
     1
 42
1.0
 92
        0
 66
   257
 43
1.0
 76
     1
 77
     6
 78
     2
 67
     7
 79
     5
170
     0
171
     0
290
     0
174
     0
 93
        1
 44
0.0
173
     0
291
     0
 45
0.0
1001
ACAD
1000
AcDbSavedByObjectVersion
1070
     0
  0
VISUALSTYLE
  5
C10
102
{ACAD_REACTORS
330
C0B
102
}
330
C0B
100
AcDbVisualStyle
  2
Basic
 70
     7
 71
     1
 72
     0
 73
     1
 90
        0
 40
-0.6
 41
-30.0
 62
     5
 63
     7
421
 16777215
 74
     0
 91
        4
 64
     7
 65
   257
 75
     1
175
     1
 42
1.0
 92
        8
 66
     7
 43
1.0
 76
     1
 77
     6
 78
     2
 67
     7
 79
     5
170
     0
171
     0
290
     0
174
     0
 93
        1
 44
0.0
173
     0
291
     1
 45
0.0
1001
ACAD
1000
AcDbSavedByObjectVersion
1070
     0
  0
VISUALSTYLE
  5
C17
102
{ACAD_REACTORS
330
C0B
102
}
330
C0B
100
AcDbVisualStyle
  2
Brighten
 70
    12
 71
     2
 72
     2
 73
     0
 90
        0
 40
-0.6
 41
-30.0
 62
     5
 63
     7
421
 16777215
 74
     1
 91
        4
 64
     7
 65
   257
 75
     1
175
     1
 42
1.0
 92
        8
 66
     7
 43
1.0
 76
     1
 77
     6
 78
     2
 67
     7
 79
     5
170
     0
171
     0
290
     0
174
     0
 93
        1
 44
50.0
173
     0
291
     1
 45
0.0
1001
ACAD
1000
AcDbSavedByObjectVersion
1070
     0
  0
VISUALSTYLE
  5
C1B
102
{ACAD_REACTORS
330
C0B
102
}
330
C0B
100
AcDbVisualStyle
  2
ColorChange
 70
    16
 71
     2
 72
     2
 73
     3
 90
        0
 40
-0.6
 41
-30.0
 62
     5
 63
     8
421
  8421504
 74
     1
 91
        4
 64
     7
 65
   257
 75
     1
175
     1
 42
1.0
 92
        8
 66
     8
424
  8421504
 43
1.0
 76
     1
 77
     6
 78
     2
 67
     7
 79
     5
170
     0
171
     0
290
     0
174
     0
 93
        1
 44
0.0
173
     0
291
     1
 45
0.0
1001
ACAD
1000
AcDbSavedByObjectVersion
1070
     0
  0
VISUALSTYLE
  5
C14
102
{ACAD_REACTORS
330
C0B
102
}
330
C0B
100
AcDbVisualStyle
  2
Conceptual
 70
     9
 71
     3
 72
     2
 73
     0
 90
        0
 40
-0.6
 41
-30.0
 62
     5
 63
     7
421
 16777215
 74
     2
 91
        2
 64
     7
 65
   257
 75
     1
175
     1
 42
40.0
 92
        8
 66
     7
 43
1.0
 76
     1
 77
     6
 78
     2
 67
     7
 79
     3
170
     0
171
     0
290
     0
174
     0
 93
        1
 44
0.0
173
     0
291
     0
 45
0.0
1001
ACAD
1000
AcDbSavedByObjectVersion
1070
     0
  0
VISUALSTYLE
  5
C16
102
{ACAD_REACTORS
330
C0B
102
}
330
C0B
100
AcDbVisualStyle
  2
Dim
 70
    11
 71
     2
 72
     2
 73
     0
 90
        0
 40
-0.6
 41
-30.0
 62
     5
 63
     7
421
 16777215
 74
     1
 91
        4
 64
     7
 65
   257
 75
     1
175
     1
 42
1.0
 92
        8
 66
     7
 43
1.0
 76
     1
 77
     6
 78
     2
 67
     7
 79
     5
170
     0
171
     0
290
     0
174
     0
 93
        1
 44
-50.0
173
     0
291
     1
 45
0.0
1001
ACAD
1000
AcDbSavedByObjectVersion
1070
     0
  0
VISUALSTYLE
  5
C1A
102
{ACAD_REACTORS
330
C0B
102
}
330
C0B
100
AcDbVisualStyle
  2
Facepattern
 70
    15
 71
     2
 72
     2
 73
     0
 90
        0
 40
-0.6
 41
-30.0
 62
     5
 63
     7
421
 16777215
 74
     1
 91
        4
 64
     7
 65
   257
 75
     1
175
     1
 42
1.0
 92
        8
 66
     7
 43
1.0
 76
     1
 77
     6
 78
     2
 67
     7
 79
     5
170
     0
171
     0
290
     0
174
     0
 93
        1
 44
0.0
173
     0
291
     1
 45
0.0
1001
ACAD
1000
AcDbSavedByObjectVersion
1070
     0
  0
VISUALSTYLE
  5
C0C
102
{ACAD_REACTORS
330
C0B
102
}
330
C0B
100
AcDbVisualStyle
  2
Flat
 70
     0
 71
     2
 72
     1
 73
     1
 90
        2
 40
-0.6
 41
30.0
 62
     5
 63
     7
421
 16777215
 74
     0
 91
        4
 64
     7
 65
   257
 75
     1
175
     1
 42
1.0
 92
        8
 66
     7
 43
1.0
 76
     1
 77
     6
 78
     2
 67
     7
 79
     5
170
     0
171
     0
290
     0
174
     0
 93
       13
 44
0.0
173
     0
291
     1
 45
0.0
1001
ACAD
1000
AcDbSavedByObjectVersion
1070
     0
  0
VISUALSTYLE
  5
C0D
102
{ACAD_REACTORS
330
C0B
102
}
330
C0B
100
AcDbVisualStyle
  2
FlatWithEdges
 70
     1
 71
     2
 72
     1
 73
     1
 90
        2
 40
-0.6
 41
30.0
 62
     5
 63
     7
421
 16777215
 74
     1
 91
        4
 64
     7
 65
   257
 75
     1
175
     1
 42
1.0
 92
        0
 66
   257
 43
1.0
 76
     1
 77
     6
 78
     2
 67
     7
 79
     5
170
     0
171
     0
290
     0
174
     0
 93
       13
 44
0.0
173
     0
291
     1
 45
0.0
1001
ACAD
1000
AcDbSavedByObjectVersion
1070
     0
  0
VISUALSTYLE
  5
C0E
102
{ACAD_REACTORS
330
C0B
102
}
330
C0B
100
AcDbVisualStyle
  2
Gouraud
 70
     2
 71
     2
 72
     2
 73
     1
 90
        2
 40
-0.6
 41
30.0
 62
     5
 63
     7
421
 16777215
 74
     0
 91
        4
 64
     7
 65
   257
 75
     1
175
     1
 42
1.0
 92
        0
 66
     7
 43
1.0
 76
     1
 77
     6
 78
     2
 67
     7
 79
     5
170
     0
171
     0
290
     0
174
     0
 93
       13
 44
0.0
173
     0
291
     1
 45
0.0
1001
ACAD
1000
AcDbSavedByObjectVersion
1070
     0
  0
VISUALSTYLE
  5
C0F
102
{ACAD_REACTORS
330
C0B
102
}
330
C0B
100
AcDbVisualStyle
  2
GouraudWithEdges
 70
     3
 71
     2
 72
     2
 73
     1
 90
        2
 40
-0.6
 41
30.0
 62
     5
 63
     7
421
 16777215
 74
     1
 91
        4
 64
     7
 65
   257
 75
     1
175
     1
 42
1.0
 92
        0
 66
   257
 43
1.0
 76
     1
 77
     6
 78
     2
 67
     7
 79
     5
170
     0
171
     0
290
     0
174
     0
 93
       13
 44
0.0
173
     0
291
     1
 45
0.0
1001
ACAD
1000
AcDbSavedByObjectVersion
1070
     0
  0
VISUALSTYLE
  5
C19
102
{ACAD_REACTORS
330
C0B
102
}
330
C0B
100
AcDbVisualStyle
  2
Linepattern
 70
    14
 71
     2
 72
     2
 73
     0
 90
        0
 40
-0.6
 41
-30.0
 62
     5
 63
     7
421
 16777215
 74
     1
 91
        4
 64
     7
 65
   257
 75
     7
175
     7
 42
1.0
 92
        8
 66
     7
 43
1.0
 76
     1
 77
     6
 78
     2
 67
     7
 79
     5
170
     0
171
     0
290
     0
174
     0
 93
        1
 44
0.0
173
     0
291
     1
 45
0.0
1001
ACAD
1000
AcDbSavedByObjectVersion
1070
     0
  0
VISUALSTYLE
  5
C15
102
{ACAD_REACTORS
330
C0B
102
}
330
C0B
100
AcDbVisualStyle
  2
Realistic
 70
     8
 71
     2
 72
     2
 73
     0
 90
        0
 40
-0.6
 41
-30.0
 62
     5
 63
     7
421
 16777215
 74
     1
 91
        0
 64
     7
 65
   257
 75
     1
175
     1
 42
1.0
 92
        8
 66
     8
424
  7895160
 43
1.0
 76
     1
 77
     6
 78
     2
 67
     7
 79
     5
170
     0
171
     0
290
     0
174
     0
 93
       13
 44
0.0
173
     0
291
     0
 45
0.0
1001
ACAD
1000
AcDbSavedByObjectVersion
1070
     0
  0
VISUALSTYLE
  5
C18
102
{ACAD_REACTORS
330
C0B
102
}
330
C0B
100
AcDbVisualStyle
  2
Thicken
 70
    13
 71
     2
 72
     2
 73
     0
 90
        0
 40
-0.6
 41
-30.0
 62
     5
 63
     7
421
 16777215
 74
     1
 91
        4
 64
     7
 65
   257
 75
     1
175
     1
 42
1.0
 92
       12
 66
     7
 43
1.0
 76
     1
 77
     6
 78
     2
 67
     7
 79
     5
170
     0
171
     0
290
     0
174
     0
 93
        1
 44
0.0
173
     0
291
     1
 45
0.0
1001
ACAD
1000
AcDbSavedByObjectVersion
1070
     0
  0
DICTIONARYVAR
  5
CC5
102
{ACAD_REACTORS
330
2D7
102
}
330
2D7
100
DictionaryVariables
280
     0
  1
1:1
  0
DICTIONARYVAR
  5
CC3
102
{ACAD_REACTORS
330
2D7
102
}
330
2D7
100
DictionaryVariables
280
     0
  1
STANDARD
  0
DICTIONARYVAR
  5
C06
102
{ACAD_REACTORS
330
2D7
102
}
330
2D7
100
DictionaryVariables
280
     0
  1
STANDARD
  0
DICTIONARYVAR
  5
390
102
{ACAD_REACTORS
330
2D7
102
}
330
2D7
100
DictionaryVariables
280
     0
  1
1
  0
DICTIONARYVAR
  5
2D8
102
{ACAD_REACTORS
330
2D7
102
}
330
2D7
100
DictionaryVariables
280
     0
  1
1
  0
DICTIONARYVAR
  5
CC6
102
{ACAD_REACTORS
330
2D7
102
}
330
2D7
100
DictionaryVariables
280
     0
  1
0
  0
DICTIONARYVAR
  5
CC4
102
{ACAD_REACTORS
330
2D7
102
}
330
2D7
100
DictionaryVariables
280
     0
  1
0
  0
DICTIONARY
  5
2B6
102
{ACAD_REACTORS
330
2B5
102
}
330
2B5
100
AcDbDictionary
281
     1
  0
XRECORD
  5
BEF
102
{ACAD_REACTORS
330
2B5
102
}
330
2B5
100
AcDbXrecord
280
     1
 90
-1023410169
  0
XRECORD
  5
D22
102
{ACAD_REACTORS
330
D21
102
}
330
D21
100
AcDbXrecord
280
     1
  0
DICTIONARY
  5
D6D
330
C09
100
AcDbDictionary
280
     1
281
     1
  3
ACAD_XREC_ROUNDTRIP
360
D6E
  0
DICTIONARY
  5
D6B
330
C08
100
AcDbDictionary
280
     1
281
     1
  3
ACAD_XREC_ROUNDTRIP
360
D6C
  0
DICTIONARY
  5
D6F
330
C0A
100
AcDbDictionary
280
     1
281
     1
  3
ACAD_XREC_ROUNDTRIP
360
D70
  0
DICTIONARY
  5
CC0
330
BE6
100
AcDbDictionary
280
     1
281
     1
  3
ACAD_ROUNDTRIP_2008_TABLESTYLE_CELLSTYLEMAP
360
D65
  3
ACAD_XREC_ROUNDTRIP
360
D6A
  0
XRECORD
  5
D6E
102
{ACAD_REACTORS
330
D6D
102
}
330
D6D
100
AcDbXrecord
280
     1
102
MATERIAL
148
0.0
149
0.0
149
0.0
 93
        0
 94
       63
282
     0
 72
     1
 77
     1
171
     1
175
     1
179
     1
273
     0
  0
XRECORD
  5
D6C
102
{ACAD_REACTORS
330
D6B
102
}
330
D6B
100
AcDbXrecord
280
     1
102
MATERIAL
148
0.0
149
0.0
149
0.0
 93
        0
 94
       63
282
     0
 72
     1
 77
     1
171
     1
175
     1
179
     1
273
     0
  0
XRECORD
  5
D70
102
{ACAD_REACTORS
330
D6F
102
}
330
D6F
100
AcDbXrecord
280
     1
102
MATERIAL
148
0.0
149
0.0
149
0.0
 93
        0
 94
       63
282
     0
 72
     1
 77
     1
171
     1
175
     1
179
     1
273
     0
  0
CELLSTYLEMAP
  5
D65
102
{ACAD_REACTORS
330
CC0
102
}
330
CC0
100
AcDbCellStyleMap
 90
        3
300
CELLSTYLE
  1
TABLEFORMAT_BEGIN
 90
        5
170
     1
 91
        0
 92
    32768
 62
   257
 93
        1
300
CONTENTFORMAT
  1
CONTENTFORMAT_BEGIN
 90
        0
 91
        0
 92
        4
 93
        0
300

 40
0.0
140
1.0
 94
        5
 62
     0
340
D
144
0.25
309
CONTENTFORMAT_END
171
     0
 94
        6
 95
        1
302
GRIDFORMAT
  1
GRIDFORMAT_BEGIN
 90
        0
 91
        1
 62
     0
 92
       -2
340
0
 93
        0
 40
0.045
309
GRIDFORMAT_END
 95
        2
302
GRIDFORMAT
  1
GRIDFORMAT_BEGIN
 90
        0
 91
        1
 62
     0
 92
       -2
340
0
 93
        0
 40
0.045
309
GRIDFORMAT_END
 95
        4
302
GRIDFORMAT
  1
GRIDFORMAT_BEGIN
 90
        0
 91
        1
 62
     0
 92
       -2
340
0
 93
        0
 40
0.045
309
GRIDFORMAT_END
 95
        8
302
GRIDFORMAT
  1
GRIDFORMAT_BEGIN
 90
        0
 91
        1
 62
     0
 92
       -2
340
0
 93
        0
 40
0.045
309
GRIDFORMAT_END
 95
       16
302
GRIDFORMAT
  1
GRIDFORMAT_BEGIN
 90
        0
 91
        1
 62
     0
 92
       -2
340
0
 93
        0
 40
0.045
309
GRIDFORMAT_END
 95
       32
302
GRIDFORMAT
  1
GRIDFORMAT_BEGIN
 90
        0
 91
        1
 62
     0
 92
       -2
340
0
 93
        0
 40
0.045
309
GRIDFORMAT_END
309
TABLEFORMAT_END
  1
CELLSTYLE_BEGIN
 90
        1
 91
        1
300
_TITLE
309
CELLSTYLE_END
300
CELLSTYLE
  1
TABLEFORMAT_BEGIN
 90
        5
170
     1
 91
        0
 92
        0
 62
   257
 93
        1
300
CONTENTFORMAT
  1
CONTENTFORMAT_BEGIN
 90
        0
 91
        0
 92
        4
 93
        0
300

 40
0.0
140
1.0
 94
        5
 62
     0
340
D
144
0.18
309
CONTENTFORMAT_END
171
     0
 94
        6
 95
        1
302
GRIDFORMAT
  1
GRIDFORMAT_BEGIN
 90
        0
 91
        1
 62
     0
 92
       -2
340
0
 93
        0
 40
0.045
309
GRIDFORMAT_END
 95
        2
302
GRIDFORMAT
  1
GRIDFORMAT_BEGIN
 90
        0
 91
        1
 62
     0
 92
       -2
340
0
 93
        0
 40
0.045
309
GRIDFORMAT_END
 95
        4
302
GRIDFORMAT
  1
GRIDFORMAT_BEGIN
 90
        0
 91
        1
 62
     0
 92
       -2
340
0
 93
        0
 40
0.045
309
GRIDFORMAT_END
 95
        8
302
GRIDFORMAT
  1
GRIDFORMAT_BEGIN
 90
        0
 91
        1
 62
     0
 92
       -2
340
0
 93
        0
 40
0.045
309
GRIDFORMAT_END
 95
       16
302
GRIDFORMAT
  1
GRIDFORMAT_BEGIN
 90
        0
 91
        1
 62
     0
 92
       -2
340
0
 93
        0
 40
0.045
309
GRIDFORMAT_END
 95
       32
302
GRIDFORMAT
  1
GRIDFORMAT_BEGIN
 90
        0
 91
        1
 62
     0
 92
       -2
340
0
 93
        0
 40
0.045
309
GRIDFORMAT_END
309
TABLEFORMAT_END
  1
CELLSTYLE_BEGIN
 90
        2
 91
        1
300
_HEADER
309
CELLSTYLE_END
300
CELLSTYLE
  1
TABLEFORMAT_BEGIN
 90
        5
170
     1
 91
        0
 92
        0
 62
   257
 93
        1
300
CONTENTFORMAT
  1
CONTENTFORMAT_BEGIN
 90
        0
 91
        0
 92
        4
 93
        0
300

 40
0.0
140
1.0
 94
        2
 62
     0
340
D
144
0.18
309
CONTENTFORMAT_END
171
     0
 94
        6
 95
        1
302
GRIDFORMAT
  1
GRIDFORMAT_BEGIN
 90
        0
 91
        1
 62
     0
 92
       -2
340
0
 93
        0
 40
0.045
309
GRIDFORMAT_END
 95
        2
302
GRIDFORMAT
  1
GRIDFORMAT_BEGIN
 90
        0
 91
        1
 62
     0
 92
       -2
340
0
 93
        0
 40
0.045
309
GRIDFORMAT_END
 95
        4
302
GRIDFORMAT
  1
GRIDFORMAT_BEGIN
 90
        0
 91
        1
 62
     0
 92
       -2
340
0
 93
        0
 40
0.045
309
GRIDFORMAT_END
 95
        8
302
GRIDFORMAT
  1
GRIDFORMAT_BEGIN
 90
        0
 91
        1
 62
     0
 92
       -2
340
0
 93
        0
 40
0.045
309
GRIDFORMAT_END
 95
       16
302
GRIDFORMAT
  1
GRIDFORMAT_BEGIN
 90
        0
 91
        1
 62
     0
 92
       -2
340
0
 93
        0
 40
0.045
309
GRIDFORMAT_END
 95
       32
302
GRIDFORMAT
  1
GRIDFORMAT_BEGIN
 90
        0
 91
        1
 62
     0
 92
       -2
340
0
 93
        0
 40
0.045
309
GRIDFORMAT_END
309
TABLEFORMAT_END
  1
CELLSTYLE_BEGIN
 90
        3
 91
        2
300
_DATA
309
CELLSTYLE_END
  0
XRECORD
  5
D6A
102
{ACAD_REACTORS
330
CC0
102
}
330
CC0
100
AcDbXrecord
280
     1
102
ACAD_ROUNDTRIP_PRE2007_TABLESTYLE
 90
        4
 91
        0
  1

 92
        4
 93
        0
  2

 94
        4
 95
        0
  3

  0
ENDSEC
  0
EOF
