  0
SECTION
  2
HEADER
  9
$ACADVER
  1
AC1018
  9
$ACADMAINTVER
 70
   104
  9
$DWGCODEPAGE
  3
ANSI_1252
  9
$LASTSAVEDBY
  1
ibasyouni
  9
$INSBASE
 10
0.0
 20
0.0
 30
0.0
  9
$EXTMIN
 10
23.3558845191792
 20
38.4286020812044
 30
0.0
  9
$EXTMAX
 10
1105.325668718416
 20
555.2887239855569
 30
0.0
  9
$LIMMIN
 10
0.0
 20
0.0
  9
$LIMMAX
 10
1150.0
 20
600.0
  9
$ORTHOMODE
 70
     1
  9
$REGENMODE
 70
     1
  9
$FILLMODE
 70
     1
  9
$QTEXTMODE
 70
     0
  9
$MIRRTEXT
 70
     1
  9
$LTSCALE
 40
1.0
  9
$ATTMODE
 70
     1
  9
$TEXTSIZE
 40
10.0
  9
$TRACEWID
 40
1.0
  9
$TEXTSTYLE
  7
STANDARD
  9
$CLAYER
  8
0
  9
$CELTYPE
  6
BYLAYER
  9
$CECOLOR
 62
   256
  9
$CELTSCALE
 40
10.0
  9
$DISPSILH
 70
     0
  9
$DIMSCALE
 40
1.0
  9
$DIMASZ
 40
7.0
  9
$DIMEXO
 40
0.0
  9
$DIMDLI
 40
7.0
  9
$DIMRND
 40
0.0
  9
$DIMDLE
 40
0.0
  9
$DIMEXE
 40
1.25
  9
$DIMTP
 40
0.0
  9
$DIMTM
 40
0.0
  9
$DIMTXT
 40
10.0
  9
$DIMCEN
 40
0.0
  9
$DIMTSZ
 40
0.0
  9
$DIMTOL
 70
     0
  9
$DIMLIM
 70
     0
  9
$DIMTIH
 70
     0
  9
$DIMTOH
 70
     0
  9
$DIMSE1
 70
     0
  9
$DIMSE2
 70
     0
  9
$DIMTAD
 70
     1
  9
$DIMZIN
 70
     8
  9
$DIMBLK
  1

  9
$DIMASO
 70
     1
  9
$DIMSHO
 70
     1
  9
$DIMPOST
  1

  9
$DIMAPOST
  1

  9
$DIMALT
 70
     0
  9
$DIMALTD
 70
     2
  9
$DIMALTF
 40
25.4
  9
$DIMLFAC
 40
1.0
  9
$DIMTOFL
 70
     1
  9
$DIMTVP
 40
0.0
  9
$DIMTIX
 70
     0
  9
$DIMSOXD
 70
     0
  9
$DIMSAH
 70
     0
  9
$DIMBLK1
  1

  9
$DIMBLK2
  1

  9
$DIMSTYLE
  2
ISO-25
  9
$DIMCLRD
 70
   256
  9
$DIMCLRE
 70
   256
  9
$DIMCLRT
 70
   256
  9
$DIMTFAC
 40
1.0
  9
$DIMGAP
 40
4.0
  9
$DIMJUST
 70
     0
  9
$DIMSD1
 70
     0
  9
$DIMSD2
 70
     0
  9
$DIMTOLJ
 70
     1
  9
$DIMTZIN
 70
     8
  9
$DIMALTZ
 70
     0
  9
$DIMALTTZ
 70
     0
  9
$DIMUPT
 70
     1
  9
$DIMDEC
 70
     4
  9
$DIMTDEC
 70
     4
  9
$DIMALTU
 70
     2
  9
$DIMALTTD
 70
     2
  9
$DIMTXSTY
  7
STANDARD
  9
$DIMAUNIT
 70
     0
  9
$DIMADEC
 70
     0
  9
$DIMALTRND
 40
0.0
  9
$DIMAZIN
 70
     0
  9
$DIMDSEP
 70
    46
  9
$DIMATFIT
 70
     0
  9
$DIMFRAC
 70
     0
  9
$DIMLDRBLK
  1

  9
$DIMLUNIT
 70
     2
  9
$DIMLWD
 70
    -2
  9
$DIMLWE
 70
    -2
  9
$DIMTMOVE
 70
     0
  9
$LUNITS
 70
     2
  9
$LUPREC
 70
     4
  9
$SKETCHINC
 40
1.0
  9
$FILLETRAD
 40
2.5
  9
$AUNITS
 70
     0
  9
$AUPREC
 70
     0
  9
$MENU
  1
.
  9
$ELEVATION
 40
0.0
  9
$PELEVATION
 40
0.0
  9
$THICKNESS
 40
0.0
  9
$LIMCHECK
 70
     0
  9
$CHAMFERA
 40
2.0
  9
$CHAMFERB
 40
2.0
  9
$CHAMFERC
 40
0.0
  9
$CHAMFERD
 40
0.0
  9
$SKPOLY
 70
     0
  9
$TDCREATE
 40
2450848.753473218
  9
$TDUCREATE
 40
2450848.670139884
  9
$TDUPDATE
 40
2455757.671130208
  9
$TDUUPDATE
 40
2455757.587796875
  9
$TDINDWG
 40
1.8783413426
  9
$TDUSRTIMER
 40
1.8783413426
  9
$USRTIMER
 70
     1
  9
$ANGBASE
 50
0.0
  9
$ANGDIR
 70
     0
  9
$PDMODE
 70
     0
  9
$PDSIZE
 40
0.0
  9
$PLINEWID
 40
0.5
  9
$SPLFRAME
 70
     0
  9
$SPLINETYPE
 70
     6
  9
$SPLINESEGS
 70
     8
  9
$HANDSEED
  5
91F
  9
$SURFTAB1
 70
     6
  9
$SURFTAB2
 70
     6
  9
$SURFTYPE
 70
     6
  9
$SURFU
 70
     6
  9
$SURFV
 70
     6
  9
$UCSBASE
  2

  9
$UCSNAME
  2

  9
$UCSORG
 10
0.0
 20
0.0
 30
0.0
  9
$UCSXDIR
 10
1.0
 20
0.0
 30
0.0
  9
$UCSYDIR
 10
0.0
 20
1.0
 30
0.0
  9
$UCSORTHOREF
  2

  9
$UCSORTHOVIEW
 70
     0
  9
$UCSORGTOP
 10
0.0
 20
0.0
 30
0.0
  9
$UCSORGBOTTOM
 10
0.0
 20
0.0
 30
0.0
  9
$UCSORGLEFT
 10
0.0
 20
0.0
 30
0.0
  9
$UCSORGRIGHT
 10
0.0
 20
0.0
 30
0.0
  9
$UCSORGFRONT
 10
0.0
 20
0.0
 30
0.0
  9
$UCSORGBACK
 10
0.0
 20
0.0
 30
0.0
  9
$PUCSBASE
  2

  9
$PUCSNAME
  2

  9
$PUCSORG
 10
0.0
 20
0.0
 30
0.0
  9
$PUCSXDIR
 10
1.0
 20
0.0
 30
0.0
  9
$PUCSYDIR
 10
0.0
 20
1.0
 30
0.0
  9
$PUCSORTHOREF
  2

  9
$PUCSORTHOVIEW
 70
     0
  9
$PUCSORGTOP
 10
0.0
 20
0.0
 30
0.0
  9
$PUCSORGBOTTOM
 10
0.0
 20
0.0
 30
0.0
  9
$PUCSORGLEFT
 10
0.0
 20
0.0
 30
0.0
  9
$PUCSORGRIGHT
 10
0.0
 20
0.0
 30
0.0
  9
$PUCSORGFRONT
 10
0.0
 20
0.0
 30
0.0
  9
$PUCSORGBACK
 10
0.0
 20
0.0
 30
0.0
  9
$USERI1
 70
     0
  9
$USERI2
 70
     0
  9
$USERI3
 70
     0
  9
$USERI4
 70
     0
  9
$USERI5
 70
     0
  9
$USERR1
 40
0.0
  9
$USERR2
 40
0.0
  9
$USERR3
 40
0.0
  9
$USERR4
 40
0.0
  9
$USERR5
 40
0.0
  9
$WORLDVIEW
 70
     1
  9
$SHADEDGE
 70
     3
  9
$SHADEDIF
 70
    70
  9
$TILEMODE
 70
     1
  9
$MAXACTVP
 70
    16
  9
$PINSBASE
 10
0.0
 20
0.0
 30
0.0
  9
$PLIMCHECK
 70
     0
  9
$PEXTMIN
 10
1.000000000000000E+20
 20
1.000000000000000E+20
 30
1.000000000000000E+20
  9
$PEXTMAX
 10
-1.000000000000000E+20
 20
-1.000000000000000E+20
 30
-1.000000000000000E+20
  9
$PLIMMIN
 10
0.0
 20
0.0
  9
$PLIMMAX
 10
420.0
 20
297.0
  9
$UNITMODE
 70
     0
  9
$VISRETAIN
 70
     0
  9
$PLINEGEN
 70
     0
  9
$PSLTSCALE
 70
     0
  9
$TREEDEPTH
 70
  3020
  9
$CMLSTYLE
  2
STANDARD
  9
$CMLJUST
 70
     0
  9
$CMLSCALE
 40
1.0
  9
$PROXYGRAPHICS
 70
     1
  9
$MEASUREMENT
 70
     0
  9
$CELWEIGHT
370
    -1
  9
$ENDCAPS
280
     0
  9
$JOINSTYLE
280
     0
  9
$LWDISPLAY
290
     0
  9
$INSUNITS
 70
     0
  9
$HYPERLINKBASE
  1

  9
$STYLESHEET
  1
Zeich.ctb
  9
$XEDIT
290
     1
  9
$CEPSNTYPE
380
     0
  9
$PSTYLEMODE
290
     1
  9
$FINGERPRINTGUID
  2
{2A53872F-1A09-433D-9F6E-62478B6AA31C}
  9
$VERSIONGUID
  2
{EDFF9C12-B7DD-4163-8C65-F4B37C5CE33C}
  9
$EXTNAMES
290
     1
  9
$PSVPSCALE
 40
0.0
  9
$OLESTARTUP
290
     0
  9
$SORTENTS
280
   127
  9
$INDEXCTL
280
     0
  9
$HIDETEXT
280
     0
  9
$XCLIPFRAME
290
     0
  9
$HALOGAP
280
     0
  9
$OBSCOLOR
 70
   257
  9
$OBSLTYPE
280
     0
  9
$INTERSECTIONDISPLAY
280
     0
  9
$INTERSECTIONCOLOR
 70
   257
  9
$DIMASSOC
280
     1
  9
$PROJECTNAME
  1

  0
ENDSEC
  0
SECTION
  2
CLASSES
  0
CLASS
  1
IDBUFFER
  2
AcDbIdBuffer
  3
ObjectDBX Classes
 90
        0
 91
        0
280
     0
281
     0
  0
CLASS
  1
DICTIONARYVAR
  2
AcDbDictionaryVar
  3
ObjectDBX Classes
 90
        0
 91
        6
280
     0
281
     0
  0
CLASS
  1
ACMESTATEMGR
  2
AcMeStateMgr
  3
AcMeServices
 90
     1024
 91
        1
280
     0
281
     0
  0
CLASS
  1
ACMESCOPE
  2
AcMeScope
  3
AcMeServices
 90
     1024
 91
        1
280
     0
281
     0
  0
CLASS
  1
ACMECOMMANDHISTORY
  2
AcMeCommandHistory
  3
AcMeServices
 90
     1024
 91
        1
280
     0
281
     0
  0
CLASS
  1
ACRFINSADJUSTERMGR
  2
AcRfInsAdjusterMgr
  3
AcMeServices
 90
     1024
 91
        1
280
     0
281
     0
  0
CLASS
  1
ACMEDRAWINGMAN
  2
AcMeDrawingMan
  3
AcMeServices
 90
     1024
 91
        1
280
     0
281
     0
  0
CLASS
  1
AMATTR
  2
AcMeAttribute
  3
AcMeServices
 90
     1024
 91
        0
280
     0
281
     0
  0
CLASS
  1
ACMEBOMCOLUMN
  2
AcMeBOMColumn
  3
AcMeServices
 90
     1024
 91
        0
280
     0
281
     0
  0
CLASS
  1
ACMEBOMCONF
  2
AcMeBOMConf
  3
AcMeServices
 90
     1024
 91
        0
280
     0
281
     0
  0
CLASS
  1
ACMEBOMTABLE
  2
AcMeBOMTable
  3
AcMeServices
 90
     1024
 91
        0
280
     0
281
     0
  0
CLASS
  1
ACMEBOMENTRY
  2
AcMeBOMEntry
  3
AcMeServices
 90
     1024
 91
        0
280
     0
281
     0
  0
CLASS
  1
ACMEVIEW
  2
AcMeView
  3
AcMeServices
 90
     1024
 91
        0
280
     0
281
     0
  0
CLASS
  1
LAYER_INDEX
  2
AcDbLayerIndex
  3
ObjectDBX Classes
 90
        0
 91
        0
280
     0
281
     0
  0
CLASS
  1
ACIMSYSVARMAN
  2
AcImSysVarManager
  3
AcMeServices
 90
     1024
 91
        5
280
     0
281
     0
  0
CLASS
  1
ACIMINTSYSVAR
  2
AcImIntSysVar
  3
AcMeServices
 90
     1024
 91
       27
280
     0
281
     0
  0
CLASS
  1
ACIMSTRSYSVAR
  2
AcImStrSysVar
  3
AcMeServices
 90
     1024
 91
        5
280
     0
281
     0
  0
CLASS
  1
ACMSTANDARDJIS
  2
AcmStandardJIS
  3
"Amdt_StdImp|Product Description: AutoCAD Mechanical|Company: Autodesk, Inc."
 90
     1024
 91
        1
280
     0
281
     0
  0
CLASS
  1
ACMSTANDARDANSI
  2
AcmStandardANSI
  3
"Amdt_StdImp|Product Description: AutoCAD Mechanical|Company: Autodesk, Inc."
 90
     1024
 91
        1
280
     0
281
     0
  0
CLASS
  1
ACMSTANDARDBSI
  2
AcmStandardBSI
  3
"Amdt_StdImp|Product Description: AutoCAD Mechanical|Company: Autodesk, Inc."
 90
     1024
 91
        1
280
     0
281
     0
  0
CLASS
  1
ACMSTANDARDDIN
  2
AcmStandardDIN
  3
"Amdt_StdImp|Product Description: AutoCAD Mechanical|Company: Autodesk, Inc."
 90
     1024
 91
        1
280
     0
281
     0
  0
CLASS
  1
ACMSTANDARDISO
  2
AcmStandardISO
  3
"Amdt_StdImp|Product Description: AutoCAD Mechanical|Company: Autodesk, Inc."
 90
     1024
 91
        1
280
     0
281
     0
  0
CLASS
  1
ACDBDICTIONARYWDFLT
  2
AcDbDictionaryWithDefault
  3
ObjectDBX Classes
 90
        0
 91
        1
280
     0
281
     0
  0
CLASS
  1
TABLESTYLE
  2
AcDbTableStyle
  3
ObjectDBX Classes
 90
     4095
 91
        1
280
     0
281
     0
  0
CLASS
  1
ACME_DOCUMENT
  2
AcMeDbDoc
  3
AcMeServices
 90
     1024
 91
        2
280
     0
281
     0
  0
CLASS
  1
AMGSETTINGSOBJ
  2
AmgSettingsObj
  3
"AcadM|Product Description: AutoCAD Mechanical|Company: Autodesk, Inc."
 90
     1024
 91
        2
280
     0
281
     0
  0
CLASS
  1
ACDBENTITYCACHE
  2
AcMeEntityCache
  3
AcMeServices
 90
     1024
 91
        1
280
     0
281
     0
  0
CLASS
  1
GSMANAGER
  2
AcMeGSManager
  3
AcMeServices
 90
     1024
 91
        1
280
     0
281
     0
  0
CLASS
  1
AMDTINTERNALREACTOR
  2
AmdtInternalReactor
  3
AcMeServices
 90
     1024
 91
        2
280
     0
281
     0
  0
CLASS
  1
ACGREFMASTER
  2
AcGrefMaster
  3
AcAttribServices
 90
     1024
 91
        1
280
     0
281
     0
  0
CLASS
  1
AM_DRAWING_MGR
  2
AcDmDwgMgr
  3
AcMechDwgViewMgmt
 90
     1024
 91
        1
280
     0
281
     0
  0
CLASS
  1
AM_DWG_DOCUMENT
  2
AcDmDwgDocument
  3
AcMechDwgViewMgmt
 90
     1024
 91
        1
280
     0
281
     0
  0
CLASS
  1
AM_DWG_SHEET
  2
AcDmSheet
  3
AcMechDwgViewMgmt
 90
     1024
 91
        1
280
     0
281
     0
  0
CLASS
  1
AM_VIEWDIMPARMAP
  2
AcDmViewDimParMap
  3
AcMechDwgViewMgmt
 90
     1024
 91
        1
280
     0
281
     0
  0
CLASS
  1
ACIMREALSYSVAR
  2
AcImRealSysVar
  3
AcMeServices
 90
     1024
 91
        1
280
     0
281
     0
  0
CLASS
  1
AM_DWGMGR_NAME
  2
AcDmDwgMgrName
  3
AcMechDwgViewMgmt
 90
     1024
 91
        1
280
     0
281
     0
  0
CLASS
  1
ACME_DATABASE
  2
AcMeDbDatabase
  3
AcMeServices
 90
     1024
 91
        1
280
     0
281
     0
  0
CLASS
  1
ACGREFACADMASTER
  2
AcGrefacadMaster
  3
AcGrefServices
 90
     1024
 91
        1
280
     0
281
     0
  0
CLASS
  1
AMDTMENUSTATEMGR
  2
AmdtMenuStateMgr
  3
McadcomServices
 90
     1024
 91
        1
280
     0
281
     0
  0
CLASS
  1
AMDTMCOMMENUSTATE
  2
AmdtMcomMenuState
  3
McadcomServices
 90
     1024
 91
        1
280
     0
281
     0
  0
CLASS
  1
AMIMASTER
  2
AmiMaster
  3
AmiServices
 90
     1024
 91
        1
280
     0
281
     0
  0
CLASS
  1
MAPIAMMOUDLE
  2
MApiAmModule
  3
MApiAmServices
 90
     1024
 91
        1
280
     0
281
     0
  0
CLASS
  1
AMDTADMENUSTATE
  2
AmdtAdMenuState
  3
DesignerServices
 90
     1024
 91
        1
280
     0
281
     0
  0
CLASS
  1
ADAPPL
  2
AcAdAppl
  3
DesignerServices
 90
     1024
 91
        1
280
     0
281
     0
  0
CLASS
  1
DEPMGR
  2
AcAdDepMgr
  3
DesignerServices
 90
     1024
 91
        1
280
     0
281
     0
  0
CLASS
  1
PARAMMGR
  2
AcAdParamMgr
  3
DesignerServices
 90
     1024
 91
        1
280
     0
281
     0
  0
CLASS
  1
PARAMSCOPE
  2
AcAdParamScope
  3
DesignerServices
 90
     1024
 91
        1
280
     0
281
     0
  0
CLASS
  1
NAMEDAPPL
  2
AcAdNamedAppl
  3
DesignerServices
 90
     1024
 91
        1
280
     0
281
     0
  0
CLASS
  1
AMDTDMMENUSTATE
  2
AmdtDmMenuState
  3
AcMechDwgViewMgmt
 90
     1024
 91
        1
280
     0
281
     0
  0
CLASS
  1
AMDTAMMENUSTATE
  2
AmdtAmMenuState
  3
DesignerAssemblies
 90
     1024
 91
        1
280
     0
281
     0
  0
CLASS
  1
ACAMPROJECT
  2
AcAmProject
  3
DesignerAssemblies
 90
     1024
 91
        1
280
     0
281
     0
  0
CLASS
  1
ACAMGRCOMPDEF
  2
AcAmGrCompDef
  3
DesignerAssemblies
 90
     1024
 91
        1
280
     0
281
     0
  0
CLASS
  1
ACCMCONTEXT
  2
AcCmContext
  3
DesignerAssemblies
 90
     1024
 91
        1
280
     0
281
     0
  0
CLASS
  1
ACAMCOMPDEF
  2
AcAmCompDef
  3
DesignerAssemblies
 90
     1024
 91
        1
280
     0
281
     0
  0
CLASS
  1
ACAMCOMPDEFMGR
  2
AcAmCompDefMgr
  3
DesignerAssemblies
 90
     1024
 91
        1
280
     0
281
     0
  0
CLASS
  1
AMCONTEXTMGR
  2
AcAmContextMgr
  3
DesignerAssemblies
 90
     1024
 91
        1
280
     0
281
     0
  0
CLASS
  1
ACAMCONTEXTMODELER
  2
AcAmContextModeler
  3
DesignerAssemblies
 90
     1024
 91
        1
280
     0
281
     0
  0
CLASS
  1
ACMDATADICTIONARY
  2
AcmDataDictionary
  3
"AcmSymBB|Product Description: AutoCAD Mechanical|Company: Autodesk, Inc."
 90
     1024
 91
        1
280
     0
281
     0
  0
CLASS
  1
ACMSURFSTANDARDJIS
  2
AcmSurfTextStdJIS
  3
"Amdt_StdImp|Product Description: AutoCAD Mechanical|Company: Autodesk, Inc."
 90
     1024
 91
        1
280
     0
281
     0
  0
CLASS
  1
ACMFCFSTANDARDJIS98
  2
AcmFCFStdJIS98
  3
"Amdt_StdImp|Product Description: AutoCAD Mechanical|Company: Autodesk, Inc."
 90
     1024
 91
        1
280
     0
281
     0
  0
CLASS
  1
ACMWELDSTANDARDJIS
  2
AcmWeldingStdJIS
  3
"Amdt_StdImp|Product Description: AutoCAD Mechanical|Company: Autodesk, Inc."
 90
     1024
 91
        1
280
     0
281
     0
  0
CLASS
  1
ACMIDSTANDARDJIS
  2
AcmIdStdJIS
  3
"Amdt_StdImp|Product Description: AutoCAD Mechanical|Company: Autodesk, Inc."
 90
     1024
 91
        1
280
     0
281
     0
  0
CLASS
  1
ACMDATUMSTANDARDJIS
  2
AcmDatumStdJIS
  3
"Amdt_StdImp|Product Description: AutoCAD Mechanical|Company: Autodesk, Inc."
 90
     1024
 91
        1
280
     0
281
     0
  0
CLASS
  1
ACMBOMSTANDARDJIS
  2
AcmBOMStdJIS
  3
"Amdt_StdImp|Product Description: AutoCAD Mechanical|Company: Autodesk, Inc."
 90
     1024
 91
        1
280
     0
281
     0
  0
CLASS
  1
AMGOBJPROPCFG
  2
AmgObjPropCfg
  3
"AmgLay|Product Description: AutoCAD Mechanical|Company: Autodesk, Inc."
 90
     1025
 91
        1
280
     0
281
     0
  0
CLASS
  1
ACMDETAILSTANDARDJIS
  2
AmdtDetailSymStdJIS
  3
"Amdt_StdImp|Product Description: AutoCAD Mechanical|Company: Autodesk, Inc."
 90
     1024
 91
        1
280
     0
281
     0
  0
CLASS
  1
ACMSECTIONSTANDARDJIS
  2
AmdtSectionSymStdJIS
  3
"Amdt_StdImp|Product Description: AutoCAD Mechanical|Company: Autodesk, Inc."
 90
     1024
 91
        1
280
     0
281
     0
  0
CLASS
  1
ACMCENTERLINESTANDARDJIS
  2
AmdtCenterLineStdJIS
  3
"Amdt_StdImp|Product Description: AutoCAD Mechanical|Company: Autodesk, Inc."
 90
     1024
 91
        1
280
     0
281
     0
  0
CLASS
  1
ACMTHREADLINESTANDARDJIS
  2
AmdtThreadLineStdJIS
  3
"Amdt_StdImp|Product Description: AutoCAD Mechanical|Company: Autodesk, Inc."
 90
     1024
 91
        1
280
     0
281
     0
  0
CLASS
  1
ACMNOTESTANDARDJIS
  2
AmdtNoteStdJIS
  3
"Amdt_StdImp|Product Description: AutoCAD Mechanical|Company: Autodesk, Inc."
 90
     1024
 91
        1
280
     0
281
     0
  0
CLASS
  1
AMDTNOTETEMPLATEDB
  2
AmdtNoteTemplateDB
  3
AcmSymBB|Product Description: AutoCAD Mechanical|Company: Autodesk, Inc.
 90
     1024
 91
       25
280
     0
281
     0
  0
CLASS
  1
ACAMGTITLESTD
  2
AcAmgTitleStd
  3
"AmgTitle|Product Description: AutoCAD Mechanical|Company: Autodesk, Inc."
 90
     4095
 91
        5
280
     0
281
     0
  0
CLASS
  1
ACMSURFSTANDARDANSI
  2
AcmSurfTextStdANSI
  3
"Amdt_StdImp|Product Description: AutoCAD Mechanical|Company: Autodesk, Inc."
 90
     1024
 91
        1
280
     0
281
     0
  0
CLASS
  1
ACMFCFSTANDARDANSI
  2
AcmFCFStdANSI
  3
"Amdt_StdImp|Product Description: AutoCAD Mechanical|Company: Autodesk, Inc."
 90
     1024
 91
        1
280
     0
281
     0
  0
CLASS
  1
ACMWELDSTANDARDANSI
  2
AcmWeldingStdANSI
  3
"Amdt_StdImp|Product Description: AutoCAD Mechanical|Company: Autodesk, Inc."
 90
     1024
 91
        1
280
     0
281
     0
  0
CLASS
  1
ACMIDSTANDARDANSI
  2
AcmIdStdANSI
  3
"Amdt_StdImp|Product Description: AutoCAD Mechanical|Company: Autodesk, Inc."
 90
     1024
 91
        1
280
     0
281
     0
  0
CLASS
  1
ACMDATUMSTANDARDANSI
  2
AcmDatumStdANSI
  3
"Amdt_StdImp|Product Description: AutoCAD Mechanical|Company: Autodesk, Inc."
 90
     1024
 91
        1
280
     0
281
     0
  0
CLASS
  1
ACMBOMSTANDARDANSI
  2
AcmBOMStdANSI
  3
"Amdt_StdImp|Product Description: AutoCAD Mechanical|Company: Autodesk, Inc."
 90
     1024
 91
        1
280
     0
281
     0
  0
CLASS
  1
ACMDETAILSTANDARDANSI
  2
AmdtDetailSymStdANSI
  3
"Amdt_StdImp|Product Description: AutoCAD Mechanical|Company: Autodesk, Inc."
 90
     1024
 91
        1
280
     0
281
     0
  0
CLASS
  1
ACMSECTIONSTANDARDANSI
  2
AmdtSectionSymStdANSI
  3
"Amdt_StdImp|Product Description: AutoCAD Mechanical|Company: Autodesk, Inc."
 90
     1024
 91
        1
280
     0
281
     0
  0
CLASS
  1
ACMCENTERLINESTANDARDANSI
  2
AmdtCenterLineStdANSI
  3
"Amdt_StdImp|Product Description: AutoCAD Mechanical|Company: Autodesk, Inc."
 90
     1024
 91
        1
280
     0
281
     0
  0
CLASS
  1
ACMTHREADLINESTANDARDANSI
  2
AmdtThreadLineStdANSI
  3
"Amdt_StdImp|Product Description: AutoCAD Mechanical|Company: Autodesk, Inc."
 90
     1024
 91
        1
280
     0
281
     0
  0
CLASS
  1
ACMNOTESTANDARDANSI
  2
AmdtNoteStdANSI
  3
"Amdt_StdImp|Product Description: AutoCAD Mechanical|Company: Autodesk, Inc."
 90
     1024
 91
        1
280
     0
281
     0
  0
CLASS
  1
ACMSURFSTANDARDBSI
  2
AcmSurfTextStdBSI
  3
"Amdt_StdImp|Product Description: AutoCAD Mechanical|Company: Autodesk, Inc."
 90
     1024
 91
        1
280
     0
281
     0
  0
CLASS
  1
ACMFCFSTANDARDBSI
  2
AcmFCFStdBSI
  3
"Amdt_StdImp|Product Description: AutoCAD Mechanical|Company: Autodesk, Inc."
 90
     1024
 91
        1
280
     0
281
     0
  0
CLASS
  1
ACMWELDSTANDARDBSI
  2
AcmWeldingStdBSI
  3
"Amdt_StdImp|Product Description: AutoCAD Mechanical|Company: Autodesk, Inc."
 90
     1024
 91
        1
280
     0
281
     0
  0
CLASS
  1
ACMIDSTANDARDBSI
  2
AcmIdStdBSI
  3
"Amdt_StdImp|Product Description: AutoCAD Mechanical|Company: Autodesk, Inc."
 90
     1024
 91
        1
280
     0
281
     0
  0
CLASS
  1
ACMDATUMSTANDARDBSI
  2
AcmDatumStdBSI
  3
"Amdt_StdImp|Product Description: AutoCAD Mechanical|Company: Autodesk, Inc."
 90
     1024
 91
        1
280
     0
281
     0
  0
CLASS
  1
ACMBOMSTANDARDBSI
  2
AcmBOMStdBSI
  3
"Amdt_StdImp|Product Description: AutoCAD Mechanical|Company: Autodesk, Inc."
 90
     1024
 91
        1
280
     0
281
     0
  0
CLASS
  1
ACMDETAILSTANDARDBSI
  2
AmdtDetailSymStdBSI
  3
"Amdt_StdImp|Product Description: AutoCAD Mechanical|Company: Autodesk, Inc."
 90
     1024
 91
        1
280
     0
281
     0
  0
CLASS
  1
ACMSECTIONSTANDARDBSI
  2
AmdtSectionSymStdBSI
  3
"Amdt_StdImp|Product Description: AutoCAD Mechanical|Company: Autodesk, Inc."
 90
     1024
 91
        1
280
     0
281
     0
  0
CLASS
  1
ACMCENTERLINESTANDARDBSI
  2
AmdtCenterLineStdBSI
  3
"Amdt_StdImp|Product Description: AutoCAD Mechanical|Company: Autodesk, Inc."
 90
     1024
 91
        1
280
     0
281
     0
  0
CLASS
  1
ACMTHREADLINESTANDARDBSI
  2
AmdtThreadLineStdBSI
  3
"Amdt_StdImp|Product Description: AutoCAD Mechanical|Company: Autodesk, Inc."
 90
     1024
 91
        1
280
     0
281
     0
  0
CLASS
  1
ACMNOTESTANDARDBSI
  2
AmdtNoteStdBSI
  3
"Amdt_StdImp|Product Description: AutoCAD Mechanical|Company: Autodesk, Inc."
 90
     1024
 91
        1
280
     0
281
     0
  0
CLASS
  1
AMDTEDGESTANDARDDIN13715
  2
AmdtEdgeStdDIN13715
  3
"Amdt_StdImp|Product Description: AutoCAD Mechanical|Company: Autodesk, Inc."
 90
     1024
 91
        1
280
     0
281
     0
  0
CLASS
  1
ACMSURFSTANDARDDIN
  2
AcmSurfTextStdDIN
  3
"Amdt_StdImp|Product Description: AutoCAD Mechanical|Company: Autodesk, Inc."
 90
     1024
 91
        1
280
     0
281
     0
  0
CLASS
  1
ACMFCFSTANDARDDIN
  2
AcmFCFStdDIN
  3
"Amdt_StdImp|Product Description: AutoCAD Mechanical|Company: Autodesk, Inc."
 90
     1024
 91
        1
280
     0
281
     0
  0
CLASS
  1
ACMWELDSTANDARDDIN
  2
AcmWeldingStdDIN
  3
"Amdt_StdImp|Product Description: AutoCAD Mechanical|Company: Autodesk, Inc."
 90
     1024
 91
        1
280
     0
281
     0
  0
CLASS
  1
ACMIDSTANDARDDIN
  2
AcmIdStdDIN
  3
"Amdt_StdImp|Product Description: AutoCAD Mechanical|Company: Autodesk, Inc."
 90
     1024
 91
        1
280
     0
281
     0
  0
CLASS
  1
ACMDATUMSTANDARDDIN
  2
AcmDatumStdDIN
  3
"Amdt_StdImp|Product Description: AutoCAD Mechanical|Company: Autodesk, Inc."
 90
     1024
 91
        1
280
     0
281
     0
  0
CLASS
  1
ACMBOMSTANDARDDIN
  2
AcmBOMStdDIN
  3
"Amdt_StdImp|Product Description: AutoCAD Mechanical|Company: Autodesk, Inc."
 90
     1024
 91
        1
280
     0
281
     0
  0
CLASS
  1
ACMDETAILSTANDARDDIN
  2
AmdtDetailSymStdDIN
  3
"Amdt_StdImp|Product Description: AutoCAD Mechanical|Company: Autodesk, Inc."
 90
     1024
 91
        1
280
     0
281
     0
  0
CLASS
  1
ACMSECTIONSTANDARDDIN
  2
AmdtSectionSymStdDIN
  3
"Amdt_StdImp|Product Description: AutoCAD Mechanical|Company: Autodesk, Inc."
 90
     1024
 91
        1
280
     0
281
     0
  0
CLASS
  1
ACMCENTERLINESTANDARDDIN
  2
AmdtCenterLineStdDIN
  3
"Amdt_StdImp|Product Description: AutoCAD Mechanical|Company: Autodesk, Inc."
 90
     1024
 91
        1
280
     0
281
     0
  0
CLASS
  1
ACMTHREADLINESTANDARDDIN
  2
AmdtThreadLineStdDIN
  3
"Amdt_StdImp|Product Description: AutoCAD Mechanical|Company: Autodesk, Inc."
 90
     1024
 91
        1
280
     0
281
     0
  0
CLASS
  1
ACMNOTESTANDARDDIN
  2
AmdtNoteStdDIN
  3
"Amdt_StdImp|Product Description: AutoCAD Mechanical|Company: Autodesk, Inc."
 90
     1024
 91
        1
280
     0
281
     0
  0
CLASS
  1
AMDTEDGESTANDARDISO13715
  2
AmdtEdgeStdISO13715
  3
"Amdt_StdImp|Product Description: AutoCAD Mechanical|Company: Autodesk, Inc."
 90
     1024
 91
        1
280
     0
281
     0
  0
CLASS
  1
ACMSURFSTANDARDISO
  2
AcmSurfTextStdISO
  3
"Amdt_StdImp|Product Description: AutoCAD Mechanical|Company: Autodesk, Inc."
 90
     1024
 91
        1
280
     0
281
     0
  0
CLASS
  1
ACMFCFSTANDARDISO
  2
AcmFCFStdISO
  3
"Amdt_StdImp|Product Description: AutoCAD Mechanical|Company: Autodesk, Inc."
 90
     1024
 91
        1
280
     0
281
     0
  0
CLASS
  1
ACMWELDSTANDARDISO
  2
AcmWeldingStdISO
  3
"Amdt_StdImp|Product Description: AutoCAD Mechanical|Company: Autodesk, Inc."
 90
     1024
 91
        1
280
     0
281
     0
  0
CLASS
  1
ACMIDSTANDARDISO
  2
AcmIdStdISO
  3
"Amdt_StdImp|Product Description: AutoCAD Mechanical|Company: Autodesk, Inc."
 90
     1024
 91
        1
280
     0
281
     0
  0
CLASS
  1
ACMDATUMSTANDARDISO
  2
AcmDatumStdISO
  3
"Amdt_StdImp|Product Description: AutoCAD Mechanical|Company: Autodesk, Inc."
 90
     1024
 91
        1
280
     0
281
     0
  0
CLASS
  1
ACMBOMSTANDARDISO
  2
AcmBOMStdISO
  3
"Amdt_StdImp|Product Description: AutoCAD Mechanical|Company: Autodesk, Inc."
 90
     1024
 91
        1
280
     0
281
     0
  0
CLASS
  1
ACMDETAILSTANDARDISO
  2
AmdtDetailSymStdISO
  3
"Amdt_StdImp|Product Description: AutoCAD Mechanical|Company: Autodesk, Inc."
 90
     1024
 91
        1
280
     0
281
     0
  0
CLASS
  1
ACMSECTIONSTANDARDISO
  2
AmdtSectionSymStdISO
  3
"Amdt_StdImp|Product Description: AutoCAD Mechanical|Company: Autodesk, Inc."
 90
     1024
 91
        1
280
     0
281
     0
  0
CLASS
  1
ACMCENTERLINESTANDARDISO
  2
AmdtCenterLineStdISO
  3
"Amdt_StdImp|Product Description: AutoCAD Mechanical|Company: Autodesk, Inc."
 90
     1024
 91
        1
280
     0
281
     0
  0
CLASS
  1
ACMTHREADLINESTANDARDISO
  2
AmdtThreadLineStdISO
  3
"Amdt_StdImp|Product Description: AutoCAD Mechanical|Company: Autodesk, Inc."
 90
     1024
 91
        1
280
     0
281
     0
  0
CLASS
  1
ACMNOTESTANDARDISO
  2
AmdtNoteStdISO
  3
"Amdt_StdImp|Product Description: AutoCAD Mechanical|Company: Autodesk, Inc."
 90
     1024
 91
        1
280
     0
281
     0
  0
CLASS
  1
ACAMGLAYSTD
  2
AcAmgLayStd
  3
"AmgLay|Product Description: AutoCAD Mechanical|Company: Autodesk, Inc."
 90
     1024
 91
        5
280
     0
281
     0
  0
CLASS
  1
ACAMGDIMSTD
  2
AcAmgDimStd
  3
"AmgDim|Product Description: AutoCAD Mechanical|Company: Autodesk, Inc."
 90
     1024
 91
        5
280
     0
281
     0
  0
CLASS
  1
ACAMGHOLECHARTSTDANSI
  2
AcAmgHoleChartStdANSI
  3
AmgDim|Product Description: AutoCAD Mechanical|Company: Autodesk, Inc.
 90
     1024
 91
        1
280
     0
281
     0
  0
CLASS
  1
ACAMGHOLECHARTSTDBSI
  2
AcAmgHoleChartStdBSI
  3
AmgDim|Product Description: AutoCAD Mechanical|Company: Autodesk, Inc.
 90
     1024
 91
        1
280
     0
281
     0
  0
CLASS
  1
ACAMGHOLECHARTSTDDIN
  2
AcAmgHoleChartStdDIN
  3
AmgDim|Product Description: AutoCAD Mechanical|Company: Autodesk, Inc.
 90
     1024
 91
        1
280
     0
281
     0
  0
CLASS
  1
ACAMGHOLECHARTSTDISO
  2
AcAmgHoleChartStdISO
  3
AmgDim|Product Description: AutoCAD Mechanical|Company: Autodesk, Inc.
 90
     1024
 91
        1
280
     0
281
     0
  0
CLASS
  1
ACAMGHOLECHARTSTDJIS
  2
AcAmgHoleChartStdJIS
  3
AmgDim|Product Description: AutoCAD Mechanical|Company: Autodesk, Inc.
 90
     1024
 91
        1
280
     0
281
     0
  0
CLASS
  1
CATALOGSTATE
  2
AcAmCatalogState
  3
DesignerAssemblies
 90
     1024
 91
        1
280
     0
281
     0
  0
CLASS
  1
ACAMGRCOMPDEFSET
  2
AcAmGrCompDefSet
  3
DesignerAssemblies
 90
     1024
 91
        1
280
     0
281
     0
  0
CLASS
  1
AMDTBROWSERDBTAB
  2
AmdtBrowserDbTab
  3
McadcomServices
 90
     1024
 91
        1
280
     0
281
     0
  0
CLASS
  1
CBROWSERAPPOBJECT
  2
CBrowserAppObject
  3
McadcomServices
 90
     1024
 91
        3
280
     0
281
     0
  0
CLASS
  1
DM_PLACEHOLDER
  2
AcDmSelsetPlaceholder
  3
AcMechDwgViewMgmt
 90
     1024
 91
        1
280
     0
281
     0
  0
CLASS
  1
VAACXREFPANELOBJECT
  2
VaAcXREFPanelObject
  3
VAAC_ADDIN
 90
        0
 91
        0
280
     0
281
     0
  0
CLASS
  1
VAACIMAGEINVENTORY
  2
VaAcImageInventory
  3
VAAC_ADDIN
 90
        0
 91
        0
280
     0
281
     0
  0
CLASS
  1
ACAMGFILTERDAT
  2
AcAmgFilterDat
  3
"AcadM|Product Description: AutoCAD Mechanical|Company: Autodesk, Inc."
 90
     1024
 91
        6
280
     0
281
     0
  0
CLASS
  1
MATERIAL
  2
AcDbMaterial
  3
ObjectDBX Classes
 90
     1153
 91
        3
280
     0
281
     0
  0
CLASS
  1
VISUALSTYLE
  2
AcDbVisualStyle
  3
ObjectDBX Classes
 90
     4095
 91
       16
280
     0
281
     0
  0
CLASS
  1
SCALE
  2
AcDbScale
  3
ObjectDBX Classes
 90
     1153
 91
       33
280
     0
281
     0
  0
CLASS
  1
MLEADERSTYLE
  2
AcDbMLeaderStyle
  3
ACDB_MLEADERSTYLE_CLASS
 90
     4095
 91
        1
280
     0
281
     0
  0
CLASS
  1
ACMTAPERSTANDARDJIS
  2
AcmTaperStdJIS
  3
"Amdt_StdImp|Product Description: AutoCAD Mechanical|Company: Autodesk, Inc."
 90
     1024
 91
        1
280
     0
281
     0
  0
CLASS
  1
ACMANOOTATIONVIEWSTANDARDJIS
  2
AmdtAnViewStdJIS
  3
"Amdt_StdImp|Product Description: AutoCAD Mechanical|Company: Autodesk, Inc."
 90
     1024
 91
        1
280
     0
281
     0
  0
CLASS
  1
ACMTAPERSTANDARDANSI
  2
AcmTaperStdANSI
  3
"Amdt_StdImp|Product Description: AutoCAD Mechanical|Company: Autodesk, Inc."
 90
     1024
 91
        1
280
     0
281
     0
  0
CLASS
  1
ACMANOOTATIONVIEWSTANDARDANSI
  2
AmdtAnViewStdANSI
  3
"Amdt_StdImp|Product Description: AutoCAD Mechanical|Company: Autodesk, Inc."
 90
     1024
 91
        1
280
     0
281
     0
  0
CLASS
  1
ACMTAPERSTANDARDBSI
  2
AcmTaperStdBSI
  3
"Amdt_StdImp|Product Description: AutoCAD Mechanical|Company: Autodesk, Inc."
 90
     1024
 91
        1
280
     0
281
     0
  0
CLASS
  1
ACMANOOTATIONVIEWSTANDARDBSI
  2
AmdtAnViewStdBSI
  3
"Amdt_StdImp|Product Description: AutoCAD Mechanical|Company: Autodesk, Inc."
 90
     1024
 91
        1
280
     0
281
     0
  0
CLASS
  1
ACMTAPERSTANDARDDIN
  2
AcmTaperStdDIN
  3
"Amdt_StdImp|Product Description: AutoCAD Mechanical|Company: Autodesk, Inc."
 90
     1024
 91
        1
280
     0
281
     0
  0
CLASS
  1
ACMANOOTATIONVIEWSTANDARDDIN
  2
AmdtAnViewStdDIN
  3
"Amdt_StdImp|Product Description: AutoCAD Mechanical|Company: Autodesk, Inc."
 90
     1024
 91
        1
280
     0
281
     0
  0
CLASS
  1
ACMTAPERSTANDARDISO
  2
AcmTaperStdISO
  3
"Amdt_StdImp|Product Description: AutoCAD Mechanical|Company: Autodesk, Inc."
 90
     1024
 91
        1
280
     0
281
     0
  0
CLASS
  1
ACMANOOTATIONVIEWSTANDARDISO
  2
AmdtAnViewStdISO
  3
"Amdt_StdImp|Product Description: AutoCAD Mechanical|Company: Autodesk, Inc."
 90
     1024
 91
        1
280
     0
281
     0
  0
CLASS
  1
CAMSSTRUCTBTNSTATE
  2
StructBtnState
  3
DesignerAssemblies
 90
     1024
 91
        1
280
     0
281
     0
  0
CLASS
  1
CELLSTYLEMAP
  2
AcDbCellStyleMap
  3
ObjectDBX Classes
 90
     1152
 91
        2
280
     0
281
     0
  0
CLASS
  1
SORTENTSTABLE
  2
AcDbSortentsTable
  3
ObjectDBX Classes
 90
        0
 91
        1
280
     0
281
     0
  0
ENDSEC
  0
SECTION
  2
TABLES
  0
TABLE
  2
VPORT
  5
13
330
0
100
AcDbSymbolTable
 70
     1
  0
VPORT
  5
45F
330
13
100
AcDbSymbolTableRecord
100
AcDbViewportTableRecord
  2
*Active
 70
     0
 10
0.0
 20
0.0
 11
1.0
 21
1.0
 12
581.3595529029095
 22
308.384639936862
 13
0.0
 23
0.0
 14
10.0
 24
10.0
 15
10.0
 25
10.0
 16
0.0
 26
0.0
 36
1.0
 17
0.0
 27
0.0
 37
0.0
 40
810.3297475509576
 41
1.516516516516516
 42
50.0
 43
0.0
 44
0.0
 50
0.0
 51
0.0
 71
     0
 72
   100
 73
     1
 74
     0
 75
     0
 76
     0
 77
     0
 78
     0
281
     0
 65
     1
110
0.0
120
0.0
130
0.0
111
1.0
121
0.0
131
0.0
112
0.0
122
1.0
132
0.0
 79
     0
146
0.0
  0
ENDTAB
  0
TABLE
  2
LTYPE
  5
E
330
0
100
AcDbSymbolTable
 70
    24
  0
LTYPE
  5
F
330
E
100
AcDbSymbolTableRecord
100
AcDbLinetypeTableRecord
  2
BYBLOCK
 70
     0
  3

 72
    65
 73
     0
 40
0.0
  0
LTYPE
  5
10
330
E
100
AcDbSymbolTableRecord
100
AcDbLinetypeTableRecord
  2
BYLAYER
 70
     0
  3

 72
    65
 73
     0
 40
0.0
  0
LTYPE
  5
6
330
E
100
AcDbSymbolTableRecord
100
AcDbLinetypeTableRecord
  2
CONTINUOUS
 70
     0
  3
Solid line
 72
    65
 73
     0
 40
0.0
  0
LTYPE
  5
4B
330
E
100
AcDbSymbolTableRecord
100
AcDbLinetypeTableRecord
  2
MITTE
 70
     0
  3
____ _ ____ _ ____ _ ____ _ ____ _ ____ _ ____ 
 72
    65
 73
     4
 40
2.0
 49
1.25
 74
     0
 49
-0.25
 74
     0
 49
0.25
 74
     0
 49
-0.25
 74
     0
  0
LTYPE
  5
1A0
330
E
100
AcDbSymbolTableRecord
100
AcDbLinetypeTableRecord
  2
GESTRICHELT
 70
     0
  3
__ __ __ __ __ __ __ __ __ __ __ __ __ __ __ __
 72
    65
 73
     2
 40
0.75
 49
0.5
 74
     0
 49
-0.25
 74
     0
  0
LTYPE
  5
326
330
E
100
AcDbSymbolTableRecord
100
AcDbLinetypeTableRecord
  2
ACJISTGB
 70
     0
  3
__ . . __ . .
 72
    65
 73
     6
 40
9.0
 49
4.0
 74
     0
 49
-1.0
 74
     0
 49
1.0
 74
     0
 49
-1.0
 74
     0
 49
1.0
 74
     0
 49
-1.0
 74
     0
  0
LTYPE
  5
327
330
E
100
AcDbSymbolTableRecord
100
AcDbLinetypeTableRecord
  2
ACJISTGL
 70
     0
  3
_ _ _ _ _
 72
    65
 73
     2
 40
3.0
 49
2.0
 74
     0
 49
-1.0
 74
     0
  0
LTYPE
  5
32A
330
E
100
AcDbSymbolTableRecord
100
AcDbLinetypeTableRecord
  2
ACANSTGB
 70
     0
  3
__ . . __ . .
 72
    65
 73
     6
 40
0.35433070866
 49
0.15748031496
 74
     0
 49
-0.03937007874
 74
     0
 49
0.03937007874
 74
     0
 49
-0.03937007874
 74
     0
 49
0.03937007874
 74
     0
 49
-0.03937007874
 74
     0
  0
LTYPE
  5
32B
330
E
100
AcDbSymbolTableRecord
100
AcDbLinetypeTableRecord
  2
ACANSTGL
 70
     0
  3
_ _ _ _ _
 72
    65
 73
     2
 40
0.11811023622
 49
0.07874015748
 74
     0
 49
-0.03937007874
 74
     0
  0
LTYPE
  5
32E
330
E
100
AcDbSymbolTableRecord
100
AcDbLinetypeTableRecord
  2
ACBSIWELD
 70
     0
  3
_ _ _ _ _
 72
    65
 73
     2
 40
2.0
 49
2.0
 74
     0
 49
-1.0
 74
     0
  0
LTYPE
  5
32F
330
E
100
AcDbSymbolTableRecord
100
AcDbLinetypeTableRecord
  2
ACBSITGB
 70
     0
  3
__ . . __ . .
 72
    65
 73
     6
 40
9.0
 49
4.0
 74
     0
 49
-1.0
 74
     0
 49
1.0
 74
     0
 49
-1.0
 74
     0
 49
1.0
 74
     0
 49
-1.0
 74
     0
  0
LTYPE
  5
330
330
E
100
AcDbSymbolTableRecord
100
AcDbLinetypeTableRecord
  2
ACBSITGL
 70
     0
  3
_ _ _ _ _
 72
    65
 73
     2
 40
3.0
 49
2.0
 74
     0
 49
-1.0
 74
     0
  0
LTYPE
  5
333
330
E
100
AcDbSymbolTableRecord
100
AcDbLinetypeTableRecord
  2
ACDINWELD
 70
     0
  3
_ _ _ _ _
 72
    65
 73
     2
 40
2.0
 49
2.0
 74
     0
 49
-1.0
 74
     0
  0
LTYPE
  5
334
330
E
100
AcDbSymbolTableRecord
100
AcDbLinetypeTableRecord
  2
ACDINTGB
 70
     0
  3
__ . . __ . .
 72
    65
 73
     6
 40
9.0
 49
4.0
 74
     0
 49
-1.0
 74
     0
 49
1.0
 74
     0
 49
-1.0
 74
     0
 49
1.0
 74
     0
 49
-1.0
 74
     0
  0
LTYPE
  5
335
330
E
100
AcDbSymbolTableRecord
100
AcDbLinetypeTableRecord
  2
ACDINTGL
 70
     0
  3
_ _ _ _ _
 72
    65
 73
     2
 40
3.0
 49
2.0
 74
     0
 49
-1.0
 74
     0
  0
LTYPE
  5
338
330
E
100
AcDbSymbolTableRecord
100
AcDbLinetypeTableRecord
  2
ACISOWELD
 70
     0
  3
_ _ _ _ _
 72
    65
 73
     2
 40
2.0
 49
2.0
 74
     0
 49
-1.0
 74
     0
  0
LTYPE
  5
339
330
E
100
AcDbSymbolTableRecord
100
AcDbLinetypeTableRecord
  2
ACISOTGB
 70
     0
  3
__ . . __ . .
 72
    65
 73
     6
 40
9.0
 49
4.0
 74
     0
 49
-1.0
 74
     0
 49
1.0
 74
     0
 49
-1.0
 74
     0
 49
1.0
 74
     0
 49
-1.0
 74
     0
  0
LTYPE
  5
33A
330
E
100
AcDbSymbolTableRecord
100
AcDbLinetypeTableRecord
  2
ACISOTGL
 70
     0
  3
_ _ _ _ _
 72
    65
 73
     2
 40
3.0
 49
2.0
 74
     0
 49
-1.0
 74
     0
  0
LTYPE
  5
383
330
E
100
AcDbSymbolTableRecord
100
AcDbLinetypeTableRecord
  2
HIDDEN
 70
     0
  3
Verdeckt
 72
    65
 73
     2
 40
0.375
 49
0.25
 74
     0
 49
-0.125
 74
     0
  0
LTYPE
  5
384
330
E
100
AcDbSymbolTableRecord
100
AcDbLinetypeTableRecord
  2
PHANTOM2
 70
     0
  3
Phantom (.5x) ___ _ _ ___ _ _ ___ _ _ ___ _ _
 72
    65
 73
     6
 40
1.25
 49
0.625
 74
     0
 49
-0.125
 74
     0
 49
0.125
 74
     0
 49
-0.125
 74
     0
 49
0.125
 74
     0
 49
-0.125
 74
     0
  0
LTYPE
  5
385
330
E
100
AcDbSymbolTableRecord
100
AcDbLinetypeTableRecord
  2
CENTER
 70
     0
  3
Mitte ____ _ ____ _ ____ _ ____ _ ____ _ ____
 72
    65
 73
     4
 40
2.0
 49
1.25
 74
     0
 49
-0.25
 74
     0
 49
0.25
 74
     0
 49
-0.25
 74
     0
  0
LTYPE
  5
3B6
330
E
100
AcDbSymbolTableRecord
100
AcDbLinetypeTableRecord
  2
Amconstr
 70
     0
  3
_______________________
 72
    65
 73
     2
 40
9999.0
 49
9999.0
 74
     0
 49
0.0
 74
     0
  0
LTYPE
  5
3BC
330
E
100
AcDbSymbolTableRecord
100
AcDbLinetypeTableRecord
  2
CENTER2
 70
     0
  3
Center (.5x) ___ _ ___ _ ___ _ ___ _ ___ _ ___
 72
    65
 73
     4
 40
1.125
 49
0.75
 74
     0
 49
-0.125
 74
     0
 49
0.125
 74
     0
 49
-0.125
 74
     0
  0
LTYPE
  5
3BD
330
E
100
AcDbSymbolTableRecord
100
AcDbLinetypeTableRecord
  2
HIDDEN2
 70
     0
  3
Hidden (.5x) _ _ _ _ _ _ _ _ _ _ _ _ _ _ _ _ _
 72
    65
 73
     2
 40
0.1875
 49
0.125
 74
     0
 49
-0.0625
 74
     0
  0
LTYPE
  5
3BE
330
E
100
AcDbSymbolTableRecord
100
AcDbLinetypeTableRecord
  2
Amzigzag2
 70
     0
  3
/\/-/\/-/\/-/\/-/\/-/\/
 72
    65
 73
     2
 40
0.4401
 49
0.0001
 74
     4
 75
   135
340
3BA
 46
0.0016
 50
0.0
 44
0.0
 45
0.0
 49
-0.4400000000000001
 74
     0
  0
ENDTAB
  0
TABLE
  2
LAYER
  5
B
330
0
100
AcDbSymbolTable
 70
     5
  0
LAYER
  5
5
102
{ACAD_XDICTIONARY
360
4D5
102
}
330
B
100
AcDbSymbolTableRecord
100
AcDbLayerTableRecord
  2
0
 70
     0
 62
     7
  6
CONTINUOUS
370
    -3
390
348
  0
LAYER
  5
20
102
{ACAD_XDICTIONARY
360
4D7
102
}
330
B
100
AcDbSymbolTableRecord
100
AcDbLayerTableRecord
  2
BEM
 70
     1
 62
     1
  6
CONTINUOUS
370
    -3
390
348
  0
LAYER
  5
4A
102
{ACAD_XDICTIONARY
360
4D9
102
}
330
B
100
AcDbSymbolTableRecord
100
AcDbLayerTableRecord
  2
MITTE
 70
     0
 62
     6
  6
MITTE
370
    -3
390
348
  0
LAYER
  5
87
102
{ACAD_XDICTIONARY
360
4DB
102
}
330
B
100
AcDbSymbolTableRecord
100
AcDbLayerTableRecord
  2
LINIE
 70
     0
 62
     6
  6
CONTINUOUS
370
    -3
390
348
  0
LAYER
  5
29
330
B
100
AcDbSymbolTableRecord
100
AcDbLayerTableRecord
  2
DEFPOINTS
 70
     0
 62
     7
  6
CONTINUOUS
290
     0
370
    -3
390
348
  0
ENDTAB
  0
TABLE
  2
STYLE
  5
C
330
0
100
AcDbSymbolTable
 70
    12
  0
STYLE
  5
D
330
C
100
AcDbSymbolTableRecord
100
AcDbTextStyleTableRecord
  2
STANDARD
 70
     0
 40
0.0
 41
1.0
 50
0.0
 71
     0
 42
10.0
  3
romans.shx
  4

  0
STYLE
  5
324
330
C
100
AcDbSymbolTableRecord
100
AcDbTextStyleTableRecord
  2
ACJISTS
 70
     0
 40
1.0
 41
1.0
 50
0.0
 71
     0
 42
10.0
  3
isocp.shx
  4
bigfont.shx
  0
STYLE
  5
325
330
C
100
AcDbSymbolTableRecord
100
AcDbTextStyleTableRecord
  2
ACJISGDT
 70
     0
 40
0.0
 41
1.0
 50
0.0
 71
     0
 42
10.0
  3
amgdt.shx
  4

  0
STYLE
  5
328
330
C
100
AcDbSymbolTableRecord
100
AcDbTextStyleTableRecord
  2
ACANSTSB
 70
     0
 40
1.0
 41
1.0
 50
0.0
 71
     0
 42
10.0
  3
romans.shx
  4

  0
STYLE
  5
329
330
C
100
AcDbSymbolTableRecord
100
AcDbTextStyleTableRecord
  2
ACANSGDT
 70
     0
 40
0.0
 41
1.0
 50
0.0
 71
     0
 42
10.0
  3
amgdt.shx
  4

  0
STYLE
  5
32C
330
C
100
AcDbSymbolTableRecord
100
AcDbTextStyleTableRecord
  2
ACBSITS
 70
     0
 40
1.0
 41
1.0
 50
0.0
 71
     0
 42
10.0
  3
isocp.shx
  4

  0
STYLE
  5
32D
330
C
100
AcDbSymbolTableRecord
100
AcDbTextStyleTableRecord
  2
ACBSIGDT
 70
     0
 40
0.0
 41
1.0
 50
0.0
 71
     0
 42
10.0
  3
amgdt.shx
  4

  0
STYLE
  5
331
330
C
100
AcDbSymbolTableRecord
100
AcDbTextStyleTableRecord
  2
ACDINTS
 70
     0
 40
1.0
 41
1.0
 50
0.0
 71
     0
 42
10.0
  3
isocp.shx
  4

  0
STYLE
  5
332
330
C
100
AcDbSymbolTableRecord
100
AcDbTextStyleTableRecord
  2
ACDINGDT
 70
     0
 40
0.0
 41
1.0
 50
0.0
 71
     0
 42
10.0
  3
amgdt.shx
  4

  0
STYLE
  5
336
330
C
100
AcDbSymbolTableRecord
100
AcDbTextStyleTableRecord
  2
ACISOTS
 70
     0
 40
1.0
 41
1.0
 50
0.0
 71
     0
 42
10.0
  3
isocp.shx
  4

  0
STYLE
  5
337
330
C
100
AcDbSymbolTableRecord
100
AcDbTextStyleTableRecord
  2
ACISOGDT
 70
     0
 40
0.0
 41
1.0
 50
0.0
 71
     0
 42
10.0
  3
amgdt.shx
  4

  0
STYLE
  5
3BA
330
C
100
AcDbSymbolTableRecord
100
AcDbTextStyleTableRecord
  2

 70
     1
 40
0.0
 41
1.0
 50
0.0
 71
     0
 42
10.0
  3
ltypeshp.shx
  4

  0
ENDTAB
  0
TABLE
  2
VIEW
  5
11
330
0
100
AcDbSymbolTable
 70
     0
  0
ENDTAB
  0
TABLE
  2
UCS
  5
12
330
0
100
AcDbSymbolTable
 70
     0
  0
ENDTAB
  0
TABLE
  2
APPID
  5
15
330
0
100
AcDbSymbolTable
 70
    12
  0
APPID
  5
16
330
15
100
AcDbSymbolTableRecord
100
AcDbRegAppTableRecord
  2
ACAD
 70
     0
  0
APPID
  5
2F1
330
15
100
AcDbSymbolTableRecord
100
AcDbRegAppTableRecord
  2
MCAD_NO_VIS
 70
     0
  0
APPID
  5
35C
330
15
100
AcDbSymbolTableRecord
100
AcDbRegAppTableRecord
  2
ACAD_TEMP_GRAPHIC
 70
     0
  0
APPID
  5
387
330
15
100
AcDbSymbolTableRecord
100
AcDbRegAppTableRecord
  2
AD_DRAW
 70
     0
  0
APPID
  5
38A
330
15
100
AcDbSymbolTableRecord
100
AcDbRegAppTableRecord
  2
ACATTRIBSERVICES
 70
     0
  0
APPID
  5
3A8
330
15
100
AcDbSymbolTableRecord
100
AcDbRegAppTableRecord
  2
DESIGNERASSEMBLIES
 70
     0
  0
APPID
  5
44F
330
15
100
AcDbSymbolTableRecord
100
AcDbRegAppTableRecord
  2
ACADM_DIM_EDIT
 70
     0
  0
APPID
  5
450
330
15
100
AcDbSymbolTableRecord
100
AcDbRegAppTableRecord
  2
AMDT_DM_ADJ
 70
     0
  0
APPID
  5
4AF
330
15
100
AcDbSymbolTableRecord
100
AcDbRegAppTableRecord
  2
ACAD_MLEADERVER
 70
     0
  0
APPID
  5
4E6
330
15
100
AcDbSymbolTableRecord
100
AcDbRegAppTableRecord
  2
ACAD_PSEXT
 70
     0
  0
APPID
  5
4EA
330
15
100
AcDbSymbolTableRecord
100
AcDbRegAppTableRecord
  2
DCO15
 70
     0
  0
APPID
  5
910
330
15
100
AcDbSymbolTableRecord
100
AcDbRegAppTableRecord
  2
ACAD_EXEMPT_FROM_CAD_STANDARDS
 70
     0
  0
ENDTAB
  0
TABLE
  2
DIMSTYLE
  5
17
330
0
100
AcDbSymbolTable
 70
    37
100
AcDbDimStyleTable
 71
     1
340
1D
  0
DIMSTYLE
105
1D
102
{ACAD_REACTORS
330
2F
330
153
330
216
330
3C
330
1D3
330
2B6
330
B2
330
2AA
330
78
330
99
330
2D4
330
6A
330
170
330
18C
330
4E
330
1F
330
1EF
330
1E2
330
1FC
330
5B
330
101
330
17E
330
161
102
}
330
17
100
AcDbSymbolTableRecord
100
AcDbDimStyleTableRecord
  2
ISO-25
 70
     0
 41
7.0
 42
0.0
 43
7.0
 44
1.25
 73
     0
 74
     0
 77
     1
 78
     8
140
10.0
141
0.0
144
0.5
147
4.0
172
     1
176
   256
177
   256
178
   256
284
     8
288
     1
340
D
  0
DIMSTYLE
105
11B
330
17
100
AcDbSymbolTableRecord
100
AcDbDimStyleTableRecord
  2
STANDARD
 70
     0
  4
"
 41
7.0
 42
0.0
 43
7.0
 44
1.25
 47
0.1
 48
0.1
 73
     0
 74
     0
 77
     1
 78
     8
140
10.0
141
0.0
143
0.0393701
144
0.5
147
4.0
172
     1
176
   256
177
   256
178
   256
271
     2
272
     3
274
     4
283
     0
284
     8
288
     1
340
D
  0
DIMSTYLE
105
417
330
17
100
AcDbSymbolTableRecord
100
AcDbDimStyleTableRecord
  2
AM_ANSI
 70
     0
  4
mm
 41
0.1
 42
0.05
 43
0.5
 44
0.1
 47
0.1
 48
0.1
 78
     7
 79
     2
140
0.12
141
0.0
146
0.71
147
0.06
176
   256
177
   256
178
     2
274
     4
284
     7
340
D
371
    -1
372
    -1
  0
DIMSTYLE
105
418
330
17
100
AcDbSymbolTableRecord
100
AcDbDimStyleTableRecord
  2
AM_ANSI$3
 70
     0
  4
mm
 41
0.1
 42
0.05
 43
0.5
 44
0.1
 47
0.1
 48
0.1
 78
     7
 79
     2
140
0.12
141
0.0
146
0.71
147
0.06
176
   256
177
   256
178
     2
274
     4
284
     7
288
     1
289
     0
340
D
371
    -1
372
    -1
  0
DIMSTYLE
105
419
330
17
100
AcDbSymbolTableRecord
100
AcDbDimStyleTableRecord
  2
AM_ANSI$4
 70
     0
  4
mm
 41
0.1
 42
0.05
 43
0.5
 44
0.1
 47
0.1
 48
0.1
 78
     7
 79
     2
140
0.12
141
0.0
146
0.71
147
0.06
176
   256
177
   256
178
     2
274
     4
284
     7
288
     1
289
     0
340
D
371
    -1
372
    -1
  0
DIMSTYLE
105
41A
330
17
100
AcDbSymbolTableRecord
100
AcDbDimStyleTableRecord
  2
AM_ANSI$7
 70
     0
  4
mm
 41
0.1
 42
0.05
 43
0.5
 44
0.1
 47
0.1
 48
0.1
 78
     7
 79
     2
140
0.24
141
0.0
146
0.71
147
0.06
176
   256
177
   256
178
     2
274
     4
284
     7
340
D
371
    -1
372
    -1
  0
DIMSTYLE
105
41B
330
17
100
AcDbSymbolTableRecord
100
AcDbDimStyleTableRecord
  2
AM_ANSI$SF
 70
     0
  4
mm
 41
0.1
 42
0.05
 43
0.5
 44
0.1
 47
0.1
 48
0.1
 75
     1
 76
     1
 78
     7
 79
     2
140
0.12
141
0.0
146
0.71
147
0.06
176
   256
177
   256
178
     2
274
     4
284
     7
340
D
371
    -1
372
    -1
  0
DIMSTYLE
105
420
330
17
100
AcDbSymbolTableRecord
100
AcDbDimStyleTableRecord
  2
AM_ANSI$SH
 70
     0
  4
mm
 41
0.1
 42
0.05
 43
0.5
 44
0.1
 47
0.1
 48
0.1
 75
     1
 76
     1
 78
     7
 79
     2
140
0.12
141
0.0
146
0.71
147
0.06
173
     1
176
   256
177
   256
178
     2
274
     4
284
     7
340
D
343
41C
371
    -1
372
    -1
  0
DIMSTYLE
105
423
330
17
100
AcDbSymbolTableRecord
100
AcDbDimStyleTableRecord
  2
AM_BSI
 70
     0
  4
mm
 41
0.1574803149606299
 42
0.05
 43
0.5
 44
0.1
 47
0.1
 48
0.1
 73
     0
 74
     0
 77
     1
 78
     7
 79
     2
140
0.12
141
0.0
146
0.71
147
0.06
172
     1
176
   256
177
   256
178
     2
274
     4
283
     0
284
     7
340
D
371
    -1
372
    -1
  0
DIMSTYLE
105
424
330
17
100
AcDbSymbolTableRecord
100
AcDbDimStyleTableRecord
  2
AM_BSI$3
 70
     0
  4
mm
 41
0.1574803149606299
 42
0.05
 43
0.5
 44
0.1
 47
0.1
 48
0.1
 73
     0
 77
     1
 78
     7
 79
     2
140
0.12
141
0.0
146
0.71
147
0.06
176
   256
177
   256
178
     2
274
     4
283
     0
284
     7
288
     1
289
     0
340
D
371
    -1
372
    -1
  0
DIMSTYLE
105
425
330
17
100
AcDbSymbolTableRecord
100
AcDbDimStyleTableRecord
  2
AM_BSI$4
 70
     0
  4
mm
 41
0.1574803149606299
 42
0.05
 43
0.5
 44
0.1
 47
0.1
 48
0.1
 73
     0
 77
     1
 78
     7
 79
     2
140
0.12
141
0.0
146
0.71
147
0.06
176
   256
177
   256
178
     2
274
     4
283
     0
284
     7
288
     1
289
     0
340
D
371
    -1
372
    -1
  0
DIMSTYLE
105
426
330
17
100
AcDbSymbolTableRecord
100
AcDbDimStyleTableRecord
  2
AM_BSI$6
 70
     0
  4
mm
 41
0.1574803149606299
 42
0.05
 43
0.5
 44
0.1
 47
0.1
 48
0.1
 73
     0
 74
     0
 78
     7
 79
     2
140
0.12
141
0.0
146
0.71
147
0.06
172
     1
176
   256
177
   256
178
     2
274
     4
283
     0
284
     7
340
D
371
    -1
372
    -1
  0
DIMSTYLE
105
427
330
17
100
AcDbSymbolTableRecord
100
AcDbDimStyleTableRecord
  2
AM_BSI$7
 70
     0
  4
mm
 41
0.1
 42
0.05
 43
0.5
 44
0.1
 47
0.1
 48
0.1
 73
     0
 74
     0
 77
     1
 78
     7
 79
     2
140
0.24
141
0.0
146
0.71
147
0.06
172
     1
176
   256
177
   256
178
     2
274
     4
283
     0
284
     7
340
D
371
    -1
372
    -1
  0
DIMSTYLE
105
428
330
17
100
AcDbSymbolTableRecord
100
AcDbDimStyleTableRecord
  2
AM_BSI$SF
 70
     0
  4
mm
 41
0.1574803149606299
 42
0.05
 43
0.5
 44
0.1
 47
0.1
 48
0.1
 73
     0
 74
     0
 75
     1
 76
     1
 77
     1
 78
     7
 79
     2
140
0.12
141
0.0
146
0.71
147
0.06
172
     1
176
   256
177
   256
178
     2
274
     4
283
     0
284
     7
340
D
371
    -1
372
    -1
  0
DIMSTYLE
105
429
330
17
100
AcDbSymbolTableRecord
100
AcDbDimStyleTableRecord
  2
AM_BSI$SH
 70
     0
  4
mm
 41
0.1574803149606299
 42
0.05
 43
0.5
 44
0.1
 47
0.1
 48
0.1
 73
     0
 74
     0
 75
     1
 76
     1
 77
     1
 78
     7
 79
     2
140
0.12
141
0.0
144
2.0
146
0.71
147
0.06
172
     1
173
     1
176
   256
177
   256
178
     2
274
     4
283
     0
284
     7
340
D
343
41C
371
    -1
372
    -1
  0
DIMSTYLE
105
42C
330
17
100
AcDbSymbolTableRecord
100
AcDbDimStyleTableRecord
  2
AM_DIN
 70
     0
  4
mm
 41
0.1
 42
0.05
 43
0.5
 44
0.1
 47
0.1
 48
0.1
 73
     0
 74
     0
 77
     1
 78
     7
 79
     2
140
0.12
141
0.0
146
0.71
147
0.06
172
     1
176
   256
177
   256
178
     2
274
     4
283
     0
284
     7
340
D
371
    -1
372
    -1
  0
DIMSTYLE
105
42D
330
17
100
AcDbSymbolTableRecord
100
AcDbDimStyleTableRecord
  2
AM_DIN$3
 70
     0
  4
mm
 41
0.1
 42
0.05
 43
0.5
 44
0.1
 47
0.1
 48
0.1
 73
     0
 77
     1
 78
     7
 79
     2
140
0.12
141
0.0
146
0.71
147
0.06
176
   256
177
   256
178
     2
274
     4
283
     0
284
     7
288
     1
289
     0
340
D
371
    -1
372
    -1
  0
DIMSTYLE
105
42E
330
17
100
AcDbSymbolTableRecord
100
AcDbDimStyleTableRecord
  2
AM_DIN$4
 70
     0
  4
mm
 41
0.1
 42
0.05
 43
0.5
 44
0.1
 47
0.1
 48
0.1
 73
     0
 77
     1
 78
     7
 79
     2
140
0.12
141
0.0
146
0.71
147
0.06
176
   256
177
   256
178
     2
274
     4
283
     0
284
     7
288
     1
289
     0
340
D
371
    -1
372
    -1
  0
DIMSTYLE
105
42F
330
17
100
AcDbSymbolTableRecord
100
AcDbDimStyleTableRecord
  2
AM_DIN$6
 70
     0
  4
mm
 41
0.1
 42
0.05
 43
0.5
 44
0.1
 47
0.1
 48
0.1
 73
     0
 74
     0
 78
     7
 79
     2
140
0.12
141
0.0
146
0.71
147
0.06
172
     1
176
   256
177
   256
178
     2
274
     4
283
     0
284
     7
340
D
371
    -1
372
    -1
  0
DIMSTYLE
105
430
330
17
100
AcDbSymbolTableRecord
100
AcDbDimStyleTableRecord
  2
AM_DIN$7
 70
     0
  4
mm
 41
0.1
 42
0.05
 43
0.5
 44
0.1
 47
0.1
 48
0.1
 73
     0
 74
     0
 77
     1
 78
     7
 79
     2
140
0.24
141
0.0
146
0.71
147
0.06
172
     1
176
   256
177
   256
178
     2
274
     4
283
     0
284
     7
340
D
371
    -1
372
    -1
  0
DIMSTYLE
105
431
330
17
100
AcDbSymbolTableRecord
100
AcDbDimStyleTableRecord
  2
AM_DIN$SF
 70
     0
  4
mm
 41
0.1
 42
0.05
 43
0.5
 44
0.1
 47
0.1
 48
0.1
 73
     0
 74
     0
 75
     1
 76
     1
 77
     1
 78
     7
 79
     2
140
0.12
141
0.0
146
0.71
147
0.06
172
     1
176
   256
177
   256
178
     2
274
     4
283
     0
284
     7
340
D
371
    -1
372
    -1
  0
DIMSTYLE
105
432
330
17
100
AcDbSymbolTableRecord
100
AcDbDimStyleTableRecord
  2
AM_DIN$SH
 70
     0
  4
mm
 41
0.1
 42
0.05
 43
0.5
 44
0.1
 47
0.1
 48
0.1
 73
     0
 74
     0
 75
     1
 76
     1
 77
     1
 78
     7
 79
     2
140
0.12
141
0.0
144
2.0
146
0.71
147
0.06
172
     1
173
     1
176
   256
177
   256
178
     2
274
     4
283
     0
284
     7
340
D
343
41C
371
    -1
372
    -1
  0
DIMSTYLE
105
435
330
17
100
AcDbSymbolTableRecord
100
AcDbDimStyleTableRecord
  2
AM_ISO
 70
     0
  4
mm
 41
0.1
 42
0.05
 43
0.5
 44
0.1
 47
0.1
 48
0.1
 73
     0
 74
     0
 77
     1
 78
     7
 79
     2
140
0.12
141
0.0
146
0.71
147
0.06
172
     1
176
   256
177
   256
178
     2
274
     4
283
     0
284
     7
340
D
371
    -1
372
    -1
  0
DIMSTYLE
105
436
330
17
100
AcDbSymbolTableRecord
100
AcDbDimStyleTableRecord
  2
AM_ISO$3
 70
     0
  4
mm
 41
0.1
 42
0.05
 43
0.5
 44
0.1
 47
0.1
 48
0.1
 73
     0
 77
     1
 78
     7
 79
     2
140
0.12
141
0.0
146
0.71
147
0.06
176
   256
177
   256
178
     2
274
     4
283
     0
284
     7
288
     1
289
     0
340
D
371
    -1
372
    -1
  0
DIMSTYLE
105
437
330
17
100
AcDbSymbolTableRecord
100
AcDbDimStyleTableRecord
  2
AM_ISO$4
 70
     0
  4
mm
 41
0.1
 42
0.05
 43
0.5
 44
0.1
 47
0.1
 48
0.1
 73
     0
 77
     1
 78
     7
 79
     2
140
0.12
141
0.0
146
0.71
147
0.06
176
   256
177
   256
178
     2
274
     4
283
     0
284
     7
288
     1
289
     0
340
D
371
    -1
372
    -1
  0
DIMSTYLE
105
438
330
17
100
AcDbSymbolTableRecord
100
AcDbDimStyleTableRecord
  2
AM_ISO$6
 70
     0
  4
mm
 41
0.1
 42
0.05
 43
0.5
 44
0.1
 47
0.1
 48
0.1
 73
     0
 74
     0
 78
     7
 79
     2
140
0.12
141
0.0
146
0.71
147
0.06
172
     1
176
   256
177
   256
178
     2
274
     4
283
     0
284
     7
340
D
371
    -1
372
    -1
  0
DIMSTYLE
105
439
330
17
100
AcDbSymbolTableRecord
100
AcDbDimStyleTableRecord
  2
AM_ISO$7
 70
     0
  4
mm
 41
0.1
 42
0.05
 43
0.5
 44
0.1
 47
0.1
 48
0.1
 73
     0
 74
     0
 77
     1
 78
     7
 79
     2
140
0.24
141
0.0
146
0.71
147
0.06
172
     1
176
   256
177
   256
178
     2
274
     4
283
     0
284
     7
340
D
371
    -1
372
    -1
  0
DIMSTYLE
105
43A
330
17
100
AcDbSymbolTableRecord
100
AcDbDimStyleTableRecord
  2
AM_ISO$SF
 70
     0
  4
mm
 41
0.1
 42
0.05
 43
0.5
 44
0.1
 47
0.1
 48
0.1
 73
     0
 74
     0
 75
     1
 76
     1
 77
     1
 78
     7
 79
     2
140
0.12
141
0.0
146
0.71
147
0.06
172
     1
176
   256
177
   256
178
     2
274
     4
283
     0
284
     7
340
D
371
    -1
372
    -1
  0
DIMSTYLE
105
43B
330
17
100
AcDbSymbolTableRecord
100
AcDbDimStyleTableRecord
  2
AM_ISO$SH
 70
     0
  4
mm
 41
0.1
 42
0.05
 43
0.5
 44
0.1
 47
0.1
 48
0.1
 73
     0
 74
     0
 75
     1
 76
     1
 77
     1
 78
     7
 79
     2
140
0.12
141
0.0
144
2.0
146
0.71
147
0.06
172
     1
173
     1
176
   256
177
   256
178
     2
274
     4
283
     0
284
     7
340
D
343
41C
371
    -1
372
    -1
  0
DIMSTYLE
105
43E
330
17
100
AcDbSymbolTableRecord
100
AcDbDimStyleTableRecord
  2
AM_JIS
 70
     0
  4
mm
 41
0.1
 42
0.05
 43
0.5
 44
0.1
 47
0.1
 48
0.1
 73
     0
 74
     0
 77
     3
 78
     7
 79
     2
140
0.12
141
0.0
146
0.71
147
0.06
172
     1
176
   256
177
   256
178
     2
274
     4
283
     0
284
     7
340
D
341
43F
342
43F
343
43F
344
43F
371
    -1
372
    -1
  0
DIMSTYLE
105
445
330
17
100
AcDbSymbolTableRecord
100
AcDbDimStyleTableRecord
  2
AM_JIS$3
 70
     0
  4
mm
 41
0.1
 42
0.05
 43
0.5
 44
0.1
 47
0.1
 48
0.1
 73
     0
 77
     3
 78
     7
 79
     2
140
0.12
141
0.0
146
0.71
147
0.06
176
   256
177
   256
178
     2
274
     4
283
     0
284
     7
288
     1
289
     0
340
D
341
43F
342
43F
343
43F
344
43F
371
    -1
372
    -1
  0
DIMSTYLE
105
446
330
17
100
AcDbSymbolTableRecord
100
AcDbDimStyleTableRecord
  2
AM_JIS$4
 70
     0
  4
mm
 41
0.1
 42
0.05
 43
0.5
 44
0.1
 47
0.1
 48
0.1
 73
     0
 77
     3
 78
     7
 79
     2
140
0.12
141
0.0
146
0.71
147
0.06
176
   256
177
   256
178
     2
274
     4
283
     0
284
     7
288
     1
289
     0
340
D
341
43F
342
43F
343
43F
344
43F
371
    -1
372
    -1
  0
DIMSTYLE
105
447
330
17
100
AcDbSymbolTableRecord
100
AcDbDimStyleTableRecord
  2
AM_JIS$6
 70
     0
  4
mm
 41
0.1
 42
0.05
 43
0.5
 44
0.1
 47
0.1
 48
0.1
 73
     0
 74
     0
 78
     7
 79
     2
140
0.12
141
0.0
146
0.71
147
0.06
172
     1
176
   256
177
   256
178
     2
274
     4
283
     0
284
     7
340
D
341
43F
342
43F
343
43F
344
43F
371
    -1
372
    -1
  0
DIMSTYLE
105
448
330
17
100
AcDbSymbolTableRecord
100
AcDbDimStyleTableRecord
  2
AM_JIS$7
 70
     0
  4
mm
 41
0.1
 42
0.05
 43
0.5
 44
0.1
 47
0.1
 48
0.1
 73
     0
 74
     0
 77
     3
 78
     7
 79
     2
140
0.24
141
0.0
146
0.71
147
0.06
172
     1
176
   256
177
   256
178
     2
274
     4
283
     0
284
     7
340
D
341
43F
342
43F
343
43F
344
43F
371
    -1
372
    -1
  0
DIMSTYLE
105
449
330
17
100
AcDbSymbolTableRecord
100
AcDbDimStyleTableRecord
  2
AM_JIS$SF
 70
     0
  4
mm
 41
0.1
 42
0.05
 43
0.5
 44
0.1
 47
0.1
 48
0.1
 73
     0
 74
     0
 75
     1
 76
     1
 77
     3
 78
     7
 79
     2
140
0.12
141
0.0
146
0.71
147
0.06
172
     1
176
   256
177
   256
178
     2
274
     4
283
     0
284
     7
340
D
341
43F
342
43F
343
43F
344
43F
371
    -1
372
    -1
  0
DIMSTYLE
105
44A
330
17
100
AcDbSymbolTableRecord
100
AcDbDimStyleTableRecord
  2
AM_JIS$SH
 70
     0
  4
mm
 41
0.1
 42
0.05
 43
0.5
 44
0.1
 47
0.1
 48
0.1
 73
     0
 74
     0
 75
     1
 76
     1
 77
     3
 78
     7
 79
     2
140
0.12
141
0.0
144
2.0
146
0.71
147
0.06
172
     1
173
     1
176
   256
177
   256
178
     2
274
     4
283
     0
284
     7
340
D
341
43F
342
43F
343
41C
344
43F
371
    -1
372
    -1
  0
ENDTAB
  0
TABLE
  2
BLOCK_RECORD
  5
1
330
0
100
AcDbSymbolTable
 70
    27
  0
BLOCK_RECORD
  5
2
102
{ACAD_XDICTIONARY
360
3
102
}
330
1
100
AcDbSymbolTableRecord
100
AcDbBlockTableRecord
  2
*MODEL_SPACE
340
34F
  0
BLOCK_RECORD
  5
8
330
1
100
AcDbSymbolTableRecord
100
AcDbBlockTableRecord
  2
*PAPER_SPACE
340
350
  0
BLOCK_RECORD
  5
41C
330
1
100
AcDbSymbolTableRecord
100
AcDbBlockTableRecord
  2
GENAXEH
340
0
  0
BLOCK_RECORD
  5
43F
330
1
100
AcDbSymbolTableRecord
100
AcDbBlockTableRecord
  2
_Open30
340
0
  0
BLOCK_RECORD
  5
50E
330
1
100
AcDbSymbolTableRecord
100
AcDbBlockTableRecord
  2
*D3
340
0
  0
BLOCK_RECORD
  5
51A
330
1
100
AcDbSymbolTableRecord
100
AcDbBlockTableRecord
  2
*D4
340
0
  0
BLOCK_RECORD
  5
526
330
1
100
AcDbSymbolTableRecord
100
AcDbBlockTableRecord
  2
*D5
340
0
  0
BLOCK_RECORD
  5
532
330
1
100
AcDbSymbolTableRecord
100
AcDbBlockTableRecord
  2
*D6
340
0
  0
BLOCK_RECORD
  5
53E
330
1
100
AcDbSymbolTableRecord
100
AcDbBlockTableRecord
  2
*D7
340
0
  0
BLOCK_RECORD
  5
54C
330
1
100
AcDbSymbolTableRecord
100
AcDbBlockTableRecord
  2
*D8
340
0
  0
BLOCK_RECORD
  5
558
330
1
100
AcDbSymbolTableRecord
100
AcDbBlockTableRecord
  2
*D9
340
0
  0
BLOCK_RECORD
  5
564
330
1
100
AcDbSymbolTableRecord
100
AcDbBlockTableRecord
  2
*D10
340
0
  0
BLOCK_RECORD
  5
570
330
1
100
AcDbSymbolTableRecord
100
AcDbBlockTableRecord
  2
*D11
340
0
  0
BLOCK_RECORD
  5
57C
330
1
100
AcDbSymbolTableRecord
100
AcDbBlockTableRecord
  2
*D12
340
0
  0
BLOCK_RECORD
  5
58A
330
1
100
AcDbSymbolTableRecord
100
AcDbBlockTableRecord
  2
*D13
340
0
  0
BLOCK_RECORD
  5
596
330
1
100
AcDbSymbolTableRecord
100
AcDbBlockTableRecord
  2
*D14
340
0
  0
BLOCK_RECORD
  5
5A4
330
1
100
AcDbSymbolTableRecord
100
AcDbBlockTableRecord
  2
*D15
340
0
  0
BLOCK_RECORD
  5
5B0
330
1
100
AcDbSymbolTableRecord
100
AcDbBlockTableRecord
  2
*D16
340
0
  0
BLOCK_RECORD
  5
5B8
330
1
100
AcDbSymbolTableRecord
100
AcDbBlockTableRecord
  2
*D17
340
0
  0
BLOCK_RECORD
  5
5C4
330
1
100
AcDbSymbolTableRecord
100
AcDbBlockTableRecord
  2
*D18
340
0
  0
BLOCK_RECORD
  5
5D2
330
1
100
AcDbSymbolTableRecord
100
AcDbBlockTableRecord
  2
*D19
340
0
  0
BLOCK_RECORD
  5
5DE
330
1
100
AcDbSymbolTableRecord
100
AcDbBlockTableRecord
  2
*D20
340
0
  0
BLOCK_RECORD
  5
5EA
330
1
100
AcDbSymbolTableRecord
100
AcDbBlockTableRecord
  2
*D21
340
0
  0
BLOCK_RECORD
  5
5F6
330
1
100
AcDbSymbolTableRecord
100
AcDbBlockTableRecord
  2
*D22
340
0
  0
BLOCK_RECORD
  5
602
330
1
100
AcDbSymbolTableRecord
100
AcDbBlockTableRecord
  2
*D23
340
0
  0
BLOCK_RECORD
  5
60D
330
1
100
AcDbSymbolTableRecord
100
AcDbBlockTableRecord
  2
*D24
340
0
  0
BLOCK_RECORD
  5
61B
330
1
100
AcDbSymbolTableRecord
100
AcDbBlockTableRecord
  2
*D25
340
0
  0
ENDTAB
  0
ENDSEC
  0
SECTION
  2
BLOCKS
  0
BLOCK
  5
4
330
2
100
AcDbEntity
  8
0
100
AcDbBlockBegin
  2
*MODEL_SPACE
 70
     0
 10
0.0
 20
0.0
 30
0.0
  3
*MODEL_SPACE
  1

  0
ENDBLK
  5
7
330
2
100
AcDbEntity
  8
0
100
AcDbBlockEnd
  0
BLOCK
  5
9
330
8
100
AcDbEntity
 67
     1
  8
0
100
AcDbBlockBegin
  2
*PAPER_SPACE
 70
     0
 10
0.0
 20
0.0
 30
0.0
  3
*PAPER_SPACE
  1

  0
ENDBLK
  5
A
330
8
100
AcDbEntity
 67
     1
  8
0
100
AcDbBlockEnd
  0
BLOCK
  5
41E
330
41C
100
AcDbEntity
  8
0
 48
10.0
100
AcDbBlockBegin
  2
GENAXEH
 70
     0
 10
0.0
 20
0.0
 30
0.0
  3
GENAXEH
  1

  0
LINE
  5
41D
330
41C
100
AcDbEntity
  8
0
100
AcDbLine
 10
-1.0
 20
0.0
 30
0.0
 11
1.0
 21
0.0
 31
0.0
  0
ENDBLK
  5
41F
330
41C
100
AcDbEntity
  8
0
 48
10.0
100
AcDbBlockEnd
  0
BLOCK
  5
443
330
43F
100
AcDbEntity
  8
0
 48
10.0
100
AcDbBlockBegin
  2
_Open30
 70
     0
 10
0.0
 20
0.0
 30
0.0
  3
_Open30
  1

  0
LINE
  5
440
330
43F
100
AcDbEntity
  8
0
  6
ByBlock
 62
     0
370
    -2
100
AcDbLine
 10
-1.0
 20
0.26794919
 30
0.0
 11
0.0
 21
0.0
 31
0.0
  0
LINE
  5
441
330
43F
100
AcDbEntity
  8
0
  6
ByBlock
 62
     0
370
    -2
100
AcDbLine
 10
0.0
 20
0.0
 30
0.0
 11
-1.0
 21
-0.26794919
 31
0.0
  0
LINE
  5
442
330
43F
100
AcDbEntity
  8
0
  6
ByBlock
 62
     0
370
    -2
100
AcDbLine
 10
0.0
 20
0.0
 30
0.0
 11
-1.0
 21
0.0
 31
0.0
  0
ENDBLK
  5
444
330
43F
100
AcDbEntity
  8
0
 48
10.0
100
AcDbBlockEnd
  0
BLOCK
  5
50F
330
50E
100
AcDbEntity
  8
0
 48
10.0
100
AcDbBlockBegin
  2
*D3
 70
     1
 10
0.0
 20
0.0
 30
0.0
  3
*D3
  1

  0
LINE
  5
7CB
330
50E
100
AcDbEntity
  8
BEM
370
    -2
100
AcDbLine
 10
564.2850834160979
 20
410.843419830907
 30
0.0
 11
555.9831758687332
 21
410.843419830907
 31
0.0
  0
LINE
  5
7CC
330
50E
100
AcDbEntity
  8
BEM
370
    -2
100
AcDbLine
 10
564.2092530853115
 20
355.843419830907
 30
0.0
 11
555.9831758687332
 21
355.843419830907
 31
0.0
  0
LINE
  5
7CD
330
50E
100
AcDbEntity
  8
BEM
370
    -2
100
AcDbLine
 10
557.2331758687332
 20
403.843419830907
 30
0.0
 11
557.2331758687332
 21
362.843419830907
 31
0.0
  0
SOLID
  5
7CE
330
50E
100
AcDbEntity
  8
BEM
100
AcDbTrace
 10
556.0665092020666
 20
403.843419830907
 30
0.0
 11
558.3998425353999
 21
403.843419830907
 31
0.0
 12
557.2331758687332
 22
410.843419830907
 32
0.0
 13
557.2331758687332
 23
410.843419830907
 33
0.0
  0
SOLID
  5
7CF
330
50E
100
AcDbEntity
  8
BEM
100
AcDbTrace
 10
556.0665092020666
 20
362.843419830907
 30
0.0
 11
558.3998425353999
 21
362.843419830907
 31
0.0
 12
557.2331758687332
 22
355.843419830907
 32
0.0
 13
557.2331758687332
 23
355.843419830907
 33
0.0
  0
MTEXT
  5
7D0
330
50E
100
AcDbEntity
  8
BEM
100
AcDbMText
 10
548.2331758687331
 20
383.3434198309071
 30
0.0
 40
10.0
 41
0.0
 71
     5
 72
     1
  1
\A1;55
 11
0.0000000000000001
 21
1.0
 31
0.0
 73
     1
 44
1.0
  0
POINT
  5
7D1
330
50E
100
AcDbEntity
  8
DEFPOINTS
 62
     0
100
AcDbPoint
 10
564.2850834160979
 20
410.843419830907
 30
0.0
  0
POINT
  5
7D2
330
50E
100
AcDbEntity
  8
DEFPOINTS
 62
     0
100
AcDbPoint
 10
564.2092530853115
 20
355.843419830907
 30
0.0
  0
POINT
  5
7D3
330
50E
100
AcDbEntity
  8
DEFPOINTS
 62
     0
100
AcDbPoint
 10
557.2331758687332
 20
355.843419830907
 30
0.0
  0
ENDBLK
  5
510
330
50E
100
AcDbEntity
  8
0
 48
10.0
100
AcDbBlockEnd
  0
BLOCK
  5
51B
330
51A
100
AcDbEntity
  8
0
 48
10.0
100
AcDbBlockBegin
  2
*D4
 70
     1
 10
0.0
 20
0.0
 30
0.0
  3
*D4
  1

  0
LINE
  5
7D4
330
51A
100
AcDbEntity
  8
BEM
370
    -2
100
AcDbLine
 10
771.1850834160978
 20
391.287070644803
 30
0.0
 11
771.1850834160978
 21
519.8885407295245
 31
0.0
  0
LINE
  5
7D5
330
51A
100
AcDbEntity
  8
BEM
370
    -2
100
AcDbLine
 10
435.7850834160979
 20
445.843419830907
 30
0.0
 11
435.7850834160979
 21
519.8885407295245
 31
0.0
  0
LINE
  5
7D6
330
51A
100
AcDbEntity
  8
BEM
370
    -2
100
AcDbLine
 10
764.1850834160979
 20
518.6385407295245
 30
0.0
 11
442.7850834160978
 21
518.6385407295245
 31
0.0
  0
SOLID
  5
7D7
330
51A
100
AcDbEntity
  8
BEM
100
AcDbTrace
 10
764.1850834160979
 20
519.805207396191
 30
0.0
 11
764.1850834160979
 21
517.4718740628578
 31
0.0
 12
771.1850834160978
 22
518.6385407295245
 32
0.0
 13
771.1850834160978
 23
518.6385407295245
 33
0.0
  0
SOLID
  5
7D8
330
51A
100
AcDbEntity
  8
BEM
100
AcDbTrace
 10
442.7850834160978
 20
519.805207396191
 30
0.0
 11
442.7850834160978
 21
517.4718740628578
 31
0.0
 12
435.7850834160979
 22
518.6385407295245
 32
0.0
 13
435.7850834160979
 23
518.6385407295245
 33
0.0
  0
MTEXT
  5
7D9
330
51A
100
AcDbEntity
  8
BEM
100
AcDbMText
 10
603.4850834160979
 20
527.6385407295244
 30
0.0
 40
10.0
 41
0.0
 71
     5
 72
     1
  1
\A1;335
 73
     1
 44
1.0
  0
POINT
  5
7DA
330
51A
100
AcDbEntity
  8
DEFPOINTS
 62
     0
100
AcDbPoint
 10
771.1850834160978
 20
391.287070644803
 30
0.0
  0
POINT
  5
7DB
330
51A
100
AcDbEntity
  8
DEFPOINTS
 62
     0
100
AcDbPoint
 10
435.7850834160979
 20
445.843419830907
 30
0.0
  0
POINT
  5
7DC
330
51A
100
AcDbEntity
  8
DEFPOINTS
 62
     0
100
AcDbPoint
 10
435.7850834160979
 20
518.6385407295245
 30
0.0
  0
ENDBLK
  5
51C
330
51A
100
AcDbEntity
  8
0
 48
10.0
100
AcDbBlockEnd
  0
BLOCK
  5
527
330
526
100
AcDbEntity
  8
0
 48
10.0
100
AcDbBlockBegin
  2
*D5
 70
     1
 10
0.0
 20
0.0
 30
0.0
  3
*D5
  1

  0
LINE
  5
7DD
330
526
100
AcDbEntity
  8
BEM
370
    -2
100
AcDbLine
 10
663.1850834160978
 20
232.0779365092358
 30
0.0
 11
663.1850834160978
 21
144.9190151337195
 31
0.0
  0
LINE
  5
7DE
330
526
100
AcDbEntity
  8
BEM
370
    -2
100
AcDbLine
 10
435.785083416098
 20
265.843419830907
 30
0.0
 11
435.785083416098
 21
144.9190151337195
 31
0.0
  0
LINE
  5
7DF
330
526
100
AcDbEntity
  8
BEM
370
    -2
100
AcDbLine
 10
656.1850834160979
 20
146.1690151337195
 30
0.0
 11
442.785083416098
 21
146.1690151337195
 31
0.0
  0
SOLID
  5
7E0
330
526
100
AcDbEntity
  8
BEM
100
AcDbTrace
 10
656.1850834160979
 20
147.3356818003862
 30
0.0
 11
656.1850834160979
 21
145.0023484670529
 31
0.0
 12
663.1850834160978
 22
146.1690151337195
 32
0.0
 13
663.1850834160978
 23
146.1690151337195
 33
0.0
  0
SOLID
  5
7E1
330
526
100
AcDbEntity
  8
BEM
100
AcDbTrace
 10
442.785083416098
 20
147.3356818003862
 30
0.0
 11
442.785083416098
 21
145.0023484670529
 31
0.0
 12
435.785083416098
 22
146.1690151337195
 32
0.0
 13
435.785083416098
 23
146.1690151337195
 33
0.0
  0
MTEXT
  5
7E2
330
526
100
AcDbEntity
  8
BEM
100
AcDbMText
 10
549.4850834160979
 20
155.1690151337195
 30
0.0
 40
10.0
 41
0.0
 71
     5
 72
     1
  1
\A1;227
 73
     1
 44
1.0
  0
POINT
  5
7E3
330
526
100
AcDbEntity
  8
DEFPOINTS
 62
     0
100
AcDbPoint
 10
663.1850834160978
 20
232.0779365092358
 30
0.0
  0
POINT
  5
7E4
330
526
100
AcDbEntity
  8
DEFPOINTS
 62
     0
100
AcDbPoint
 10
435.785083416098
 20
265.843419830907
 30
0.0
  0
POINT
  5
7E5
330
526
100
AcDbEntity
  8
DEFPOINTS
 62
     0
100
AcDbPoint
 10
435.785083416098
 20
146.1690151337195
 30
0.0
  0
ENDBLK
  5
528
330
526
100
AcDbEntity
  8
0
 48
10.0
100
AcDbBlockEnd
  0
BLOCK
  5
533
330
532
100
AcDbEntity
  8
0
 48
10.0
100
AcDbBlockBegin
  2
*D6
 70
     1
 10
0.0
 20
0.0
 30
0.0
  3
*D6
  1

  0
LINE
  5
7E6
330
532
100
AcDbEntity
  8
BEM
370
    -2
100
AcDbLine
 10
546.8350834160981
 20
355.843419830907
 30
0.0
 11
558.4831758687333
 21
355.843419830907
 31
0.0
  0
LINE
  5
7E7
330
532
100
AcDbEntity
  8
BEM
370
    -2
100
AcDbLine
 10
555.7055699810953
 20
253.843419830907
 30
0.0
 11
558.4831758687332
 21
253.843419830907
 31
0.0
  0
LINE
  5
7E8
330
532
100
AcDbEntity
  8
BEM
370
    -2
100
AcDbLine
 10
557.2331758687333
 20
348.843419830907
 30
0.0
 11
557.2331758687333
 21
260.8434198309069
 31
0.0
  0
SOLID
  5
7E9
330
532
100
AcDbEntity
  8
BEM
100
AcDbTrace
 10
556.0665092020667
 20
348.843419830907
 30
0.0
 11
558.3998425354
 21
348.843419830907
 31
0.0
 12
557.2331758687333
 22
355.843419830907
 32
0.0
 13
557.2331758687333
 23
355.843419830907
 33
0.0
  0
SOLID
  5
7EA
330
532
100
AcDbEntity
  8
BEM
100
AcDbTrace
 10
556.0665092020667
 20
260.8434198309069
 30
0.0
 11
558.3998425354
 21
260.8434198309069
 31
0.0
 12
557.2331758687332
 22
253.843419830907
 32
0.0
 13
557.2331758687332
 23
253.843419830907
 33
0.0
  0
MTEXT
  5
7EB
330
532
100
AcDbEntity
  8
BEM
100
AcDbMText
 10
548.2331758687332
 20
304.8434198309071
 30
0.0
 40
10.0
 41
0.0
 71
     5
 72
     1
  1
\A1;102
 11
0.0000000000000001
 21
1.0
 31
0.0
 73
     1
 44
1.0
  0
POINT
  5
7EC
330
532
100
AcDbEntity
  8
DEFPOINTS
 62
     0
100
AcDbPoint
 10
546.8350834160981
 20
355.843419830907
 30
0.0
  0
POINT
  5
7ED
330
532
100
AcDbEntity
  8
DEFPOINTS
 62
     0
100
AcDbPoint
 10
555.7055699810953
 20
253.843419830907
 30
0.0
  0
POINT
  5
7EE
330
532
100
AcDbEntity
  8
DEFPOINTS
 62
     0
100
AcDbPoint
 10
557.2331758687332
 20
253.843419830907
 30
0.0
  0
ENDBLK
  5
534
330
532
100
AcDbEntity
  8
0
 48
10.0
100
AcDbBlockEnd
  0
BLOCK
  5
53F
330
53E
100
AcDbEntity
  8
0
 48
10.0
100
AcDbBlockBegin
  2
*D7
 70
     1
 10
0.0
 20
0.0
 30
0.0
  3
*D7
  1

  0
LINE
  5
7EF
330
53E
100
AcDbEntity
  8
BEM
370
    -2
100
AcDbLine
 10
440.7850834160981
 20
293.5434198309071
 30
0.0
 11
440.7850834160981
 21
223.1597325684895
 31
0.0
  0
LINE
  5
7F0
330
53E
100
AcDbEntity
  8
BEM
370
    -2
100
AcDbLine
 10
435.785083416098
 20
265.843419830907
 30
0.0
 11
435.785083416098
 21
223.1597325684895
 31
0.0
  0
LINE
  5
7F1
330
53E
100
AcDbEntity
  8
BEM
370
    -2
100
AcDbLine
 10
428.785083416098
 20
224.4097325684895
 30
0.0
 11
421.785083416098
 21
224.4097325684895
 31
0.0
  0
LINE
  5
7F2
330
53E
100
AcDbEntity
  8
BEM
370
    -2
100
AcDbLine
 10
447.7850834160981
 20
224.4097325684895
 30
0.0
 11
469.4517500827648
 21
224.4097325684895
 31
0.0
  0
LINE
  5
7F3
330
53E
100
AcDbEntity
  8
BEM
370
    -2
100
AcDbLine
 10
435.785083416098
 20
224.4097325684895
 30
0.0
 11
440.7850834160981
 21
224.4097325684895
 31
0.0
  0
SOLID
  5
7F4
330
53E
100
AcDbEntity
  8
BEM
100
AcDbTrace
 10
428.785083416098
 20
225.5763992351562
 30
0.0
 11
428.785083416098
 21
223.2430659018229
 31
0.0
 12
435.785083416098
 22
224.4097325684895
 32
0.0
 13
435.785083416098
 23
224.4097325684895
 33
0.0
  0
SOLID
  5
7F5
330
53E
100
AcDbEntity
  8
BEM
100
AcDbTrace
 10
447.7850834160981
 20
225.5763992351562
 30
0.0
 11
447.7850834160981
 21
223.2430659018229
 31
0.0
 12
440.7850834160981
 22
224.4097325684895
 32
0.0
 13
440.7850834160981
 23
224.4097325684895
 33
0.0
  0
MTEXT
  5
7F6
330
53E
100
AcDbEntity
  8
BEM
100
AcDbMText
 10
462.1184167494314
 20
233.4097325684895
 30
0.0
 40
10.0
 41
0.0
 71
     5
 72
     1
  1
\A1;5
 73
     1
 44
1.0
  0
POINT
  5
7F7
330
53E
100
AcDbEntity
  8
DEFPOINTS
 62
     0
100
AcDbPoint
 10
440.7850834160981
 20
293.5434198309071
 30
0.0
  0
POINT
  5
7F8
330
53E
100
AcDbEntity
  8
DEFPOINTS
 62
     0
100
AcDbPoint
 10
435.785083416098
 20
265.843419830907
 30
0.0
  0
POINT
  5
7F9
330
53E
100
AcDbEntity
  8
DEFPOINTS
 62
     0
100
AcDbPoint
 10
435.785083416098
 20
224.4097325684895
 30
0.0
  0
ENDBLK
  5
540
330
53E
100
AcDbEntity
  8
0
 48
10.0
100
AcDbBlockEnd
  0
BLOCK
  5
54D
330
54C
100
AcDbEntity
  8
0
 48
10.0
100
AcDbBlockBegin
  2
*D8
 70
     1
 10
0.0
 20
0.0
 30
0.0
  3
*D8
  1

  0
LINE
  5
7FA
330
54C
100
AcDbEntity
  8
BEM
370
    -2
100
AcDbLine
 10
435.7850834160979
 20
445.843419830907
 30
0.0
 11
245.3662236638966
 21
445.843419830907
 31
0.0
  0
LINE
  5
7FB
330
54C
100
AcDbEntity
  8
BEM
370
    -2
100
AcDbLine
 10
435.785083416098
 20
265.843419830907
 30
0.0
 11
245.3662236638966
 21
265.8434198309071
 31
0.0
  0
LINE
  5
7FC
330
54C
100
AcDbEntity
  8
BEM
370
    -2
100
AcDbLine
 10
246.6162236638966
 20
438.843419830907
 30
0.0
 11
246.6162236638965
 21
272.843419830907
 31
0.0
  0
SOLID
  5
7FD
330
54C
100
AcDbEntity
  8
BEM
100
AcDbTrace
 10
245.4495569972299
 20
438.843419830907
 30
0.0
 11
247.7828903305633
 21
438.843419830907
 31
0.0
 12
246.6162236638966
 22
445.843419830907
 32
0.0
 13
246.6162236638966
 23
445.843419830907
 33
0.0
  0
SOLID
  5
7FE
330
54C
100
AcDbEntity
  8
BEM
100
AcDbTrace
 10
245.4495569972299
 20
272.843419830907
 30
0.0
 11
247.7828903305632
 21
272.843419830907
 31
0.0
 12
246.6162236638965
 22
265.8434198309071
 32
0.0
 13
246.6162236638965
 23
265.8434198309071
 33
0.0
  0
MTEXT
  5
7FF
330
54C
100
AcDbEntity
  8
BEM
100
AcDbMText
 10
237.6162236638965
 20
355.8434198309071
 30
0.0
 40
10.0
 41
0.0
 71
     5
 72
     1
  1
\A1;%%c180
 11
0.0000000000000001
 21
1.0
 31
0.0
 73
     1
 44
1.0
  0
POINT
  5
800
330
54C
100
AcDbEntity
  8
DEFPOINTS
 62
     0
100
AcDbPoint
 10
435.7850834160979
 20
445.843419830907
 30
0.0
  0
POINT
  5
801
330
54C
100
AcDbEntity
  8
DEFPOINTS
 62
     0
100
AcDbPoint
 10
435.785083416098
 20
265.843419830907
 30
0.0
  0
POINT
  5
802
330
54C
100
AcDbEntity
  8
DEFPOINTS
 62
     0
100
AcDbPoint
 10
246.6162236638965
 20
265.8434198309071
 30
0.0
  0
ENDBLK
  5
54E
330
54C
100
AcDbEntity
  8
0
 48
10.0
100
AcDbBlockEnd
  0
BLOCK
  5
559
330
558
100
AcDbEntity
  8
0
 48
10.0
100
AcDbBlockBegin
  2
*D9
 70
     1
 10
0.0
 20
0.0
 30
0.0
  3
*D9
  1

  0
LINE
  5
803
330
558
100
AcDbEntity
  8
BEM
370
    -2
100
AcDbLine
 10
206.0829607088312
 20
355.843419830907
 30
0.0
 11
206.0829607088312
 21
155.1777793479011
 31
0.0
  0
LINE
  5
804
330
558
100
AcDbEntity
  8
BEM
370
    -2
100
AcDbLine
 10
117.0829607088312
 20
183.8298799866036
 30
0.0
 11
117.0829607088312
 21
155.1777793479011
 31
0.0
  0
LINE
  5
805
330
558
100
AcDbEntity
  8
BEM
370
    -2
100
AcDbLine
 10
199.0829607088312
 20
156.4277793479011
 30
0.0
 11
124.0829607088312
 21
156.4277793479011
 31
0.0
  0
SOLID
  5
806
330
558
100
AcDbEntity
  8
BEM
100
AcDbTrace
 10
199.0829607088312
 20
157.5944460145678
 30
0.0
 11
199.0829607088312
 21
155.2611126812345
 31
0.0
 12
206.0829607088312
 22
156.4277793479011
 32
0.0
 13
206.0829607088312
 23
156.4277793479011
 33
0.0
  0
SOLID
  5
807
330
558
100
AcDbEntity
  8
BEM
100
AcDbTrace
 10
124.0829607088312
 20
157.5944460145678
 30
0.0
 11
124.0829607088312
 21
155.2611126812345
 31
0.0
 12
117.0829607088312
 22
156.4277793479011
 32
0.0
 13
117.0829607088312
 23
156.4277793479011
 33
0.0
  0
MTEXT
  5
808
330
558
100
AcDbEntity
  8
BEM
100
AcDbMText
 10
166.7167845437661
 20
165.4277793479011
 30
0.0
 40
10.0
 41
0.0
 71
     5
 72
     1
  1
\A1;89
 73
     1
 44
1.0
  0
POINT
  5
809
330
558
100
AcDbEntity
  8
DEFPOINTS
 62
     0
100
AcDbPoint
 10
206.0829607088312
 20
355.843419830907
 30
0.0
  0
POINT
  5
80A
330
558
100
AcDbEntity
  8
DEFPOINTS
 62
     0
100
AcDbPoint
 10
117.0829607088312
 20
183.8298799866036
 30
0.0
  0
POINT
  5
80B
330
558
100
AcDbEntity
  8
DEFPOINTS
 62
     0
100
AcDbPoint
 10
117.0829607088312
 20
156.4277793479011
 30
0.0
  0
ENDBLK
  5
55A
330
558
100
AcDbEntity
  8
0
 48
10.0
100
AcDbBlockEnd
  0
BLOCK
  5
565
330
564
100
AcDbEntity
  8
0
 48
10.0
100
AcDbBlockBegin
  2
*D10
 70
     1
 10
0.0
 20
0.0
 30
0.0
  3
*D10
  1

  0
LINE
  5
80C
330
564
100
AcDbEntity
  8
BEM
370
    -2
100
AcDbLine
 10
117.0829607088312
 20
155.1777793479011
 30
0.0
 11
117.0829607088312
 21
157.6777793479011
 31
0.0
  0
LINE
  5
80D
330
564
100
AcDbEntity
  8
BEM
370
    -2
100
AcDbLine
 10
28.08296070883125
 20
278.843419830907
 30
0.0
 11
28.08296070883125
 21
155.1777793479011
 31
0.0
  0
LINE
  5
80E
330
564
100
AcDbEntity
  8
BEM
370
    -2
100
AcDbLine
 10
110.0829607088312
 20
156.4277793479011
 30
0.0
 11
35.08296070883125
 21
156.4277793479011
 31
0.0
  0
SOLID
  5
80F
330
564
100
AcDbEntity
  8
BEM
100
AcDbTrace
 10
110.0829607088312
 20
157.5944460145678
 30
0.0
 11
110.0829607088312
 21
155.2611126812345
 31
0.0
 12
117.0829607088312
 22
156.4277793479011
 32
0.0
 13
117.0829607088312
 23
156.4277793479011
 33
0.0
  0
SOLID
  5
810
330
564
100
AcDbEntity
  8
BEM
100
AcDbTrace
 10
35.08296070883125
 20
157.5944460145678
 30
0.0
 11
35.08296070883125
 21
155.2611126812345
 31
0.0
 12
28.08296070883125
 22
156.4277793479011
 32
0.0
 13
28.08296070883125
 23
156.4277793479011
 33
0.0
  0
MTEXT
  5
811
330
564
100
AcDbEntity
  8
BEM
100
AcDbMText
 10
72.44402919957702
 20
165.4277793479011
 30
0.0
 40
10.0
 41
0.0
 71
     5
 72
     1
  1
\A1;89
 73
     1
 44
1.0
  0
POINT
  5
812
330
564
100
AcDbEntity
  8
DEFPOINTS
 62
     0
100
AcDbPoint
 10
117.0829607088312
 20
155.1777793479011
 30
0.0
  0
POINT
  5
813
330
564
100
AcDbEntity
  8
DEFPOINTS
 62
     0
100
AcDbPoint
 10
28.08296070883125
 20
278.843419830907
 30
0.0
  0
POINT
  5
814
330
564
100
AcDbEntity
  8
DEFPOINTS
 62
     0
100
AcDbPoint
 10
28.08296070883125
 20
156.4277793479011
 30
0.0
  0
ENDBLK
  5
566
330
564
100
AcDbEntity
  8
0
 48
10.0
100
AcDbBlockEnd
  0
BLOCK
  5
571
330
570
100
AcDbEntity
  8
0
 48
10.0
100
AcDbBlockBegin
  2
*D11
 70
     1
 10
0.0
 20
0.0
 30
0.0
  3
*D11
  1

  0
LINE
  5
815
330
570
100
AcDbEntity
  8
BEM
370
    -2
100
AcDbLine
 10
155.0829607088312
 20
232.2293100371968
 30
0.0
 11
155.0829607088312
 21
189.1641640625173
 31
0.0
  0
LINE
  5
816
330
570
100
AcDbEntity
  8
BEM
370
    -2
100
AcDbLine
 10
79.08296070883125
 20
232.2293100371968
 30
0.0
 11
79.08296070883125
 21
189.1641640625173
 31
0.0
  0
LINE
  5
817
330
570
100
AcDbEntity
  8
BEM
370
    -2
100
AcDbLine
 10
148.0829607088312
 20
190.4141640625173
 30
0.0
 11
86.08296070883126
 21
190.4141640625173
 31
0.0
  0
SOLID
  5
818
330
570
100
AcDbEntity
  8
BEM
100
AcDbTrace
 10
148.0829607088312
 20
191.580830729184
 30
0.0
 11
148.0829607088312
 21
189.2474973958506
 31
0.0
 12
155.0829607088312
 22
190.4141640625173
 32
0.0
 13
155.0829607088312
 23
190.4141640625173
 33
0.0
  0
SOLID
  5
819
330
570
100
AcDbEntity
  8
BEM
100
AcDbTrace
 10
86.08296070883126
 20
191.580830729184
 30
0.0
 11
86.08296070883126
 21
189.2474973958506
 31
0.0
 12
79.08296070883125
 22
190.4141640625173
 32
0.0
 13
79.08296070883125
 23
190.4141640625173
 33
0.0
  0
MTEXT
  5
81A
330
570
100
AcDbEntity
  8
BEM
100
AcDbMText
 10
117.0829607088312
 20
199.4141640625173
 30
0.0
 40
10.0
 41
0.0
 71
     5
 72
     1
  1
\A1;76
 73
     1
 44
1.0
  0
POINT
  5
81B
330
570
100
AcDbEntity
  8
DEFPOINTS
 62
     0
100
AcDbPoint
 10
155.0829607088312
 20
232.2293100371968
 30
0.0
  0
POINT
  5
81C
330
570
100
AcDbEntity
  8
DEFPOINTS
 62
     0
100
AcDbPoint
 10
79.08296070883125
 20
232.2293100371968
 30
0.0
  0
POINT
  5
81D
330
570
100
AcDbEntity
  8
DEFPOINTS
 62
     0
100
AcDbPoint
 10
79.08296070883125
 20
190.4141640625173
 30
0.0
  0
ENDBLK
  5
572
330
570
100
AcDbEntity
  8
0
 48
10.0
100
AcDbBlockEnd
  0
BLOCK
  5
57D
330
57C
100
AcDbEntity
  8
0
 48
10.0
100
AcDbBlockBegin
  2
*D12
 70
     1
 10
0.0
 20
0.0
 30
0.0
  3
*D12
  1

  0
LINE
  5
81E
330
57C
100
AcDbEntity
  8
BEM
370
    -2
100
AcDbLine
 10
435.7850834160981
 20
265.843419830907
 30
0.0
 11
435.7850834160981
 21
182.2575549696009
 31
0.0
  0
LINE
  5
81F
330
57C
100
AcDbEntity
  8
BEM
370
    -2
100
AcDbLine
 10
449.2850834160979
 20
267.843419830907
 30
0.0
 11
449.2850834160979
 21
182.2575549696009
 31
0.0
  0
LINE
  5
820
330
57C
100
AcDbEntity
  8
BEM
370
    -2
100
AcDbLine
 10
428.7850834160981
 20
183.5075549696009
 30
0.0
 11
421.7850834160981
 21
183.5075549696009
 31
0.0
  0
LINE
  5
821
330
57C
100
AcDbEntity
  8
BEM
370
    -2
100
AcDbLine
 10
456.2850834160979
 20
183.5075549696009
 30
0.0
 11
500.3327024637169
 21
183.5075549696009
 31
0.0
  0
LINE
  5
822
330
57C
100
AcDbEntity
  8
BEM
370
    -2
100
AcDbLine
 10
435.7850834160981
 20
183.5075549696009
 30
0.0
 11
449.2850834160979
 21
183.5075549696009
 31
0.0
  0
SOLID
  5
823
330
57C
100
AcDbEntity
  8
BEM
100
AcDbTrace
 10
428.7850834160981
 20
184.6742216362676
 30
0.0
 11
428.7850834160981
 21
182.3408883029343
 31
0.0
 12
435.7850834160981
 22
183.5075549696009
 32
0.0
 13
435.7850834160981
 23
183.5075549696009
 33
0.0
  0
SOLID
  5
824
330
57C
100
AcDbEntity
  8
BEM
100
AcDbTrace
 10
456.2850834160979
 20
184.6742216362676
 30
0.0
 11
456.2850834160979
 21
182.3408883029343
 31
0.0
 12
449.2850834160979
 22
183.5075549696009
 32
0.0
 13
449.2850834160979
 23
183.5075549696009
 33
0.0
  0
MTEXT
  5
825
330
57C
100
AcDbEntity
  8
BEM
100
AcDbMText
 10
481.8088929399074
 20
192.5075549696009
 30
0.0
 40
10.0
 41
0.0
 71
     5
 72
     1
  1
\A1;13.5
 73
     1
 44
1.0
  0
POINT
  5
826
330
57C
100
AcDbEntity
  8
DEFPOINTS
 62
     0
100
AcDbPoint
 10
435.7850834160981
 20
265.843419830907
 30
0.0
  0
POINT
  5
827
330
57C
100
AcDbEntity
  8
DEFPOINTS
 62
     0
100
AcDbPoint
 10
449.2850834160979
 20
267.843419830907
 30
0.0
  0
POINT
  5
828
330
57C
100
AcDbEntity
  8
DEFPOINTS
 62
     0
100
AcDbPoint
 10
449.2850834160979
 20
183.5075549696009
 30
0.0
  0
ENDBLK
  5
57E
330
57C
100
AcDbEntity
  8
0
 48
10.0
100
AcDbBlockEnd
  0
BLOCK
  5
58B
330
58A
100
AcDbEntity
  8
0
 48
10.0
100
AcDbBlockBegin
  2
*D13
 70
     1
 10
0.0
 20
0.0
 30
0.0
  3
*D13
  1

  0
LINE
  5
829
330
58A
100
AcDbEntity
  8
BEM
370
    -2
100
AcDbLine
 10
364.8350834160981
 20
371.343419830907
 30
0.0
 11
364.8350834160981
 21
519.8885407295245
 31
0.0
  0
LINE
  5
82A
330
58A
100
AcDbEntity
  8
BEM
370
    -2
100
AcDbLine
 10
434.8350834160981
 20
377.9970096693933
 30
0.0
 11
434.8350834160981
 21
519.8885407295245
 31
0.0
  0
LINE
  5
82B
330
58A
100
AcDbEntity
  8
BEM
370
    -2
100
AcDbLine
 10
371.8350834160981
 20
518.6385407295245
 30
0.0
 11
427.835083416098
 21
518.6385407295245
 31
0.0
  0
SOLID
  5
82C
330
58A
100
AcDbEntity
  8
BEM
100
AcDbTrace
 10
371.8350834160981
 20
519.805207396191
 30
0.0
 11
371.8350834160981
 21
517.4718740628578
 31
0.0
 12
364.8350834160981
 22
518.6385407295245
 32
0.0
 13
364.8350834160981
 23
518.6385407295245
 33
0.0
  0
SOLID
  5
82D
330
58A
100
AcDbEntity
  8
BEM
100
AcDbTrace
 10
427.835083416098
 20
519.805207396191
 30
0.0
 11
427.835083416098
 21
517.4718740628578
 31
0.0
 12
434.8350834160981
 22
518.6385407295245
 32
0.0
 13
434.8350834160981
 23
518.6385407295245
 33
0.0
  0
MTEXT
  5
82E
330
58A
100
AcDbEntity
  8
BEM
100
AcDbMText
 10
399.8350834160981
 20
527.6385407295244
 30
0.0
 40
10.0
 41
0.0
 71
     5
 72
     1
  1
\A1;70
 73
     1
 44
1.0
  0
POINT
  5
82F
330
58A
100
AcDbEntity
  8
DEFPOINTS
 62
     0
100
AcDbPoint
 10
364.8350834160981
 20
371.343419830907
 30
0.0
  0
POINT
  5
830
330
58A
100
AcDbEntity
  8
DEFPOINTS
 62
     0
100
AcDbPoint
 10
434.8350834160981
 20
377.9970096693933
 30
0.0
  0
POINT
  5
831
330
58A
100
AcDbEntity
  8
DEFPOINTS
 62
     0
100
AcDbPoint
 10
434.8350834160981
 20
518.6385407295245
 30
0.0
  0
ENDBLK
  5
58C
330
58A
100
AcDbEntity
  8
0
 48
10.0
100
AcDbBlockEnd
  0
BLOCK
  5
597
330
596
100
AcDbEntity
  8
0
 48
10.0
100
AcDbBlockBegin
  2
*D14
 70
     1
 10
0.0
 20
0.0
 30
0.0
  3
*D14
  1

  0
LINE
  5
832
330
596
100
AcDbEntity
  8
BEM
370
    -2
100
AcDbLine
 10
435.7850834160979
 20
378.343419830907
 30
0.0
 11
435.7850834160979
 21
479.5193241900408
 31
0.0
  0
LINE
  5
833
330
596
100
AcDbEntity
  8
BEM
370
    -2
100
AcDbLine
 10
434.8350834160981
 20
377.9970096693933
 30
0.0
 11
434.8350834160981
 21
479.5193241900408
 31
0.0
  0
LINE
  5
834
330
596
100
AcDbEntity
  8
BEM
370
    -2
100
AcDbLine
 10
427.835083416098
 20
478.2693241900408
 30
0.0
 11
420.835083416098
 21
478.2693241900408
 31
0.0
  0
LINE
  5
835
330
596
100
AcDbEntity
  8
BEM
370
    -2
100
AcDbLine
 10
442.7850834160978
 20
478.2693241900408
 30
0.0
 11
460.1660357970502
 21
478.2693241900408
 31
0.0
  0
LINE
  5
836
330
596
100
AcDbEntity
  8
BEM
370
    -2
100
AcDbLine
 10
434.8350834160981
 20
478.2693241900408
 30
0.0
 11
435.7850834160979
 21
478.2693241900408
 31
0.0
  0
SOLID
  5
837
330
596
100
AcDbEntity
  8
BEM
100
AcDbTrace
 10
427.835083416098
 20
479.4359908567074
 30
0.0
 11
427.835083416098
 21
477.1026575233741
 31
0.0
 12
434.8350834160981
 22
478.2693241900408
 32
0.0
 13
434.8350834160981
 23
478.2693241900408
 33
0.0
  0
SOLID
  5
838
330
596
100
AcDbEntity
  8
BEM
100
AcDbTrace
 10
442.7850834160978
 20
479.4359908567074
 30
0.0
 11
442.7850834160978
 21
477.1026575233741
 31
0.0
 12
435.7850834160979
 22
478.2693241900408
 32
0.0
 13
435.7850834160979
 23
478.2693241900408
 33
0.0
  0
MTEXT
  5
839
330
596
100
AcDbEntity
  8
BEM
100
AcDbMText
 10
454.975559606574
 20
487.2693241900408
 30
0.0
 40
10.0
 41
0.0
 71
     5
 72
     1
  1
\A1;1
 73
     1
 44
1.0
  0
POINT
  5
83A
330
596
100
AcDbEntity
  8
DEFPOINTS
 62
     0
100
AcDbPoint
 10
435.7850834160979
 20
378.343419830907
 30
0.0
  0
POINT
  5
83B
330
596
100
AcDbEntity
  8
DEFPOINTS
 62
     0
100
AcDbPoint
 10
434.8350834160981
 20
377.9970096693933
 30
0.0
  0
POINT
  5
83C
330
596
100
AcDbEntity
  8
DEFPOINTS
 62
     0
100
AcDbPoint
 10
434.8350834160981
 20
478.2693241900408
 30
0.0
  0
ENDBLK
  5
598
330
596
100
AcDbEntity
  8
0
 48
10.0
100
AcDbBlockEnd
  0
BLOCK
  5
5A5
330
5A4
100
AcDbEntity
  8
0
 48
10.0
100
AcDbBlockBegin
  2
*D15
 70
     1
 10
0.0
 20
0.0
 30
0.0
  3
*D15
  1

  0
LINE
  5
83D
330
5A4
100
AcDbEntity
  8
BEM
370
    -2
100
AcDbLine
 10
435.785083416098
 20
418.343419830907
 30
0.0
 11
270.3966867434365
 21
418.343419830907
 31
0.0
  0
LINE
  5
83E
330
5A4
100
AcDbEntity
  8
BEM
370
    -2
100
AcDbLine
 10
435.7850834160981
 20
293.343419830907
 30
0.0
 11
270.3966867434365
 21
293.343419830907
 31
0.0
  0
LINE
  5
83F
330
5A4
100
AcDbEntity
  8
BEM
370
    -2
100
AcDbLine
 10
271.6466867434365
 20
411.343419830907
 30
0.0
 11
271.6466867434365
 21
300.3434198309071
 31
0.0
  0
SOLID
  5
840
330
5A4
100
AcDbEntity
  8
BEM
100
AcDbTrace
 10
270.4800200767699
 20
411.343419830907
 30
0.0
 11
272.8133534101032
 21
411.343419830907
 31
0.0
 12
271.6466867434365
 22
418.343419830907
 32
0.0
 13
271.6466867434365
 23
418.343419830907
 33
0.0
  0
SOLID
  5
841
330
5A4
100
AcDbEntity
  8
BEM
100
AcDbTrace
 10
270.4800200767698
 20
300.3434198309071
 30
0.0
 11
272.8133534101031
 21
300.3434198309071
 31
0.0
 12
271.6466867434365
 22
293.343419830907
 32
0.0
 13
271.6466867434365
 23
293.343419830907
 33
0.0
  0
MTEXT
  5
842
330
5A4
100
AcDbEntity
  8
BEM
100
AcDbMText
 10
262.6466867434364
 20
355.8434198309071
 30
0.0
 40
10.0
 41
0.0
 71
     5
 72
     1
  1
\A1;%%c125
 11
0.0000000000000001
 21
1.0
 31
0.0
 73
     1
 44
1.0
  0
POINT
  5
843
330
5A4
100
AcDbEntity
  8
DEFPOINTS
 62
     0
100
AcDbPoint
 10
435.785083416098
 20
418.343419830907
 30
0.0
  0
POINT
  5
844
330
5A4
100
AcDbEntity
  8
DEFPOINTS
 62
     0
100
AcDbPoint
 10
435.7850834160981
 20
293.343419830907
 30
0.0
  0
POINT
  5
845
330
5A4
100
AcDbEntity
  8
DEFPOINTS
 62
     0
100
AcDbPoint
 10
271.6466867434365
 20
293.343419830907
 30
0.0
  0
ENDBLK
  5
5A6
330
5A4
100
AcDbEntity
  8
0
 48
10.0
100
AcDbBlockEnd
  0
BLOCK
  5
5B1
330
5B0
100
AcDbEntity
  8
0
 48
10.0
100
AcDbBlockBegin
  2
*D16
 70
     1
 10
0.0
 20
0.0
 30
0.0
  3
*D16
  1

  0
LINE
  5
846
330
5B0
100
AcDbEntity
  8
BEM
370
    -2
100
AcDbLine
 10
381.2051514661238
 20
298.5212798328278
 30
0.0
 11
428.700400206185
 21
333.1902937570885
 31
0.0
  0
MTEXT
  5
847
330
5B0
100
AcDbEntity
  8
BEM
100
AcDbMText
 10
391.4376508190676
 20
317.1331111608306
 30
0.0
 40
10.0
 41
0.0
 71
     5
 72
     1
  1
\A1;R2.5
 11
0.8077073799806893
 21
0.5895835719596759
 31
0.0
 73
     1
 44
1.0
  0
SOLID
  5
848
330
5B0
100
AcDbEntity
  8
BEM
100
AcDbTrace
 10
428.0125527055654
 20
334.1326190337326
 30
0.0
 11
429.3882477068047
 21
332.2479684804443
 31
0.0
 12
434.3543518660498
 22
337.3173787608063
 32
0.0
 13
434.3543518660498
 23
337.3173787608063
 33
0.0
  0
POINT
  5
849
330
5B0
100
AcDbEntity
  8
DEFPOINTS
 62
     0
100
AcDbPoint
 10
434.3543518660498
 20
337.3173787608063
 30
0.0
  0
POINT
  5
84A
330
5B0
100
AcDbEntity
  8
DEFPOINTS
 62
     0
100
AcDbPoint
 10
432.3350834160982
 20
335.8434198309071
 30
0.0
  0
ENDBLK
  5
5B2
330
5B0
100
AcDbEntity
  8
0
 48
10.0
100
AcDbBlockEnd
  0
BLOCK
  5
5B9
330
5B8
100
AcDbEntity
  8
0
 48
10.0
100
AcDbBlockBegin
  2
*D17
 70
     1
 10
0.0
 20
0.0
 30
0.0
  3
*D17
  1

  0
LINE
  5
84B
330
5B8
100
AcDbEntity
  8
BEM
370
    -2
100
AcDbLine
 10
366.8350834160981
 20
373.343419830907
 30
0.0
 11
304.9748610202497
 21
373.343419830907
 31
0.0
  0
LINE
  5
84C
330
5B8
100
AcDbEntity
  8
BEM
370
    -2
100
AcDbLine
 10
366.8350834160981
 20
338.343419830907
 30
0.0
 11
304.9748610202497
 21
338.343419830907
 31
0.0
  0
LINE
  5
84D
330
5B8
100
AcDbEntity
  8
BEM
370
    -2
100
AcDbLine
 10
306.2248610202496
 20
366.343419830907
 30
0.0
 11
306.2248610202496
 21
345.343419830907
 31
0.0
  0
SOLID
  5
84E
330
5B8
100
AcDbEntity
  8
BEM
100
AcDbTrace
 10
305.058194353583
 20
366.343419830907
 30
0.0
 11
307.3915276869163
 21
366.343419830907
 31
0.0
 12
306.2248610202496
 22
373.343419830907
 32
0.0
 13
306.2248610202496
 23
373.343419830907
 33
0.0
  0
SOLID
  5
84F
330
5B8
100
AcDbEntity
  8
BEM
100
AcDbTrace
 10
305.058194353583
 20
345.343419830907
 30
0.0
 11
307.3915276869163
 21
345.343419830907
 31
0.0
 12
306.2248610202496
 22
338.343419830907
 32
0.0
 13
306.2248610202496
 23
338.343419830907
 33
0.0
  0
MTEXT
  5
850
330
5B8
100
AcDbEntity
  8
BEM
100
AcDbMText
 10
297.2248610202496
 20
356.3820344666281
 30
0.0
 40
10.0
 41
0.0
 71
     5
 72
     1
  1
\A1;%%c35
 11
0.0000000000000001
 21
1.0
 31
0.0
 73
     1
 44
1.0
  0
POINT
  5
851
330
5B8
100
AcDbEntity
  8
DEFPOINTS
 62
     0
100
AcDbPoint
 10
366.8350834160981
 20
373.343419830907
 30
0.0
  0
POINT
  5
852
330
5B8
100
AcDbEntity
  8
DEFPOINTS
 62
     0
100
AcDbPoint
 10
366.8350834160981
 20
338.343419830907
 30
0.0
  0
POINT
  5
853
330
5B8
100
AcDbEntity
  8
DEFPOINTS
 62
     0
100
AcDbPoint
 10
306.2248610202496
 20
338.343419830907
 30
0.0
  0
ENDBLK
  5
5BA
330
5B8
100
AcDbEntity
  8
0
 48
10.0
100
AcDbBlockEnd
  0
BLOCK
  5
5C5
330
5C4
100
AcDbEntity
  8
0
 48
10.0
100
AcDbBlockBegin
  2
*D18
 70
     1
 10
0.0
 20
0.0
 30
0.0
  3
*D18
  1

  0
LINE
  5
854
330
5C4
100
AcDbEntity
  8
BEM
370
    -2
100
AcDbLine
 10
1065.723501216516
 20
414.7188303774367
 30
0.0
 11
1103.683211632736
 21
452.6785407936568
 31
0.0
  0
LINE
  5
855
330
5C4
100
AcDbEntity
  8
BEM
370
    -2
100
AcDbLine
 10
1006.848090669986
 20
457.4827822101563
 30
0.0
 11
1006.848090669986
 21
492.7889612104672
 31
0.0
  0
ARC
  5
856
330
5C4
100
AcDbEntity
  8
BEM
370
    -2
100
AcDbCircle
 10
1006.848090669986
 20
355.8434198309063
 30
0.0
 40
135.695541379561
100
AcDbArc
 50
47.95599204345395
 51
87.04400795654597
  0
SOLID
  5
857
330
5C4
100
AcDbEntity
  8
BEM
100
AcDbTrace
 10
1098.526963714643
 20
457.4610506311937
 30
0.0
 11
1096.920153150183
 21
455.7691273899134
 31
0.0
 12
1102.799328156253
 22
451.7946573171735
 32
0.0
 13
1102.799328156253
 23
451.7946573171735
 33
0.0
  0
SOLID
  5
858
330
5C4
100
AcDbEntity
  8
BEM
100
AcDbTrace
 10
1013.815669924618
 20
490.1921314359496
 30
0.0
 11
1013.875853675563
 21
492.5246884793178
 31
0.0
 12
1006.848090669986
 22
491.5389612104672
 32
0.0
 13
1006.848090669986
 23
491.5389612104672
 33
0.0
  0
MTEXT
  5
859
330
5C4
100
AcDbEntity
  8
BEM
100
AcDbMText
 10
1069.334727360607
 20
486.3509672380141
 30
0.0
 40
10.0
 41
0.0
 71
     5
 72
     1
  1
\A1;45\U+00B0
 11
0.9019458800376188
 21
-0.431849081836659
 31
0.0
 73
     1
 44
1.0
  0
POINT
  5
85A
330
5C4
100
AcDbEntity
  8
DEFPOINTS
 62
     0
100
AcDbPoint
 10
1041.968681114513
 20
486.9152477617011
 30
0.0
  0
POINT
  5
85B
330
5C4
100
AcDbEntity
  8
DEFPOINTS
 62
     0
100
AcDbPoint
 10
1051.739778419999
 20
400.7351075809195
 30
0.0
  0
POINT
  5
85C
330
5C4
100
AcDbEntity
  8
DEFPOINTS
 62
     0
100
AcDbPoint
 10
1006.848090669986
 20
457.4827822101563
 30
0.0
  0
POINT
  5
85D
330
5C4
100
AcDbEntity
  8
DEFPOINTS
 62
     0
100
AcDbPoint
 10
1006.848090669986
 20
220.2766475450053
 30
0.0
  0
POINT
  5
85E
330
5C4
100
AcDbEntity
  8
DEFPOINTS
 62
     0
100
AcDbPoint
 10
1065.723501216516
 20
414.7188303774367
 30
0.0
  0
ENDBLK
  5
5C6
330
5C4
100
AcDbEntity
  8
0
 48
10.0
100
AcDbBlockEnd
  0
BLOCK
  5
5D3
330
5D2
100
AcDbEntity
  8
0
 48
10.0
100
AcDbBlockBegin
  2
*D19
 70
     1
 10
0.0
 20
0.0
 30
0.0
  3
*D19
  1

  0
LINE
  5
85F
330
5D2
100
AcDbEntity
  8
BEM
370
    -2
100
AcDbLine
 10
775.5710983177736
 20
335.287070644803
 30
0.0
 11
796.9794767830036
 21
335.287070644803
 31
0.0
  0
LINE
  5
860
330
5D2
100
AcDbEntity
  8
BEM
370
    -2
100
AcDbLine
 10
756.6345731588809
 20
254.2870706448031
 30
0.0
 11
796.9794767830035
 21
254.2870706448031
 31
0.0
  0
LINE
  5
861
330
5D2
100
AcDbEntity
  8
BEM
370
    -2
100
AcDbLine
 10
795.7294767830036
 20
328.2870706448031
 30
0.0
 11
795.7294767830036
 21
261.2870706448031
 31
0.0
  0
SOLID
  5
862
330
5D2
100
AcDbEntity
  8
BEM
100
AcDbTrace
 10
794.562810116337
 20
328.2870706448031
 30
0.0
 11
796.8961434496702
 21
328.2870706448031
 31
0.0
 12
795.7294767830036
 22
335.287070644803
 32
0.0
 13
795.7294767830036
 23
335.287070644803
 33
0.0
  0
SOLID
  5
863
330
5D2
100
AcDbEntity
  8
BEM
100
AcDbTrace
 10
794.562810116337
 20
261.2870706448031
 30
0.0
 11
796.8961434496702
 21
261.2870706448031
 31
0.0
 12
795.7294767830035
 22
254.2870706448031
 32
0.0
 13
795.7294767830035
 23
254.2870706448031
 33
0.0
  0
MTEXT
  5
864
330
5D2
100
AcDbEntity
  8
BEM
100
AcDbMText
 10
786.7294767830035
 20
294.7870706448032
 30
0.0
 40
10.0
 41
0.0
 71
     5
 72
     1
  1
\A1;81
 11
0.0000000000000001
 21
1.0
 31
0.0
 73
     1
 44
1.0
  0
POINT
  5
865
330
5D2
100
AcDbEntity
  8
DEFPOINTS
 62
     0
100
AcDbPoint
 10
775.5710983177736
 20
335.287070644803
 30
0.0
  0
POINT
  5
866
330
5D2
100
AcDbEntity
  8
DEFPOINTS
 62
     0
100
AcDbPoint
 10
756.6345731588809
 20
254.2870706448031
 30
0.0
  0
POINT
  5
867
330
5D2
100
AcDbEntity
  8
DEFPOINTS
 62
     0
100
AcDbPoint
 10
795.7294767830035
 20
254.2870706448031
 30
0.0
  0
ENDBLK
  5
5D4
330
5D2
100
AcDbEntity
  8
0
 48
10.0
100
AcDbBlockEnd
  0
BLOCK
  5
5DF
330
5DE
100
AcDbEntity
  8
0
 48
10.0
100
AcDbBlockBegin
  2
*D20
 70
     1
 10
0.0
 20
0.0
 30
0.0
  3
*D20
  1

  0
LINE
  5
868
330
5DE
100
AcDbEntity
  8
BEM
370
    -2
100
AcDbLine
 10
766.1850834160978
 20
396.2870706448031
 30
0.0
 11
853.7031440176496
 21
396.2870706448031
 31
0.0
  0
LINE
  5
869
330
5DE
100
AcDbEntity
  8
BEM
370
    -2
100
AcDbLine
 10
839.9199705897162
 20
265.2870706448031
 30
0.0
 11
853.7031440176496
 21
265.2870706448031
 31
0.0
  0
LINE
  5
86A
330
5DE
100
AcDbEntity
  8
BEM
370
    -2
100
AcDbLine
 10
852.4531440176497
 20
389.2870706448031
 30
0.0
 11
852.4531440176497
 21
272.2870706448031
 31
0.0
  0
SOLID
  5
86B
330
5DE
100
AcDbEntity
  8
BEM
100
AcDbTrace
 10
851.286477350983
 20
389.2870706448031
 30
0.0
 11
853.6198106843164
 21
389.2870706448031
 31
0.0
 12
852.4531440176497
 22
396.2870706448031
 32
0.0
 13
852.4531440176497
 23
396.2870706448031
 33
0.0
  0
SOLID
  5
86C
330
5DE
100
AcDbEntity
  8
BEM
100
AcDbTrace
 10
851.286477350983
 20
272.2870706448031
 30
0.0
 11
853.6198106843164
 21
272.2870706448031
 31
0.0
 12
852.4531440176497
 22
265.2870706448031
 32
0.0
 13
852.4531440176497
 23
265.2870706448031
 33
0.0
  0
MTEXT
  5
86D
330
5DE
100
AcDbEntity
  8
BEM
100
AcDbMText
 10
843.4531440176495
 20
330.7870706448032
 30
0.0
 40
10.0
 41
0.0
 71
     5
 72
     1
  1
\A1;131
 11
0.0000000000000001
 21
1.0
 31
0.0
 73
     1
 44
1.0
  0
POINT
  5
86E
330
5DE
100
AcDbEntity
  8
DEFPOINTS
 62
     0
100
AcDbPoint
 10
766.1850834160978
 20
396.2870706448031
 30
0.0
  0
POINT
  5
86F
330
5DE
100
AcDbEntity
  8
DEFPOINTS
 62
     0
100
AcDbPoint
 10
839.9199705897162
 20
265.2870706448031
 30
0.0
  0
POINT
  5
870
330
5DE
100
AcDbEntity
  8
DEFPOINTS
 62
     0
100
AcDbPoint
 10
852.4531440176497
 20
265.2870706448031
 30
0.0
  0
ENDBLK
  5
5E0
330
5DE
100
AcDbEntity
  8
0
 48
10.0
100
AcDbBlockEnd
  0
BLOCK
  5
5EB
330
5EA
100
AcDbEntity
  8
0
 48
10.0
100
AcDbBlockBegin
  2
*D21
 70
     1
 10
0.0
 20
0.0
 30
0.0
  3
*D21
  1

  0
LINE
  5
871
330
5EA
100
AcDbEntity
  8
BEM
370
    -2
100
AcDbLine
 10
775.5710983177736
 20
335.287070644803
 30
0.0
 11
826.7806434631845
 21
335.287070644803
 31
0.0
  0
LINE
  5
872
330
5EA
100
AcDbEntity
  8
BEM
370
    -2
100
AcDbLine
 10
684.1761649515848
 20
235.2870706448032
 30
0.0
 11
826.7806434631843
 21
235.2870706448031
 31
0.0
  0
LINE
  5
873
330
5EA
100
AcDbEntity
  8
BEM
370
    -2
100
AcDbLine
 10
825.5306434631844
 20
328.2870706448031
 30
0.0
 11
825.5306434631844
 21
242.2870706448032
 31
0.0
  0
SOLID
  5
874
330
5EA
100
AcDbEntity
  8
BEM
100
AcDbTrace
 10
824.3639767965177
 20
328.2870706448031
 30
0.0
 11
826.6973101298511
 21
328.2870706448031
 31
0.0
 12
825.5306434631844
 22
335.287070644803
 32
0.0
 13
825.5306434631844
 23
335.287070644803
 33
0.0
  0
SOLID
  5
875
330
5EA
100
AcDbEntity
  8
BEM
100
AcDbTrace
 10
824.3639767965177
 20
242.2870706448032
 30
0.0
 11
826.6973101298509
 21
242.2870706448032
 31
0.0
 12
825.5306434631844
 22
235.2870706448031
 32
0.0
 13
825.5306434631844
 23
235.2870706448031
 33
0.0
  0
MTEXT
  5
876
330
5EA
100
AcDbEntity
  8
BEM
100
AcDbMText
 10
816.5306434631842
 20
285.2870706448032
 30
0.0
 40
10.0
 41
0.0
 71
     5
 72
     1
  1
\A1;100
 11
0.0000000000000001
 21
1.0
 31
0.0
 73
     1
 44
1.0
  0
POINT
  5
877
330
5EA
100
AcDbEntity
  8
DEFPOINTS
 62
     0
100
AcDbPoint
 10
775.5710983177736
 20
335.287070644803
 30
0.0
  0
POINT
  5
878
330
5EA
100
AcDbEntity
  8
DEFPOINTS
 62
     0
100
AcDbPoint
 10
684.1761649515848
 20
235.2870706448032
 30
0.0
  0
POINT
  5
879
330
5EA
100
AcDbEntity
  8
DEFPOINTS
 62
     0
100
AcDbPoint
 10
825.5306434631844
 20
235.2870706448031
 30
0.0
  0
ENDBLK
  5
5EC
330
5EA
100
AcDbEntity
  8
0
 48
10.0
100
AcDbBlockEnd
  0
BLOCK
  5
5F7
330
5F6
100
AcDbEntity
  8
0
 48
10.0
100
AcDbBlockBegin
  2
*D22
 70
     1
 10
0.0
 20
0.0
 30
0.0
  3
*D22
  1

  0
LINE
  5
87A
330
5F6
100
AcDbEntity
  8
BEM
370
    -2
100
AcDbLine
 10
736.1850834160978
 20
250.1879399213548
 30
0.0
 11
736.1850834160978
 21
144.9190151337195
 31
0.0
  0
LINE
  5
87B
330
5F6
100
AcDbEntity
  8
BEM
370
    -2
100
AcDbLine
 10
663.1850834160978
 20
232.0779365092358
 30
0.0
 11
663.1850834160978
 21
144.9190151337195
 31
0.0
  0
LINE
  5
87C
330
5F6
100
AcDbEntity
  8
BEM
370
    -2
100
AcDbLine
 10
729.1850834160978
 20
146.1690151337195
 30
0.0
 11
670.1850834160978
 21
146.1690151337195
 31
0.0
  0
SOLID
  5
87D
330
5F6
100
AcDbEntity
  8
BEM
100
AcDbTrace
 10
729.1850834160978
 20
147.3356818003862
 30
0.0
 11
729.1850834160978
 21
145.0023484670529
 31
0.0
 12
736.1850834160978
 22
146.1690151337195
 32
0.0
 13
736.1850834160978
 23
146.1690151337195
 33
0.0
  0
SOLID
  5
87E
330
5F6
100
AcDbEntity
  8
BEM
100
AcDbTrace
 10
670.1850834160978
 20
147.3356818003862
 30
0.0
 11
670.1850834160978
 21
145.0023484670529
 31
0.0
 12
663.1850834160978
 22
146.1690151337195
 32
0.0
 13
663.1850834160978
 23
146.1690151337195
 33
0.0
  0
MTEXT
  5
87F
330
5F6
100
AcDbEntity
  8
BEM
100
AcDbMText
 10
703.5314812704172
 20
155.1690151337195
 30
0.0
 40
10.0
 41
0.0
 71
     5
 72
     1
  1
\A1;73
 73
     1
 44
1.0
  0
POINT
  5
880
330
5F6
100
AcDbEntity
  8
DEFPOINTS
 62
     0
100
AcDbPoint
 10
736.1850834160978
 20
250.1879399213548
 30
0.0
  0
POINT
  5
881
330
5F6
100
AcDbEntity
  8
DEFPOINTS
 62
     0
100
AcDbPoint
 10
663.1850834160978
 20
232.0779365092358
 30
0.0
  0
POINT
  5
882
330
5F6
100
AcDbEntity
  8
DEFPOINTS
 62
     0
100
AcDbPoint
 10
663.1850834160978
 20
146.1690151337195
 30
0.0
  0
ENDBLK
  5
5F8
330
5F6
100
AcDbEntity
  8
0
 48
10.0
100
AcDbBlockEnd
  0
BLOCK
  5
603
330
602
100
AcDbEntity
  8
0
 48
10.0
100
AcDbBlockBegin
  2
*D23
 70
     1
 10
0.0
 20
0.0
 30
0.0
  3
*D23
  1

  0
LINE
  5
883
330
602
100
AcDbEntity
  8
BEM
370
    -2
100
AcDbLine
 10
967.9275089570641
 20
403.9193243284426
 30
0.0
 11
974.7049693070026
 21
402.1683157033896
 31
0.0
  0
LINE
  5
884
330
602
100
AcDbEntity
  8
BEM
370
    -2
100
AcDbLine
 10
943.238189110859
 20
410.2979986054213
 30
0.0
 11
890.4477666572551
 21
423.9368072835551
 31
0.0
  0
LINE
  5
885
330
602
100
AcDbEntity
  8
BEM
370
    -2
100
AcDbLine
 10
961.1500486071253
 20
405.6703329534956
 30
0.0
 11
950.0156494607976
 21
408.5469899803683
 31
0.0
  0
SOLID
  5
886
330
602
100
AcDbEntity
  8
BEM
100
AcDbTrace
 10
968.2193437279062
 20
405.0489010534323
 30
0.0
 11
967.6356741862219
 21
402.7897476034529
 31
0.0
 12
961.1500486071253
 22
405.6703329534956
 32
0.0
 13
961.1500486071253
 23
405.6703329534956
 33
0.0
  0
SOLID
  5
887
330
602
100
AcDbEntity
  8
BEM
100
AcDbTrace
 10
943.5300238817012
 20
411.4275753304111
 30
0.0
 11
942.9463543400167
 21
409.1684218804316
 31
0.0
 12
950.0156494607976
 22
408.5469899803683
 32
0.0
 13
950.0156494607976
 23
408.5469899803683
 33
0.0
  0
MTEXT
  5
888
102
{ACAD_XDICTIONARY
360
91B
102
}
330
602
100
AcDbEntity
  8
BEM
100
AcDbMText
 10
915.7055445127271
 20
426.7067848497928
 30
0.0
 40
10.0
 41
0.0
 71
     5
 72
     1
  1
\A1;\U+220511.5
 11
0.9682086214198024
 21
-0.2501440892932824
 31
0.0
 73
     1
 44
1.0
  0
POINT
  5
889
330
602
100
AcDbEntity
  8
DEFPOINTS
 62
     0
100
AcDbPoint
 10
950.0156494607976
 20
408.5469899803683
 30
0.0
  0
POINT
  5
88A
330
602
100
AcDbEntity
  8
DEFPOINTS
 62
     0
100
AcDbPoint
 10
961.1500486071253
 20
405.6703329534956
 30
0.0
  0
ENDBLK
  5
604
330
602
100
AcDbEntity
  8
0
 48
10.0
100
AcDbBlockEnd
  0
BLOCK
  5
60E
330
60D
100
AcDbEntity
  8
0
 48
10.0
100
AcDbBlockBegin
  2
*D24
 70
     1
 10
0.0
 20
0.0
 30
0.0
  3
*D24
  1

  0
LINE
  5
88B
330
60D
100
AcDbEntity
  8
BEM
370
    -2
100
AcDbLine
 10
908.5323918815124
 20
355.8434198309069
 30
0.0
 11
880.0352885780677
 21
355.843419830907
 31
0.0
  0
LINE
  5
88C
330
60D
100
AcDbEntity
  8
BEM
370
    -2
100
AcDbLine
 10
939.3298119012975
 20
335.287070644803
 30
0.0
 11
880.0352885780677
 21
335.2870706448031
 31
0.0
  0
LINE
  5
88D
330
60D
100
AcDbEntity
  8
BEM
370
    -2
100
AcDbLine
 10
881.2852885780676
 20
362.8434198309069
 30
0.0
 11
881.2852885780676
 21
369.8434198309069
 31
0.0
  0
LINE
  5
88E
330
60D
100
AcDbEntity
  8
BEM
370
    -2
100
AcDbLine
 10
881.2852885780676
 20
328.2870706448031
 30
0.0
 11
881.2852885780676
 21
321.2870706448031
 31
0.0
  0
LINE
  5
88F
330
60D
100
AcDbEntity
  8
BEM
370
    -2
100
AcDbLine
 10
881.2852885780676
 20
355.843419830907
 30
0.0
 11
881.2852885780676
 21
335.2870706448031
 31
0.0
  0
SOLID
  5
890
330
60D
100
AcDbEntity
  8
BEM
100
AcDbTrace
 10
880.1186219114011
 20
362.8434198309069
 30
0.0
 11
882.4519552447343
 21
362.8434198309069
 31
0.0
 12
881.2852885780676
 22
355.843419830907
 32
0.0
 13
881.2852885780676
 23
355.843419830907
 33
0.0
  0
SOLID
  5
891
330
60D
100
AcDbEntity
  8
BEM
100
AcDbTrace
 10
880.1186219114011
 20
328.2870706448031
 30
0.0
 11
882.4519552447343
 21
328.2870706448031
 31
0.0
 12
881.2852885780676
 22
335.2870706448031
 32
0.0
 13
881.2852885780676
 23
335.2870706448031
 33
0.0
  0
MTEXT
  5
892
330
60D
100
AcDbEntity
  8
BEM
100
AcDbMText
 10
872.2852885780676
 20
345.5652452378552
 30
0.0
 40
10.0
 41
0.0
 71
     5
 72
     1
  1
\A1;20.5
 11
0.0000000000000001
 21
1.0
 31
0.0
 73
     1
 44
1.0
  0
POINT
  5
893
330
60D
100
AcDbEntity
  8
DEFPOINTS
 62
     0
100
AcDbPoint
 10
908.5323918815124
 20
355.8434198309069
 30
0.0
  0
POINT
  5
894
330
60D
100
AcDbEntity
  8
DEFPOINTS
 62
     0
100
AcDbPoint
 10
939.3298119012975
 20
335.287070644803
 30
0.0
  0
POINT
  5
895
330
60D
100
AcDbEntity
  8
DEFPOINTS
 62
     0
100
AcDbPoint
 10
881.2852885780676
 20
335.2870706448031
 30
0.0
  0
ENDBLK
  5
60F
330
60D
100
AcDbEntity
  8
0
 48
10.0
100
AcDbBlockEnd
  0
BLOCK
  5
61C
330
61B
100
AcDbEntity
  8
0
 48
10.0
100
AcDbBlockBegin
  2
*D25
 70
     1
 10
0.0
 20
0.0
 30
0.0
  3
*D25
  1

  0
LINE
  5
896
330
61B
100
AcDbEntity
  8
BEM
370
    -2
100
AcDbLine
 10
947.4008143690531
 20
328.3430318263612
 30
0.0
 11
1066.295366970918
 21
383.3438078354522
 31
0.0
  0
SOLID
  5
897
330
61B
100
AcDbEntity
  8
BEM
100
AcDbTrace
 10
946.9109855750788
 20
329.4018891650546
 30
0.0
 11
947.8906431630273
 21
327.2841744876678
 31
0.0
 12
941.0476703368923
 22
325.4040590625166
 32
0.0
 13
941.0476703368923
 23
325.4040590625166
 33
0.0
  0
SOLID
  5
898
330
61B
100
AcDbEntity
  8
BEM
100
AcDbTrace
 10
1065.805538176944
 20
384.4026651741457
 30
0.0
 11
1066.785195764892
 21
382.2849504967587
 31
0.0
 12
1072.648511003079
 22
386.2827805992968
 32
0.0
 13
1072.648511003079
 23
386.2827805992968
 33
0.0
  0
MTEXT
  5
899
102
{ACAD_XDICTIONARY
360
91D
102
}
330
61B
100
AcDbEntity
  8
BEM
100
AcDbMText
 10
1030.770114245583
 20
376.8261293476292
 30
0.0
 40
10.0
 41
0.0
 71
     5
 72
     1
  1
\A1;\U+2205145
 11
0.9075920045943938
 21
0.4198532519777949
 31
0.0
 73
     1
 44
1.0
  0
POINT
  5
89A
330
61B
100
AcDbEntity
  8
DEFPOINTS
 62
     0
100
AcDbPoint
 10
1072.648511003079
 20
386.2827805992968
 30
0.0
  0
POINT
  5
89B
330
61B
100
AcDbEntity
  8
DEFPOINTS
 62
     0
100
AcDbPoint
 10
941.0476703368923
 20
325.4040590625166
 30
0.0
  0
ENDBLK
  5
61D
330
61B
100
AcDbEntity
  8
0
 48
10.0
100
AcDbBlockEnd
  0
ENDSEC
  0
SECTION
  2
ENTITIES
  0
LINE
  5
1E
330
2
100
AcDbEntity
  8
0
100
AcDbLine
 10
515.2850834160979
 20
410.843419830907
 30
0.0
 11
564.2850834160979
 21
410.843419830907
 31
0.0
1001
ACAD
1000
ASC_BOUNDS
1002
{
1070
    19
1002
}
  0
DIMENSION
  5
1F
330
2
100
AcDbEntity
  8
BEM
100
AcDbDimension
  2
*D3
 10
557.2331758687332
 20
355.843419830907
 30
0.0
 11
548.2331758687331
 21
383.3434198309071
 31
0.0
 70
    32
 71
     5
 42
55.0
  3
ISO-25
100
AcDbAlignedDimension
 13
564.2850834160979
 23
410.843419830907
 33
0.0
 14
564.2092530853115
 24
355.843419830907
 34
0.0
 50
90.0
100
AcDbRotatedDimension
1001
ACAD
1000
DSTYLE
1002
{
1070
   144
1040
1.0
1070
   289
1070
     0
1002
}
  0
LINE
  5
2E
330
2
100
AcDbEntity
  8
0
100
AcDbLine
 10
542.2850834160978
 20
253.843419830907
 30
0.0
 11
564.2850834160979
 21
253.843419830907
 31
0.0
1001
ACAD
1000
ASC_BOUNDS
1002
{
1070
    19
1002
}
  0
DIMENSION
  5
2F
330
2
100
AcDbEntity
  8
BEM
100
AcDbDimension
  2
*D4
 10
435.7850834160979
 20
518.6385407295245
 30
0.0
 11
603.4850834160979
 21
527.6385407295244
 31
0.0
 70
    32
  1
335
 71
     5
 42
335.4
  3
ISO-25
100
AcDbAlignedDimension
 13
771.1850834160978
 23
391.287070644803
 33
0.0
 14
435.7850834160979
 24
445.843419830907
 34
0.0
100
AcDbRotatedDimension
1001
ACAD
1000
DSTYLE
1002
{
1070
   144
1040
1.0
1070
   289
1070
     0
1002
}
  0
DIMENSION
  5
3C
330
2
100
AcDbEntity
  8
BEM
100
AcDbDimension
  2
*D5
 10
435.785083416098
 20
146.1690151337195
 30
0.0
 11
549.4850834160979
 21
155.1690151337195
 31
0.0
 70
    32
  1
227
 71
     5
 42
227.3999999999999
  3
ISO-25
100
AcDbAlignedDimension
 13
663.1850834160978
 23
232.0779365092358
 33
0.0
 14
435.785083416098
 24
265.843419830907
 34
0.0
100
AcDbRotatedDimension
1001
ACAD
1000
DSTYLE
1002
{
1070
   144
1040
1.0
1070
   289
1070
     0
1002
}
  0
DIMENSION
  5
4E
330
2
100
AcDbEntity
  8
BEM
100
AcDbDimension
  2
*D6
 10
557.2331758687332
 20
253.843419830907
 30
0.0
 11
548.2331758687332
 21
304.8434198309071
 31
0.0
 70
    32
 71
     5
 42
102.0
  3
ISO-25
100
AcDbAlignedDimension
 13
546.8350834160981
 23
355.843419830907
 33
0.0
 14
555.7055699810953
 24
253.843419830907
 34
0.0
 50
90.0
100
AcDbRotatedDimension
1001
ACAD
1000
DSTYLE
1002
{
1070
   144
1040
1.0
1070
   289
1070
     0
1002
}
  0
DIMENSION
  5
5B
330
2
100
AcDbEntity
  8
BEM
100
AcDbDimension
  2
*D7
 10
435.785083416098
 20
224.4097325684895
 30
0.0
 11
462.1184167494314
 21
224.4097325684895
 31
0.0
 70
   160
 71
     5
 42
5.000000000000113
  3
ISO-25
100
AcDbAlignedDimension
 13
440.7850834160981
 23
293.5434198309071
 33
0.0
 14
435.785083416098
 24
265.843419830907
 34
0.0
100
AcDbRotatedDimension
1001
ACAD
1000
DSTYLE
1002
{
1070
   144
1040
1.0
1070
   289
1070
     0
1002
}
  0
DIMENSION
  5
6A
330
2
100
AcDbEntity
  8
BEM
100
AcDbDimension
  2
*D8
 10
246.6162236638965
 20
265.8434198309071
 30
0.0
 11
237.6162236638965
 21
355.8434198309071
 31
0.0
 70
    32
  1
%%c<>
 71
     5
 42
180.0
  3
ISO-25
100
AcDbAlignedDimension
 13
435.7850834160979
 23
445.843419830907
 33
0.0
 14
435.785083416098
 24
265.843419830907
 34
0.0
 50
90.0
100
AcDbRotatedDimension
1001
ACAD
1000
DSTYLE
1002
{
1070
   144
1040
1.0
1070
   289
1070
     0
1002
}
  0
DIMENSION
  5
78
330
2
100
AcDbEntity
  8
BEM
100
AcDbDimension
  2
*D9
 10
117.0829607088312
 20
156.4277793479011
 30
0.0
 11
166.7167845437661
 21
156.4277793479011
 31
0.0
 70
   160
 71
     5
 42
89.0
  3
ISO-25
100
AcDbAlignedDimension
 13
206.0829607088312
 23
355.843419830907
 33
0.0
 14
117.0829607088312
 24
183.8298799866036
 34
0.0
100
AcDbRotatedDimension
1001
ACAD
1000
DSTYLE
1002
{
1070
   144
1040
1.0
1070
   289
1070
     0
1002
}
  0
ARC
  5
85
330
2
100
AcDbEntity
  8
0
100
AcDbCircle
 10
233.7581657466367
 20
355.843419830907
 30
0.0
 40
90.0
100
AcDbArc
 50
317.1708262854203
 51
204.4415405741451
  0
LINE
  5
86
330
2
100
AcDbEntity
  8
LINIE
 48
10.0
100
AcDbLine
 10
536.285083416098
 20
265.843419830907
 30
0.0
 11
536.285083416098
 21
369.4471959367854
 31
0.0
  0
LINE
  5
88
330
2
100
AcDbEntity
  8
MITTE
 48
20.0
100
AcDbLine
 10
233.7581657466367
 20
452.4730284989098
 30
0.0
 11
233.7581657466367
 21
230.1165629203695
 31
0.0
  0
HATCH
  5
89
330
2
100
AcDbEntity
  8
LINIE
 48
10.0
100
AcDbHatch
 10
0.0
 20
0.0
 30
0.0
210
0.0
220
0.0
230
1.0
  2
AR-CONC
 70
     0
 71
     0
 91
        2
 92
        7
 72
     1
 73
     1
 93
        6
 10
172.7581657466366
 20
335.2870706448034
 42
0.1965790673635085
 10
206.9291944439484
 20
267.7315150892475
 42
0.1804963181033798
 10
213.4800402097189
 20
265.2870706448031
 42
0.0
 10
254.0362912835544
 20
265.2870706448031
 42
0.1804963181033815
 10
260.5871370493249
 20
267.7315150892475
 42
0.1965790673635087
 10
294.7581657466367
 20
335.2870706448034
 42
1.0
 97
        0
 92
        7
 72
     1
 73
     1
 93
       10
 10
256.2581657466367
 20
262.7870706448031
 42
-0.4142135623730951
 10
258.7581657466367
 20
265.2870706448031
 42
0.0
 10
249.2581657466367
 20
265.2870706448031
 42
0.0
 10
208.7581657466367
 20
265.2870706448031
 42
-0.4142135623730951
 10
211.2581657466367
 20
262.7870706448031
 42
0.0
 10
211.2581657466367
 20
254.7870706448031
 42
0.0503820444849804
 10
211.3086760038537
 20
254.2870706448022
 42
0.0
 10
256.2076554894197
 20
254.2870706448022
 42
0.0568446423399838
 10
256.2573352762488
 20
254.851504038774
 42
-0.0000090034323923
 10
256.2581657466367
 20
254.8516931258084
 42
0.0
 97
        0
 75
     0
 76
     1
 52
0.0
 41
2.0
 77
     0
 78
    13
 53
50.0
 43
276.9264241575797
 44
9.577360923049695
 45
14.34520365201507
 46
-1.255042699651902
 79
     2
 49
1.5
 49
-16.5
 53
355.0
 43
276.9264241575797
 44
9.577360923049695
 45
-2.77502667226
 46
15.04384267400024
 79
     2
 49
1.199999999999999
 49
-13.2
 53
100.4514
 43
278.1218577575797
 44
9.472774123049703
 45
11.57018763428043
 46
13.78879084121907
 79
     2
 49
1.274803799999997
 49
-14.02284223999998
 53
46.1842
 43
276.9264241575797
 44
13.57736092304969
 45
21.34482097251289
 46
-3.310380286580361
 79
     2
 49
2.25
 49
-24.75
 53
96.63559999999996
 43
278.7051590575797
 44
13.30149478304969
 45
18.69325411097406
 46
19.48235741800883
 79
     2
 49
1.912205759999997
 49
-21.03425999999996
 53
351.1842000000001
 43
276.9264241575797
 44
13.57736092304969
 45
18.69323890267254
 46
19.48237201850649
 79
     2
 49
1.8
 49
-19.8
 53
21.0
 43
278.9264241575797
 44
12.57736092304969
 45
11.93814104236923
 46
-8.052377813306776
 79
     2
 49
1.5
 49
-16.5
 53
326.0
 43
278.9264241575797
 44
12.57736092304969
 45
4.866306638431634
 46
14.50300090093706
 79
     2
 49
1.199999999999999
 49
-13.2
 53
71.45140000000001
 43
279.9212688175797
 44
11.90632880304969
 45
16.8044525716298
 46
6.450609934199047
 79
     2
 49
1.2748038
 49
-14.02284224
 53
37.5
 43
276.9264241575797
 44
9.577360923049695
 45
0.2431971063458134
 46
6.657877076626229
 79
     6
 49
0.0
 49
-13.04
 49
0.0
 49
-13.4
 49
0.0
 49
-13.25
 53
7.499999999999999
 43
276.9264241575797
 44
9.577360923049695
 45
5.261390748842972
 46
7.888234237647204
 79
     6
 49
0.0
 49
-7.639999999999999
 49
0.0
 49
-12.74
 49
0.0
 49
-5.049999999999999
 53
327.5
 43
272.4664241575798
 44
9.577360923049695
 45
10.67644872344818
 46
-0.451097434687596
 79
     6
 49
0.0
 49
-5.0
 49
0.0
 49
-15.6
 49
0.0
 49
-20.7
 53
317.5
 43
270.4664241575798
 44
9.577360923049695
 45
11.66372338684772
 46
2.002099646646352
 79
     6
 49
0.0
 49
-6.5
 49
0.0
 49
-10.36
 49
0.0
 49
-14.7
 47
0.4120896387672359
 98
        2
 10
247.3883873067648
 20
344.0420450438038
 10
235.8460286210975
 20
260.3878478620005
  0
LINE
  5
8A
330
2
100
AcDbEntity
  8
0
100
AcDbLine
 10
494.2850834160976
 20
350.843419830907
 30
0.0
 11
494.2850834160981
 21
281.8434198309071
 31
0.0
1001
ACAD
1000
ASC_BOUNDS
1002
{
1070
    19
1002
}
  0
LINE
  5
8B
330
2
100
AcDbEntity
  8
0
100
AcDbLine
 10
435.7850834160979
 20
445.843419830907
 30
0.0
 11
435.785083416098
 21
265.843419830907
 31
0.0
1001
ACAD
1000
ASC_BOUNDS
1002
{
1070
    19
1002
}
  0
LINE
  5
8C
330
2
100
AcDbEntity
  8
0
100
AcDbLine
 10
449.285083416098
 20
443.843419830907
 30
0.0
 11
449.2850834160974
 21
267.8434198309066
 31
0.0
1001
ACAD
1000
ASC_BOUNDS
1002
{
1070
    19
1002
}
  0
LINE
  5
8D
330
2
100
AcDbEntity
  8
0
100
AcDbLine
 10
447.285083416098
 20
445.843419830907
 30
0.0
 11
447.2850834160978
 21
265.843419830907
 31
0.0
  0
ARC
  5
8E
330
2
100
AcDbEntity
  8
0
100
AcDbCircle
 10
233.7581657466367
 20
325.843419830907
 30
0.0
 40
73.0
100
AcDbArc
 50
326.6800806293918
 51
3.593995493095941
  0
LINE
  5
8F
330
2
100
AcDbEntity
  8
0
100
AcDbLine
 10
294.7581657466367
 20
335.287070644803
 30
0.0
 11
294.7581657466367
 21
267.7870706448031
 31
0.0
  0
LINE
  5
90
330
2
100
AcDbEntity
  8
0
100
AcDbLine
 10
294.7581657466367
 20
335.2870706448036
 30
0.0
 11
294.7581657466367
 21
267.7870706448031
 31
0.0
  0
ARC
  5
91
330
2
100
AcDbEntity
  8
0
100
AcDbCircle
 10
195.0786793916197
 20
343.2870706448031
 30
0.0
 40
100.0
100
AcDbArc
 50
310.9260633096046
 51
355.4114342642145
1001
ACAD
1000
ASC_BOUNDS
1002
{
1070
    19
1005
0
1002
}
  0
LINE
  5
92
330
2
100
AcDbEntity
  8
0
100
AcDbLine
 10
163.95354714587
 20
385.0000328445086
 30
0.0
 11
144.95354714587
 21
281.0000328445086
 31
0.0
  0
LINE
  5
93
330
2
100
AcDbEntity
  8
0
100
AcDbLine
 10
172.7581657466366
 20
335.287070644803
 30
0.0
 11
172.7581657466366
 21
267.7870706448031
 31
0.0
  0
LINE
  5
94
330
2
100
AcDbEntity
  8
0
100
AcDbLine
 10
172.7581657466366
 20
335.2870706448035
 30
0.0
 11
172.7581657466366
 21
267.7870706448031
 31
0.0
  0
ARC
  5
95
330
2
100
AcDbEntity
  8
0
100
AcDbCircle
 10
206.7581657466365
 20
308.8434198309071
 30
0.0
 40
48.0
100
AcDbArc
 50
143.5171517855861
 51
224.9005279606894
  0
ARC
  5
96
330
2
100
AcDbEntity
  8
0
100
AcDbCircle
 10
272.4376521016536
 20
343.2870706448031
 30
0.0
 40
100.0
100
AcDbArc
 50
184.5885657357855
 51
229.0739366903953
1001
ACAD
1000
ASC_BOUNDS
1002
{
1070
    19
1005
0
1002
}
  0
DIMENSION
  5
99
330
2
100
AcDbEntity
  8
BEM
100
AcDbDimension
  2
*D10
 10
28.08296070883125
 20
156.4277793479011
 30
0.0
 11
72.44402919957702
 21
156.4277793479011
 31
0.0
 70
   160
 71
     5
 42
89.0
  3
ISO-25
100
AcDbAlignedDimension
 13
117.0829607088312
 23
155.1777793479011
 33
0.0
 14
28.08296070883125
 24
278.843419830907
 34
0.0
100
AcDbRotatedDimension
1001
ACAD
1000
DSTYLE
1002
{
1070
   144
1040
1.0
1070
   289
1070
     0
1002
}
  0
LINE
  5
A6
330
2
100
AcDbEntity
  8
0
100
AcDbLine
 10
173.2581657466367
 20
256.4417711831826
 30
0.0
 11
211.2581657466369
 21
256.4417711831825
 31
0.0
  0
LINE
  5
A7
330
2
100
AcDbEntity
  8
0
100
AcDbLine
 10
175.2581657466367
 20
255.2870706448033
 30
0.0
 11
173.2581657466367
 21
256.4417711831826
 31
0.0
1001
ACAD
1000
ASC_BOUNDS
1002
{
1070
    19
1002
}
  0
LINE
  5
A8
330
2
100
AcDbEntity
  8
0
100
AcDbLine
 10
218.2581657466367
 20
265.2870706448031
 30
0.0
 11
173.2581657466367
 21
265.2870706448031
 31
0.0
1001
ACAD
1000
ASC_BOUNDS
1002
{
1070
    19
1002
}
  0
ARC
  5
A9
330
2
100
AcDbEntity
  8
0
100
AcDbCircle
 10
175.2581657466367
 20
267.7870706448031
 30
0.0
 40
2.5
100
AcDbArc
 50
180.0
 51
270.0
  0
ARC
  5
AA
330
2
100
AcDbEntity
  8
0
100
AcDbCircle
 10
175.2581657466367
 20
267.7870706448031
 30
0.0
 40
2.5
100
AcDbArc
 50
180.0
 51
270.0
  0
LINE
  5
AB
330
2
100
AcDbEntity
  8
MITTE
 48
10.0
100
AcDbLine
 10
156.7581657466367
 20
284.8893620737452
 30
0.0
 11
156.7581657466367
 21
266.3852689554225
 31
0.0
  0
LINE
  5
AC
330
2
100
AcDbEntity
  8
0
100
AcDbLine
 10
173.2581657466367
 20
260.8545060052541
 30
0.0
 11
153.0447572343397
 21
267.4324340180685
 31
0.0
  0
ARC
  5
AD
330
2
100
AcDbEntity
  8
0
100
AcDbCircle
 10
156.7581657466367
 20
278.843419830907
 30
0.0
 40
12.0
100
AcDbArc
 50
169.6466799560705
 51
251.9738691867126
  0
LINE
  5
AE
330
2
100
AcDbEntity
  8
0
100
AcDbLine
 10
173.2581657466367
 20
256.4417711831826
 30
0.0
 11
173.2581657466367
 21
265.2870706448031
 31
0.0
1001
ACAD
1000
ASC_BOUNDS
1002
{
1070
    19
1002
}
  0
LINE
  5
AF
330
2
100
AcDbEntity
  8
MITTE
 48
10.0
100
AcDbLine
 10
161.4951086481954
 20
278.843419830907
 30
0.0
 11
143.0219486569533
 21
278.843419830907
 31
0.0
  0
ARC
  5
B0
330
2
100
AcDbEntity
  8
LINIE
 48
10.0
100
AcDbCircle
 10
156.7581657466367
 20
278.843419830907
 30
0.0
 40
4.0
100
AcDbArc
 50
81.14562423575739
 51
16.65070178048583
  0
CIRCLE
  5
B1
330
2
100
AcDbEntity
  8
0
100
AcDbCircle
 10
156.7581657466367
 20
278.843419830907
 30
0.0
 40
3.3235
  0
DIMENSION
  5
B2
330
2
100
AcDbEntity
  8
BEM
100
AcDbDimension
  2
*D11
 10
79.08296070883125
 20
190.4141640625173
 30
0.0
 11
117.0829607088312
 21
199.4141640625173
 31
0.0
 70
    32
 71
     5
 42
76.0
  3
ISO-25
100
AcDbAlignedDimension
 13
155.0829607088312
 23
232.2293100371968
 33
0.0
 14
79.08296070883125
 24
232.2293100371968
 34
0.0
100
AcDbRotatedDimension
1001
ACAD
1000
DSTYLE
1002
{
1070
   144
1040
1.0
1070
   289
1070
     0
1002
}
  0
LINE
  5
C1
330
2
100
AcDbEntity
  8
0
100
AcDbLine
 10
207.3121201660598
 20
265.2870706448031
 30
0.0
 11
260.9700627714366
 21
265.2870706448031
 31
0.0
  0
LINE
  5
C2
330
2
100
AcDbEntity
  8
0
100
AcDbLine
 10
175.2581657466367
 20
265.2870706448031
 30
0.0
 11
292.2581657466367
 21
265.2870706448031
 31
0.0
1001
ACAD
1000
ASC_BOUNDS
1002
{
1070
    19
1005
0
1002
}
  0
LINE
  5
C3
330
2
100
AcDbEntity
  8
0
100
AcDbLine
 10
291.2581657466367
 20
235.2870706448032
 30
0.0
 11
252.2581657466367
 21
235.2870706448032
 31
0.0
1001
ACAD
1000
ASC_BOUNDS
1002
{
1070
    19
1005
0
1002
}
  0
ARC
  5
C4
330
2
100
AcDbEntity
  8
0
100
AcDbCircle
 10
261.5081657466367
 20
258.9370706448033
 30
0.0
 40
23.65000000000001
100
AcDbArc
 50
250.1483977684151
 51
289.8516022315849
  0
LINE
  5
C5
330
2
100
AcDbEntity
  8
0
100
AcDbLine
 10
294.2581657466367
 20
265.2870706448031
 30
0.0
 11
249.2581657466367
 21
265.2870706448031
 31
0.0
1001
ACAD
1000
ASC_BOUNDS
1002
{
1070
    19
1002
}
  0
LINE
  5
C6
330
2
100
AcDbEntity
  8
0
100
AcDbLine
 10
256.2581657466367
 20
256.4417711831826
 30
0.0
 11
294.2581657466367
 21
256.4417711831825
 31
0.0
  0
ARC
  5
C7
330
2
100
AcDbEntity
  8
0
100
AcDbCircle
 10
254.0362912835544
 20
275.2870706448031
 30
0.0
 40
10.0
100
AcDbArc
 50
270.0
 51
310.9260633096046
1001
ACAD
1000
ASC_BOUNDS
1002
{
1070
    19
1005
0
1002
}
  0
ARC
  5
C8
330
2
100
AcDbEntity
  8
0
100
AcDbCircle
 10
261.5081657466367
 20
232.7917711831826
 30
0.0
 40
23.65000000000001
100
AcDbArc
 50
70.14839776841511
 51
102.8257844304605
  0
ARC
  5
C9
330
2
100
AcDbEntity
  8
0
100
AcDbCircle
 10
258.7581657466367
 20
262.7870706448031
 30
0.0
 40
2.5
100
AcDbArc
 50
90.0
 51
180.0
  0
LINE
  5
CA
330
2
100
AcDbEntity
  8
MITTE
 48
7.0
100
AcDbLine
 10
195.7581657466367
 20
232.2293100371968
 30
0.0
 11
195.7581657466367
 21
268.6203448752939
 31
0.0
  0
LINE
  5
CB
330
2
100
AcDbEntity
  8
0
100
AcDbLine
 10
216.2581657466367
 20
236.2870706448032
 30
0.0
 11
216.2581657466367
 21
254.2870706448022
 31
0.0
1001
ACAD
1000
ASC_BOUNDS
1002
{
1070
    19
1002
}
  0
LINE
  5
CC
330
2
100
AcDbEntity
  8
0
100
AcDbLine
 10
251.2581657466367
 20
236.2870706448032
 30
0.0
 11
251.2581657466367
 21
254.2870706448022
 31
0.0
1001
ACAD
1000
ASC_BOUNDS
1002
{
1070
    19
1002
}
  0
LINE
  5
CD
330
2
100
AcDbEntity
  8
0
100
AcDbLine
 10
253.4769765445322
 20
236.6924645570344
 30
0.0
 11
253.4769765445322
 21
254.2870706448022
 31
0.0
  0
LINE
  5
CE
330
2
100
AcDbEntity
  8
0
100
AcDbLine
 10
177.4769765445321
 20
236.6924645570344
 30
0.0
 11
177.4769765445321
 21
255.0363772709513
 31
0.0
  0
LINE
  5
CF
330
2
100
AcDbEntity
  8
0
100
AcDbLine
 10
193.5393549487412
 20
236.6924645570344
 30
0.0
 11
193.5393549487412
 21
255.0363772709513
 31
0.0
  0
LINE
  5
D0
330
2
100
AcDbEntity
  8
0
100
AcDbLine
 10
197.9769765445321
 20
236.6924645570344
 30
0.0
 11
197.9769765445321
 21
255.0363772709513
 31
0.0
  0
LINE
  5
D1
330
2
100
AcDbEntity
  8
0
100
AcDbLine
 10
175.2581657466367
 20
236.2870706448032
 30
0.0
 11
175.2581657466367
 21
255.2870706448033
 31
0.0
1001
ACAD
1000
ASC_BOUNDS
1002
{
1070
    19
1002
}
  0
LINE
  5
D2
330
2
100
AcDbEntity
  8
0
100
AcDbLine
 10
214.0393549487412
 20
236.6924645570344
 30
0.0
 11
214.0393549487412
 21
254.2870706448022
 31
0.0
  0
LINE
  5
D3
330
2
100
AcDbEntity
  8
0
100
AcDbLine
 10
214.0393549487412
 20
236.6924645570344
 30
0.0
 11
216.2581657466367
 21
236.2870706448032
 31
0.0
  0
LINE
  5
D4
330
2
100
AcDbEntity
  8
0
100
AcDbLine
 10
216.2581657466367
 20
236.2870706448032
 30
0.0
 11
215.2581657466367
 21
235.2870706448032
 31
0.0
1001
ACAD
1000
ASC_BOUNDS
1002
{
1070
    19
1002
}
  0
LINE
  5
D5
330
2
100
AcDbEntity
  8
BEM
100
AcDbLine
 10
68.42535458045995
 20
240.9551725035492
 30
0.0
 11
65.13877989592382
 21
213.2032280289872
 31
0.0
  0
TEXT
  5
D6
330
2
100
AcDbEntity
  8
0
100
AcDbText
 10
174.4522393073816
 20
203.1332926717448
 30
0.0
 40
10.0
  1
L
100
AcDbText
  0
LINE
  5
D7
330
2
100
AcDbEntity
  8
0
100
AcDbLine
 10
215.2581657466367
 20
235.2870706448032
 30
0.0
 11
176.2581657466367
 21
235.2870706448032
 31
0.0
1001
ACAD
1000
ASC_BOUNDS
1002
{
1070
    19
1005
0
1002
}
  0
LINE
  5
D8
330
2
100
AcDbEntity
  8
0
100
AcDbLine
 10
193.5393549487412
 20
236.6924645570344
 30
0.0
 11
197.9769765445321
 21
236.6924645570344
 31
0.0
  0
ARC
  5
D9
330
2
100
AcDbEntity
  8
0
100
AcDbCircle
 10
185.5081657466367
 20
258.9370706448033
 30
0.0
 40
23.65000000000001
100
AcDbArc
 50
250.1483977684151
 51
289.8516022315849
  0
LINE
  5
DA
330
2
100
AcDbEntity
  8
0
100
AcDbLine
 10
175.2581657466367
 20
236.2870706448032
 30
0.0
 11
177.4769765445321
 21
236.6924645570344
 31
0.0
  0
LINE
  5
DB
330
2
100
AcDbEntity
  8
0
100
AcDbLine
 10
175.2581657466367
 20
236.2870706448032
 30
0.0
 11
176.2581657466367
 21
235.2870706448032
 31
0.0
1001
ACAD
1000
ASC_BOUNDS
1002
{
1070
    19
1002
}
  0
LWPOLYLINE
  5
DC
330
2
100
AcDbEntity
  8
BEM
100
AcDbPolyline
 90
        2
 70
     1
 43
1.0
 10
68.92535458045995
 20
240.9551725035492
 42
-1.0
 10
67.92535458045995
 20
240.9551725035492
 42
-1.0
  0
ARC
  5
DD
330
2
100
AcDbEntity
  8
0
100
AcDbCircle
 10
206.0081657466367
 20
258.9370706448033
 30
0.0
 40
23.65000000000001
100
AcDbArc
 50
250.1483977684151
 51
289.8516022315849
  0
LINE
  5
DE
330
2
100
AcDbEntity
  8
BEM
100
AcDbLine
 10
117.0829607088312
 20
230.1165629203695
 30
0.0
 11
117.0829607088312
 21
209.7663040632358
 31
0.0
  0
LINE
  5
DF
330
2
100
AcDbEntity
  8
0
100
AcDbLine
 10
251.2581657466367
 20
236.2870706448032
 30
0.0
 11
253.4769765445322
 21
236.6924645570344
 31
0.0
  0
LINE
  5
E0
330
2
100
AcDbEntity
  8
0
100
AcDbLine
 10
251.2581657466367
 20
236.2870706448032
 30
0.0
 11
252.2581657466367
 21
235.2870706448032
 31
0.0
1001
ACAD
1000
ASC_BOUNDS
1002
{
1070
    19
1002
}
  0
LINE
  5
E1
330
2
100
AcDbEntity
  8
0
100
AcDbLine
 10
211.3086760038537
 20
254.2870706448022
 30
0.0
 11
256.2076554894197
 21
254.2870706448022
 31
0.0
  0
ARC
  5
E2
330
2
100
AcDbEntity
  8
0
100
AcDbCircle
 10
213.480040209719
 20
275.2870706448031
 30
0.0
 40
10.0
100
AcDbArc
 50
229.0739366903953
 51
270.0
1001
ACAD
1000
ASC_BOUNDS
1002
{
1070
    19
1005
0
1002
}
  0
LINE
  5
E3
330
2
100
AcDbEntity
  8
0
100
AcDbLine
 10
193.5393549487412
 20
255.0363772709513
 30
0.0
 11
197.9769765445321
 21
255.0363772709513
 31
0.0
  0
ARC
  5
E4
330
2
100
AcDbEntity
  8
0
100
AcDbCircle
 10
185.5081657466367
 20
232.7917711831826
 30
0.0
 40
23.65000000000001
100
AcDbArc
 50
70.14839776841511
 51
109.8516022315849
  0
LINE
  5
E5
330
2
100
AcDbEntity
  8
0
100
AcDbLine
 10
175.2581657466367
 20
255.2870706448033
 30
0.0
 11
177.4769765445321
 21
255.0363772709513
 31
0.0
  0
ARC
  5
E6
330
2
100
AcDbEntity
  8
0
100
AcDbCircle
 10
213.7581657466367
 20
254.7870706448031
 30
0.0
 40
2.5
100
AcDbArc
 50
180.0
 51
191.5369590328369
  0
ARC
  5
E7
330
2
100
AcDbEntity
  8
0
100
AcDbCircle
 10
206.0081657466367
 20
232.7917711831826
 30
0.0
 40
23.65000000000001
100
AcDbArc
 50
77.17421556953863
 51
109.8516022315849
  0
ARC
  5
E8
330
2
100
AcDbEntity
  8
0
100
AcDbCircle
 10
208.7581657466367
 20
262.7870706448031
 30
0.0
 40
2.5
100
AcDbArc
 50
0.0
 51
90.0
  0
LINE
  5
E9
330
2
100
AcDbEntity
  8
0
100
AcDbLine
 10
211.2581657466367
 20
262.7870706448031
 30
0.0
 11
211.2581657466367
 21
254.7870706448031
 31
0.0
  0
ARC
  5
EA
330
2
100
AcDbEntity
  8
0
100
AcDbCircle
 10
233.7581657466367
 20
325.843419830907
 30
0.0
 40
73.0
100
AcDbArc
 50
270.0
 51
281.4136777865659
  0
LINE
  5
EB
330
2
100
AcDbEntity
  8
0
100
AcDbLine
 10
233.7581657466365
 20
252.843419830907
 30
0.0
 11
216.2581657466367
 21
252.843419830907
 31
0.0
  0
ARC
  5
EC
330
2
100
AcDbEntity
  8
0
100
AcDbCircle
 10
253.7581657466367
 20
254.7870706448031
 30
0.0
 40
2.5
100
AcDbArc
 50
348.4630409671633
 51
0.0
  0
LINE
  5
ED
330
2
100
AcDbEntity
  8
0
100
AcDbLine
 10
256.2581657466367
 20
262.7870706448031
 30
0.0
 11
256.2581657466367
 21
254.7870706448031
 31
0.0
  0
LINE
  5
EE
330
2
100
AcDbEntity
  8
MITTE
 48
7.0
100
AcDbLine
 10
271.7581657466367
 20
232.2293100371968
 30
0.0
 11
271.7581657466367
 21
268.6203448752939
 31
0.0
  0
LINE
  5
EF
330
2
100
AcDbEntity
  8
0
100
AcDbLine
 10
273.9769765445321
 20
236.6924645570344
 30
0.0
 11
273.9769765445321
 21
255.0363772709513
 31
0.0
  0
LINE
  5
F0
330
2
100
AcDbEntity
  8
0
100
AcDbLine
 10
269.5393549487412
 20
236.6924645570344
 30
0.0
 11
269.5393549487412
 21
255.0363772709513
 31
0.0
  0
LINE
  5
F1
330
2
100
AcDbEntity
  8
0
100
AcDbLine
 10
292.2581657466367
 20
236.2870706448032
 30
0.0
 11
292.2581657466367
 21
255.2870706448033
 31
0.0
1001
ACAD
1000
ASC_BOUNDS
1002
{
1070
    19
1002
}
  0
LINE
  5
F2
330
2
100
AcDbEntity
  8
0
100
AcDbLine
 10
290.0393549487412
 20
236.6924645570344
 30
0.0
 11
290.0393549487412
 21
255.0363772709513
 31
0.0
  0
LINE
  5
F3
330
2
100
AcDbEntity
  8
BEM
100
AcDbLine
 10
165.7405668372025
 20
240.9551725035492
 30
0.0
 11
168.6169123443781
 21
216.6672166629662
 31
0.0
  0
TEXT
  5
F4
330
2
100
AcDbEntity
  8
0
100
AcDbText
 10
284.5674012174345
 20
202.5497403495069
 30
0.0
 40
10.0
  1
R
100
AcDbText
  0
ARC
  5
F5
330
2
100
AcDbEntity
  8
0
100
AcDbCircle
 10
282.0081657466367
 20
258.9370706448033
 30
0.0
 40
23.65000000000001
100
AcDbArc
 50
250.1483977684151
 51
289.8516022315849
  0
LINE
  5
F6
330
2
100
AcDbEntity
  8
0
100
AcDbLine
 10
269.5393549487412
 20
236.6924645570344
 30
0.0
 11
273.9769765445321
 21
236.6924645570344
 31
0.0
  0
LWPOLYLINE
  5
F7
330
2
100
AcDbEntity
  8
BEM
100
AcDbPolyline
 90
        2
 70
     1
 43
1.0
 10
165.2405668372025
 20
240.9551725035492
 42
1.0
 10
166.2405668372025
 20
240.9551725035492
 42
1.0
  0
LINE
  5
F8
330
2
100
AcDbEntity
  8
0
100
AcDbLine
 10
292.2581657466367
 20
236.2870706448032
 30
0.0
 11
291.2581657466367
 21
235.2870706448032
 31
0.0
1001
ACAD
1000
ASC_BOUNDS
1002
{
1070
    19
1002
}
  0
LINE
  5
F9
330
2
100
AcDbEntity
  8
0
100
AcDbLine
 10
290.0393549487412
 20
236.6924645570344
 30
0.0
 11
292.2581657466367
 21
236.2870706448032
 31
0.0
  0
ARC
  5
FA
330
2
100
AcDbEntity
  8
0
100
AcDbCircle
 10
292.2581657466367
 20
267.7870706448031
 30
0.0
 40
2.5
100
AcDbArc
 50
270.0
 51
0.0
  0
ARC
  5
FB
330
2
100
AcDbEntity
  8
0
100
AcDbCircle
 10
292.2581657466367
 20
267.7870706448031
 30
0.0
 40
2.5
100
AcDbArc
 50
270.0
 51
0.0
  0
ARC
  5
FC
330
2
100
AcDbEntity
  8
0
100
AcDbCircle
 10
282.0081657466367
 20
232.7917711831826
 30
0.0
 40
23.65000000000001
100
AcDbArc
 50
70.14839776841511
 51
109.8516022315849
  0
LINE
  5
FD
330
2
100
AcDbEntity
  8
0
100
AcDbLine
 10
269.5393549487412
 20
255.0363772709513
 30
0.0
 11
273.9769765445321
 21
255.0363772709513
 31
0.0
  0
LINE
  5
FE
330
2
100
AcDbEntity
  8
0
100
AcDbLine
 10
294.2581657466367
 20
256.4417711831825
 30
0.0
 11
294.2581657466367
 21
265.2870706448031
 31
0.0
1001
ACAD
1000
ASC_BOUNDS
1002
{
1070
    19
1002
}
  0
LINE
  5
FF
330
2
100
AcDbEntity
  8
0
100
AcDbLine
 10
292.2581657466367
 20
255.2870706448033
 30
0.0
 11
294.2581657466367
 21
256.4417711831825
 31
0.0
1001
ACAD
1000
ASC_BOUNDS
1002
{
1070
    19
1002
}
  0
LINE
  5
100
330
2
100
AcDbEntity
  8
0
100
AcDbLine
 10
292.2581657466367
 20
255.2870706448033
 30
0.0
 11
290.0393549487412
 21
255.0363772709513
 31
0.0
  0
DIMENSION
  5
101
330
2
100
AcDbEntity
  8
BEM
100
AcDbDimension
  2
*D12
 10
449.2850834160979
 20
183.5075549696009
 30
0.0
 11
481.8088929399074
 21
183.5075549696009
 31
0.0
 70
   160
 71
     5
 42
13.49999999999977
  3
ISO-25
100
AcDbAlignedDimension
 13
435.7850834160981
 23
265.843419830907
 33
0.0
 14
449.2850834160979
 24
267.843419830907
 34
0.0
100
AcDbRotatedDimension
1001
ACAD
1000
DSTYLE
1002
{
1070
   144
1040
1.0
1070
   289
1070
     0
1002
}
  0
LINE
  5
110
330
2
100
AcDbEntity
  8
0
100
AcDbLine
 10
495.8129474610985
 20
277.843419830907
 30
0.0
 11
449.285083416098
 21
277.843419830907
 31
0.0
  0
LINE
  5
111
330
2
100
AcDbEntity
  8
0
100
AcDbLine
 10
435.7850834160981
 20
265.843419830907
 30
0.0
 11
447.2850834160978
 21
265.843419830907
 31
0.0
  0
LINE
  5
112
330
2
100
AcDbEntity
  8
0
100
AcDbLine
 10
449.2850834160979
 20
267.843419830907
 30
0.0
 11
447.2850834160978
 21
265.843419830907
 31
0.0
  0
LINE
  5
113
330
2
100
AcDbEntity
  8
0
100
AcDbLine
 10
500.2850834160979
 20
275.8434198309071
 30
0.0
 11
526.285083416098
 21
275.843419830907
 31
0.0
1001
ACAD
1000
ASC_BOUNDS
1002
{
1070
    19
1002
}
  0
LINE
  5
114
330
2
100
AcDbEntity
  8
0
100
AcDbLine
 10
513.2850834160981
 20
275.843419830907
 30
0.0
 11
538.4828887805635
 21
255.2019420540009
 31
0.0
  0
ARC
  5
115
330
2
100
AcDbEntity
  8
0
100
AcDbCircle
 10
500.2850834160981
 20
281.8434198309071
 30
0.0
 40
6.0
100
AcDbArc
 50
180.0000000000002
 51
270.0
1001
ACAD
1000
ASC_BOUNDS
1002
{
1070
    19
1002
}
  0
ARC
  5
116
330
2
100
AcDbEntity
  8
0
100
AcDbCircle
 10
526.285083416098
 20
265.843419830907
 30
0.0
 40
10.0
100
AcDbArc
 50
0.0
 51
90.0
1001
ACAD
1000
ASC_BOUNDS
1002
{
1070
    19
1002
}
  0
ARC
  5
117
330
2
100
AcDbEntity
  8
0
100
AcDbCircle
 10
542.2850834160978
 20
259.843419830907
 30
0.0
 40
6.0
100
AcDbArc
 50
180.0000000000002
 51
270.0
1001
ACAD
1000
ASC_BOUNDS
1002
{
1070
    19
1002
}
  0
LINE
  5
118
330
2
100
AcDbEntity
  8
0
100
AcDbLine
 10
536.2850834160979
 20
265.843419830907
 30
0.0
 11
536.2850834160979
 21
259.843419830907
 31
0.0
1001
ACAD
1000
ASC_BOUNDS
1002
{
1070
    19
1002
}
  0
MTEXT
  5
119
102
{ACAD_REACTORS
330
11A
102
}
330
2
100
AcDbEntity
  8
BEM
100
AcDbMText
 10
182.6616355772553
 20
555.2887239855569
 30
0.0
 40
10.0
 41
0.0
 71
     1
 72
     1
  1
Paßfeder\PFitting key\PClavette d'ajustage\PLinguetta\PA 10x8x50 DIN 6885
 73
     1
 44
1.0
  0
LEADER
  5
11A
330
2
100
AcDbEntity
  8
BEM
100
AcDbLeader
  3
STANDARD
 73
     0
 75
     1
 40
78.57142857142858
 41
162.8571428571428
 76
     3
 10
392.1049516324124
 20
376.643419830907
 30
0.0
 10
355.6981478619845
 20
472.6757738008457
 30
0.0
 10
348.6981478619845
 20
472.6757738008457
 30
0.0
340
119
213
-0.8206305724136768
223
-0.0415216132826188
233
0.0
  0
CIRCLE
  5
11C
330
2
100
AcDbEntity
  8
0
100
AcDbCircle
 10
171.7581657466366
 20
365.843419830907
 30
0.0
 40
1.95
  0
ARC
  5
11D
330
2
100
AcDbEntity
  8
LINIE
 48
10.0
100
AcDbCircle
 10
175.7581657466366
 20
382.843419830907
 30
0.0
 40
4.0
100
AcDbArc
 50
81.14562423575739
 51
16.65070178048583
  0
LINE
  5
11E
330
2
100
AcDbEntity
  8
MITTE
 48
10.0
100
AcDbLine
 10
180.3903428927019
 20
382.843419830907
 30
0.0
 11
161.5820852262076
 21
382.843419830907
 31
0.0
  0
LINE
  5
11F
330
2
100
AcDbEntity
  8
MITTE
 48
5.0
100
AcDbLine
 10
176.4688254036501
 20
365.843419830907
 30
0.0
 11
167.8072990005756
 21
365.843419830907
 31
0.0
  0
LINE
  5
120
330
2
100
AcDbEntity
  8
MITTE
 48
20.0
100
AcDbLine
 10
269.5623096834371
 20
355.843419830907
 30
0.0
 11
140.0310895569846
 21
355.843419830907
 31
0.0
  0
LINE
  5
121
330
2
100
AcDbEntity
  8
MITTE
 48
10.0
100
AcDbLine
 10
164.73166299278
 20
335.287070644803
 30
0.0
 11
301.2764445153255
 21
335.287070644803
 31
0.0
  0
LINE
  5
122
330
2
100
AcDbEntity
  8
MITTE
 48
10.0
100
AcDbLine
 10
317.5901601085998
 20
300.0370706448031
 30
0.0
 11
150.5357452497332
 21
300.0370706448031
 31
0.0
  0
ARC
  5
123
330
2
100
AcDbEntity
  8
0
100
AcDbCircle
 10
233.7581657466367
 20
335.287070644803
 30
0.0
 40
61.0
100
AcDbArc
 50
0.0
 51
180.0
1001
ACAD
1000
ASC_BOUNDS
1002
{
1070
    19
1005
0
1002
}
  0
ARC
  5
124
330
2
100
AcDbEntity
  8
0
100
AcDbCircle
 10
233.7581657466367
 20
324.6434198309071
 30
0.0
 40
65.0
100
AcDbArc
 50
153.5048712036748
 51
164.6505012415663
  0
LINE
  5
125
330
2
100
AcDbEntity
  8
0
100
AcDbLine
 10
171.9525704770481
 20
394.2239929554946
 30
0.0
 11
215.9987211552234
 21
408.9527610789824
 31
0.0
  0
CIRCLE
  5
126
330
2
100
AcDbEntity
  8
0
100
AcDbCircle
 10
175.7581657466366
 20
382.843419830907
 30
0.0
 40
3.3235
  0
ARC
  5
127
330
2
100
AcDbEntity
  8
0
100
AcDbCircle
 10
233.7581657466367
 20
355.843419830907
 30
0.0
 40
89.0
100
AcDbArc
 50
105.2685646988464
 51
164.7314353011535
  0
ARC
  5
128
330
2
100
AcDbEntity
  8
0
100
AcDbCircle
 10
175.7581657466366
 20
382.843419830907
 30
0.0
 40
12.0
100
AcDbArc
 50
108.4896255071067
 51
169.6466799560705
  0
ARC
  5
129
330
2
100
AcDbEntity
  8
0
100
AcDbCircle
 10
175.9387358730159
 20
335.4962690084148
 30
0.0
 40
8.0
100
AcDbArc
 50
109.6254537415548
 51
181.4984437231788
  0
ARC
  5
12A
330
2
100
AcDbEntity
  8
0
100
AcDbCircle
 10
233.7581657466367
 20
355.843419830907
 30
0.0
 40
88.0
100
AcDbArc
 50
164.5202251796851
 51
202.5209141936014
  0
ARC
  5
12B
330
2
100
AcDbEntity
  8
0
100
AcDbCircle
 10
233.7581657466367
 20
335.2870706448033
 30
0.0
 40
65.81669415865359
100
AcDbArc
 50
179.5853943548262
 51
202.056114220163
  0
LINE
  5
12C
330
2
100
AcDbEntity
  8
MITTE
 48
5.0
100
AcDbLine
 10
171.7581657466366
 20
370.1375468976668
 30
0.0
 11
171.7581657466366
 21
361.5187134443739
 31
0.0
  0
ARC
  5
12D
330
2
100
AcDbEntity
  8
0
100
AcDbCircle
 10
145.3698180983183
 20
444.2317674792255
 30
0.0
 40
65.0
100
AcDbArc
 50
272.2305728409485
 51
286.0711476672093
  0
LINE
  5
12E
330
2
100
AcDbEntity
  8
MITTE
 48
10.0
100
AcDbLine
 10
175.7581657466366
 20
396.5470673079834
 30
0.0
 11
175.7581657466366
 21
377.2687636395918
 31
0.0
  0
LINE
  5
12F
330
2
100
AcDbEntity
  8
0
100
AcDbLine
 10
302.2616472911702
 20
383.5069882246942
 30
0.0
 11
259.4410796211268
 21
405.6067390019141
 31
0.0
  0
ARC
  5
130
330
2
100
AcDbEntity
  8
0
100
AcDbCircle
 10
233.7581657466367
 20
355.843419830907
 30
0.0
 40
48.0
100
AcDbArc
 50
30.25955070531866
 51
149.7404492946815
  0
ARC
  5
131
330
2
100
AcDbEntity
  8
0
100
AcDbCircle
 10
233.7581657466367
 20
355.843419830907
 30
0.0
 40
89.0
100
AcDbArc
 50
15.26856469884646
 51
74.73143530115361
  0
LINE
  5
132
330
2
100
AcDbEntity
  8
0
100
AcDbLine
 10
319.2434471208752
 20
347.3581384566685
 30
0.0
 11
309.2329355861226
 21
337.3476269219159
 31
0.0
  0
ARC
  5
133
330
2
100
AcDbEntity
  8
0
100
AcDbCircle
 10
233.7581657466367
 20
355.843419830907
 30
0.0
 40
88.0
100
AcDbArc
 50
321.1089922459285
 51
356.6614237975703
  0
ARC
  5
134
330
2
100
AcDbEntity
  8
0
100
AcDbCircle
 10
291.5775956202574
 20
335.4962690084148
 30
0.0
 40
8.0
100
AcDbArc
 50
293.4264341163755
 51
70.37454625844519
  0
ARC
  5
135
330
2
100
AcDbEntity
  8
0
100
AcDbCircle
 10
260.7581657466365
 20
309.0434198309069
 30
0.0
 40
38.0
100
AcDbArc
 50
0.8093511596948765
 51
26.52535201660862
  0
ARC
  5
136
330
2
100
AcDbEntity
  8
0
100
AcDbCircle
 10
233.7581657466367
 20
325.843419830907
 30
0.0
 40
67.0
100
AcDbArc
 50
335.5673023205458
 51
345.9519893954314
  0
ARC
  5
137
330
2
100
AcDbEntity
  8
0
100
AcDbCircle
 10
233.7581657466367
 20
324.6434198309071
 30
0.0
 40
65.0
100
AcDbArc
 50
352.1774165728811
 51
5.912223159960962
  0
ARC
  5
138
330
2
100
AcDbEntity
  8
0
100
AcDbCircle
 10
315.5968966168015
 20
330.9836658912369
 30
0.0
 40
9.0
100
AcDbArc
 50
135.0000000000003
 51
183.5939954930959
  0
LINE
  5
139
330
2
100
AcDbEntity
  8
MITTE
 48
20.0
100
AcDbLine
 10
326.8388459474454
 20
355.843419830907
 30
0.0
 11
280.8138009183091
 21
355.843419830907
 31
0.0
  0
ARC
  5
13A
330
2
100
AcDbEntity
  8
0
100
AcDbCircle
 10
233.7581657466367
 20
324.6434198309071
 30
0.0
 40
65.0
100
AcDbArc
 50
15.34949875843361
 51
26.4951287963242
  0
LINE
  5
13B
330
2
100
AcDbEntity
  8
MITTE
 48
10.0
100
AcDbLine
 10
310.7581657466367
 20
369.872332195005
 30
0.0
 11
310.7581657466367
 21
342.9986986231137
 31
0.0
  0
LINE
  5
13C
330
2
100
AcDbEntity
  8
0
100
AcDbLine
 10
320.0213285740411
 20
363.4719068652402
 30
0.0
 11
306.0213285740413
 21
380.4719068652401
 31
0.0
  0
ARC
  5
13D
330
2
100
AcDbEntity
  8
0
100
AcDbCircle
 10
233.7581657466367
 20
355.843419830907
 30
0.0
 40
88.0
100
AcDbArc
 50
3.338576202429735
 51
15.47977482031481
  0
ARC
  5
13E
330
2
100
AcDbEntity
  8
0
100
AcDbCircle
 10
310.7581657466367
 20
355.843419830907
 30
0.0
 40
12.0
100
AcDbArc
 50
315.0000000000003
 51
39.47245984834387
  0
ARC
  5
13F
330
2
100
AcDbEntity
  8
LINIE
 48
10.0
100
AcDbCircle
 10
310.7581657466367
 20
355.843419830907
 30
0.0
 40
4.0
100
AcDbArc
 50
81.14562423575739
 51
16.65070178048583
  0
CIRCLE
  5
140
330
2
100
AcDbEntity
  8
0
100
AcDbCircle
 10
310.7581657466367
 20
355.843419830907
 30
0.0
 40
3.3235
  0
ARC
  5
141
330
2
100
AcDbEntity
  8
0
100
AcDbCircle
 10
322.1465133949552
 20
444.2317674792254
 30
0.0
 40
65.0
100
AcDbArc
 50
254.7469712997374
 51
267.7694271590507
  0
ARC
  5
142
330
2
100
AcDbEntity
  8
0
100
AcDbCircle
 10
296.7581657466367
 20
372.843419830907
 30
0.0
 40
12.0
100
AcDbArc
 50
39.47245984834387
 51
62.70168236142307
  0
ARC
  5
143
330
2
100
AcDbEntity
  8
0
100
AcDbCircle
 10
233.7581657466367
 20
355.843419830907
 30
0.0
 40
56.0
100
AcDbArc
 50
62.70168236142307
 51
108.4896255071067
  0
ARC
  5
144
330
2
100
AcDbEntity
  8
0
100
AcDbCircle
 10
322.1465133949552
 20
444.2317674792254
 30
0.0
 40
65.0
100
AcDbArc
 50
182.2305728409489
 51
228.7467412799728
  0
ARC
  5
145
330
2
100
AcDbEntity
  8
0
100
AcDbCircle
 10
145.3698180983183
 20
444.2317674792255
 30
0.0
 40
65.0
100
AcDbArc
 50
319.2477660926265
 51
357.7694271590509
  0
LINE
  5
146
330
2
100
AcDbEntity
  8
MITTE
 48
10.0
100
AcDbLine
 10
188.8664779966236
 20
400.7351075809195
 30
0.0
 11
174.8827552001062
 21
414.7188303774368
 31
0.0
  0
ARC
  5
147
330
2
100
AcDbEntity
  8
MITTE
 48
15.0
100
AcDbCircle
 10
233.7581657466367
 20
355.843419830907
 30
0.0
 40
72.5
100
AcDbArc
 50
126.5931189888054
 51
144.1811683713759
  0
CIRCLE
  5
148
330
2
100
AcDbEntity
  8
0
100
AcDbCircle
 10
182.4929241106121
 20
407.1086614669317
 30
0.0
 40
5.75
  0
LINE
  5
149
330
2
100
AcDbEntity
  8
0
100
AcDbLine
 10
238.7581657466367
 20
431.343419830907
 30
0.0
 11
238.7581657466367
 21
411.6197589004443
 31
0.0
  0
LINE
  5
14A
330
2
100
AcDbEntity
  8
0
100
AcDbLine
 10
228.7581657466367
 20
431.3434198309071
 30
0.0
 11
228.7581657466367
 21
411.6197589004443
 31
0.0
  0
ARC
  5
14B
330
2
100
AcDbEntity
  8
0
100
AcDbCircle
 10
234.1693825778418
 20
393.1137208248559
 30
0.0
 40
8.0
100
AcDbArc
 50
19.3591499862294
 51
159.8259803411058
  0
ARC
  5
14C
330
2
100
AcDbEntity
  8
0
100
AcDbCircle
 10
236.2581657466367
 20
431.343419830907
 30
0.0
 40
2.5
100
AcDbArc
 50
0.0
 51
90.0
  0
LINE
  5
14D
330
2
100
AcDbEntity
  8
0
100
AcDbLine
 10
231.2581657466367
 20
433.8434198309071
 30
0.0
 11
236.2581657466367
 21
433.8434198309069
 31
0.0
  0
ARC
  5
14E
330
2
100
AcDbEntity
  8
0
100
AcDbCircle
 10
231.2581657466367
 20
431.3434198309071
 30
0.0
 40
2.5
100
AcDbArc
 50
90.0
 51
180.0
  0
ARC
  5
14F
330
2
100
AcDbEntity
  8
0
100
AcDbCircle
 10
233.7581657466367
 20
355.843419830907
 30
0.0
 40
88.0
100
AcDbArc
 50
74.52022517968521
 51
105.4797748203147
  0
ARC
  5
150
330
2
100
AcDbEntity
  8
MITTE
 48
15.0
100
AcDbCircle
 10
233.7581657466367
 20
355.843419830907
 30
0.0
 40
72.5
100
AcDbArc
 50
36.42334422562001
 51
53.51171634009419
  0
LINE
  5
151
330
2
100
AcDbEntity
  8
MITTE
 48
10.0
100
AcDbLine
 10
278.5444881853213
 20
400.629742269592
 30
0.0
 11
291.4226677024089
 21
413.5079217866798
 31
0.0
  0
CIRCLE
  5
152
330
2
100
AcDbEntity
  8
0
100
AcDbCircle
 10
285.0234073826614
 20
407.1086614669316
 30
0.0
 40
5.75
  0
DIMENSION
  5
153
330
2
100
AcDbEntity
  8
BEM
100
AcDbDimension
  2
*D13
 10
434.8350834160981
 20
518.6385407295245
 30
0.0
 11
399.8350834160981
 21
527.6385407295244
 31
0.0
 70
    32
 71
     5
 42
70.0
  3
ISO-25
100
AcDbAlignedDimension
 13
364.8350834160981
 23
371.343419830907
 33
0.0
 14
434.8350834160981
 24
377.9970096693933
 34
0.0
100
AcDbRotatedDimension
1001
ACAD
1000
DSTYLE
1002
{
1070
   144
1040
1.0
1070
   289
1070
     0
1002
}
  0
DIMENSION
  5
161
330
2
100
AcDbEntity
  8
BEM
100
AcDbDimension
  2
*D14
 10
434.8350834160981
 20
478.2693241900408
 30
0.0
 11
454.975559606574
 21
478.2693241900408
 31
0.0
 70
   160
  1
1
 71
     5
 42
0.9499999999998181
  3
ISO-25
100
AcDbAlignedDimension
 13
435.7850834160979
 23
378.343419830907
 33
0.0
 14
434.8350834160981
 24
377.9970096693933
 34
0.0
100
AcDbRotatedDimension
1001
ACAD
1000
DSTYLE
1002
{
1070
   144
1040
1.0
1070
   289
1070
     0
1002
}
  0
DIMENSION
  5
170
330
2
100
AcDbEntity
  8
BEM
100
AcDbDimension
  2
*D15
 10
271.6466867434365
 20
293.343419830907
 30
0.0
 11
262.6466867434364
 21
355.8434198309071
 31
0.0
 70
    32
  1
%%c<>
 71
     5
 42
125.0
  3
ISO-25
100
AcDbAlignedDimension
 13
435.785083416098
 23
418.343419830907
 33
0.0
 14
435.7850834160981
 24
293.343419830907
 34
0.0
 50
90.0
100
AcDbRotatedDimension
1001
ACAD
1000
DSTYLE
1002
{
1070
   144
1040
1.0
1070
   289
1070
     0
1002
}
  0
DIMENSION
  5
17E
330
2
100
AcDbEntity
  8
BEM
100
AcDbDimension
  2
*D16
 10
432.3350834160982
 20
335.8434198309071
 30
0.0
 11
396.7439029667046
 21
309.8637447410044
 31
0.0
 70
   164
 71
     5
 42
2.499999999999886
  3
ISO-25
100
AcDbRadialDimension
 15
434.3543518660498
 25
337.3173787608063
 35
0.0
 40
0.0
1001
ACAD
1000
DSTYLE
1002
{
1070
   144
1040
1.0
1070
   279
1070
     1
1002
}
  0
LINE
  5
187
330
2
100
AcDbEntity
  8
MITTE
 48
10.0
100
AcDbLine
 10
360.6410461325851
 20
355.843419830907
 30
0.0
 11
587.588435263493
 21
355.843419830907
 31
0.0
  0
LINE
  5
188
330
2
100
AcDbEntity
  8
0
100
AcDbLine
 10
366.8350834160981
 20
373.343419830907
 30
0.0
 11
432.335083416098
 21
373.343419830907
 31
0.0
  0
LINE
  5
189
330
2
100
AcDbEntity
  8
0
100
AcDbLine
 10
366.8350834160981
 20
338.343419830907
 30
0.0
 11
432.335083416098
 21
338.343419830907
 31
0.0
  0
LINE
  5
18A
330
2
100
AcDbEntity
  8
0
100
AcDbLine
 10
374.8350834160981
 20
376.643419830907
 30
0.0
 11
424.835083416098
 21
376.643419830907
 31
0.0
  0
DIMENSION
  5
18C
330
2
100
AcDbEntity
  8
BEM
100
AcDbDimension
  2
*D17
 10
306.2248610202496
 20
338.343419830907
 30
0.0
 11
306.2248610202496
 21
356.3820344666281
 31
0.0
 70
   160
  1
%%c<>
 71
     5
 42
35.0
  3
ISO-25
100
AcDbAlignedDimension
 13
366.8350834160981
 23
373.343419830907
 33
0.0
 14
366.8350834160981
 24
338.343419830907
 34
0.0
 50
90.0
100
AcDbRotatedDimension
1001
ACAD
1000
DSTYLE
1002
{
1070
   144
1040
1.0
1070
   289
1070
     0
1002
}
  0
LINE
  5
19A
330
2
100
AcDbEntity
  8
0
100
AcDbLine
 10
366.8350834160981
 20
338.343419830907
 30
0.0
 11
364.8350834160981
 21
340.343419830907
 31
0.0
  0
LINE
  5
19B
330
2
100
AcDbEntity
  8
0
100
AcDbLine
 10
366.8350834160981
 20
373.343419830907
 30
0.0
 11
366.8350834160981
 21
338.343419830907
 31
0.0
  0
LINE
  5
19C
330
2
100
AcDbEntity
  8
0
100
AcDbLine
 10
364.8350834160981
 20
371.343419830907
 30
0.0
 11
364.8350834160981
 21
340.3434198309071
 31
0.0
  0
LINE
  5
19D
330
2
100
AcDbEntity
  8
0
100
AcDbLine
 10
366.8350834160981
 20
373.343419830907
 30
0.0
 11
364.8350834160981
 21
371.343419830907
 31
0.0
  0
LINE
  5
19E
330
2
100
AcDbEntity
  8
0
100
AcDbLine
 10
374.8350834160981
 20
373.3434198309071
 30
0.0
 11
374.8350834160981
 21
376.643419830907
 31
0.0
  0
LINE
  5
19F
330
2
100
AcDbEntity
  8
LINIE
  6
GESTRICHELT
 48
10.0
100
AcDbLine
 10
440.785083416098
 20
418.1434198309069
 30
0.0
 11
440.7850834160981
 21
293.5434198309071
 31
0.0
1001
ACAD
1000
ASC_BOUNDS
1002
{
1070
    19
1002
}
  0
ARC
  5
1A1
330
2
100
AcDbEntity
  8
0
100
AcDbCircle
 10
481.2850834160979
 20
391.843419830907
 30
0.0
 40
2.5
100
AcDbArc
 50
270.0000000000025
 51
0.0
  0
ARC
  5
1A2
330
2
100
AcDbEntity
  8
0
100
AcDbCircle
 10
499.2850834160979
 20
399.343419830907
 30
0.0
 40
10.0
100
AcDbArc
 50
270.0
 51
0.0
1001
ACAD
1000
ASC_BOUNDS
1002
{
1070
    19
1002
}
  0
LINE
  5
1A3
330
2
100
AcDbEntity
  8
0
100
AcDbLine
 10
509.2850834160978
 20
404.8434198309069
 30
0.0
 11
509.2850834160978
 21
312.3101765710233
 31
0.0
  0
ARC
  5
1A4
330
2
100
AcDbEntity
  8
0
100
AcDbCircle
 10
470.9272190398289
 20
399.343419830907
 30
0.0
 40
10.0
100
AcDbArc
 50
224.9999999999999
 51
270.0
1001
ACAD
1000
ASC_BOUNDS
1002
{
1070
    19
1002
}
  0
LINE
  5
1A5
330
2
100
AcDbEntity
  8
0
100
AcDbLine
 10
484.2850834160978
 20
322.343419830907
 30
0.0
 11
470.9272190398289
 21
322.343419830907
 31
0.0
1001
ACAD
1000
ASC_BOUNDS
1002
{
1070
    19
1002
}
  0
LINE
  5
1A6
330
2
100
AcDbEntity
  8
0
100
AcDbLine
 10
499.2850834160978
 20
350.843419830907
 30
0.0
 11
459.2850834160977
 21
350.8434198309069
 31
0.0
  0
LINE
  5
1A7
330
2
100
AcDbEntity
  8
0
100
AcDbLine
 10
499.2850834160979
 20
360.843419830907
 30
0.0
 11
459.2850834160977
 21
360.843419830907
 31
0.0
  0
LINE
  5
1A8
330
2
100
AcDbEntity
  8
0
100
AcDbLine
 10
434.8350834160981
 20
377.9970096693933
 30
0.0
 11
434.8350834160981
 21
333.6898299924208
 31
0.0
  0
LINE
  5
1A9
330
2
100
AcDbEntity
  8
0
100
AcDbLine
 10
435.4350834160981
 20
378.343419830907
 30
0.0
 11
435.4350834160981
 21
333.343419830907
 31
0.0
  0
LINE
  5
1AA
330
2
100
AcDbEntity
  8
LINIE
  6
GESTRICHELT
 48
10.0
100
AcDbLine
 10
435.7850834160981
 20
293.343419830907
 30
0.0
 11
440.5850834160981
 21
293.343419830907
 31
0.0
  0
ARC
  5
1AB
330
2
100
AcDbEntity
  8
0
100
AcDbCircle
 10
432.335083416098
 20
335.843419830907
 30
0.0
 40
2.5
100
AcDbArc
 50
0.0
 51
90.0
  0
LINE
  5
1AC
330
2
100
AcDbEntity
  8
0
100
AcDbLine
 10
435.4350834160982
 20
333.343419830907
 30
0.0
 11
434.8350834160981
 21
333.6898299924208
 31
0.0
  0
LINE
  5
1AD
330
2
100
AcDbEntity
  8
0
100
AcDbLine
 10
435.4350834160981
 20
333.343419830907
 30
0.0
 11
435.785083416098
 21
333.343419830907
 31
0.0
  0
ARC
  5
1AE
330
2
100
AcDbEntity
  8
0
100
AcDbCircle
 10
459.2850834160978
 20
304.843419830907
 30
0.0
 40
10.0
100
AcDbArc
 50
103.6002851900802
 51
180.0
1001
ACAD
1000
ASC_BOUNDS
1002
{
1070
    19
1002
}
  0
ARC
  5
1AF
330
2
100
AcDbEntity
  8
0
100
AcDbCircle
 10
454.5821443952721
 20
324.282616433812
 30
0.0
 40
10.0
100
AcDbArc
 50
283.6002851900803
 51
315.0000000000004
1001
ACAD
1000
ASC_BOUNDS
1002
{
1070
    19
1002
}
  0
ARC
  5
1B0
330
2
100
AcDbEntity
  8
LINIE
  6
GESTRICHELT
 48
10.0
100
AcDbCircle
 10
440.5850834160981
 20
293.5434198309071
 30
0.0
 40
0.2
100
AcDbArc
 50
270.0
 51
0.0
1001
ACAD
1000
ASC_BOUNDS
1002
{
1070
    19
1002
}
  0
ARC
  5
1B1
330
2
100
AcDbEntity
  8
0
100
AcDbCircle
 10
470.9272190398289
 20
312.343419830907
 30
0.0
 40
10.0
100
AcDbArc
 50
90.0
 51
135.0000000000001
1001
ACAD
1000
ASC_BOUNDS
1002
{
1070
    19
1002
}
  0
LINE
  5
1B2
330
2
100
AcDbEntity
  8
0
100
AcDbLine
 10
461.6532122071377
 20
317.2115486219464
 30
0.0
 11
463.8561512279635
 21
319.4144876427726
 31
0.0
1001
ACAD
1000
ASC_BOUNDS
1002
{
1070
    19
1002
}
  0
LINE
  5
1B4
330
2
100
AcDbEntity
  8
0
100
AcDbLine
 10
424.835083416098
 20
373.343419830907
 30
0.0
 11
424.835083416098
 21
376.643419830907
 31
0.0
  0
ARC
  5
1B5
330
2
100
AcDbEntity
  8
0
100
AcDbCircle
 10
432.335083416098
 20
375.843419830907
 30
0.0
 40
2.5
100
AcDbArc
 50
270.0
 51
0.0
  0
LINE
  5
1B6
330
2
100
AcDbEntity
  8
0
100
AcDbLine
 10
435.4350834160981
 20
378.343419830907
 30
0.0
 11
434.8350834160981
 21
377.9970096693933
 31
0.0
  0
LINE
  5
1B7
330
2
100
AcDbEntity
  8
0
100
AcDbLine
 10
435.4350834160981
 20
378.343419830907
 30
0.0
 11
435.7850834160979
 21
378.343419830907
 31
0.0
  0
ARC
  5
1B8
330
2
100
AcDbEntity
  8
0
100
AcDbCircle
 10
459.2850834160977
 20
370.843419830907
 30
0.0
 40
10.0
100
AcDbArc
 50
179.9999999999998
 51
270.0
  0
ARC
  5
1B9
330
2
100
AcDbEntity
  8
0
100
AcDbCircle
 10
459.2850834160977
 20
340.843419830907
 30
0.0
 40
10.0
100
AcDbArc
 50
90.0
 51
180.0
  0
ARC
  5
1BA
330
2
100
AcDbEntity
  8
0
100
AcDbCircle
 10
484.2850834160978
 20
312.343419830907
 30
0.0
 40
10.0
100
AcDbArc
 50
0.0
 51
90.0
1001
ACAD
1000
ASC_BOUNDS
1002
{
1070
    19
1002
}
  0
ARC
  5
1BB
330
2
100
AcDbEntity
  8
0
100
AcDbCircle
 10
499.2850834160979
 20
370.843419830907
 30
0.0
 40
10.0
100
AcDbArc
 50
270.0
 51
0.0
  0
ARC
  5
1BC
330
2
100
AcDbEntity
  8
0
100
AcDbCircle
 10
499.2850834160978
 20
340.843419830907
 30
0.0
 40
10.0
100
AcDbArc
 50
0.0
 51
90.0
  0
LINE
  5
1BD
330
2
100
AcDbEntity
  8
0
100
AcDbLine
 10
449.285083416098
 20
433.8434198309069
 30
0.0
 11
510.2238117802557
 21
409.9351853384243
 31
0.0
  0
LINE
  5
1BE
330
2
100
AcDbEntity
  8
0
100
AcDbLine
 10
499.2850834160979
 20
389.343419830907
 30
0.0
 11
470.9272190398289
 21
389.343419830907
 31
0.0
1001
ACAD
1000
ASC_BOUNDS
1002
{
1070
    19
1002
}
  0
LINE
  5
1BF
330
2
100
AcDbEntity
  8
LINIE
  6
GESTRICHELT
 48
10.0
100
AcDbLine
 10
435.785083416098
 20
418.343419830907
 30
0.0
 11
440.5850834160981
 21
418.343419830907
 31
0.0
  0
ARC
  5
1C0
330
2
100
AcDbEntity
  8
0
100
AcDbCircle
 10
454.5821443952721
 20
387.404223228002
 30
0.0
 40
10.0
100
AcDbArc
 50
44.99999999999956
 51
76.39971480991974
1001
ACAD
1000
ASC_BOUNDS
1002
{
1070
    19
1002
}
  0
ARC
  5
1C1
330
2
100
AcDbEntity
  8
0
100
AcDbCircle
 10
459.2850834160978
 20
406.843419830907
 30
0.0
 40
10.0
100
AcDbArc
 50
180.0
 51
256.3997148099197
1001
ACAD
1000
ASC_BOUNDS
1002
{
1070
    19
1002
}
  0
LINE
  5
1C2
330
2
100
AcDbEntity
  8
0
100
AcDbLine
 10
461.6532122071377
 20
394.4752910398674
 30
0.0
 11
463.8561512279635
 21
392.2723520190415
 31
0.0
1001
ACAD
1000
ASC_BOUNDS
1002
{
1070
    19
1002
}
  0
ARC
  5
1C3
330
2
100
AcDbEntity
  8
LINIE
  6
GESTRICHELT
 48
10.0
100
AcDbCircle
 10
440.5850834160981
 20
418.1434198309069
 30
0.0
 40
0.2
100
AcDbArc
 50
0.0
 51
90.0
  0
LINE
  5
1C4
330
2
100
AcDbEntity
  8
0
100
AcDbLine
 10
435.7850834160979
 20
445.843419830907
 30
0.0
 11
447.285083416098
 21
445.843419830907
 31
0.0
  0
LINE
  5
1C5
330
2
100
AcDbEntity
  8
0
100
AcDbLine
 10
449.285083416098
 20
443.843419830907
 30
0.0
 11
447.285083416098
 21
445.843419830907
 31
0.0
  0
ARC
  5
1C6
330
2
100
AcDbEntity
  8
0
100
AcDbCircle
 10
502.2850834160979
 20
391.843419830907
 30
0.0
 40
2.5
100
AcDbArc
 50
180.0
 51
246.682866155961
  0
LINE
  5
1C7
330
2
100
AcDbEntity
  8
0
100
AcDbLine
 10
494.7850834160979
 20
395.843419830907
 30
0.0
 11
486.7850834160979
 21
395.843419830907
 31
0.0
  0
LINE
  5
1C8
330
2
100
AcDbEntity
  8
0
100
AcDbLine
 10
495.7850834160979
 20
394.8434198309071
 30
0.0
 11
485.7850834160979
 21
394.8434198309071
 31
0.0
  0
LINE
  5
1C9
330
2
100
AcDbEntity
  8
0
100
AcDbLine
 10
499.7850834160979
 20
392.843419830907
 30
0.0
 11
483.7850834160978
 21
392.843419830907
 31
0.0
  0
LINE
  5
1CA
330
2
100
AcDbEntity
  8
0
100
AcDbLine
 10
483.785083416098
 20
392.843419830907
 30
0.0
 11
483.785083416098
 21
391.843419830907
 31
0.0
1001
ACAD
1000
ASC_BOUNDS
1002
{
1070
    19
1005
0
1002
}
  0
LINE
  5
1CB
330
2
100
AcDbEntity
  8
0
100
AcDbLine
 10
485.7850834160979
 20
394.8434198309071
 30
0.0
 11
485.7850834160979
 21
392.843419830907
 31
0.0
1001
ACAD
1000
ASC_BOUNDS
1002
{
1070
    19
1002
}
  0
LINE
  5
1CC
330
2
100
AcDbEntity
  8
0
100
AcDbLine
 10
486.7850834160979
 20
395.843419830907
 30
0.0
 11
485.7850834160979
 21
394.8434198309071
 31
0.0
  0
LINE
  5
1CD
330
2
100
AcDbEntity
  8
0
100
AcDbLine
 10
499.7850834160979
 20
392.843419830907
 30
0.0
 11
499.7850834160979
 21
391.843419830907
 31
0.0
1001
ACAD
1000
ASC_BOUNDS
1002
{
1070
    19
1005
0
1002
}
  0
LINE
  5
1CE
330
2
100
AcDbEntity
  8
0
100
AcDbLine
 10
495.7850834160979
 20
394.8434198309071
 30
0.0
 11
494.7850834160979
 21
395.843419830907
 31
0.0
  0
LINE
  5
1CF
330
2
100
AcDbEntity
  8
0
100
AcDbLine
 10
495.7850834160979
 20
394.8434198309071
 30
0.0
 11
495.7850834160979
 21
392.8434198309071
 31
0.0
1001
ACAD
1000
ASC_BOUNDS
1002
{
1070
    19
1002
}
  0
ARC
  5
1D0
330
2
100
AcDbEntity
  8
0
100
AcDbCircle
 10
515.2850834160979
 20
404.8434198309069
 30
0.0
 40
6.0
100
AcDbArc
 50
119.2107476043114
 51
180.0000000000006
1001
ACAD
1000
ASC_BOUNDS
1002
{
1070
    19
1002
}
  0
ARC
  5
1D1
330
2
100
AcDbEntity
  8
0
100
AcDbCircle
 10
511.1368845652075
 20
412.2624794946024
 30
0.0
 40
2.5
100
AcDbArc
 50
248.5783165533326
 51
299.2107476043105
  0
ARC
  5
1D2
330
2
100
AcDbEntity
  8
0
100
AcDbCircle
 10
515.2850834160979
 20
404.8434198309069
 30
0.0
 40
6.0
100
AcDbArc
 50
90.0
 51
119.2107476043114
1001
ACAD
1000
ASC_BOUNDS
1002
{
1070
    19
1002
}
  0
DIMENSION
  5
1D3
330
2
100
AcDbEntity
  8
BEM
100
AcDbDimension
  2
*D18
 10
1065.723501216516
 20
414.7188303774367
 30
0.0
 11
1065.448085624078
 21
478.2334543176755
 31
0.0
 70
   162
 71
     5
 42
0.7853981633974508
  3
ISO-25
100
AcDb2LineAngularDimension
 13
1006.848090669986
 23
457.4827822101562
 33
0.0
 14
1006.848090669986
 24
220.2766475450053
 34
0.0
 15
1051.739778419999
 25
400.7351075809194
 35
0.0
 16
1041.968681114513
 26
486.9152477617011
 36
0.0
1001
ACAD
1000
DSTYLE
1002
{
1070
    79
1070
     2
1070
   144
1040
1.0
1070
   179
1070
     4
1070
   289
1070
     0
1002
}
  0
DIMENSION
  5
1E2
330
2
100
AcDbEntity
  8
BEM
100
AcDbDimension
  2
*D19
 10
795.7294767830035
 20
254.2870706448031
 30
0.0
 11
786.7294767830035
 21
294.7870706448032
 31
0.0
 70
    32
 71
     5
 42
81.0
  3
ISO-25
100
AcDbAlignedDimension
 13
775.5710983177736
 23
335.287070644803
 33
0.0
 14
756.6345731588809
 24
254.2870706448031
 34
0.0
 50
90.0
100
AcDbRotatedDimension
1001
ACAD
1000
DSTYLE
1002
{
1070
   144
1040
1.0
1070
   289
1070
     0
1002
}
  0
DIMENSION
  5
1EF
330
2
100
AcDbEntity
  8
BEM
100
AcDbDimension
  2
*D20
 10
852.4531440176497
 20
265.2870706448031
 30
0.0
 11
843.4531440176495
 21
330.7870706448032
 31
0.0
 70
    32
 71
     5
 42
131.0
  3
ISO-25
100
AcDbAlignedDimension
 13
766.1850834160978
 23
396.2870706448031
 33
0.0
 14
839.9199705897162
 24
265.2870706448031
 34
0.0
 50
90.0
100
AcDbRotatedDimension
1001
ACAD
1000
DSTYLE
1002
{
1070
   144
1040
1.0
1070
   289
1070
     0
1002
}
  0
DIMENSION
  5
1FC
330
2
100
AcDbEntity
  8
BEM
100
AcDbDimension
  2
*D21
 10
825.5306434631844
 20
235.2870706448031
 30
0.0
 11
816.5306434631842
 21
285.2870706448032
 31
0.0
 70
    32
 71
     5
 42
99.99999999999992
  3
ISO-25
100
AcDbAlignedDimension
 13
775.5710983177736
 23
335.287070644803
 33
0.0
 14
684.1761649515848
 24
235.2870706448032
 34
0.0
 50
90.0
100
AcDbRotatedDimension
1001
ACAD
1000
DSTYLE
1002
{
1070
   144
1040
1.0
1070
   289
1070
     0
1002
}
  0
LINE
  5
209
330
2
100
AcDbEntity
  8
MITTE
 48
20.0
100
AcDbLine
 10
914.4320866470398
 20
457.4827822101562
 30
0.0
 11
914.4320866470398
 21
220.2766475450053
 31
0.0
  0
LINE
  5
20A
330
2
100
AcDbEntity
  8
LINIE
 48
10.0
100
AcDbLine
 10
622.8623386623223
 20
334.1302798515409
 30
0.0
 11
622.8623386623223
 21
276.4260325894873
 31
0.0
  0
LINE
  5
20B
330
2
100
AcDbEntity
  8
LINIE
 48
10.0
100
AcDbLine
 10
566.2850834160979
 20
406.6741013027799
 30
0.0
 11
566.2850834160979
 21
257.45913885864
 31
0.0
  0
LINE
  5
20C
330
2
100
AcDbEntity
  8
0
100
AcDbLine
 10
996.3666387803671
 20
318.6046071925979
 30
0.0
 11
1003.236705247806
 21
281.0000328445085
 31
0.0
  0
ARC
  5
20D
330
2
100
AcDbEntity
  8
0
100
AcDbCircle
 10
914.4320866470398
 20
325.8434198309069
 30
0.0
 40
73.0
100
AcDbArc
 50
205.2880282852064
 51
270.0
  0
ARC
  5
20E
330
2
100
AcDbEntity
  8
0
100
AcDbCircle
 10
914.4320866470398
 20
355.8434198309069
 30
0.0
 40
90.0
100
AcDbArc
 50
218.3212863366508
 51
346.7968803211818
  0
ARC
  5
20F
330
2
100
AcDbEntity
  8
0
100
AcDbCircle
 10
941.4320866470403
 20
308.843419830907
 30
0.0
 40
48.0
100
AcDbArc
 50
265.8469596790084
 51
356.5608486000106
  0
LINE
  5
210
330
2
100
AcDbEntity
  8
0
100
AcDbLine
 10
771.1850834160978
 20
391.287070644803
 30
0.0
 11
771.1850834160978
 21
270.2870706448031
 31
0.0
1001
ACAD
1000
ASC_BOUNDS
1002
{
1070
    19
1002
}
  0
LINE
  5
211
330
2
100
AcDbEntity
  8
0
100
AcDbLine
 10
599.1850834160979
 20
411.843419830907
 30
0.0
 11
599.1850834160973
 21
252.8434198309069
 31
0.0
1001
ACAD
1000
ASC_BOUNDS
1002
{
1070
    19
1002
}
  0
LINE
  5
212
330
2
100
AcDbEntity
  8
0
100
AcDbLine
 10
592.7850834160985
 20
411.8434198309069
 30
0.0
 11
592.785083416098
 21
252.8434198309069
 31
0.0
1001
ACAD
1000
ASC_BOUNDS
1002
{
1070
    19
1002
}
  0
LINE
  5
213
330
2
100
AcDbEntity
  8
0
100
AcDbLine
 10
699.1850834160978
 20
332.3543927661598
 30
0.0
 11
699.1850834160978
 21
268.787070644803
 31
0.0
1001
ACAD
1000
ASC_BOUNDS
1002
{
1070
    19
1002
}
  0
LINE
  5
214
330
2
100
AcDbEntity
  8
0
100
AcDbLine
 10
599.1850834160979
 20
401.2870706448029
 30
0.0
 11
599.1850834160977
 21
269.2870706448032
 31
0.0
1001
ACAD
1000
ASC_BOUNDS
1002
{
1070
    19
1005
0
1002
}
  0
ARC
  5
215
330
2
100
AcDbEntity
  8
0
100
AcDbCircle
 10
914.4320866470398
 20
355.8434198309069
 30
0.0
 40
90.0
100
AcDbArc
 50
346.7968803211818
 51
218.3212863366508
  0
DIMENSION
  5
216
330
2
100
AcDbEntity
  8
BEM
100
AcDbDimension
  2
*D22
 10
663.1850834160978
 20
146.1690151337195
 30
0.0
 11
703.5314812704172
 21
146.1690151337195
 31
0.0
 70
   160
 71
     5
 42
73.0
  3
ISO-25
100
AcDbAlignedDimension
 13
736.1850834160978
 23
250.1879399213548
 33
0.0
 14
663.1850834160978
 24
232.0779365092358
 34
0.0
100
AcDbRotatedDimension
1001
ACAD
1000
DSTYLE
1002
{
1070
   144
1040
1.0
1070
   289
1070
     0
1002
}
  0
HATCH
  5
223
330
2
100
AcDbEntity
  8
LINIE
 48
10.0
100
AcDbHatch
 10
0.0
 20
0.0
 30
0.0
210
0.0
220
0.0
230
1.0
  2
ANSI31
 70
     0
 71
     0
 91
        4
 92
        5
 93
        6
 72
     1
 10
752.8095834160978
 20
254.2870706448031
 11
756.6345731588809
 21
254.2870706448031
 72
     2
 10
754.1850834160977
 20
254.7870706448032
 40
2.499999999999964
 50
348.4630409671819
 51
360.0
 73
     1
 72
     1
 10
756.6850834160978
 20
254.7870706448032
 11
756.6850834160978
 21
262.7870706448031
 72
     2
 10
759.1850834160977
 20
262.787070644803
 40
2.499999999999997
 50
180.0000000000025
 51
215.7188059857725
 73
     0
 72
     4
 94
        3
 73
     0
 74
     0
 95
        9
 96
        5
 40
41.68509778057289
 40
41.68509778057289
 40
41.68509778057289
 40
41.68509778057289
 40
43.97539401037365
 40
46.09696782555251
 40
46.09696782555251
 40
46.09696782555251
 40
46.09696782555251
 10
757.1553535422544
 20
264.2465899626704
 10
756.4083158244608
 20
264.4154967413746
 10
754.9692734478816
 20
264.7408672099028
 10
753.5128327606756
 20
264.8530027835523
 10
752.809583416097
 20
264.8725460994279
 72
     1
 10
752.8095834160978
 20
264.8725460994278
 11
752.8095834160978
 21
254.2870706448031
 97
        0
 92
        5
 93
        4
 72
     4
 94
        3
 73
     0
 74
     0
 95
        8
 96
        4
 40
40.20165906937299
 40
40.20165906937299
 40
40.20165906937299
 40
40.20165906937299
 40
41.68509778057289
 40
41.68509778057289
 40
41.68509778057289
 40
41.68509778057289
 10
752.809583416097
 20
264.8725460994279
 10
752.3178601048881
 20
264.8862111018464
 10
751.8247296270534
 20
264.8830674737574
 10
751.3305834160977
 20
264.8682186985972
 72
     1
 10
751.3305834160978
 20
264.8682186985972
 11
751.3305834160977
 21
255.7660706448033
 72
     1
 10
751.3305834160977
 20
255.7660706448033
 11
752.8095834160978
 21
254.287070644803
 72
     1
 10
752.8095834160978
 20
254.287070644803
 11
752.8095834160978
 21
264.8725460994279
 97
        0
 92
        5
 93
        4
 72
     1
 10
719.5605834160978
 20
254.2870706448031
 11
721.0395834160976
 21
255.7660706448031
 72
     1
 10
721.0395834160976
 20
255.7660706448031
 11
721.0395834160977
 21
265.4248593291616
 72
     4
 94
        3
 73
     0
 74
     0
 95
        8
 96
        4
 40
8.357331474458167
 40
8.357331474458167
 40
8.357331474458167
 40
8.357331474458167
 40
9.859576091809659
 40
9.859576091809659
 40
9.859576091809659
 40
9.859576091809659
 10
721.0395834161008
 20
265.4248593291622
 10
720.5441188065943
 20
265.3290437839053
 10
720.0509122060109
 20
265.2224546766588
 10
719.560583416102
 20
265.1052601534235
 72
     1
 10
719.5605834160978
 20
265.1052601534225
 11
719.5605834160978
 21
254.2870706448031
 97
        0
 92
        5
 93
        5
 72
     4
 94
        3
 73
     0
 74
     0
 95
        9
 96
        5
 40
0.0
 40
0.0
 40
0.0
 40
0.0
 40
3.505619563075921
 40
8.357331474458169
 40
8.357331474458169
 40
8.357331474458169
 40
8.357331474458169
 10
719.560583416102
 20
265.1052601534235
 10
718.4163581824817
 20
264.8317764553667
 10
715.7259071802931
 20
264.0421139139671
 10
713.1692872464492
 20
262.936362899524
 10
711.6850834160977
 20
262.2944372580447
 72
     1
 10
711.6850834160977
 20
262.2944372580447
 11
711.6850834160978
 21
254.7870706448031
 72
     2
 10
714.1850834160979
 20
254.7870706448032
 40
2.500000000000019
 50
180.0000000000013
 51
191.5369590328181
 73
     1
 72
     1
 10
711.7355936733147
 20
254.2870706448031
 11
719.5605834160978
 21
254.2870706448031
 72
     1
 10
719.5605834160978
 20
254.2870706448031
 11
719.5605834160978
 21
265.1052601534222
 97
        0
 75
     0
 76
     1
 52
0.0
 41
25.0
 77
     0
 78
     1
 53
45.0
 43
177.3603288338491
 44
9.577360923049695
 45
-2.20970869120796
 46
2.209708691207961
 79
     0
 47
0.3395931865206437
 98
        4
 10
753.8297638484831
 20
258.0737792463227
 10
752.4709301801907
 20
258.7529651418805
 10
720.1986368933289
 20
259.4321525470758
 10
716.4618443055241
 20
258.7529651418805
  0
SPLINE
  5
224
330
2
100
AcDbEntity
  8
LINIE
 48
10.0
100
AcDbSpline
210
0.0
220
0.0
230
1.0
 70
     8
 71
     3
 72
    12
 73
     8
 74
     6
 42
0.0000000001
 43
0.0000000001
 44
0.0000000001
 40
0.0
 40
0.0
 40
0.0
 40
0.0
 40
4.851711911382247
 40
18.01859907913513
 40
32.66528729343511
 40
43.80667159575175
 40
46.09696782555251
 40
46.09696782555251
 40
46.09696782555251
 40
46.09696782555251
 10
711.6850834160977
 20
262.2944372580447
 30
0.0
 10
713.1692872464492
 20
262.936362899524
 30
0.0
 10
718.6814186877409
 20
265.3203875456075
 30
0.0
 10
729.8019612311195
 20
266.978629350554
 30
0.0
 10
742.5316652640745
 20
263.3452466600865
 30
0.0
 10
752.0272354033854
 20
265.4060681188861
 30
0.0
 10
756.4083158244608
 20
264.4154967413745
 30
0.0
 10
757.1553535422544
 20
264.2465899626704
 30
0.0
 11
711.6850834160977
 21
262.2944372580447
 31
0.0
 11
716.1827985582917
 21
264.1136862708871
 31
0.0
 11
729.2130395233615
 21
266.0057058480983
 31
0.0
 11
743.7719704769555
 21
264.4047670187243
 31
0.0
 11
754.909551769543
 21
264.695846256924
 31
0.0
 11
757.1553535422544
 21
264.2465899626704
 31
0.0
  0
LINE
  5
225
330
2
100
AcDbEntity
  8
0
100
AcDbLine
 10
721.0395834160977
 20
255.7660706448031
 30
0.0
 11
751.330583416098
 21
255.7660706448031
 31
0.0
1001
ACAD
1000
ASC_BOUNDS
1002
{
1070
    19
1002
}
  0
LINE
  5
226
330
2
100
AcDbEntity
  8
0
100
AcDbLine
 10
711.7355936733147
 20
254.2870706448031
 30
0.0
 11
756.6345731588809
 21
254.2870706448031
 31
0.0
1001
ACAD
1000
ASC_BOUNDS
1002
{
1070
    19
1005
0
1002
}
  0
MTEXT
  5
227
102
{ACAD_REACTORS
330
228
102
}
330
2
100
AcDbEntity
  8
BEM
100
AcDbMText
 10
613.3055118270504
 20
187.9767433614786
 30
0.0
 40
10.0
 41
0.0
 71
     6
 72
     1
  1
\A1;G 1"
 73
     1
 44
1.0
  0
LEADER
  5
228
330
2
100
AcDbEntity
  8
BEM
100
AcDbLeader
  3
ISO-25
 73
     0
 75
     1
 40
11.9047619047619
 41
33.80952380952381
 76
     3
 10
663.1850834160978
 20
235.2870706448032
 30
0.0
 10
624.3055118270504
 20
178.0243624090976
 30
0.0
 10
617.3055118270504
 20
178.0243624090976
 30
0.0
340
227
1001
ACAD
1000
DSTYLE
1002
{
1070
   144
1040
1.0
1070
   287
1070
     0
1002
}
  0
LINE
  5
229
330
2
100
AcDbEntity
  8
0
100
AcDbLine
 10
685.6850834160979
 20
256.4417711831825
 30
0.0
 11
640.6850834160978
 21
256.4417711831825
 31
0.0
  0
LINE
  5
22A
330
2
100
AcDbEntity
  8
0
100
AcDbLine
 10
685.6850834160979
 20
266.2870706448032
 30
0.0
 11
640.6850834160978
 21
266.287070644803
 31
0.0
1001
ACAD
1000
ASC_BOUNDS
1002
{
1070
    19
1002
}
  0
LINE
  5
22B
330
2
100
AcDbEntity
  8
0
100
AcDbLine
 10
623.6850834160978
 20
266.2870706448031
 30
0.0
 11
706.1850834160978
 21
266.2870706448031
 31
0.0
1001
ACAD
1000
ASC_BOUNDS
1002
{
1070
    19
1002
}
  0
LINE
  5
22C
330
2
100
AcDbEntity
  8
0
100
AcDbLine
 10
684.1761649515848
 20
235.2870706448032
 30
0.0
 11
642.1940018806107
 21
235.2870706448032
 31
0.0
  0
ARC
  5
22D
330
2
100
AcDbEntity
  8
0
100
AcDbCircle
 10
645.3767276511813
 20
243.3353387031373
 30
0.0
 40
8.048268058334087
100
AcDbArc
 50
234.3425218101843
 51
305.6574781898166
  0
ARC
  5
22E
330
2
100
AcDbEntity
  8
0
100
AcDbCircle
 10
645.3767276511813
 20
248.3935031248484
 30
0.0
 40
8.048268058334087
100
AcDbArc
 50
54.34252181018326
 51
125.6574781898157
  0
LINE
  5
22F
330
2
100
AcDbEntity
  8
0
100
AcDbLine
 10
640.6850834160978
 20
236.7959891093161
 30
0.0
 11
640.6850834160978
 21
254.9328527186694
 31
0.0
  0
LINE
  5
230
330
2
100
AcDbEntity
  8
0
100
AcDbLine
 10
640.6850834160978
 20
236.7959891093161
 30
0.0
 11
642.1940018806107
 21
235.2870706448032
 31
0.0
1001
ACAD
1000
ASC_BOUNDS
1002
{
1070
    19
1002
}
  0
LINE
  5
231
330
2
100
AcDbEntity
  8
LINIE
 48
10.0
100
AcDbLine
 10
600.5581042076349
 20
274.2870706448031
 30
0.0
 11
623.5131396342516
 21
274.2870706448031
 31
0.0
  0
LINE
  5
232
330
2
100
AcDbEntity
  8
0
100
AcDbLine
 10
599.1850834160977
 20
269.2870706448032
 30
0.0
 11
612.5248293782533
 21
269.2870706448031
 31
0.0
1001
ACAD
1000
ASC_BOUNDS
1002
{
1070
    19
1002
}
  0
LINE
  5
233
330
2
100
AcDbEntity
  8
0
100
AcDbLine
 10
566.2850834160979
 20
252.843419830907
 30
0.0
 11
599.1850834160978
 21
252.8434198309069
 31
0.0
1001
ACAD
1000
ASC_BOUNDS
1002
{
1070
    19
1002
}
  0
ARC
  5
234
330
2
100
AcDbEntity
  8
0
100
AcDbCircle
 10
564.2850834160979
 20
251.343419830907
 30
0.0
 40
2.5
100
AcDbArc
 50
36.86989764584435
 51
90.0
1001
ACAD
1000
ASC_BOUNDS
1002
{
1070
    19
1002
}
  0
LINE
  5
235
330
2
100
AcDbEntity
  8
0
100
AcDbLine
 10
599.1850834160978
 20
269.2870706448031
 30
0.0
 11
599.1850834160978
 21
269.2870706448031
 31
0.0
1001
ACAD
1000
ASC_BOUNDS
1002
{
1070
    19
1005
0
1002
}
  0
ARC
  5
236
330
2
100
AcDbEntity
  8
0
100
AcDbCircle
 10
643.185083416098
 20
269.2870706448031
 30
0.0
 40
4.0
100
AcDbArc
 50
180.0
 51
228.5903778907289
1001
ACAD
1000
ASC_BOUNDS
1002
{
1070
    19
1002
}
  0
ARC
  5
237
330
2
100
AcDbEntity
  8
0
100
AcDbCircle
 10
625.6850834160978
 20
267.7870706448031
 30
0.0
 40
2.5
100
AcDbArc
 50
180.0
 51
216.8698976458441
  0
LINE
  5
238
330
2
100
AcDbEntity
  8
0
100
AcDbLine
 10
640.6850834160978
 20
256.4417711831825
 30
0.0
 11
640.6850834160978
 21
266.2870706448031
 31
0.0
1001
ACAD
1000
ASC_BOUNDS
1002
{
1070
    19
1002
}
  0
LINE
  5
239
330
2
100
AcDbEntity
  8
0
100
AcDbLine
 10
640.6850834160978
 20
254.9328527186694
 30
0.0
 11
642.1940018806107
 21
256.4417711831825
 31
0.0
1001
ACAD
1000
ASC_BOUNDS
1002
{
1070
    19
1002
}
  0
LINE
  5
23A
330
2
100
AcDbEntity
  8
0
100
AcDbLine
 10
625.7535859335763
 20
274.2870706448032
 30
0.0
 11
635.1850834160979
 21
274.2870706448032
 31
0.0
1001
ACAD
1000
ASC_BOUNDS
1002
{
1070
    19
1002
}
  0
ARC
  5
23B
330
2
100
AcDbEntity
  8
0
100
AcDbCircle
 10
612.5248293782533
 20
279.2870706448032
 30
0.0
 40
10.0
100
AcDbArc
 50
270.0
 51
311.4096221092711
1001
ACAD
1000
ASC_BOUNDS
1002
{
1070
    19
1002
}
  0
ARC
  5
23C
330
2
100
AcDbEntity
  8
0
100
AcDbCircle
 10
625.7535859335763
 20
264.2870706448032
 30
0.0
 40
10.0
100
AcDbArc
 50
90.0
 51
131.4096221092711
1001
ACAD
1000
ASC_BOUNDS
1002
{
1070
    19
1002
}
  0
LINE
  5
23D
330
2
100
AcDbEntity
  8
0
100
AcDbLine
 10
623.1850834160979
 20
267.7870706448031
 30
0.0
 11
623.1850834160979
 21
273.951582780328
 31
0.0
  0
ARC
  5
23E
330
2
100
AcDbEntity
  8
0
100
AcDbCircle
 10
635.1850834160979
 20
270.2870706448032
 30
0.0
 40
4.0
100
AcDbArc
 50
0.0
 51
90.0
1001
ACAD
1000
ASC_BOUNDS
1002
{
1070
    19
1002
}
  0
LINE
  5
23F
330
2
100
AcDbEntity
  8
0
100
AcDbLine
 10
639.185083416098
 20
269.2870706448031
 30
0.0
 11
639.1850834160979
 21
270.2870706448032
 31
0.0
1001
ACAD
1000
ASC_BOUNDS
1002
{
1070
    19
1002
}
  0
LINE
  5
240
330
2
100
AcDbEntity
  8
MITTE
 48
8.0
100
AcDbLine
 10
663.1850834160978
 20
271.8130402411027
 30
0.0
 11
663.1850834160978
 21
232.0779365092358
 31
0.0
  0
LINE
  5
241
330
2
100
AcDbEntity
  8
0
100
AcDbLine
 10
672.4587019115936
 20
236.5206392348871
 30
0.0
 11
672.4587019115935
 21
255.208202593099
 31
0.0
  0
LINE
  5
242
330
2
100
AcDbEntity
  8
0
100
AcDbLine
 10
676.3017949459309
 20
236.7959891093161
 30
0.0
 11
676.301794945931
 21
254.9328527186694
 31
0.0
  0
LINE
  5
243
330
2
100
AcDbEntity
  8
0
100
AcDbLine
 10
650.0683718862648
 20
236.7959891093161
 30
0.0
 11
650.0683718862648
 21
254.9328527186694
 31
0.0
  0
LINE
  5
244
330
2
100
AcDbEntity
  8
0
100
AcDbLine
 10
653.9114649206021
 20
236.5206392348871
 30
0.0
 11
653.9114649206021
 21
255.2082025930986
 31
0.0
  0
LINE
  5
245
330
2
100
AcDbEntity
  8
0
100
AcDbLine
 10
685.6850834160979
 20
236.7959891093162
 30
0.0
 11
685.6850834160979
 21
254.9328527186694
 31
0.0
  0
ARC
  5
246
330
2
100
AcDbEntity
  8
0
100
AcDbCircle
 10
663.1850834160978
 20
270.7620706448032
 30
0.0
 40
35.475
100
AcDbArc
 50
254.8460917587445
 51
285.1539082412555
  0
LINE
  5
247
330
2
100
AcDbEntity
  8
0
100
AcDbLine
 10
650.0683718862648
 20
236.7959891093161
 30
0.0
 11
653.9114649206021
 21
236.7959891093161
 31
0.0
  0
ARC
  5
248
330
2
100
AcDbEntity
  8
0
100
AcDbCircle
 10
680.9934391810144
 20
243.3353387031373
 30
0.0
 40
8.048268058334087
100
AcDbArc
 50
234.3425218101833
 51
305.6574781898157
  0
LINE
  5
249
330
2
100
AcDbEntity
  8
0
100
AcDbLine
 10
676.3017949459309
 20
236.7959891093161
 30
0.0
 11
672.4587019115936
 21
236.7959891093161
 31
0.0
  0
LINE
  5
24A
330
2
100
AcDbEntity
  8
0
100
AcDbLine
 10
685.6850834160979
 20
236.7959891093162
 30
0.0
 11
684.1761649515848
 21
235.2870706448032
 31
0.0
1001
ACAD
1000
ASC_BOUNDS
1002
{
1070
    19
1002
}
  0
ARC
  5
24B
330
2
100
AcDbEntity
  8
0
100
AcDbCircle
 10
663.1850834160978
 20
220.9667711831823
 30
0.0
 40
35.475
100
AcDbArc
 50
74.8460917587445
 51
105.1539082412555
  0
LINE
  5
24C
330
2
100
AcDbEntity
  8
0
100
AcDbLine
 10
650.0683718862648
 20
254.9328527186694
 30
0.0
 11
653.9114649206021
 21
254.9328527186694
 31
0.0
  0
ARC
  5
24D
330
2
100
AcDbEntity
  8
0
100
AcDbCircle
 10
680.9934391810144
 20
248.3935031248484
 30
0.0
 40
8.048268058334087
100
AcDbArc
 50
54.34252181018426
 51
125.6574781898167
  0
LINE
  5
24E
330
2
100
AcDbEntity
  8
0
100
AcDbLine
 10
676.3017949459309
 20
254.9328527186694
 30
0.0
 11
672.4587019115936
 21
254.9328527186694
 31
0.0
  0
LINE
  5
24F
330
2
100
AcDbEntity
  8
0
100
AcDbLine
 10
685.6850834160979
 20
256.4417711831824
 30
0.0
 11
685.6850834160979
 21
266.2870706448031
 31
0.0
1001
ACAD
1000
ASC_BOUNDS
1002
{
1070
    19
1002
}
  0
LINE
  5
250
330
2
100
AcDbEntity
  8
0
100
AcDbLine
 10
685.6850834160979
 20
254.9328527186694
 30
0.0
 11
684.1761649515849
 21
256.4417711831825
 31
0.0
1001
ACAD
1000
ASC_BOUNDS
1002
{
1070
    19
1002
}
  0
ARC
  5
251
330
2
100
AcDbEntity
  8
0
100
AcDbCircle
 10
696.6850834160979
 20
268.787070644803
 30
0.0
 40
2.5
100
AcDbArc
 50
270.0
 51
0.0
1001
ACAD
1000
ASC_BOUNDS
1002
{
1070
    19
1002
}
  0
LINE
  5
252
330
2
100
AcDbEntity
  8
0
100
AcDbLine
 10
720.3632162653629
 20
265.2870706448031
 30
0.0
 11
706.1850834160976
 21
265.2870706448031
 31
0.0
1001
ACAD
1000
ASC_BOUNDS
1002
{
1070
    19
1002
}
  0
ARC
  5
253
330
2
100
AcDbEntity
  8
0
100
AcDbCircle
 10
714.1850834160979
 20
254.7870706448031
 30
0.0
 40
2.5
100
AcDbArc
 50
180.0000000000002
 51
191.5369590328154
1001
ACAD
1000
ASC_BOUNDS
1002
{
1070
    19
1002
}
  0
ARC
  5
254
330
2
100
AcDbEntity
  8
0
100
AcDbCircle
 10
709.1850834160977
 20
262.7870706448031
 30
0.0
 40
2.5
100
AcDbArc
 50
0.0
 51
90.0
1001
ACAD
1000
ASC_BOUNDS
1002
{
1070
    19
1002
}
  0
LINE
  5
255
330
2
100
AcDbEntity
  8
0
100
AcDbLine
 10
711.6850834160977
 20
262.7870706448031
 30
0.0
 11
711.6850834160978
 21
254.7870706448031
 31
0.0
1001
ACAD
1000
ASC_BOUNDS
1002
{
1070
    19
1002
}
  0
LINE
  5
256
330
2
100
AcDbEntity
  8
0
100
AcDbLine
 10
706.1850834160978
 20
266.2870706448031
 30
0.0
 11
706.1850834160976
 21
265.2870706448031
 31
0.0
1001
ACAD
1000
ASC_BOUNDS
1002
{
1070
    19
1002
}
  0
LINE
  5
257
330
2
100
AcDbEntity
  8
LINIE
 48
10.0
100
AcDbLine
 10
719.5605834160978
 20
265.1052601534384
 30
0.0
 11
719.5605834160978
 21
254.2870706448031
 31
0.0
1001
ACAD
1000
ASC_BOUNDS
1002
{
1070
    19
1002
}
  0
LINE
  5
258
330
2
100
AcDbEntity
  8
0
100
AcDbLine
 10
721.0395834160977
 20
255.7660706448031
 30
0.0
 11
719.5605834160978
 21
254.2870706448031
 31
0.0
1001
ACAD
1000
ASC_BOUNDS
1002
{
1070
    19
1002
}
  0
LINE
  5
259
330
2
100
AcDbEntity
  8
0
100
AcDbLine
 10
721.0395834160977
 20
265.4248593291769
 30
0.0
 11
721.0395834160976
 21
255.766070644803
 31
0.0
1001
ACAD
1000
ASC_BOUNDS
1002
{
1070
    19
1002
}
  0
LEADER
  5
25A
330
2
100
AcDbEntity
  8
BEM
100
AcDbLeader
  3
ISO-25
 74
     0
 40
10.0
 76
     2
 10
736.2247876671797
 20
254.5186805735941
 30
0.0
 10
786.4433751786982
 20
186.9355753731358
 30
0.0
1001
ACAD
1000
DSTYLE
1002
{
1070
   144
1040
1.0
1002
}
  0
MTEXT
  5
25B
330
2
100
AcDbEntity
  8
BEM
100
AcDbMText
 10
789.7546348954546
 20
196.2904130000504
 30
0.0
 40
10.0
 41
0.0
 71
     4
 72
     1
  1
G 1"
 73
     1
 44
1.0
  0
LINE
  5
260
330
2
100
AcDbEntity
  8
BEM
100
AcDbLine
 10
786.4433751786982
 20
186.9355753731358
 30
0.0
 11
815.9695895173673
 21
186.9355753731358
 31
0.0
  0
LINE
  5
261
330
2
100
AcDbEntity
  8
BEM
100
AcDbLine
 10
766.1850834160978
 20
265.2870706448031
 30
0.0
 11
779.9238086691667
 21
265.2870706448031
 31
0.0
  0
LINE
  5
262
330
2
100
AcDbEntity
  8
MITTE
 48
10.0
100
AcDbLine
 10
736.1850834160978
 20
270.9884149718642
 30
0.0
 11
736.1850834160978
 21
250.1879399213548
 31
0.0
  0
ARC
  5
263
330
2
100
AcDbEntity
  8
0
100
AcDbCircle
 10
766.1850834160978
 20
270.2870706448031
 30
0.0
 40
5.0
100
AcDbArc
 50
270.0
 51
0.0
1001
ACAD
1000
ASC_BOUNDS
1002
{
1070
    19
1002
}
  0
LINE
  5
264
330
2
100
AcDbEntity
  8
0
100
AcDbLine
 10
766.1850834160978
 20
265.2870706448031
 30
0.0
 11
735.2982310416887
 21
265.2870706448031
 31
0.0
1001
ACAD
1000
ASC_BOUNDS
1002
{
1070
    19
1002
}
  0
LINE
  5
265
330
2
100
AcDbEntity
  8
LINIE
 48
10.0
100
AcDbLine
 10
752.8095834160978
 20
264.872546099437
 30
0.0
 11
752.8095834160978
 21
254.2870706448031
 31
0.0
1001
ACAD
1000
ASC_BOUNDS
1002
{
1070
    19
1002
}
  0
LINE
  5
266
330
2
100
AcDbEntity
  8
0
100
AcDbLine
 10
751.3305834160978
 20
255.7660706448031
 30
0.0
 11
752.8095834160978
 21
254.2870706448031
 31
0.0
1001
ACAD
1000
ASC_BOUNDS
1002
{
1070
    19
1002
}
  0
LINE
  5
267
330
2
100
AcDbEntity
  8
0
100
AcDbLine
 10
751.3305834160978
 20
264.8682186985997
 30
0.0
 11
751.3305834160977
 21
255.7660706448031
 31
0.0
1001
ACAD
1000
ASC_BOUNDS
1002
{
1070
    19
1002
}
  0
ARC
  5
268
330
2
100
AcDbEntity
  8
0
100
AcDbCircle
 10
754.1850834160977
 20
254.7870706448031
 30
0.0
 40
2.5
100
AcDbArc
 50
348.4630409671843
 51
0.0000000000002036
1001
ACAD
1000
ASC_BOUNDS
1002
{
1070
    19
1002
}
  0
ARC
  5
269
330
2
100
AcDbEntity
  8
0
100
AcDbCircle
 10
759.1850834160977
 20
262.7870706448031
 30
0.0
 40
2.5
100
AcDbArc
 50
90.0
 51
180.0000000000002
1001
ACAD
1000
ASC_BOUNDS
1002
{
1070
    19
1002
}
  0
LINE
  5
26A
330
2
100
AcDbEntity
  8
0
100
AcDbLine
 10
756.6850834160978
 20
262.7870706448031
 30
0.0
 11
756.6850834160978
 21
254.7870706448031
 31
0.0
1001
ACAD
1000
ASC_BOUNDS
1002
{
1070
    19
1002
}
  0
LINE
  5
26B
330
2
100
AcDbEntity
  8
BEM
100
AcDbLine
 10
801.6322096639706
 20
265.2870706448031
 30
0.0
 11
817.2621055604482
 21
265.2870706448031
 31
0.0
  0
LINE
  5
26C
330
2
100
AcDbEntity
  8
0
100
AcDbLine
 10
958.7613263710922
 20
255.5921527043274
 30
0.0
 11
995.1454951593369
 21
267.4324340180685
 31
0.0
  0
LINE
  5
26D
330
2
100
AcDbEntity
  8
0
100
AcDbLine
 10
856.9320866470398
 20
235.2870706448032
 30
0.0
 11
895.9320866470397
 21
235.2870706448032
 31
0.0
1001
ACAD
1000
ASC_BOUNDS
1002
{
1070
    19
1005
0
1002
}
  0
ARC
  5
26E
330
2
100
AcDbEntity
  8
0
100
AcDbCircle
 10
914.4320866470398
 20
325.8434198309069
 30
0.0
 40
63.0
100
AcDbArc
 50
241.420917261304
 51
265.8469596790084
  0
ARC
  5
26F
330
2
100
AcDbEntity
  8
0
100
AcDbCircle
 10
886.6820866470398
 20
258.9370706448033
 30
0.0
 40
23.65000000000001
100
AcDbArc
 50
250.1483977684151
 51
289.8516022315849
  0
LINE
  5
270
330
2
100
AcDbEntity
  8
0
100
AcDbLine
 10
899.9860182837705
 20
254.2870706448022
 30
0.0
 11
891.9825969042568
 21
254.2870706448022
 31
0.0
  0
LINE
  5
271
330
2
100
AcDbEntity
  8
MITTE
 48
7.0
100
AcDbLine
 10
876.4320866470397
 20
232.2293100371968
 30
0.0
 11
876.4320866470397
 21
268.6203448752939
 31
0.0
  0
LINE
  5
272
330
2
100
AcDbEntity
  8
0
100
AcDbLine
 10
855.9320866470399
 20
236.2870706448032
 30
0.0
 11
855.9320866470399
 21
255.2870706448033
 31
0.0
1001
ACAD
1000
ASC_BOUNDS
1002
{
1070
    19
1002
}
  0
LINE
  5
273
330
2
100
AcDbEntity
  8
0
100
AcDbLine
 10
874.2132758491443
 20
236.6924645570344
 30
0.0
 11
874.2132758491443
 21
255.0363772709513
 31
0.0
  0
LINE
  5
274
330
2
100
AcDbEntity
  8
0
100
AcDbLine
 10
878.6508974449352
 20
236.6924645570344
 30
0.0
 11
878.6508974449352
 21
255.0363772709513
 31
0.0
  0
LINE
  5
275
330
2
100
AcDbEntity
  8
0
100
AcDbLine
 10
858.1508974449352
 20
236.6924645570344
 30
0.0
 11
858.1508974449352
 21
255.0363772709513
 31
0.0
  0
ARC
  5
276
330
2
100
AcDbEntity
  8
0
100
AcDbCircle
 10
866.1820866470398
 20
258.9370706448033
 30
0.0
 40
23.65000000000001
100
AcDbArc
 50
250.1483977684142
 51
289.8516022315858
  0
LINE
  5
277
330
2
100
AcDbEntity
  8
0
100
AcDbLine
 10
858.1508974449352
 20
236.6924645570344
 30
0.0
 11
855.9320866470399
 21
236.2870706448032
 31
0.0
  0
LINE
  5
278
330
2
100
AcDbEntity
  8
0
100
AcDbLine
 10
855.9320866470399
 20
236.2870706448032
 30
0.0
 11
856.9320866470398
 21
235.2870706448032
 31
0.0
1001
ACAD
1000
ASC_BOUNDS
1002
{
1070
    19
1002
}
  0
LINE
  5
279
330
2
100
AcDbEntity
  8
0
100
AcDbLine
 10
878.6508974449352
 20
236.6924645570344
 30
0.0
 11
874.2132758491443
 21
236.6924645570344
 31
0.0
  0
ARC
  5
27A
330
2
100
AcDbEntity
  8
0
100
AcDbCircle
 10
855.9320866470399
 20
267.7870706448031
 30
0.0
 40
2.5
100
AcDbArc
 50
180.0
 51
270.0
  0
ARC
  5
27B
330
2
100
AcDbEntity
  8
0
100
AcDbCircle
 10
855.9320866470399
 20
267.7870706448031
 30
0.0
 40
2.5
100
AcDbArc
 50
180.0
 51
270.0
  0
LINE
  5
27C
330
2
100
AcDbEntity
  8
0
100
AcDbLine
 10
891.9320866470398
 20
256.4417711831826
 30
0.0
 11
853.9320866470397
 21
256.4417711831825
 31
0.0
  0
LINE
  5
27D
330
2
100
AcDbEntity
  8
0
100
AcDbLine
 10
873.6653284579141
 20
265.2870706448031
 30
0.0
 11
855.9320866470399
 21
265.2870706448031
 31
0.0
1001
ACAD
1000
ASC_BOUNDS
1002
{
1070
    19
1005
0
1002
}
  0
LINE
  5
27E
330
2
100
AcDbEntity
  8
0
100
AcDbLine
 10
853.9320866470397
 20
265.2870706448031
 30
0.0
 11
873.6653284579141
 21
265.2870706448031
 31
0.0
1001
ACAD
1000
ASC_BOUNDS
1002
{
1070
    19
1002
}
  0
ARC
  5
27F
330
2
100
AcDbEntity
  8
0
100
AcDbCircle
 10
866.1820866470398
 20
232.7917711831826
 30
0.0
 40
23.65000000000001
100
AcDbArc
 50
70.14839776841424
 51
109.8516022315857
  0
LINE
  5
280
330
2
100
AcDbEntity
  8
0
100
AcDbLine
 10
855.9320866470399
 20
255.2870706448033
 30
0.0
 11
858.1508974449352
 21
255.0363772709513
 31
0.0
  0
LINE
  5
281
330
2
100
AcDbEntity
  8
0
100
AcDbLine
 10
853.9320866470397
 20
256.4417711831825
 30
0.0
 11
853.9320866470397
 21
265.2870706448031
 31
0.0
1001
ACAD
1000
ASC_BOUNDS
1002
{
1070
    19
1002
}
  0
LINE
  5
282
330
2
100
AcDbEntity
  8
0
100
AcDbLine
 10
855.9320866470399
 20
255.2870706448033
 30
0.0
 11
853.9320866470397
 21
256.4417711831825
 31
0.0
1001
ACAD
1000
ASC_BOUNDS
1002
{
1070
    19
1002
}
  0
ARC
  5
283
330
2
100
AcDbEntity
  8
0
100
AcDbCircle
 10
894.4320866470398
 20
254.7870706448031
 30
0.0
 40
2.5
100
AcDbArc
 50
180.0
 51
191.5369590328365
  0
ARC
  5
284
330
2
100
AcDbEntity
  8
0
100
AcDbCircle
 10
886.6820866470398
 20
232.7917711831826
 30
0.0
 40
23.65000000000001
100
AcDbArc
 50
77.17421556953945
 51
109.8516022315849
  0
LINE
  5
285
330
2
100
AcDbEntity
  8
0
100
AcDbLine
 10
878.6508974449352
 20
255.0363772709513
 30
0.0
 11
874.2132758491443
 21
255.0363772709513
 31
0.0
  0
LINE
  5
286
330
2
100
AcDbEntity
  8
0
100
AcDbLine
 10
891.9320866470398
 20
256.3973976266078
 30
0.0
 11
891.9320866470398
 21
254.7870706448031
 31
0.0
  0
LINE
  5
287
330
2
100
AcDbEntity
  8
0
100
AcDbLine
 10
853.4320866470398
 20
285.7435445193801
 30
0.0
 11
853.4320866470398
 21
267.7870706448031
 31
0.0
  0
LINE
  5
288
330
2
100
AcDbEntity
  8
0
100
AcDbLine
 10
853.4320866470398
 20
285.7435445193801
 30
0.0
 11
853.4320866470398
 21
267.7870706448031
 31
0.0
  0
LINE
  5
289
330
2
100
AcDbEntity
  8
0
100
AcDbLine
 10
881.2119112365573
 20
272.1988148303644
 30
0.0
 11
884.294694977461
 21
270.5194862817241
 31
0.0
  0
LINE
  5
28A
330
2
100
AcDbEntity
  8
MITTE
 48
7.0
100
AcDbLine
 10
952.4320866470398
 20
232.2293100371968
 30
0.0
 11
952.4320866470398
 21
268.6203448752939
 31
0.0
  0
LINE
  5
28B
330
2
100
AcDbEntity
  8
0
100
AcDbLine
 10
970.7132758491443
 20
236.6924645570344
 30
0.0
 11
970.7132758491443
 21
255.0363772709513
 31
0.0
  0
LINE
  5
28C
330
2
100
AcDbEntity
  8
0
100
AcDbLine
 10
972.9320866470398
 20
236.2870706448032
 30
0.0
 11
972.9320866470398
 21
255.2870706448033
 31
0.0
1001
ACAD
1000
ASC_BOUNDS
1002
{
1070
    19
1002
}
  0
LINE
  5
28D
330
2
100
AcDbEntity
  8
0
100
AcDbLine
 10
950.2132758491443
 20
236.6924645570344
 30
0.0
 11
950.2132758491443
 21
253.5361805561353
 31
0.0
  0
LINE
  5
28E
330
2
100
AcDbEntity
  8
0
100
AcDbLine
 10
954.6508974449352
 20
236.6924645570344
 30
0.0
 11
954.6508974449352
 21
254.4259314554826
 31
0.0
  0
LINE
  5
28F
330
2
100
AcDbEntity
  8
0
100
AcDbLine
 10
896.9320866470397
 20
236.2870706448032
 30
0.0
 11
896.9320866470397
 21
254.2870706448022
 31
0.0
1001
ACAD
1000
ASC_BOUNDS
1002
{
1070
    19
1002
}
  0
LINE
  5
290
330
2
100
AcDbEntity
  8
0
100
AcDbLine
 10
894.7132758491443
 20
236.6924645570344
 30
0.0
 11
894.7132758491443
 21
254.2870706448022
 31
0.0
  0
LINE
  5
291
330
2
100
AcDbEntity
  8
0
100
AcDbLine
 10
931.9320866470398
 20
236.2870706448032
 30
0.0
 11
931.9320866470398
 21
252.8434198309069
 31
0.0
1001
ACAD
1000
ASC_BOUNDS
1002
{
1070
    19
1002
}
  0
LINE
  5
292
330
2
100
AcDbEntity
  8
0
100
AcDbLine
 10
934.1508974449352
 20
236.6924645570344
 30
0.0
 11
934.1508974449352
 21
252.8434198309069
 31
0.0
  0
LINE
  5
293
330
2
100
AcDbEntity
  8
0
100
AcDbLine
 10
932.9320866470398
 20
235.2870706448032
 30
0.0
 11
971.9320866470397
 21
235.2870706448032
 31
0.0
1001
ACAD
1000
ASC_BOUNDS
1002
{
1070
    19
1005
0
1002
}
  0
ARC
  5
294
330
2
100
AcDbEntity
  8
0
100
AcDbCircle
 10
942.1820866470397
 20
258.9370706448033
 30
0.0
 40
23.65000000000001
100
AcDbArc
 50
250.1483977684151
 51
289.8516022315849
  0
LINE
  5
295
330
2
100
AcDbEntity
  8
0
100
AcDbLine
 10
896.9320866470397
 20
236.2870706448032
 30
0.0
 11
895.9320866470397
 21
235.2870706448032
 31
0.0
1001
ACAD
1000
ASC_BOUNDS
1002
{
1070
    19
1002
}
  0
LINE
  5
296
330
2
100
AcDbEntity
  8
0
100
AcDbLine
 10
896.9320866470397
 20
236.2870706448032
 30
0.0
 11
894.7132758491443
 21
236.6924645570344
 31
0.0
  0
LINE
  5
297
330
2
100
AcDbEntity
  8
0
100
AcDbLine
 10
931.9320866470398
 20
236.2870706448032
 30
0.0
 11
932.9320866470398
 21
235.2870706448032
 31
0.0
1001
ACAD
1000
ASC_BOUNDS
1002
{
1070
    19
1002
}
  0
LINE
  5
298
330
2
100
AcDbEntity
  8
0
100
AcDbLine
 10
934.1508974449352
 20
236.6924645570344
 30
0.0
 11
931.9320866470398
 21
236.2870706448032
 31
0.0
  0
ARC
  5
299
330
2
100
AcDbEntity
  8
0
100
AcDbCircle
 10
962.6820866470398
 20
258.9370706448033
 30
0.0
 40
23.65000000000001
100
AcDbArc
 50
250.1483977684151
 51
289.8516022315849
  0
LINE
  5
29A
330
2
100
AcDbEntity
  8
0
100
AcDbLine
 10
954.6508974449352
 20
236.6924645570344
 30
0.0
 11
950.2132758491443
 21
236.6924645570344
 31
0.0
  0
LINE
  5
29B
330
2
100
AcDbEntity
  8
0
100
AcDbLine
 10
972.9320866470398
 20
236.2870706448032
 30
0.0
 11
970.7132758491443
 21
236.6924645570344
 31
0.0
  0
LINE
  5
29C
330
2
100
AcDbEntity
  8
0
100
AcDbLine
 10
972.9320866470398
 20
236.2870706448032
 30
0.0
 11
971.9320866470397
 21
235.2870706448032
 31
0.0
1001
ACAD
1000
ASC_BOUNDS
1002
{
1070
    19
1002
}
  0
LINE
  5
29D
330
2
100
AcDbEntity
  8
0
100
AcDbLine
 10
914.4320866470398
 20
252.8434198309069
 30
0.0
 11
941.4320866470397
 21
252.8434198309069
 31
0.0
  0
LINE
  5
29E
330
2
100
AcDbEntity
  8
0
100
AcDbLine
 10
909.8695779692562
 20
263.0088472250146
 30
0.0
 11
937.9558895592049
 21
260.9694597502272
 31
0.0
  0
ARC
  5
29F
330
2
100
AcDbEntity
  8
0
100
AcDbCircle
 10
941.4320866470397
 20
308.8434198309069
 30
0.0
 40
56.0
100
AcDbArc
 50
270.0
 51
288.0261308132874
  0
LINE
  5
2A0
330
2
100
AcDbEntity
  8
0
100
AcDbLine
 10
974.9320866470398
 20
256.4417711831826
 30
0.0
 11
961.3721310742205
 21
256.4417711831826
 31
0.0
  0
ARC
  5
2A1
330
2
100
AcDbEntity
  8
0
100
AcDbCircle
 10
962.6820866470398
 20
232.7917711831826
 30
0.0
 40
23.65000000000001
100
AcDbArc
 50
70.14839776841511
 51
93.50511215251156
  0
LINE
  5
2A2
330
2
100
AcDbEntity
  8
0
100
AcDbLine
 10
972.9320866470398
 20
255.2870706448033
 30
0.0
 11
970.7132758491443
 21
255.0363772709513
 31
0.0
  0
LINE
  5
2A3
330
2
100
AcDbEntity
  8
0
100
AcDbLine
 10
972.9320866470398
 20
255.2870706448033
 30
0.0
 11
974.9320866470398
 21
256.4417711831826
 31
0.0
1001
ACAD
1000
ASC_BOUNDS
1002
{
1070
    19
1002
}
  0
LINE
  5
2A4
330
2
100
AcDbEntity
  8
0
100
AcDbLine
 10
974.9320866470398
 20
256.4417711831826
 30
0.0
 11
974.9320866470398
 21
260.8545060052541
 31
0.0
1001
ACAD
1000
ASC_BOUNDS
1002
{
1070
    19
1002
}
  0
ARC
  5
2A5
330
2
100
AcDbEntity
  8
0
100
AcDbCircle
 10
991.4320866470397
 20
278.8434198309069
 30
0.0
 40
12.0
100
AcDbArc
 50
288.0261308132874
 51
10.35332004392947
  0
LINE
  5
2A6
330
2
100
AcDbEntity
  8
MITTE
 48
10.0
100
AcDbLine
 10
991.4320866470397
 20
284.8893620737452
 30
0.0
 11
991.4320866470397
 21
273.1462683277801
 31
0.0
  0
ARC
  5
2A7
330
2
100
AcDbEntity
  8
LINIE
 48
10.0
100
AcDbCircle
 10
991.4320866470397
 20
278.8434198309069
 30
0.0
 40
4.0
100
AcDbArc
 50
163.3492982195145
 51
98.85437576424262
  0
CIRCLE
  5
2A8
330
2
100
AcDbEntity
  8
0
100
AcDbCircle
 10
991.4320866470397
 20
278.8434198309069
 30
0.0
 40
3.3235
  0
LINE
  5
2A9
330
2
100
AcDbEntity
  8
MITTE
 48
10.0
100
AcDbLine
 10
986.6951437454812
 20
278.8434198309069
 30
0.0
 11
997.5474071538323
 21
278.8434198309069
 31
0.0
  0
DIMENSION
  5
2AA
330
2
100
AcDbEntity
  8
BEM
100
AcDbDimension
  2
*D23
 10
961.1500486071253
 20
405.6703329534956
 30
0.0
 11
913.4542477090874
 21
417.9929072570145
 31
0.0
 70
   163
 71
     5
 42
11.5
  3
ISO-25
100
AcDbDiametricDimension
 15
950.0156494607976
 25
408.5469899803683
 35
0.0
 40
0.0
1001
ACAD
1000
DSTYLE
1002
{
1070
   144
1040
1.0
1070
   289
1070
     0
1002
}
  0
DIMENSION
  5
2B6
330
2
100
AcDbEntity
  8
BEM
100
AcDbDimension
  2
*D24
 10
881.2852885780676
 20
335.2870706448031
 30
0.0
 11
881.2852885780676
 21
345.5652452378552
 31
0.0
 70
   160
  1
20.5
 71
     5
 42
20.55634918610383
  3
ISO-25
100
AcDbAlignedDimension
 13
908.5323918815124
 23
355.8434198309069
 33
0.0
 14
939.3298119012975
 24
335.287070644803
 34
0.0
 50
90.0
100
AcDbRotatedDimension
1001
ACAD
1000
DSTYLE
1002
{
1070
   144
1040
1.0
1070
   289
1070
     0
1002
}
  0
LINE
  5
2C5
330
2
100
AcDbEntity
  8
MITTE
 48
15.0
100
AcDbLine
 10
586.442854956581
 20
335.287070644803
 30
0.0
 11
775.5710983177736
 21
335.287070644803
 31
0.0
  0
LINE
  5
2C6
330
2
100
AcDbEntity
  8
0
100
AcDbLine
 10
625.7535859335763
 20
396.2870706448029
 30
0.0
 11
766.1850834160978
 21
396.2870706448031
 31
0.0
1001
ACAD
1000
ASC_BOUNDS
1002
{
1070
    19
1002
}
  0
LINE
  5
2C7
330
2
100
AcDbEntity
  8
0
100
AcDbLine
 10
599.1850834160977
 20
401.2870706448032
 30
0.0
 11
599.1850834160978
 21
385.287070644803
 31
0.0
1001
ACAD
1000
ASC_BOUNDS
1002
{
1070
    19
1005
0
1005
0
1002
}
  0
ARC
  5
2C8
330
2
100
AcDbEntity
  8
0
100
AcDbCircle
 10
615.5248293782534
 20
330.2870706448032
 30
0.0
 40
10.0
100
AcDbArc
 50
48.59037789072889
 51
90.0
  0
LINE
  5
2C9
330
2
100
AcDbEntity
  8
MITTE
 48
10.0
100
AcDbLine
 10
583.6452423619171
 20
335.287070644803
 30
0.0
 11
573.8833833873347
 21
335.287070644803
 31
0.0
  0
LINE
  5
2CA
330
2
100
AcDbEntity
  8
0
100
AcDbLine
 10
599.1850834160978
 20
340.2870706448032
 30
0.0
 11
615.5248293782533
 21
340.2870706448032
 31
0.0
  0
ARC
  5
2CB
330
2
100
AcDbEntity
  8
0
100
AcDbCircle
 10
701.6850834160979
 20
332.3543927661598
 30
0.0
 40
2.5
100
AcDbArc
 50
90.0
 51
180.0
1001
ACAD
1000
ASC_BOUNDS
1002
{
1070
    19
1002
}
  0
LINE
  5
2CC
330
2
100
AcDbEntity
  8
LINIE
 48
10.0
100
AcDbLine
 10
600.5581042076349
 20
396.2870706448031
 30
0.0
 11
623.5131396342516
 21
396.2870706448031
 31
0.0
  0
LINE
  5
2CD
330
2
100
AcDbEntity
  8
LINIE
 48
10.0
100
AcDbLine
 10
618.7302638645022
 20
396.2870706448029
 30
0.0
 11
600.5983307444664
 21
396.2870706448029
 31
0.0
  0
LINE
  5
2CE
330
2
100
AcDbEntity
  8
0
100
AcDbLine
 10
599.1850834160978
 20
401.2870706448035
 30
0.0
 11
612.5248293782533
 21
401.2870706448031
 31
0.0
1001
ACAD
1000
ASC_BOUNDS
1002
{
1070
    19
1002
}
  0
LINE
  5
2CF
330
2
100
AcDbEntity
  8
0
100
AcDbLine
 10
566.2850834160979
 20
411.843419830907
 30
0.0
 11
599.1850834160979
 21
411.8434198309069
 31
0.0
1001
ACAD
1000
ASC_BOUNDS
1002
{
1070
    19
1002
}
  0
ARC
  5
2D0
330
2
100
AcDbEntity
  8
0
100
AcDbCircle
 10
564.2850834160979
 20
413.3434198309069
 30
0.0
 40
2.5
100
AcDbArc
 50
270.0
 51
323.1301023541557
1001
ACAD
1000
ASC_BOUNDS
1002
{
1070
    19
1002
}
  0
ARC
  5
2D1
330
2
100
AcDbEntity
  8
0
100
AcDbCircle
 10
612.5248293782533
 20
391.287070644803
 30
0.0
 40
10.0
100
AcDbArc
 50
48.59037789072889
 51
90.0
1001
ACAD
1000
ASC_BOUNDS
1002
{
1070
    19
1002
}
  0
ARC
  5
2D2
330
2
100
AcDbEntity
  8
0
100
AcDbCircle
 10
625.7535859335763
 20
406.2870706448029
 30
0.0
 40
10.0
100
AcDbArc
 50
228.5903778907289
 51
270.0
1001
ACAD
1000
ASC_BOUNDS
1002
{
1070
    19
1002
}
  0
ARC
  5
2D3
330
2
100
AcDbEntity
  8
0
100
AcDbCircle
 10
766.1850834160978
 20
391.287070644803
 30
0.0
 40
5.0
100
AcDbArc
 50
0.0
 51
90.0
1001
ACAD
1000
ASC_BOUNDS
1002
{
1070
    19
1002
}
  0
DIMENSION
  5
2D4
330
2
100
AcDbEntity
  8
BEM
100
AcDbDimension
  2
*D25
 10
941.0476703368923
 20
325.4040590625166
 30
0.0
 11
1034.548793513383
 21
368.6578013062796
 31
0.0
 70
   163
 71
     5
 42
144.9999999999997
  3
ISO-25
100
AcDbDiametricDimension
 15
1072.648511003079
 25
386.2827805992968
 35
0.0
 40
0.0
1001
ACAD
1000
DSTYLE
1002
{
1070
   144
1040
1.0
1070
   289
1070
     0
1002
}
  0
ARC
  5
2DE
330
2
100
AcDbEntity
  8
MITTE
 48
15.0
100
AcDbCircle
 10
914.4320866470398
 20
355.8434198309069
 30
0.0
 40
72.5
100
AcDbArc
 50
13.38326018538495
 51
53.40688101119454
  0
LINE
  5
2DF
330
2
100
AcDbEntity
  8
MITTE
 48
10.0
100
AcDbLine
 10
983.4585894008965
 20
335.287070644803
 30
0.0
 11
846.9138078783512
 21
335.287070644803
 31
0.0
  0
LINE
  5
2E0
330
2
100
AcDbEntity
  8
MITTE
 48
20.0
100
AcDbLine
 10
816.1163878585663
 20
355.8434198309069
 30
0.0
 11
1012.909664695469
 21
355.8434198309069
 31
0.0
  0
ARC
  5
2E1
330
2
100
AcDbEntity
  8
MITTE
 48
15.0
100
AcDbCircle
 10
914.4320866470398
 20
355.8434198309069
 30
0.0
 40
72.5
100
AcDbArc
 50
187.4328260304643
 51
233.5117163400941
  0
LINE
  5
2E2
330
2
100
AcDbEntity
  8
MITTE
 48
10.0
100
AcDbLine
 10
869.6457642083553
 20
311.0570973922218
 30
0.0
 11
856.7675846912678
 21
298.1789178751341
 31
0.0
  0
CIRCLE
  5
2E3
330
2
100
AcDbEntity
  8
0
100
AcDbCircle
 10
863.1668450110151
 20
304.5781781948822
 30
0.0
 40
5.75
  0
ARC
  5
2E4
330
2
100
AcDbEntity
  8
MITTE
 48
15.0
100
AcDbCircle
 10
914.4320866470398
 20
355.8434198309069
 30
0.0
 40
72.5
100
AcDbArc
 50
306.5931189888055
 51
324.1811683713759
  0
LINE
  5
2E5
330
2
100
AcDbEntity
  8
MITTE
 48
10.0
100
AcDbLine
 10
959.3237743970531
 20
310.9517320808944
 30
0.0
 11
973.3074971935703
 21
296.9680092843771
 31
0.0
  0
CIRCLE
  5
2E6
330
2
100
AcDbEntity
  8
0
100
AcDbCircle
 10
965.6973282830644
 20
304.5781781948822
 30
0.0
 40
5.75
  0
LINE
  5
2E7
330
2
100
AcDbEntity
  8
MITTE
 48
10.0
100
AcDbLine
 10
869.6457642083553
 20
400.629742269592
 30
0.0
 11
856.7675846912678
 21
413.5079217866797
 31
0.0
  0
ARC
  5
2E8
330
2
100
AcDbEntity
  8
MITTE
 48
15.0
100
AcDbCircle
 10
914.4320866470398
 20
355.8434198309069
 30
0.0
 40
72.5
100
AcDbArc
 50
126.4882836599058
 51
143.57665577438
  0
CIRCLE
  5
2E9
330
2
100
AcDbEntity
  8
0
100
AcDbCircle
 10
863.1668450110151
 20
407.1086614669316
 30
0.0
 40
5.75
  0
LINE
  5
2EA
330
2
100
AcDbEntity
  8
MITTE
 48
10.0
100
AcDbLine
 10
959.3237743970531
 20
400.7351075809193
 30
0.0
 11
973.3074971935703
 21
414.7188303774367
 31
0.0
  0
CIRCLE
  5
2EB
330
2
100
AcDbEntity
  8
0
100
AcDbCircle
 10
965.6973282830644
 20
407.1086614669316
 30
0.0
 40
5.75
  0
MTEXT
  5
8CE
330
2
100
AcDbEntity
  8
BEM
100
AcDbMText
 10
83.64262692510123
 20
141.4227176491403
 30
0.0
 40
10.0
 41
161.8643881791417
 71
     1
 72
     5
  1
Zuluft\Pair inlet\PBrachement de l'air\PAria in entrata
 73
     1
 44
1.0
  0
MTEXT
  5
8CF
330
2
100
AcDbEntity
  8
BEM
100
AcDbMText
 10
779.2480555849865
 20
178.3295060957138
 30
0.0
 40
10.0
 41
161.8643881791417
 71
     1
 72
     5
  1
Abluft\Pexhaust air\PSortie de l'air\PAria in uscita
 73
     1
 44
1.0
  0
ENDSEC
  0
SECTION
  2
OBJECTS
  0
DICTIONARY
  5
1B
330
0
100
AcDbDictionary
281
     1
  3
ACAD_COLOR
350
34A
  3
ACAD_GROUP
350
19
  3
ACAD_LAYOUT
350
34D
  3
ACAD_MATERIAL
350
349
  3
ACAD_MLEADERSTYLE
350
4AD
  3
ACAD_MLINESTYLE
350
1A
  3
ACAD_PLOTSETTINGS
350
34E
  3
ACAD_PLOTSTYLENAME
350
347
  3
ACAD_SCALELIST
350
48B
  3
ACAD_TABLESTYLE
350
34B
  3
ACAD_VISUALSTYLE
350
47A
  3
ACDB_RECOMPOSE_DATA
350
4EE
  3
ACDBVARIABLEDICTIONARY
350
30E
  3
ACMDICTIONARY
350
2EC
  3
AMG
350
357
  3
AMGSNAPSETTINGS
350
458
  3
ASE_INDEX_DICTIONARY
350
89C
  0
DICTIONARY
  5
4D5
330
5
100
AcDbDictionary
280
     1
281
     1
  3
ADSK_XREC_LAYER_RECONCILED
360
4D6
  0
DICTIONARY
  5
4D7
330
20
100
AcDbDictionary
280
     1
281
     1
  3
ADSK_XREC_LAYER_RECONCILED
360
4D8
  0
DICTIONARY
  5
4D9
330
4A
100
AcDbDictionary
280
     1
281
     1
  3
ADSK_XREC_LAYER_RECONCILED
360
4DA
  0
DICTIONARY
  5
4DB
330
87
100
AcDbDictionary
280
     1
281
     1
  3
ADSK_XREC_LAYER_RECONCILED
360
4DC
  0
DICTIONARY
  5
3
330
2
100
AcDbDictionary
280
     1
281
     1
  3
ACAD_SORTENTS
360
8E7
  0
DICTIONARY
  5
91B
330
888
100
AcDbDictionary
280
     1
281
     1
  3
ACAD_MTEXT_2008_RT
360
91C
  0
DICTIONARY
  5
91D
330
899
100
AcDbDictionary
280
     1
281
     1
  3
ACAD_MTEXT_2008_RT
360
91E
  0
DICTIONARY
  5
34A
102
{ACAD_REACTORS
330
1B
102
}
330
1B
100
AcDbDictionary
281
     1
  0
DICTIONARY
  5
19
102
{ACAD_REACTORS
330
1B
102
}
330
1B
100
AcDbDictionary
281
     1
  0
DICTIONARY
  5
34D
102
{ACAD_REACTORS
330
1B
102
}
330
1B
100
AcDbDictionary
281
     1
  3
Layout1
350
350
  3
Model
350
34F
  0
DICTIONARY
  5
349
102
{ACAD_REACTORS
330
1B
102
}
330
1B
100
AcDbDictionary
281
     1
  3
ByBlock
350
46A
  3
ByLayer
350
462
  3
Global
350
472
  0
DICTIONARY
  5
4AD
102
{ACAD_REACTORS
330
1B
102
}
330
1B
100
AcDbDictionary
281
     1
  3
Standard
350
4AE
  0
DICTIONARY
  5
1A
102
{ACAD_REACTORS
330
1B
102
}
330
1B
100
AcDbDictionary
281
     1
  3
STANDARD
350
1C
  0
DICTIONARY
  5
34E
102
{ACAD_REACTORS
330
1B
102
}
330
1B
100
AcDbDictionary
281
     1
  0
ACDBDICTIONARYWDFLT
  5
347
102
{ACAD_REACTORS
330
1B
102
}
330
1B
100
AcDbDictionary
281
     1
  3
Normal
350
348
100
AcDbDictionaryWithDefault
340
348
  0
DICTIONARY
  5
48B
102
{ACAD_REACTORS
330
1B
102
}
330
1B
100
AcDbDictionary
281
     1
  3
A0
350
48C
  3
A1
350
48D
  3
A2
350
48E
  3
A3
350
48F
  3
A4
350
490
  3
A5
350
491
  3
A6
350
492
  3
A7
350
493
  3
A8
350
494
  3
A9
350
495
  3
B0
350
496
  3
B1
350
497
  3
B2
350
498
  3
B3
350
499
  3
B4
350
49A
  3
B5
350
49B
  3
B6
350
49C
  3
B7
350
49D
  3
B8
350
49E
  3
B9
350
49F
  3
C0
350
4A0
  3
C1
350
4A1
  3
C2
350
4A2
  3
C3
350
4A3
  3
C4
350
4A4
  3
C5
350
4A5
  3
C6
350
4A6
  3
C7
350
4A7
  3
C8
350
4A8
  3
C9
350
4A9
  3
D0
350
4AA
  3
D1
350
4AB
  3
D2
350
4AC
  0
DICTIONARY
  5
34B
102
{ACAD_REACTORS
330
1B
102
}
330
1B
100
AcDbDictionary
281
     1
  3
Standard
350
34C
  0
DICTIONARY
  5
47A
102
{ACAD_REACTORS
330
1B
102
}
330
1B
100
AcDbDictionary
281
     1
  3
2dWireframe
350
480
  3
3D Hidden
350
482
  3
3dWireframe
350
481
  3
Basic
350
47F
  3
Brighten
350
486
  3
ColorChange
350
48A
  3
Conceptual
350
483
  3
Dim
350
485
  3
Facepattern
350
489
  3
Flat
350
47B
  3
FlatWithEdges
350
47C
  3
Gouraud
350
47D
  3
GouraudWithEdges
350
47E
  3
Linepattern
350
488
  3
Realistic
350
484
  3
Thicken
350
487
  0
XRECORD
  5
4EE
102
{ACAD_REACTORS
330
1B
102
}
330
1B
100
AcDbXrecord
280
     1
 90
        1
330
34C
  0
DICTIONARY
  5
30E
102
{ACAD_REACTORS
330
1B
102
}
330
1B
100
AcDbDictionary
281
     1
  3
CANNOSCALE
350
4F1
  3
CMLEADERSTYLE
350
4EF
  3
CTABLESTYLE
350
460
  3
INDEXCTL
350
30F
  3
LIGHTINGUNITS
350
4F2
  3
MSLTSCALE
350
4F0
  0
DICTIONARY
  5
2EC
102
{ACAD_REACTORS
330
1B
102
}
330
1B
100
AcDbDictionary
280
     1
281
     1
  3
ACMSTDDICTIONARY
360
2ED
  3
AMDTSECTSYM_ARROWCOLOR
360
3C1
  0
DICTIONARY
  5
357
102
{ACAD_REACTORS
330
1B
102
}
330
1B
100
AcDbDictionary
281
     1
  0
DICTIONARY
  5
458
102
{ACAD_REACTORS
330
1B
102
}
330
1B
100
AcDbDictionary
281
     1
  0
DICTIONARY
  5
89C
102
{ACAD_REACTORS
330
1B
102
}
330
1B
100
AcDbDictionary
281
     1
  3
ASEBlockHierarchyIndexRecord
350
89D
1001
DCO15
1040
1724065281.65
  0
XRECORD
  5
4D6
102
{ACAD_REACTORS
330
4D5
102
}
330
4D5
100
AcDbXrecord
280
     1
290
     1
  0
XRECORD
  5
4D8
102
{ACAD_REACTORS
330
4D7
102
}
330
4D7
100
AcDbXrecord
280
     1
290
     1
  0
XRECORD
  5
4DA
102
{ACAD_REACTORS
330
4D9
102
}
330
4D9
100
AcDbXrecord
280
     1
290
     1
  0
XRECORD
  5
4DC
102
{ACAD_REACTORS
330
4DB
102
}
330
4DB
100
AcDbXrecord
280
     1
290
     1
  0
SORTENTSTABLE
  5
8E7
102
{ACAD_REACTORS
330
3
102
}
330
3
100
AcDbSortentsTable
330
2
331
2D4
  5
2D4
331
12A
  5
12A
331
2E4
  5
2E4
331
1E
  5
1E
331
85
  5
85
331
EB
  5
EB
331
1B8
  5
1B8
331
295
  5
295
331
1C0
  5
1C0
331
F3
  5
F3
331
132
  5
132
331
AC
  5
AC
331
256
  5
256
331
29D
  5
29D
331
1C8
  5
1C8
331
227
  5
227
331
FB
  5
FB
331
13A
  5
13A
331
189
  5
189
331
266
  5
266
331
2A5
  5
2A5
331
1D0
  5
1D0
331
C4
  5
C4
331
142
  5
142
331
22F
  5
22F
331
237
  5
237
331
26E
  5
26E
331
8D
  5
8D
331
95
  5
95
331
2E
  5
2E
331
14A
  5
14A
331
1A1
  5
1A1
331
4E
  5
4E
331
CC
  5
CC
331
113
  5
113
331
23F
  5
23F
331
152
  5
152
331
D4
  5
D4
331
1A9
  5
1A9
331
276
  5
276
331
2C5
  5
2C5
331
1B1
  5
1B1
331
123
  5
123
331
247
  5
247
331
DC
  5
DC
331
27E
  5
27E
331
E4
  5
E4
331
24F
  5
24F
331
286
  5
286
331
2CD
  5
2CD
331
28E
  5
28E
331
1B9
  5
1B9
331
EC
  5
EC
331
86
  5
86
331
2E5
  5
2E5
331
12B
  5
12B
331
1F
  5
1F
331
210
  5
210
331
257
  5
257
331
1C1
  5
1C1
331
296
  5
296
331
F4
  5
F4
331
133
  5
133
331
AD
  5
AD
331
228
  5
228
331
13B
  5
13B
331
18A
  5
18A
331
FC
  5
FC
331
1C9
  5
1C9
331
29E
  5
29E
331
2A6
  5
2A6
331
1D1
  5
1D1
331
230
  5
230
331
143
  5
143
331
C5
  5
C5
331
19A
  5
19A
331
267
  5
267
331
26F
  5
26F
331
8E
  5
8E
331
2F
  5
2F
331
96
  5
96
331
238
  5
238
331
114
  5
114
331
14B
  5
14B
331
CD
  5
CD
331
1A2
  5
1A2
331
277
  5
277
331
2B6
  5
2B6
331
1AA
  5
1AA
331
D5
  5
D5
331
11C
  5
11C
331
153
  5
153
331
240
  5
240
331
248
  5
248
331
27F
  5
27F
331
1B2
  5
1B2
331
2C6
  5
2C6
331
DD
  5
DD
331
124
  5
124
331
2CE
  5
2CE
331
209
  5
209
331
E5
  5
E5
331
287
  5
287
331
28F
  5
28F
331
2DE
  5
2DE
331
211
  5
211
331
250
  5
250
331
12C
  5
12C
331
2E6
  5
2E6
331
A6
  5
A6
331
ED
  5
ED
331
1BA
  5
1BA
331
297
  5
297
331
1C2
  5
1C2
331
F5
  5
F5
331
134
  5
134
331
AE
  5
AE
331
258
  5
258
331
260
  5
260
331
29F
  5
29F
331
1CA
  5
1CA
331
FD
  5
FD
331
13C
  5
13C
331
229
  5
229
331
268
  5
268
331
2A7
  5
2A7
331
19B
  5
19B
331
1D2
  5
1D2
331
C6
  5
C6
331
144
  5
144
331
231
  5
231
331
8F
  5
8F
331
239
  5
239
331
270
  5
270
331
14C
  5
14C
331
1A3
  5
1A3
331
CE
  5
CE
331
115
  5
115
331
1E2
  5
1E2
331
241
  5
241
331
11D
  5
11D
331
D6
  5
D6
331
1AB
  5
1AB
331
278
  5
278
331
280
  5
280
331
2C7
  5
2C7
331
125
  5
125
331
DE
  5
DE
331
249
  5
249
331
288
  5
288
331
E6
  5
E6
331
20A
  5
20A
331
2CF
  5
2CF
331
78
  5
78
331
2DF
  5
2DF
331
251
  5
251
331
290
  5
290
331
1BB
  5
1BB
331
EE
  5
EE
331
12D
  5
12D
331
2E7
  5
2E7
331
A7
  5
A7
331
212
  5
212
331
259
  5
259
331
1C3
  5
1C3
331
298
  5
298
331
AF
  5
AF
331
F6
  5
F6
331
135
  5
135
331
22A
  5
22A
331
261
  5
261
331
13D
  5
13D
331
18C
  5
18C
331
FE
  5
FE
331
1CB
  5
1CB
331
2A0
  5
2A0
331
2A8
  5
2A8
331
1D3
  5
1D3
331
232
  5
232
331
145
  5
145
331
C7
  5
C7
331
19C
  5
19C
331
269
  5
269
331
88
  5
88
331
90
  5
90
331
271
  5
271
331
1A4
  5
1A4
331
116
  5
116
331
14D
  5
14D
331
23A
  5
23A
331
CF
  5
CF
331
279
  5
279
331
1AC
  5
1AC
331
D7
  5
D7
331
11E
  5
11E
331
242
  5
242
331
2C8
  5
2C8
331
24A
  5
24A
331
281
  5
281
331
126
  5
126
331
DF
  5
DF
331
1B4
  5
1B4
331
20B
  5
20B
331
E7
  5
E7
331
289
  5
289
331
8CE
  5
8CE
331
2D0
  5
2D0
331
2E0
  5
2E0
331
291
  5
291
331
213
  5
213
331
252
  5
252
331
12E
  5
12E
331
2E8
  5
2E8
331
A8
  5
A8
331
EF
  5
EF
331
1BC
  5
1BC
331
299
  5
299
331
1C4
  5
1C4
331
F7
  5
F7
331
136
  5
136
331
B0
  5
B0
331
223
  5
223
331
25A
  5
25A
331
262
  5
262
331
2A1
  5
2A1
331
1CC
  5
1CC
331
FF
  5
FF
331
13E
  5
13E
331
22B
  5
22B
331
233
  5
233
331
19D
  5
19D
331
26A
  5
26A
331
2A9
  5
2A9
331
146
  5
146
331
89
  5
89
331
91
  5
91
331
99
  5
99
331
C8
  5
C8
331
23B
  5
23B
331
14E
  5
14E
331
1A5
  5
1A5
331
272
  5
272
331
D0
  5
D0
331
117
  5
117
331
243
  5
243
331
11F
  5
11F
331
D8
  5
D8
331
1AD
  5
1AD
331
27A
  5
27A
331
282
  5
282
331
2C9
  5
2C9
331
1B5
  5
1B5
331
1FC
  5
1FC
331
127
  5
127
331
E0
  5
E0
331
24B
  5
24B
331
28A
  5
28A
331
20C
  5
20C
331
8CF
  5
8CF
331
2D1
  5
2D1
331
6A
  5
6A
331
E8
  5
E8
331
2E1
  5
2E1
331
253
  5
253
331
292
  5
292
331
17E
  5
17E
331
1BD
  5
1BD
331
F0
  5
F0
331
12F
  5
12F
331
2E9
  5
2E9
331
A9
  5
A9
331
214
  5
214
331
224
  5
224
331
25B
  5
25B
331
137
  5
137
331
B1
  5
B1
331
F8
  5
F8
331
1C5
  5
1C5
331
29A
  5
29A
331
2A2
  5
2A2
331
22C
  5
22C
331
263
  5
263
331
13F
  5
13F
331
C1
  5
C1
331
100
  5
100
331
1CD
  5
1CD
331
2AA
  5
2AA
331
234
  5
234
331
147
  5
147
331
19E
  5
19E
331
26B
  5
26B
331
8A
  5
8A
331
92
  5
92
331
110
  5
110
331
C9
  5
C9
331
273
  5
273
331
1A6
  5
1A6
331
D1
  5
D1
331
118
  5
118
331
14F
  5
14F
331
23C
  5
23C
331
244
  5
244
331
1AE
  5
1AE
331
27B
  5
27B
331
D9
  5
D9
331
120
  5
120
331
2CA
  5
2CA
331
24C
  5
24C
331
283
  5
283
331
E1
  5
E1
331
1B6
  5
1B6
331
20D
  5
20D
331
28B
  5
28B
331
5B
  5
5B
331
2D2
  5
2D2
331
128
  5
128
331
2E2
  5
2E2
331
E9
  5
E9
331
293
  5
293
331
1BE
  5
1BE
331
130
  5
130
331
215
  5
215
331
254
  5
254
331
2EA
  5
2EA
331
AA
  5
AA
331
F1
  5
F1
331
29B
  5
29B
331
1C6
  5
1C6
331
225
  5
225
331
F9
  5
F9
331
138
  5
138
331
B2
  5
B2
331
187
  5
187
331
264
  5
264
331
2A3
  5
2A3
331
1CE
  5
1CE
331
C2
  5
C2
331
101
  5
101
331
140
  5
140
331
22D
  5
22D
331
235
  5
235
331
19F
  5
19F
331
26C
  5
26C
331
8B
  5
8B
331
93
  5
93
331
3C
  5
3C
331
148
  5
148
331
CA
  5
CA
331
111
  5
111
331
23D
  5
23D
331
150
  5
150
331
1A7
  5
1A7
331
274
  5
274
331
D2
  5
D2
331
119
  5
119
331
245
  5
245
331
121
  5
121
331
DA
  5
DA
331
1AF
  5
1AF
331
27C
  5
27C
331
24D
  5
24D
331
284
  5
284
331
1B7
  5
1B7
331
E2
  5
E2
331
170
  5
170
331
2CB
  5
2CB
331
28C
  5
28C
331
20E
  5
20E
331
2D3
  5
2D3
331
EA
  5
EA
331
2E3
  5
2E3
331
129
  5
129
331
255
  5
255
331
294
  5
294
331
1BF
  5
1BF
331
F2
  5
F2
331
131
  5
131
331
2EB
  5
2EB
331
AB
  5
AB
331
216
  5
216
331
226
  5
226
331
139
  5
139
331
188
  5
188
331
FA
  5
FA
331
1C7
  5
1C7
331
29C
  5
29C
331
2A4
  5
2A4
331
1CF
  5
1CF
331
141
  5
141
331
22E
  5
22E
331
C3
  5
C3
331
265
  5
265
331
236
  5
236
331
26D
  5
26D
331
8C
  5
8C
331
94
  5
94
331
112
  5
112
331
149
  5
149
331
CB
  5
CB
331
275
  5
275
331
1A8
  5
1A8
331
D3
  5
D3
331
11A
  5
11A
331
151
  5
151
331
23E
  5
23E
331
246
  5
246
331
27D
  5
27D
331
161
  5
161
331
1B0
  5
1B0
331
1EF
  5
1EF
331
DB
  5
DB
331
122
  5
122
331
2CC
  5
2CC
331
E3
  5
E3
331
24E
  5
24E
331
285
  5
285
331
20F
  5
20F
331
28D
  5
28D
  0
XRECORD
  5
91C
102
{ACAD_REACTORS
330
91B
102
}
330
91B
100
AcDbXrecord
280
     1
 40
6453.0
  1
\A1;\U+220511.5
  0
XRECORD
  5
91E
102
{ACAD_REACTORS
330
91D
102
}
330
91D
100
AcDbXrecord
280
     1
 40
5795.0
  1
\A1;\U+2205145
  0
LAYOUT
  5
350
102
{ACAD_REACTORS
330
34D
102
}
330
34D
100
AcDbPlotSettings
  1

  2
Basyouni CAD 1
  4

  6

 40
0.0
 41
0.0
 42
0.0
 43
0.0
 44
0.0
 45
0.0
 46
0.0
 47
0.0
 48
0.0
 49
0.0
140
0.0
141
0.0
142
1.0
143
1.0
 70
   688
 72
     0
 73
     0
 74
     5
  7

 75
    16
147
1.0
 76
     0
 77
     2
 78
   300
148
0.0
149
0.0
100
AcDbLayout
  1
Layout1
 70
     0
 71
     1
 10
0.0
 20
0.0
 11
420.0
 21
297.0
 12
0.0
 22
0.0
 32
0.0
 14
1.000000000000000E+20
 24
1.000000000000000E+20
 34
1.000000000000000E+20
 15
-1.000000000000000E+20
 25
-1.000000000000000E+20
 35
-1.000000000000000E+20
146
0.0
 13
0.0
 23
0.0
 33
0.0
 16
1.0
 26
0.0
 36
0.0
 17
0.0
 27
1.0
 37
0.0
 76
     0
330
8
  0
LAYOUT
  5
34F
102
{ACAD_REACTORS
330
34D
102
}
330
34D
100
AcDbPlotSettings
  1

  2
Konstruktion
  4
A4
  6

 40
7.143749713897705
 41
7.186082363128662
 42
7.059066772460937
 43
5.027069091796875
 44
209.9733276367187
 45
296.9683227539062
 46
27.64663771583294
 47
0.0
 48
0.0
 49
0.0
140
0.0
141
0.0
142
1.0
143
3.800040595696396
 70
  3764
 72
     1
 73
     1
 74
     1
  7
Zeich.ctb
 75
     0
147
0.2631550834305599
 76
     0
 77
     2
 78
   300
148
108.1212774604623
149
-42.7055373935791
100
AcDbLayout
  1
Model
 70
     1
 71
     0
 10
0.0
 20
0.0
 11
12.0
 21
9.0
 12
0.0
 22
0.0
 32
0.0
 14
0.0
 24
0.0
 34
0.0
 15
0.0
 25
0.0
 35
0.0
146
0.0
 13
0.0
 23
0.0
 33
0.0
 16
1.0
 26
0.0
 36
0.0
 17
0.0
 27
1.0
 37
0.0
 76
     0
330
2
331
45F
1001
ACAD_PSEXT
1000
Konstruktion
1000
Kyocera FS-1030D
1000
IP_192.168.10.181
1000

1070
     0
  0
MATERIAL
  5
46A
102
{ACAD_XDICTIONARY
360
46B
102
}
102
{ACAD_REACTORS
330
349
102
}
330
349
100
AcDbMaterial
  1
ByBlock
 72
     0
 43
0.0208333333333333
 43
0.0
 43
0.0
 43
0.0
 43
0.0
 43
0.0208333333333333
 43
0.0
 43
0.0
 43
0.0
 43
0.0
 43
1.0
 43
0.0
 43
0.0
 43
0.0
 43
0.0
 43
1.0
 77
     0
 47
0.0208333333333333
 47
0.0
 47
0.0
 47
0.0
 47
0.0
 47
0.0208333333333333
 47
0.0
 47
0.0
 47
0.0
 47
0.0
 47
1.0
 47
0.0
 47
0.0
 47
0.0
 47
0.0
 47
1.0
171
     0
 49
0.0208333333333333
 49
0.0
 49
0.0
 49
0.0
 49
0.0
 49
0.0208333333333333
 49
0.0
 49
0.0
 49
0.0
 49
0.0
 49
1.0
 49
0.0
 49
0.0
 49
0.0
 49
0.0
 49
1.0
175
     0
142
0.0208333333333333
142
0.0
142
0.0
142
0.0
142
0.0
142
0.0208333333333333
142
0.0
142
0.0
142
0.0
142
0.0
142
1.0
142
0.0
142
0.0
142
0.0
142
0.0
142
1.0
179
     0
144
0.0208333333333333
144
0.0
144
0.0
144
0.0
144
0.0
144
0.0208333333333333
144
0.0
144
0.0
144
0.0
144
0.0
144
1.0
144
0.0
144
0.0
144
0.0
144
0.0
144
1.0
147
0.0208333333333333
147
0.0
147
0.0
147
0.0
147
0.0
147
0.0208333333333333
147
0.0
147
0.0
147
0.0
147
0.0
147
1.0
147
0.0
147
0.0
147
0.0
147
0.0
147
1.0
  0
MATERIAL
  5
462
102
{ACAD_XDICTIONARY
360
463
102
}
102
{ACAD_REACTORS
330
349
102
}
330
349
100
AcDbMaterial
  1
ByLayer
 72
     0
 43
0.0208333333333333
 43
0.0
 43
0.0
 43
0.0
 43
0.0
 43
0.0208333333333333
 43
0.0
 43
0.0
 43
0.0
 43
0.0
 43
1.0
 43
0.0
 43
0.0
 43
0.0
 43
0.0
 43
1.0
 77
     0
 47
0.0208333333333333
 47
0.0
 47
0.0
 47
0.0
 47
0.0
 47
0.0208333333333333
 47
0.0
 47
0.0
 47
0.0
 47
0.0
 47
1.0
 47
0.0
 47
0.0
 47
0.0
 47
0.0
 47
1.0
171
     0
 49
0.0208333333333333
 49
0.0
 49
0.0
 49
0.0
 49
0.0
 49
0.0208333333333333
 49
0.0
 49
0.0
 49
0.0
 49
0.0
 49
1.0
 49
0.0
 49
0.0
 49
0.0
 49
0.0
 49
1.0
175
     0
142
0.0208333333333333
142
0.0
142
0.0
142
0.0
142
0.0
142
0.0208333333333333
142
0.0
142
0.0
142
0.0
142
0.0
142
1.0
142
0.0
142
0.0
142
0.0
142
0.0
142
1.0
179
     0
144
0.0208333333333333
144
0.0
144
0.0
144
0.0
144
0.0
144
0.0208333333333333
144
0.0
144
0.0
144
0.0
144
0.0
144
1.0
144
0.0
144
0.0
144
0.0
144
0.0
144
1.0
147
0.0208333333333333
147
0.0
147
0.0
147
0.0
147
0.0
147
0.0208333333333333
147
0.0
147
0.0
147
0.0
147
0.0
147
1.0
147
0.0
147
0.0
147
0.0
147
0.0
147
1.0
  0
MATERIAL
  5
472
102
{ACAD_XDICTIONARY
360
473
102
}
102
{ACAD_REACTORS
330
349
102
}
330
349
100
AcDbMaterial
  1
Global
 72
     0
 43
0.0208333333333333
 43
0.0
 43
0.0
 43
0.0
 43
0.0
 43
0.0208333333333333
 43
0.0
 43
0.0
 43
0.0
 43
0.0
 43
1.0
 43
0.0
 43
0.0
 43
0.0
 43
0.0
 43
1.0
 77
     0
 47
0.0208333333333333
 47
0.0
 47
0.0
 47
0.0
 47
0.0
 47
0.0208333333333333
 47
0.0
 47
0.0
 47
0.0
 47
0.0
 47
1.0
 47
0.0
 47
0.0
 47
0.0
 47
0.0
 47
1.0
171
     0
 49
0.0208333333333333
 49
0.0
 49
0.0
 49
0.0
 49
0.0
 49
0.0208333333333333
 49
0.0
 49
0.0
 49
0.0
 49
0.0
 49
1.0
 49
0.0
 49
0.0
 49
0.0
 49
0.0
 49
1.0
175
     0
142
0.0208333333333333
142
0.0
142
0.0
142
0.0
142
0.0
142
0.0208333333333333
142
0.0
142
0.0
142
0.0
142
0.0
142
1.0
142
0.0
142
0.0
142
0.0
142
0.0
142
1.0
179
     0
144
0.0208333333333333
144
0.0
144
0.0
144
0.0
144
0.0
144
0.0208333333333333
144
0.0
144
0.0
144
0.0
144
0.0
144
1.0
144
0.0
144
0.0
144
0.0
144
0.0
144
1.0
147
0.0208333333333333
147
0.0
147
0.0
147
0.0
147
0.0
147
0.0208333333333333
147
0.0
147
0.0
147
0.0
147
0.0
147
1.0
147
0.0
147
0.0
147
0.0
147
0.0
147
1.0
  0
MLEADERSTYLE
  5
4AE
102
{ACAD_REACTORS
330
4AD
102
}
330
4AD
100
AcDbMLeaderStyle
170
     2
171
     1
172
     0
 90
        2
 40
0.0
 41
0.0
173
     1
 91
-1056964608
340
F
 92
       -2
290
     1
 42
0.09
291
     1
 43
0.36
  3
Standard
 44
0.18
300

342
D
174
     1
178
     6
175
     1
176
     0
 93
-1056964608
 45
0.18
292
     0
297
     0
 46
0.18
 94
-1056964608
 47
1.0
 49
1.0
140
1.0
293
     1
141
0.0
294
     1
177
     0
142
1.0
295
     0
296
     0
143
0.125
1001
ACAD_MLEADERVER
1070
     2
  0
MLINESTYLE
  5
1C
102
{ACAD_REACTORS
330
1A
102
}
330
1A
100
AcDbMlineStyle
  2
STANDARD
 70
     0
  3

 62
     0
 51
90.0
 52
90.0
 71
     2
 49
0.5
 62
   256
  6
BYLAYER
 49
-0.5
 62
   256
  6
BYLAYER
  0
ACDBPLACEHOLDER
  5
348
102
{ACAD_REACTORS
330
347
102
}
330
347
  0
SCALE
  5
48C
102
{ACAD_REACTORS
330
48B
102
}
330
48B
100
AcDbScale
 70
     0
300
1:1
140
1.0
141
1.0
290
     1
  0
SCALE
  5
48D
102
{ACAD_REACTORS
330
48B
102
}
330
48B
100
AcDbScale
 70
     0
300
1:2
140
1.0
141
2.0
290
     0
  0
SCALE
  5
48E
102
{ACAD_REACTORS
330
48B
102
}
330
48B
100
AcDbScale
 70
     0
300
1:4
140
1.0
141
4.0
290
     0
  0
SCALE
  5
48F
102
{ACAD_REACTORS
330
48B
102
}
330
48B
100
AcDbScale
 70
     0
300
1:5
140
1.0
141
5.0
290
     0
  0
SCALE
  5
490
102
{ACAD_REACTORS
330
48B
102
}
330
48B
100
AcDbScale
 70
     0
300
1:8
140
1.0
141
8.0
290
     0
  0
SCALE
  5
491
102
{ACAD_REACTORS
330
48B
102
}
330
48B
100
AcDbScale
 70
     0
300
1:10
140
1.0
141
10.0
290
     0
  0
SCALE
  5
492
102
{ACAD_REACTORS
330
48B
102
}
330
48B
100
AcDbScale
 70
     0
300
1:16
140
1.0
141
16.0
290
     0
  0
SCALE
  5
493
102
{ACAD_REACTORS
330
48B
102
}
330
48B
100
AcDbScale
 70
     0
300
1:20
140
1.0
141
20.0
290
     0
  0
SCALE
  5
494
102
{ACAD_REACTORS
330
48B
102
}
330
48B
100
AcDbScale
 70
     0
300
1:30
140
1.0
141
30.0
290
     0
  0
SCALE
  5
495
102
{ACAD_REACTORS
330
48B
102
}
330
48B
100
AcDbScale
 70
     0
300
1:40
140
1.0
141
40.0
290
     0
  0
SCALE
  5
496
102
{ACAD_REACTORS
330
48B
102
}
330
48B
100
AcDbScale
 70
     0
300
1:50
140
1.0
141
50.0
290
     0
  0
SCALE
  5
497
102
{ACAD_REACTORS
330
48B
102
}
330
48B
100
AcDbScale
 70
     0
300
1:100
140
1.0
141
100.0
290
     0
  0
SCALE
  5
498
102
{ACAD_REACTORS
330
48B
102
}
330
48B
100
AcDbScale
 70
     0
300
2:1
140
2.0
141
1.0
290
     0
  0
SCALE
  5
499
102
{ACAD_REACTORS
330
48B
102
}
330
48B
100
AcDbScale
 70
     0
300
4:1
140
4.0
141
1.0
290
     0
  0
SCALE
  5
49A
102
{ACAD_REACTORS
330
48B
102
}
330
48B
100
AcDbScale
 70
     0
300
8:1
140
8.0
141
1.0
290
     0
  0
SCALE
  5
49B
102
{ACAD_REACTORS
330
48B
102
}
330
48B
100
AcDbScale
 70
     0
300
10:1
140
10.0
141
1.0
290
     0
  0
SCALE
  5
49C
102
{ACAD_REACTORS
330
48B
102
}
330
48B
100
AcDbScale
 70
     0
300
100:1
140
100.0
141
1.0
290
     0
  0
SCALE
  5
49D
102
{ACAD_REACTORS
330
48B
102
}
330
48B
100
AcDbScale
 70
     0
300
1/128" = 1'-0"
140
0.0078125
141
12.0
290
     0
  0
SCALE
  5
49E
102
{ACAD_REACTORS
330
48B
102
}
330
48B
100
AcDbScale
 70
     0
300
1/64" = 1'-0"
140
0.015625
141
12.0
290
     0
  0
SCALE
  5
49F
102
{ACAD_REACTORS
330
48B
102
}
330
48B
100
AcDbScale
 70
     0
300
1/32" = 1'-0"
140
0.03125
141
12.0
290
     0
  0
SCALE
  5
4A0
102
{ACAD_REACTORS
330
48B
102
}
330
48B
100
AcDbScale
 70
     0
300
1/16" = 1'-0"
140
0.0625
141
12.0
290
     0
  0
SCALE
  5
4A1
102
{ACAD_REACTORS
330
48B
102
}
330
48B
100
AcDbScale
 70
     0
300
3/32" = 1'-0"
140
0.09375
141
12.0
290
     0
  0
SCALE
  5
4A2
102
{ACAD_REACTORS
330
48B
102
}
330
48B
100
AcDbScale
 70
     0
300
1/8" = 1'-0"
140
0.125
141
12.0
290
     0
  0
SCALE
  5
4A3
102
{ACAD_REACTORS
330
48B
102
}
330
48B
100
AcDbScale
 70
     0
300
3/16" = 1'-0"
140
0.1875
141
12.0
290
     0
  0
SCALE
  5
4A4
102
{ACAD_REACTORS
330
48B
102
}
330
48B
100
AcDbScale
 70
     0
300
1/4" = 1'-0"
140
0.25
141
12.0
290
     0
  0
SCALE
  5
4A5
102
{ACAD_REACTORS
330
48B
102
}
330
48B
100
AcDbScale
 70
     0
300
3/8" = 1'-0"
140
0.375
141
12.0
290
     0
  0
SCALE
  5
4A6
102
{ACAD_REACTORS
330
48B
102
}
330
48B
100
AcDbScale
 70
     0
300
1/2" = 1'-0"
140
0.5
141
12.0
290
     0
  0
SCALE
  5
4A7
102
{ACAD_REACTORS
330
48B
102
}
330
48B
100
AcDbScale
 70
     0
300
3/4" = 1'-0"
140
0.75
141
12.0
290
     0
  0
SCALE
  5
4A8
102
{ACAD_REACTORS
330
48B
102
}
330
48B
100
AcDbScale
 70
     0
300
1" = 1'-0"
140
1.0
141
12.0
290
     0
  0
SCALE
  5
4A9
102
{ACAD_REACTORS
330
48B
102
}
330
48B
100
AcDbScale
 70
     0
300
1-1/2" = 1'-0"
140
1.5
141
12.0
290
     0
  0
SCALE
  5
4AA
102
{ACAD_REACTORS
330
48B
102
}
330
48B
100
AcDbScale
 70
     0
300
3" = 1'-0"
140
3.0
141
12.0
290
     0
  0
SCALE
  5
4AB
102
{ACAD_REACTORS
330
48B
102
}
330
48B
100
AcDbScale
 70
     0
300
6" = 1'-0"
140
6.0
141
12.0
290
     0
  0
SCALE
  5
4AC
102
{ACAD_REACTORS
330
48B
102
}
330
48B
100
AcDbScale
 70
     0
300
1'-0" = 1'-0"
140
12.0
141
12.0
290
     0
  0
TABLESTYLE
  5
34C
102
{ACAD_XDICTIONARY
360
4EC
102
}
102
{ACAD_REACTORS
330
34B
102
}
330
34B
100
AcDbTableStyle
  3
Standard
 70
     0
 71
     0
 40
0.06
 41
0.06
280
     0
281
     0
  7
STANDARD
140
0.18
170
     2
 62
     0
 63
     7
283
     0
274
    -2
284
     1
 64
     0
275
    -2
285
     1
 65
     0
276
    -2
286
     1
 66
     0
277
    -2
287
     1
 67
     0
278
    -2
288
     1
 68
     0
279
    -2
289
     1
 69
     0
  7
STANDARD
140
0.25
170
     5
 62
     0
 63
     7
283
     0
274
    -2
284
     1
 64
     0
275
    -2
285
     1
 65
     0
276
    -2
286
     1
 66
     0
277
    -2
287
     1
 67
     0
278
    -2
288
     1
 68
     0
279
    -2
289
     1
 69
     0
  7
STANDARD
140
0.18
170
     5
 62
     0
 63
     7
283
     0
274
    -2
284
     1
 64
     0
275
    -2
285
     1
 65
     0
276
    -2
286
     1
 66
     0
277
    -2
287
     1
 67
     0
278
    -2
288
     1
 68
     0
279
    -2
289
     1
 69
     0
  0
VISUALSTYLE
  5
480
102
{ACAD_REACTORS
330
47A
102
}
330
47A
100
AcDbVisualStyle
  2
2dWireframe
 70
     4
 71
     0
 72
     2
 73
     0
 90
        0
 40
-0.6
 41
-30.0
 62
     5
 63
     7
421
 16777215
 74
     1
 91
        4
 64
     7
 65
   257
 75
     1
175
     1
 42
1.0
 92
        0
 66
   257
 43
1.0
 76
     1
 77
     6
 78
     2
 67
     7
 79
     5
170
     0
171
     0
290
     0
174
     0
 93
        1
 44
0.0
173
     0
291
     0
 45
0.0
1001
ACAD
1000
AcDbSavedByObjectVersion
1070
     0
  0
VISUALSTYLE
  5
482
102
{ACAD_REACTORS
330
47A
102
}
330
47A
100
AcDbVisualStyle
  2
3D Hidden
 70
     6
 71
     1
 72
     2
 73
     2
 90
        0
 40
-0.6
 41
-30.0
 62
     5
 63
     7
421
 16777215
 74
     2
 91
        2
 64
     7
 65
   257
 75
     2
175
     1
 42
40.0
 92
        0
 66
   257
 43
1.0
 76
     1
 77
     6
 78
     2
 67
     7
 79
     3
170
     0
171
     0
290
     0
174
     0
 93
        1
 44
0.0
173
     0
291
     0
 45
0.0
1001
ACAD
1000
AcDbSavedByObjectVersion
1070
     0
  0
VISUALSTYLE
  5
481
102
{ACAD_REACTORS
330
47A
102
}
330
47A
100
AcDbVisualStyle
  2
3dWireframe
 70
     5
 71
     0
 72
     2
 73
     0
 90
        0
 40
-0.6
 41
-30.0
 62
     5
 63
     7
421
 16777215
 74
     1
 91
        4
 64
     7
 65
   257
 75
     1
175
     1
 42
1.0
 92
        0
 66
   257
 43
1.0
 76
     1
 77
     6
 78
     2
 67
     7
 79
     5
170
     0
171
     0
290
     0
174
     0
 93
        1
 44
0.0
173
     0
291
     0
 45
0.0
1001
ACAD
1000
AcDbSavedByObjectVersion
1070
     0
  0
VISUALSTYLE
  5
47F
102
{ACAD_REACTORS
330
47A
102
}
330
47A
100
AcDbVisualStyle
  2
Basic
 70
     7
 71
     1
 72
     0
 73
     1
 90
        0
 40
-0.6
 41
-30.0
 62
     5
 63
     7
421
 16777215
 74
     0
 91
        4
 64
     7
 65
   257
 75
     1
175
     1
 42
1.0
 92
        8
 66
     7
 43
1.0
 76
     1
 77
     6
 78
     2
 67
     7
 79
     5
170
     0
171
     0
290
     0
174
     0
 93
        1
 44
0.0
173
     0
291
     1
 45
0.0
1001
ACAD
1000
AcDbSavedByObjectVersion
1070
     0
  0
VISUALSTYLE
  5
486
102
{ACAD_REACTORS
330
47A
102
}
330
47A
100
AcDbVisualStyle
  2
Brighten
 70
    12
 71
     2
 72
     2
 73
     0
 90
        0
 40
-0.6
 41
-30.0
 62
     5
 63
     7
421
 16777215
 74
     1
 91
        4
 64
     7
 65
   257
 75
     1
175
     1
 42
1.0
 92
        8
 66
     7
 43
1.0
 76
     1
 77
     6
 78
     2
 67
     7
 79
     5
170
     0
171
     0
290
     0
174
     0
 93
        1
 44
50.0
173
     0
291
     1
 45
0.0
1001
ACAD
1000
AcDbSavedByObjectVersion
1070
     0
  0
VISUALSTYLE
  5
48A
102
{ACAD_REACTORS
330
47A
102
}
330
47A
100
AcDbVisualStyle
  2
ColorChange
 70
    16
 71
     2
 72
     2
 73
     3
 90
        0
 40
-0.6
 41
-30.0
 62
     5
 63
     8
421
  8421504
 74
     1
 91
        4
 64
     7
 65
   257
 75
     1
175
     1
 42
1.0
 92
        8
 66
     8
424
  8421504
 43
1.0
 76
     1
 77
     6
 78
     2
 67
     7
 79
     5
170
     0
171
     0
290
     0
174
     0
 93
        1
 44
0.0
173
     0
291
     1
 45
0.0
1001
ACAD
1000
AcDbSavedByObjectVersion
1070
     0
  0
VISUALSTYLE
  5
483
102
{ACAD_REACTORS
330
47A
102
}
330
47A
100
AcDbVisualStyle
  2
Conceptual
 70
     9
 71
     3
 72
     2
 73
     0
 90
        0
 40
-0.6
 41
-30.0
 62
     5
 63
     7
421
 16777215
 74
     2
 91
        2
 64
     7
 65
   257
 75
     1
175
     1
 42
40.0
 92
        8
 66
     7
 43
1.0
 76
     1
 77
     6
 78
     2
 67
     7
 79
     3
170
     0
171
     0
290
     0
174
     0
 93
        1
 44
0.0
173
     0
291
     0
 45
0.0
1001
ACAD
1000
AcDbSavedByObjectVersion
1070
     0
  0
VISUALSTYLE
  5
485
102
{ACAD_REACTORS
330
47A
102
}
330
47A
100
AcDbVisualStyle
  2
Dim
 70
    11
 71
     2
 72
     2
 73
     0
 90
        0
 40
-0.6
 41
-30.0
 62
     5
 63
     7
421
 16777215
 74
     1
 91
        4
 64
     7
 65
   257
 75
     1
175
     1
 42
1.0
 92
        8
 66
     7
 43
1.0
 76
     1
 77
     6
 78
     2
 67
     7
 79
     5
170
     0
171
     0
290
     0
174
     0
 93
        1
 44
-50.0
173
     0
291
     1
 45
0.0
1001
ACAD
1000
AcDbSavedByObjectVersion
1070
     0
  0
VISUALSTYLE
  5
489
102
{ACAD_REACTORS
330
47A
102
}
330
47A
100
AcDbVisualStyle
  2
Facepattern
 70
    15
 71
     2
 72
     2
 73
     0
 90
        0
 40
-0.6
 41
-30.0
 62
     5
 63
     7
421
 16777215
 74
     1
 91
        4
 64
     7
 65
   257
 75
     1
175
     1
 42
1.0
 92
        8
 66
     7
 43
1.0
 76
     1
 77
     6
 78
     2
 67
     7
 79
     5
170
     0
171
     0
290
     0
174
     0
 93
        1
 44
0.0
173
     0
291
     1
 45
0.0
1001
ACAD
1000
AcDbSavedByObjectVersion
1070
     0
  0
VISUALSTYLE
  5
47B
102
{ACAD_REACTORS
330
47A
102
}
330
47A
100
AcDbVisualStyle
  2
Flat
 70
     0
 71
     2
 72
     1
 73
     1
 90
        2
 40
-0.6
 41
30.0
 62
     5
 63
     7
421
 16777215
 74
     0
 91
        4
 64
     7
 65
   257
 75
     1
175
     1
 42
1.0
 92
        8
 66
     7
 43
1.0
 76
     1
 77
     6
 78
     2
 67
     7
 79
     5
170
     0
171
     0
290
     0
174
     0
 93
       13
 44
0.0
173
     0
291
     1
 45
0.0
1001
ACAD
1000
AcDbSavedByObjectVersion
1070
     0
  0
VISUALSTYLE
  5
47C
102
{ACAD_REACTORS
330
47A
102
}
330
47A
100
AcDbVisualStyle
  2
FlatWithEdges
 70
     1
 71
     2
 72
     1
 73
     1
 90
        2
 40
-0.6
 41
30.0
 62
     5
 63
     7
421
 16777215
 74
     1
 91
        4
 64
     7
 65
   257
 75
     1
175
     1
 42
1.0
 92
        0
 66
   257
 43
1.0
 76
     1
 77
     6
 78
     2
 67
     7
 79
     5
170
     0
171
     0
290
     0
174
     0
 93
       13
 44
0.0
173
     0
291
     1
 45
0.0
1001
ACAD
1000
AcDbSavedByObjectVersion
1070
     0
  0
VISUALSTYLE
  5
47D
102
{ACAD_REACTORS
330
47A
102
}
330
47A
100
AcDbVisualStyle
  2
Gouraud
 70
     2
 71
     2
 72
     2
 73
     1
 90
        2
 40
-0.6
 41
30.0
 62
     5
 63
     7
421
 16777215
 74
     0
 91
        4
 64
     7
 65
   257
 75
     1
175
     1
 42
1.0
 92
        0
 66
     7
 43
1.0
 76
     1
 77
     6
 78
     2
 67
     7
 79
     5
170
     0
171
     0
290
     0
174
     0
 93
       13
 44
0.0
173
     0
291
     1
 45
0.0
1001
ACAD
1000
AcDbSavedByObjectVersion
1070
     0
  0
VISUALSTYLE
  5
47E
102
{ACAD_REACTORS
330
47A
102
}
330
47A
100
AcDbVisualStyle
  2
GouraudWithEdges
 70
     3
 71
     2
 72
     2
 73
     1
 90
        2
 40
-0.6
 41
30.0
 62
     5
 63
     7
421
 16777215
 74
     1
 91
        4
 64
     7
 65
   257
 75
     1
175
     1
 42
1.0
 92
        0
 66
   257
 43
1.0
 76
     1
 77
     6
 78
     2
 67
     7
 79
     5
170
     0
171
     0
290
     0
174
     0
 93
       13
 44
0.0
173
     0
291
     1
 45
0.0
1001
ACAD
1000
AcDbSavedByObjectVersion
1070
     0
  0
VISUALSTYLE
  5
488
102
{ACAD_REACTORS
330
47A
102
}
330
47A
100
AcDbVisualStyle
  2
Linepattern
 70
    14
 71
     2
 72
     2
 73
     0
 90
        0
 40
-0.6
 41
-30.0
 62
     5
 63
     7
421
 16777215
 74
     1
 91
        4
 64
     7
 65
   257
 75
     7
175
     7
 42
1.0
 92
        8
 66
     7
 43
1.0
 76
     1
 77
     6
 78
     2
 67
     7
 79
     5
170
     0
171
     0
290
     0
174
     0
 93
        1
 44
0.0
173
     0
291
     1
 45
0.0
1001
ACAD
1000
AcDbSavedByObjectVersion
1070
     0
  0
VISUALSTYLE
  5
484
102
{ACAD_REACTORS
330
47A
102
}
330
47A
100
AcDbVisualStyle
  2
Realistic
 70
     8
 71
     2
 72
     2
 73
     0
 90
        0
 40
-0.6
 41
-30.0
 62
     5
 63
     7
421
 16777215
 74
     1
 91
        0
 64
     7
 65
   257
 75
     1
175
     1
 42
1.0
 92
        8
 66
     8
424
  7895160
 43
1.0
 76
     1
 77
     6
 78
     2
 67
     7
 79
     5
170
     0
171
     0
290
     0
174
     0
 93
       13
 44
0.0
173
     0
291
     0
 45
0.0
1001
ACAD
1000
AcDbSavedByObjectVersion
1070
     0
  0
VISUALSTYLE
  5
487
102
{ACAD_REACTORS
330
47A
102
}
330
47A
100
AcDbVisualStyle
  2
Thicken
 70
    13
 71
     2
 72
     2
 73
     0
 90
        0
 40
-0.6
 41
-30.0
 62
     5
 63
     7
421
 16777215
 74
     1
 91
        4
 64
     7
 65
   257
 75
     1
175
     1
 42
1.0
 92
       12
 66
     7
 43
1.0
 76
     1
 77
     6
 78
     2
 67
     7
 79
     5
170
     0
171
     0
290
     0
174
     0
 93
        1
 44
0.0
173
     0
291
     1
 45
0.0
1001
ACAD
1000
AcDbSavedByObjectVersion
1070
     0
  0
DICTIONARYVAR
  5
4F1
102
{ACAD_REACTORS
330
30E
102
}
330
30E
100
DictionaryVariables
280
     0
  1
1:1
  0
DICTIONARYVAR
  5
4EF
102
{ACAD_REACTORS
330
30E
102
}
330
30E
100
DictionaryVariables
280
     0
  1
STANDARD
  0
DICTIONARYVAR
  5
460
102
{ACAD_REACTORS
330
30E
102
}
330
30E
100
DictionaryVariables
280
     0
  1
STANDARD
  0
DICTIONARYVAR
  5
30F
102
{ACAD_REACTORS
330
30E
102
}
330
30E
100
DictionaryVariables
280
     0
  1
1
  0
DICTIONARYVAR
  5
4F2
102
{ACAD_REACTORS
330
30E
102
}
330
30E
100
DictionaryVariables
280
     0
  1
0
  0
DICTIONARYVAR
  5
4F0
102
{ACAD_REACTORS
330
30E
102
}
330
30E
100
DictionaryVariables
280
     0
  1
0
  0
DICTIONARY
  5
2ED
102
{ACAD_REACTORS
330
2EC
102
}
330
2EC
100
AcDbDictionary
281
     1
  0
XRECORD
  5
3C1
102
{ACAD_REACTORS
330
2EC
102
}
330
2EC
100
AcDbXrecord
280
     1
 90
-1023410169
  0
XRECORD
  5
89D
102
{ACAD_REACTORS
330
89C
102
}
330
89C
100
AcDbXrecord
280
     1
  0
DICTIONARY
  5
46B
330
46A
100
AcDbDictionary
280
     1
281
     1
  3
ACAD_XREC_ROUNDTRIP
360
919
  3
BUMPTILE
360
46D
  3
DIFFUSETILE
360
46C
  3
OPACITYTILE
360
470
  3
REFLECTIONTILE
360
46F
  3
REFRACTIONTILE
360
471
  3
SPECULARTILE
360
46E
  0
DICTIONARY
  5
463
330
462
100
AcDbDictionary
280
     1
281
     1
  3
ACAD_XREC_ROUNDTRIP
360
918
  3
BUMPTILE
360
465
  3
DIFFUSETILE
360
464
  3
OPACITYTILE
360
468
  3
REFLECTIONTILE
360
467
  3
REFRACTIONTILE
360
469
  3
SPECULARTILE
360
466
  0
DICTIONARY
  5
473
330
472
100
AcDbDictionary
280
     1
281
     1
  3
ACAD_XREC_ROUNDTRIP
360
91A
  3
BUMPTILE
360
475
  3
DIFFUSETILE
360
474
  3
OPACITYTILE
360
478
  3
REFLECTIONTILE
360
477
  3
REFRACTIONTILE
360
479
  3
SPECULARTILE
360
476
  0
DICTIONARY
  5
4EC
330
34C
100
AcDbDictionary
280
     1
281
     1
  3
ACAD_ROUNDTRIP_2008_TABLESTYLE_CELLSTYLEMAP
360
916
  3
ACAD_XREC_ROUNDTRIP
360
917
  0
XRECORD
  5
919
102
{ACAD_REACTORS
330
46B
102
}
330
46B
100
AcDbXrecord
280
     1
102
MATERIAL
148
0.0
149
0.0
149
0.0
 93
        0
 94
      127
282
     0
 72
     0
 77
     0
171
     0
175
     0
179
     0
273
     0
  0
XRECORD
  5
46D
102
{ACAD_REACTORS
330
46B
102
}
330
46B
100
AcDbXrecord
280
     1
270
     1
271
     1
  0
XRECORD
  5
46C
102
{ACAD_REACTORS
330
46B
102
}
330
46B
100
AcDbXrecord
280
     1
270
     1
271
     1
  0
XRECORD
  5
470
102
{ACAD_REACTORS
330
46B
102
}
330
46B
100
AcDbXrecord
280
     1
270
     1
271
     1
  0
XRECORD
  5
46F
102
{ACAD_REACTORS
330
46B
102
}
330
46B
100
AcDbXrecord
280
     1
270
     1
271
     1
  0
XRECORD
  5
471
102
{ACAD_REACTORS
330
46B
102
}
330
46B
100
AcDbXrecord
280
     1
270
     1
271
     1
  0
XRECORD
  5
46E
102
{ACAD_REACTORS
330
46B
102
}
330
46B
100
AcDbXrecord
280
     1
270
     1
271
     1
  0
XRECORD
  5
918
102
{ACAD_REACTORS
330
463
102
}
330
463
100
AcDbXrecord
280
     1
102
MATERIAL
148
0.0
149
0.0
149
0.0
 93
        0
 94
      127
282
     0
 72
     0
 77
     0
171
     0
175
     0
179
     0
273
     0
  0
XRECORD
  5
465
102
{ACAD_REACTORS
330
463
102
}
330
463
100
AcDbXrecord
280
     1
270
     1
271
     1
  0
XRECORD
  5
464
102
{ACAD_REACTORS
330
463
102
}
330
463
100
AcDbXrecord
280
     1
270
     1
271
     1
  0
XRECORD
  5
468
102
{ACAD_REACTORS
330
463
102
}
330
463
100
AcDbXrecord
280
     1
270
     1
271
     1
  0
XRECORD
  5
467
102
{ACAD_REACTORS
330
463
102
}
330
463
100
AcDbXrecord
280
     1
270
     1
271
     1
  0
XRECORD
  5
469
102
{ACAD_REACTORS
330
463
102
}
330
463
100
AcDbXrecord
280
     1
270
     1
271
     1
  0
XRECORD
  5
466
102
{ACAD_REACTORS
330
463
102
}
330
463
100
AcDbXrecord
280
     1
270
     1
271
     1
  0
XRECORD
  5
91A
102
{ACAD_REACTORS
330
473
102
}
330
473
100
AcDbXrecord
280
     1
102
MATERIAL
148
0.0
149
0.0
149
0.0
 93
        0
 94
      127
282
     0
 72
     0
 77
     0
171
     0
175
     0
179
     0
273
     0
  0
XRECORD
  5
475
102
{ACAD_REACTORS
330
473
102
}
330
473
100
AcDbXrecord
280
     1
270
     1
271
     1
  0
XRECORD
  5
474
102
{ACAD_REACTORS
330
473
102
}
330
473
100
AcDbXrecord
280
     1
270
     1
271
     1
  0
XRECORD
  5
478
102
{ACAD_REACTORS
330
473
102
}
330
473
100
AcDbXrecord
280
     1
270
     1
271
     1
  0
XRECORD
  5
477
102
{ACAD_REACTORS
330
473
102
}
330
473
100
AcDbXrecord
280
     1
270
     1
271
     1
  0
XRECORD
  5
479
102
{ACAD_REACTORS
330
473
102
}
330
473
100
AcDbXrecord
280
     1
270
     1
271
     1
  0
XRECORD
  5
476
102
{ACAD_REACTORS
330
473
102
}
330
473
100
AcDbXrecord
280
     1
270
     1
271
     1
  0
CELLSTYLEMAP
  5
916
102
{ACAD_REACTORS
330
4EC
102
}
330
4EC
100
AcDbCellStyleMap
 90
        3
300
CELLSTYLE
  1
TABLEFORMAT_BEGIN
 90
        5
170
     1
 91
        0
 92
    32768
 62
   257
 93
        1
300
CONTENTFORMAT
  1
CONTENTFORMAT_BEGIN
 90
        0
 91
        0
 92
        4
 93
        0
300

 40
0.0
140
1.0
 94
        5
 62
     0
340
D
144
0.25
309
CONTENTFORMAT_END
171
     0
 94
        6
 95
        1
302
GRIDFORMAT
  1
GRIDFORMAT_BEGIN
 90
        0
 91
        1
 62
     0
 92
       -2
340
0
 93
        0
 40
0.045
309
GRIDFORMAT_END
 95
        2
302
GRIDFORMAT
  1
GRIDFORMAT_BEGIN
 90
        0
 91
        1
 62
     0
 92
       -2
340
0
 93
        0
 40
0.045
309
GRIDFORMAT_END
 95
        4
302
GRIDFORMAT
  1
GRIDFORMAT_BEGIN
 90
        0
 91
        1
 62
     0
 92
       -2
340
0
 93
        0
 40
0.045
309
GRIDFORMAT_END
 95
        8
302
GRIDFORMAT
  1
GRIDFORMAT_BEGIN
 90
        0
 91
        1
 62
     0
 92
       -2
340
0
 93
        0
 40
0.045
309
GRIDFORMAT_END
 95
       16
302
GRIDFORMAT
  1
GRIDFORMAT_BEGIN
 90
        0
 91
        1
 62
     0
 92
       -2
340
0
 93
        0
 40
0.045
309
GRIDFORMAT_END
 95
       32
302
GRIDFORMAT
  1
GRIDFORMAT_BEGIN
 90
        0
 91
        1
 62
     0
 92
       -2
340
0
 93
        0
 40
0.045
309
GRIDFORMAT_END
309
TABLEFORMAT_END
  1
CELLSTYLE_BEGIN
 90
        1
 91
        1
300
_TITLE
309
CELLSTYLE_END
300
CELLSTYLE
  1
TABLEFORMAT_BEGIN
 90
        5
170
     1
 91
        0
 92
        0
 62
   257
 93
        1
300
CONTENTFORMAT
  1
CONTENTFORMAT_BEGIN
 90
        0
 91
        0
 92
        4
 93
        0
300

 40
0.0
140
1.0
 94
        5
 62
     0
340
D
144
0.18
309
CONTENTFORMAT_END
171
     0
 94
        6
 95
        1
302
GRIDFORMAT
  1
GRIDFORMAT_BEGIN
 90
        0
 91
        1
 62
     0
 92
       -2
340
0
 93
        0
 40
0.045
309
GRIDFORMAT_END
 95
        2
302
GRIDFORMAT
  1
GRIDFORMAT_BEGIN
 90
        0
 91
        1
 62
     0
 92
       -2
340
0
 93
        0
 40
0.045
309
GRIDFORMAT_END
 95
        4
302
GRIDFORMAT
  1
GRIDFORMAT_BEGIN
 90
        0
 91
        1
 62
     0
 92
       -2
340
0
 93
        0
 40
0.045
309
GRIDFORMAT_END
 95
        8
302
GRIDFORMAT
  1
GRIDFORMAT_BEGIN
 90
        0
 91
        1
 62
     0
 92
       -2
340
0
 93
        0
 40
0.045
309
GRIDFORMAT_END
 95
       16
302
GRIDFORMAT
  1
GRIDFORMAT_BEGIN
 90
        0
 91
        1
 62
     0
 92
       -2
340
0
 93
        0
 40
0.045
309
GRIDFORMAT_END
 95
       32
302
GRIDFORMAT
  1
GRIDFORMAT_BEGIN
 90
        0
 91
        1
 62
     0
 92
       -2
340
0
 93
        0
 40
0.045
309
GRIDFORMAT_END
309
TABLEFORMAT_END
  1
CELLSTYLE_BEGIN
 90
        2
 91
        1
300
_HEADER
309
CELLSTYLE_END
300
CELLSTYLE
  1
TABLEFORMAT_BEGIN
 90
        5
170
     1
 91
        0
 92
        0
 62
   257
 93
        1
300
CONTENTFORMAT
  1
CONTENTFORMAT_BEGIN
 90
        0
 91
        0
 92
        4
 93
        0
300

 40
0.0
140
1.0
 94
        2
 62
     0
340
D
144
0.18
309
CONTENTFORMAT_END
171
     0
 94
        6
 95
        1
302
GRIDFORMAT
  1
GRIDFORMAT_BEGIN
 90
        0
 91
        1
 62
     0
 92
       -2
340
0
 93
        0
 40
0.045
309
GRIDFORMAT_END
 95
        2
302
GRIDFORMAT
  1
GRIDFORMAT_BEGIN
 90
        0
 91
        1
 62
     0
 92
       -2
340
0
 93
        0
 40
0.045
309
GRIDFORMAT_END
 95
        4
302
GRIDFORMAT
  1
GRIDFORMAT_BEGIN
 90
        0
 91
        1
 62
     0
 92
       -2
340
0
 93
        0
 40
0.045
309
GRIDFORMAT_END
 95
        8
302
GRIDFORMAT
  1
GRIDFORMAT_BEGIN
 90
        0
 91
        1
 62
     0
 92
       -2
340
0
 93
        0
 40
0.045
309
GRIDFORMAT_END
 95
       16
302
GRIDFORMAT
  1
GRIDFORMAT_BEGIN
 90
        0
 91
        1
 62
     0
 92
       -2
340
0
 93
        0
 40
0.045
309
GRIDFORMAT_END
 95
       32
302
GRIDFORMAT
  1
GRIDFORMAT_BEGIN
 90
        0
 91
        1
 62
     0
 92
       -2
340
0
 93
        0
 40
0.045
309
GRIDFORMAT_END
309
TABLEFORMAT_END
  1
CELLSTYLE_BEGIN
 90
        3
 91
        2
300
_DATA
309
CELLSTYLE_END
  0
XRECORD
  5
917
102
{ACAD_REACTORS
330
4EC
102
}
330
4EC
100
AcDbXrecord
280
     1
102
ACAD_ROUNDTRIP_PRE2007_TABLESTYLE
 90
        4
 91
        0
  1

 92
        4
 93
        0
  2

 94
        4
 95
        0
  3

  0
ENDSEC
  0
EOF
