  0
SECTION
  2
HEADER
  9
$ACADVER
  1
AC1018
  9
$ACADMAINTVER
 70
   104
  9
$DWGCODEPAGE
  3
ANSI_1252
  9
$LASTSAVEDBY
  1
ibasyouni
  9
$INSBASE
 10
0.0
 20
0.0
 30
0.0
  9
$EXTMIN
 10
16.81742284401326
 20
32.26966050915604
 30
0.0
  9
$EXTMAX
 10
1045.011888940391
 20
596.0081496491948
 30
0.0
  9
$LIMMIN
 10
0.0
 20
0.0
  9
$LIMMAX
 10
1050.0
 20
660.0
  9
$ORTHOMODE
 70
     1
  9
$REGENMODE
 70
     1
  9
$FILLMODE
 70
     1
  9
$QTEXTMODE
 70
     0
  9
$MIRRTEXT
 70
     1
  9
$LTSCALE
 40
1.0
  9
$ATTMODE
 70
     1
  9
$TEXTSIZE
 40
10.0
  9
$TRACEWID
 40
1.0
  9
$TEXTSTYLE
  7
STANDARD
  9
$CLAYER
  8
0
  9
$CELTYPE
  6
BYLAYER
  9
$CECOLOR
 62
   256
  9
$CELTSCALE
 40
10.0
  9
$DISPSILH
 70
     0
  9
$DIMSCALE
 40
1.0
  9
$DIMASZ
 40
7.0
  9
$DIMEXO
 40
0.0
  9
$DIMDLI
 40
7.0
  9
$DIMRND
 40
0.0
  9
$DIMDLE
 40
0.0
  9
$DIMEXE
 40
1.25
  9
$DIMTP
 40
0.0
  9
$DIMTM
 40
0.0
  9
$DIMTXT
 40
10.0
  9
$DIMCEN
 40
0.0
  9
$DIMTSZ
 40
0.0
  9
$DIMTOL
 70
     0
  9
$DIMLIM
 70
     0
  9
$DIMTIH
 70
     0
  9
$DIMTOH
 70
     0
  9
$DIMSE1
 70
     0
  9
$DIMSE2
 70
     0
  9
$DIMTAD
 70
     1
  9
$DIMZIN
 70
     8
  9
$DIMBLK
  1

  9
$DIMASO
 70
     1
  9
$DIMSHO
 70
     1
  9
$DIMPOST
  1

  9
$DIMAPOST
  1

  9
$DIMALT
 70
     0
  9
$DIMALTD
 70
     2
  9
$DIMALTF
 40
25.4
  9
$DIMLFAC
 40
1.0
  9
$DIMTOFL
 70
     1
  9
$DIMTVP
 40
0.0
  9
$DIMTIX
 70
     0
  9
$DIMSOXD
 70
     0
  9
$DIMSAH
 70
     0
  9
$DIMBLK1
  1

  9
$DIMBLK2
  1

  9
$DIMSTYLE
  2
ISO-25
  9
$DIMCLRD
 70
   256
  9
$DIMCLRE
 70
   256
  9
$DIMCLRT
 70
   256
  9
$DIMTFAC
 40
1.0
  9
$DIMGAP
 40
4.0
  9
$DIMJUST
 70
     0
  9
$DIMSD1
 70
     0
  9
$DIMSD2
 70
     0
  9
$DIMTOLJ
 70
     1
  9
$DIMTZIN
 70
     8
  9
$DIMALTZ
 70
     0
  9
$DIMALTTZ
 70
     0
  9
$DIMUPT
 70
     1
  9
$DIMDEC
 70
     4
  9
$DIMTDEC
 70
     4
  9
$DIMALTU
 70
     2
  9
$DIMALTTD
 70
     2
  9
$DIMTXSTY
  7
STANDARD
  9
$DIMAUNIT
 70
     0
  9
$DIMADEC
 70
     0
  9
$DIMALTRND
 40
0.0
  9
$DIMAZIN
 70
     0
  9
$DIMDSEP
 70
    46
  9
$DIMATFIT
 70
     0
  9
$DIMFRAC
 70
     0
  9
$DIMLDRBLK
  1

  9
$DIMLUNIT
 70
     2
  9
$DIMLWD
 70
    -2
  9
$DIMLWE
 70
    -2
  9
$DIMTMOVE
 70
     0
  9
$LUNITS
 70
     2
  9
$LUPREC
 70
     4
  9
$SKETCHINC
 40
1.0
  9
$FILLETRAD
 40
2.5
  9
$AUNITS
 70
     0
  9
$AUPREC
 70
     0
  9
$MENU
  1
.
  9
$ELEVATION
 40
0.0
  9
$PELEVATION
 40
0.0
  9
$THICKNESS
 40
0.0
  9
$LIMCHECK
 70
     0
  9
$CHAMFERA
 40
2.0
  9
$CHAMFERB
 40
2.0
  9
$CHAMFERC
 40
0.0
  9
$CHAMFERD
 40
0.0
  9
$SKPOLY
 70
     0
  9
$TDCREATE
 40
2450848.711806551
  9
$TDUCREATE
 40
2450848.670139884
  9
$TDUPDATE
 40
2455875.654333183
  9
$TDUUPDATE
 40
2455875.612666516
  9
$TDINDWG
 40
1.7561505208
  9
$TDUSRTIMER
 40
1.7561505208
  9
$USRTIMER
 70
     1
  9
$ANGBASE
 50
0.0
  9
$ANGDIR
 70
     0
  9
$PDMODE
 70
     0
  9
$PDSIZE
 40
0.0
  9
$PLINEWID
 40
0.5
  9
$SPLFRAME
 70
     0
  9
$SPLINETYPE
 70
     6
  9
$SPLINESEGS
 70
     8
  9
$HANDSEED
  5
945
  9
$SURFTAB1
 70
     6
  9
$SURFTAB2
 70
     6
  9
$SURFTYPE
 70
     6
  9
$SURFU
 70
     6
  9
$SURFV
 70
     6
  9
$UCSBASE
  2

  9
$UCSNAME
  2

  9
$UCSORG
 10
0.0
 20
0.0
 30
0.0
  9
$UCSXDIR
 10
1.0
 20
0.0
 30
0.0
  9
$UCSYDIR
 10
0.0
 20
1.0
 30
0.0
  9
$UCSORTHOREF
  2

  9
$UCSORTHOVIEW
 70
     0
  9
$UCSORGTOP
 10
0.0
 20
0.0
 30
0.0
  9
$UCSORGBOTTOM
 10
0.0
 20
0.0
 30
0.0
  9
$UCSORGLEFT
 10
0.0
 20
0.0
 30
0.0
  9
$UCSORGRIGHT
 10
0.0
 20
0.0
 30
0.0
  9
$UCSORGFRONT
 10
0.0
 20
0.0
 30
0.0
  9
$UCSORGBACK
 10
0.0
 20
0.0
 30
0.0
  9
$PUCSBASE
  2

  9
$PUCSNAME
  2

  9
$PUCSORG
 10
0.0
 20
0.0
 30
0.0
  9
$PUCSXDIR
 10
1.0
 20
0.0
 30
0.0
  9
$PUCSYDIR
 10
0.0
 20
1.0
 30
0.0
  9
$PUCSORTHOREF
  2

  9
$PUCSORTHOVIEW
 70
     0
  9
$PUCSORGTOP
 10
0.0
 20
0.0
 30
0.0
  9
$PUCSORGBOTTOM
 10
0.0
 20
0.0
 30
0.0
  9
$PUCSORGLEFT
 10
0.0
 20
0.0
 30
0.0
  9
$PUCSORGRIGHT
 10
0.0
 20
0.0
 30
0.0
  9
$PUCSORGFRONT
 10
0.0
 20
0.0
 30
0.0
  9
$PUCSORGBACK
 10
0.0
 20
0.0
 30
0.0
  9
$USERI1
 70
     0
  9
$USERI2
 70
     0
  9
$USERI3
 70
     0
  9
$USERI4
 70
     0
  9
$USERI5
 70
     0
  9
$USERR1
 40
0.0
  9
$USERR2
 40
0.0
  9
$USERR3
 40
0.0
  9
$USERR4
 40
0.0
  9
$USERR5
 40
0.0
  9
$WORLDVIEW
 70
     1
  9
$SHADEDGE
 70
     3
  9
$SHADEDIF
 70
    70
  9
$TILEMODE
 70
     1
  9
$MAXACTVP
 70
    16
  9
$PINSBASE
 10
0.0
 20
0.0
 30
0.0
  9
$PLIMCHECK
 70
     0
  9
$PEXTMIN
 10
1.000000000000000E+20
 20
1.000000000000000E+20
 30
1.000000000000000E+20
  9
$PEXTMAX
 10
-1.000000000000000E+20
 20
-1.000000000000000E+20
 30
-1.000000000000000E+20
  9
$PLIMMIN
 10
0.0
 20
0.0
  9
$PLIMMAX
 10
420.0
 20
297.0
  9
$UNITMODE
 70
     0
  9
$VISRETAIN
 70
     0
  9
$PLINEGEN
 70
     0
  9
$PSLTSCALE
 70
     0
  9
$TREEDEPTH
 70
  3020
  9
$CMLSTYLE
  2
STANDARD
  9
$CMLJUST
 70
     0
  9
$CMLSCALE
 40
1.0
  9
$PROXYGRAPHICS
 70
     1
  9
$MEASUREMENT
 70
     0
  9
$CELWEIGHT
370
    -1
  9
$ENDCAPS
280
     0
  9
$JOINSTYLE
280
     0
  9
$LWDISPLAY
290
     0
  9
$INSUNITS
 70
     0
  9
$HYPERLINKBASE
  1

  9
$STYLESHEET
  1
Zeich.ctb
  9
$XEDIT
290
     1
  9
$CEPSNTYPE
380
     0
  9
$PSTYLEMODE
290
     1
  9
$FINGERPRINTGUID
  2
{1FBE600E-87E8-4023-87AF-DB23E60F3A08}
  9
$VERSIONGUID
  2
{33A17AAB-E405-47E8-9D23-B9682516C27D}
  9
$EXTNAMES
290
     1
  9
$PSVPSCALE
 40
0.0
  9
$OLESTARTUP
290
     0
  9
$SORTENTS
280
   127
  9
$INDEXCTL
280
     0
  9
$HIDETEXT
280
     0
  9
$XCLIPFRAME
290
     0
  9
$HALOGAP
280
     0
  9
$OBSCOLOR
 70
   257
  9
$OBSLTYPE
280
     0
  9
$INTERSECTIONDISPLAY
280
     0
  9
$INTERSECTIONCOLOR
 70
   257
  9
$DIMASSOC
280
     1
  9
$PROJECTNAME
  1

  0
ENDSEC
  0
SECTION
  2
CLASSES
  0
CLASS
  1
IDBUFFER
  2
AcDbIdBuffer
  3
ObjectDBX Classes
 90
        0
 91
        0
280
     0
281
     0
  0
CLASS
  1
DICTIONARYVAR
  2
AcDbDictionaryVar
  3
ObjectDBX Classes
 90
        0
 91
        6
280
     0
281
     0
  0
CLASS
  1
ACMESTATEMGR
  2
AcMeStateMgr
  3
AcMeServices
 90
     1024
 91
        1
280
     0
281
     0
  0
CLASS
  1
ACMESCOPE
  2
AcMeScope
  3
AcMeServices
 90
     1024
 91
        1
280
     0
281
     0
  0
CLASS
  1
ACMECOMMANDHISTORY
  2
AcMeCommandHistory
  3
AcMeServices
 90
     1024
 91
        1
280
     0
281
     0
  0
CLASS
  1
ACRFINSADJUSTERMGR
  2
AcRfInsAdjusterMgr
  3
AcMeServices
 90
     1024
 91
        1
280
     0
281
     0
  0
CLASS
  1
ACMEDRAWINGMAN
  2
AcMeDrawingMan
  3
AcMeServices
 90
     1024
 91
        1
280
     0
281
     0
  0
CLASS
  1
AMATTR
  2
AcMeAttribute
  3
AcMeServices
 90
     1024
 91
        0
280
     0
281
     0
  0
CLASS
  1
ACMEBOMCOLUMN
  2
AcMeBOMColumn
  3
AcMeServices
 90
     1024
 91
        0
280
     0
281
     0
  0
CLASS
  1
ACMEBOMCONF
  2
AcMeBOMConf
  3
AcMeServices
 90
     1024
 91
        0
280
     0
281
     0
  0
CLASS
  1
ACMEBOMTABLE
  2
AcMeBOMTable
  3
AcMeServices
 90
     1024
 91
        0
280
     0
281
     0
  0
CLASS
  1
ACMEBOMENTRY
  2
AcMeBOMEntry
  3
AcMeServices
 90
     1024
 91
        0
280
     0
281
     0
  0
CLASS
  1
ACMEVIEW
  2
AcMeView
  3
AcMeServices
 90
     1024
 91
        0
280
     0
281
     0
  0
CLASS
  1
LAYER_INDEX
  2
AcDbLayerIndex
  3
ObjectDBX Classes
 90
        0
 91
        0
280
     0
281
     0
  0
CLASS
  1
ACIMSYSVARMAN
  2
AcImSysVarManager
  3
AcMeServices
 90
     1024
 91
        5
280
     0
281
     0
  0
CLASS
  1
ACIMINTSYSVAR
  2
AcImIntSysVar
  3
AcMeServices
 90
     1024
 91
       27
280
     0
281
     0
  0
CLASS
  1
ACIMSTRSYSVAR
  2
AcImStrSysVar
  3
AcMeServices
 90
     1024
 91
        5
280
     0
281
     0
  0
CLASS
  1
ACMSTANDARDJIS
  2
AcmStandardJIS
  3
"Amdt_StdImp|Product Description: AutoCAD Mechanical|Company: Autodesk, Inc."
 90
     1024
 91
        1
280
     0
281
     0
  0
CLASS
  1
ACMSTANDARDANSI
  2
AcmStandardANSI
  3
"Amdt_StdImp|Product Description: AutoCAD Mechanical|Company: Autodesk, Inc."
 90
     1024
 91
        1
280
     0
281
     0
  0
CLASS
  1
ACMSTANDARDBSI
  2
AcmStandardBSI
  3
"Amdt_StdImp|Product Description: AutoCAD Mechanical|Company: Autodesk, Inc."
 90
     1024
 91
        1
280
     0
281
     0
  0
CLASS
  1
ACMSTANDARDDIN
  2
AcmStandardDIN
  3
"Amdt_StdImp|Product Description: AutoCAD Mechanical|Company: Autodesk, Inc."
 90
     1024
 91
        1
280
     0
281
     0
  0
CLASS
  1
ACMSTANDARDISO
  2
AcmStandardISO
  3
"Amdt_StdImp|Product Description: AutoCAD Mechanical|Company: Autodesk, Inc."
 90
     1024
 91
        1
280
     0
281
     0
  0
CLASS
  1
ACDBDICTIONARYWDFLT
  2
AcDbDictionaryWithDefault
  3
ObjectDBX Classes
 90
        0
 91
        1
280
     0
281
     0
  0
CLASS
  1
TABLESTYLE
  2
AcDbTableStyle
  3
ObjectDBX Classes
 90
     4095
 91
        1
280
     0
281
     0
  0
CLASS
  1
ACME_DOCUMENT
  2
AcMeDbDoc
  3
AcMeServices
 90
     1024
 91
        2
280
     0
281
     0
  0
CLASS
  1
AMGSETTINGSOBJ
  2
AmgSettingsObj
  3
"AcadM|Product Description: AutoCAD Mechanical|Company: Autodesk, Inc."
 90
     1024
 91
        2
280
     0
281
     0
  0
CLASS
  1
ACDBENTITYCACHE
  2
AcMeEntityCache
  3
AcMeServices
 90
     1024
 91
        1
280
     0
281
     0
  0
CLASS
  1
GSMANAGER
  2
AcMeGSManager
  3
AcMeServices
 90
     1024
 91
        1
280
     0
281
     0
  0
CLASS
  1
AMDTINTERNALREACTOR
  2
AmdtInternalReactor
  3
AcMeServices
 90
     1024
 91
        2
280
     0
281
     0
  0
CLASS
  1
ACGREFMASTER
  2
AcGrefMaster
  3
AcAttribServices
 90
     1024
 91
        1
280
     0
281
     0
  0
CLASS
  1
AM_DRAWING_MGR
  2
AcDmDwgMgr
  3
AcMechDwgViewMgmt
 90
     1024
 91
        1
280
     0
281
     0
  0
CLASS
  1
AM_DWG_DOCUMENT
  2
AcDmDwgDocument
  3
AcMechDwgViewMgmt
 90
     1024
 91
        1
280
     0
281
     0
  0
CLASS
  1
AM_DWG_SHEET
  2
AcDmSheet
  3
AcMechDwgViewMgmt
 90
     1024
 91
        1
280
     0
281
     0
  0
CLASS
  1
AM_VIEWDIMPARMAP
  2
AcDmViewDimParMap
  3
AcMechDwgViewMgmt
 90
     1024
 91
        1
280
     0
281
     0
  0
CLASS
  1
ACIMREALSYSVAR
  2
AcImRealSysVar
  3
AcMeServices
 90
     1024
 91
        1
280
     0
281
     0
  0
CLASS
  1
AM_DWGMGR_NAME
  2
AcDmDwgMgrName
  3
AcMechDwgViewMgmt
 90
     1024
 91
        1
280
     0
281
     0
  0
CLASS
  1
ACME_DATABASE
  2
AcMeDbDatabase
  3
AcMeServices
 90
     1024
 91
        1
280
     0
281
     0
  0
CLASS
  1
ACGREFACADMASTER
  2
AcGrefacadMaster
  3
AcGrefServices
 90
     1024
 91
        1
280
     0
281
     0
  0
CLASS
  1
AMDTMENUSTATEMGR
  2
AmdtMenuStateMgr
  3
McadcomServices
 90
     1024
 91
        1
280
     0
281
     0
  0
CLASS
  1
AMDTMCOMMENUSTATE
  2
AmdtMcomMenuState
  3
McadcomServices
 90
     1024
 91
        1
280
     0
281
     0
  0
CLASS
  1
AMIMASTER
  2
AmiMaster
  3
AmiServices
 90
     1024
 91
        1
280
     0
281
     0
  0
CLASS
  1
MAPIAMMOUDLE
  2
MApiAmModule
  3
MApiAmServices
 90
     1024
 91
        1
280
     0
281
     0
  0
CLASS
  1
AMDTADMENUSTATE
  2
AmdtAdMenuState
  3
DesignerServices
 90
     1024
 91
        1
280
     0
281
     0
  0
CLASS
  1
ADAPPL
  2
AcAdAppl
  3
DesignerServices
 90
     1024
 91
        1
280
     0
281
     0
  0
CLASS
  1
DEPMGR
  2
AcAdDepMgr
  3
DesignerServices
 90
     1024
 91
        1
280
     0
281
     0
  0
CLASS
  1
PARAMMGR
  2
AcAdParamMgr
  3
DesignerServices
 90
     1024
 91
        1
280
     0
281
     0
  0
CLASS
  1
PARAMSCOPE
  2
AcAdParamScope
  3
DesignerServices
 90
     1024
 91
        1
280
     0
281
     0
  0
CLASS
  1
NAMEDAPPL
  2
AcAdNamedAppl
  3
DesignerServices
 90
     1024
 91
        1
280
     0
281
     0
  0
CLASS
  1
AMDTDMMENUSTATE
  2
AmdtDmMenuState
  3
AcMechDwgViewMgmt
 90
     1024
 91
        1
280
     0
281
     0
  0
CLASS
  1
AMDTAMMENUSTATE
  2
AmdtAmMenuState
  3
DesignerAssemblies
 90
     1024
 91
        1
280
     0
281
     0
  0
CLASS
  1
ACAMPROJECT
  2
AcAmProject
  3
DesignerAssemblies
 90
     1024
 91
        1
280
     0
281
     0
  0
CLASS
  1
ACAMGRCOMPDEF
  2
AcAmGrCompDef
  3
DesignerAssemblies
 90
     1024
 91
        1
280
     0
281
     0
  0
CLASS
  1
ACCMCONTEXT
  2
AcCmContext
  3
DesignerAssemblies
 90
     1024
 91
        1
280
     0
281
     0
  0
CLASS
  1
ACAMCOMPDEF
  2
AcAmCompDef
  3
DesignerAssemblies
 90
     1024
 91
        1
280
     0
281
     0
  0
CLASS
  1
ACAMCOMPDEFMGR
  2
AcAmCompDefMgr
  3
DesignerAssemblies
 90
     1024
 91
        1
280
     0
281
     0
  0
CLASS
  1
AMCONTEXTMGR
  2
AcAmContextMgr
  3
DesignerAssemblies
 90
     1024
 91
        1
280
     0
281
     0
  0
CLASS
  1
ACAMCONTEXTMODELER
  2
AcAmContextModeler
  3
DesignerAssemblies
 90
     1024
 91
        1
280
     0
281
     0
  0
CLASS
  1
ACMDATADICTIONARY
  2
AcmDataDictionary
  3
"AcmSymBB|Product Description: AutoCAD Mechanical|Company: Autodesk, Inc."
 90
     1024
 91
        1
280
     0
281
     0
  0
CLASS
  1
ACMSURFSTANDARDJIS
  2
AcmSurfTextStdJIS
  3
"Amdt_StdImp|Product Description: AutoCAD Mechanical|Company: Autodesk, Inc."
 90
     1024
 91
        1
280
     0
281
     0
  0
CLASS
  1
ACMFCFSTANDARDJIS98
  2
AcmFCFStdJIS98
  3
"Amdt_StdImp|Product Description: AutoCAD Mechanical|Company: Autodesk, Inc."
 90
     1024
 91
        1
280
     0
281
     0
  0
CLASS
  1
ACMWELDSTANDARDJIS
  2
AcmWeldingStdJIS
  3
"Amdt_StdImp|Product Description: AutoCAD Mechanical|Company: Autodesk, Inc."
 90
     1024
 91
        1
280
     0
281
     0
  0
CLASS
  1
ACMIDSTANDARDJIS
  2
AcmIdStdJIS
  3
"Amdt_StdImp|Product Description: AutoCAD Mechanical|Company: Autodesk, Inc."
 90
     1024
 91
        1
280
     0
281
     0
  0
CLASS
  1
ACMDATUMSTANDARDJIS
  2
AcmDatumStdJIS
  3
"Amdt_StdImp|Product Description: AutoCAD Mechanical|Company: Autodesk, Inc."
 90
     1024
 91
        1
280
     0
281
     0
  0
CLASS
  1
ACMBOMSTANDARDJIS
  2
AcmBOMStdJIS
  3
"Amdt_StdImp|Product Description: AutoCAD Mechanical|Company: Autodesk, Inc."
 90
     1024
 91
        1
280
     0
281
     0
  0
CLASS
  1
AMGOBJPROPCFG
  2
AmgObjPropCfg
  3
"AmgLay|Product Description: AutoCAD Mechanical|Company: Autodesk, Inc."
 90
     1025
 91
        1
280
     0
281
     0
  0
CLASS
  1
ACMDETAILSTANDARDJIS
  2
AmdtDetailSymStdJIS
  3
"Amdt_StdImp|Product Description: AutoCAD Mechanical|Company: Autodesk, Inc."
 90
     1024
 91
        1
280
     0
281
     0
  0
CLASS
  1
ACMSECTIONSTANDARDJIS
  2
AmdtSectionSymStdJIS
  3
"Amdt_StdImp|Product Description: AutoCAD Mechanical|Company: Autodesk, Inc."
 90
     1024
 91
        1
280
     0
281
     0
  0
CLASS
  1
ACMCENTERLINESTANDARDJIS
  2
AmdtCenterLineStdJIS
  3
"Amdt_StdImp|Product Description: AutoCAD Mechanical|Company: Autodesk, Inc."
 90
     1024
 91
        1
280
     0
281
     0
  0
CLASS
  1
ACMTHREADLINESTANDARDJIS
  2
AmdtThreadLineStdJIS
  3
"Amdt_StdImp|Product Description: AutoCAD Mechanical|Company: Autodesk, Inc."
 90
     1024
 91
        1
280
     0
281
     0
  0
CLASS
  1
ACMNOTESTANDARDJIS
  2
AmdtNoteStdJIS
  3
"Amdt_StdImp|Product Description: AutoCAD Mechanical|Company: Autodesk, Inc."
 90
     1024
 91
        1
280
     0
281
     0
  0
CLASS
  1
AMDTNOTETEMPLATEDB
  2
AmdtNoteTemplateDB
  3
AcmSymBB|Product Description: AutoCAD Mechanical|Company: Autodesk, Inc.
 90
     1024
 91
       25
280
     0
281
     0
  0
CLASS
  1
ACAMGTITLESTD
  2
AcAmgTitleStd
  3
"AmgTitle|Product Description: AutoCAD Mechanical|Company: Autodesk, Inc."
 90
     4095
 91
        5
280
     0
281
     0
  0
CLASS
  1
ACMSURFSTANDARDANSI
  2
AcmSurfTextStdANSI
  3
"Amdt_StdImp|Product Description: AutoCAD Mechanical|Company: Autodesk, Inc."
 90
     1024
 91
        1
280
     0
281
     0
  0
CLASS
  1
ACMFCFSTANDARDANSI
  2
AcmFCFStdANSI
  3
"Amdt_StdImp|Product Description: AutoCAD Mechanical|Company: Autodesk, Inc."
 90
     1024
 91
        1
280
     0
281
     0
  0
CLASS
  1
ACMWELDSTANDARDANSI
  2
AcmWeldingStdANSI
  3
"Amdt_StdImp|Product Description: AutoCAD Mechanical|Company: Autodesk, Inc."
 90
     1024
 91
        1
280
     0
281
     0
  0
CLASS
  1
ACMIDSTANDARDANSI
  2
AcmIdStdANSI
  3
"Amdt_StdImp|Product Description: AutoCAD Mechanical|Company: Autodesk, Inc."
 90
     1024
 91
        1
280
     0
281
     0
  0
CLASS
  1
ACMDATUMSTANDARDANSI
  2
AcmDatumStdANSI
  3
"Amdt_StdImp|Product Description: AutoCAD Mechanical|Company: Autodesk, Inc."
 90
     1024
 91
        1
280
     0
281
     0
  0
CLASS
  1
ACMBOMSTANDARDANSI
  2
AcmBOMStdANSI
  3
"Amdt_StdImp|Product Description: AutoCAD Mechanical|Company: Autodesk, Inc."
 90
     1024
 91
        1
280
     0
281
     0
  0
CLASS
  1
ACMDETAILSTANDARDANSI
  2
AmdtDetailSymStdANSI
  3
"Amdt_StdImp|Product Description: AutoCAD Mechanical|Company: Autodesk, Inc."
 90
     1024
 91
        1
280
     0
281
     0
  0
CLASS
  1
ACMSECTIONSTANDARDANSI
  2
AmdtSectionSymStdANSI
  3
"Amdt_StdImp|Product Description: AutoCAD Mechanical|Company: Autodesk, Inc."
 90
     1024
 91
        1
280
     0
281
     0
  0
CLASS
  1
ACMCENTERLINESTANDARDANSI
  2
AmdtCenterLineStdANSI
  3
"Amdt_StdImp|Product Description: AutoCAD Mechanical|Company: Autodesk, Inc."
 90
     1024
 91
        1
280
     0
281
     0
  0
CLASS
  1
ACMTHREADLINESTANDARDANSI
  2
AmdtThreadLineStdANSI
  3
"Amdt_StdImp|Product Description: AutoCAD Mechanical|Company: Autodesk, Inc."
 90
     1024
 91
        1
280
     0
281
     0
  0
CLASS
  1
ACMNOTESTANDARDANSI
  2
AmdtNoteStdANSI
  3
"Amdt_StdImp|Product Description: AutoCAD Mechanical|Company: Autodesk, Inc."
 90
     1024
 91
        1
280
     0
281
     0
  0
CLASS
  1
ACMSURFSTANDARDBSI
  2
AcmSurfTextStdBSI
  3
"Amdt_StdImp|Product Description: AutoCAD Mechanical|Company: Autodesk, Inc."
 90
     1024
 91
        1
280
     0
281
     0
  0
CLASS
  1
ACMFCFSTANDARDBSI
  2
AcmFCFStdBSI
  3
"Amdt_StdImp|Product Description: AutoCAD Mechanical|Company: Autodesk, Inc."
 90
     1024
 91
        1
280
     0
281
     0
  0
CLASS
  1
ACMWELDSTANDARDBSI
  2
AcmWeldingStdBSI
  3
"Amdt_StdImp|Product Description: AutoCAD Mechanical|Company: Autodesk, Inc."
 90
     1024
 91
        1
280
     0
281
     0
  0
CLASS
  1
ACMIDSTANDARDBSI
  2
AcmIdStdBSI
  3
"Amdt_StdImp|Product Description: AutoCAD Mechanical|Company: Autodesk, Inc."
 90
     1024
 91
        1
280
     0
281
     0
  0
CLASS
  1
ACMDATUMSTANDARDBSI
  2
AcmDatumStdBSI
  3
"Amdt_StdImp|Product Description: AutoCAD Mechanical|Company: Autodesk, Inc."
 90
     1024
 91
        1
280
     0
281
     0
  0
CLASS
  1
ACMBOMSTANDARDBSI
  2
AcmBOMStdBSI
  3
"Amdt_StdImp|Product Description: AutoCAD Mechanical|Company: Autodesk, Inc."
 90
     1024
 91
        1
280
     0
281
     0
  0
CLASS
  1
ACMDETAILSTANDARDBSI
  2
AmdtDetailSymStdBSI
  3
"Amdt_StdImp|Product Description: AutoCAD Mechanical|Company: Autodesk, Inc."
 90
     1024
 91
        1
280
     0
281
     0
  0
CLASS
  1
ACMSECTIONSTANDARDBSI
  2
AmdtSectionSymStdBSI
  3
"Amdt_StdImp|Product Description: AutoCAD Mechanical|Company: Autodesk, Inc."
 90
     1024
 91
        1
280
     0
281
     0
  0
CLASS
  1
ACMCENTERLINESTANDARDBSI
  2
AmdtCenterLineStdBSI
  3
"Amdt_StdImp|Product Description: AutoCAD Mechanical|Company: Autodesk, Inc."
 90
     1024
 91
        1
280
     0
281
     0
  0
CLASS
  1
ACMTHREADLINESTANDARDBSI
  2
AmdtThreadLineStdBSI
  3
"Amdt_StdImp|Product Description: AutoCAD Mechanical|Company: Autodesk, Inc."
 90
     1024
 91
        1
280
     0
281
     0
  0
CLASS
  1
ACMNOTESTANDARDBSI
  2
AmdtNoteStdBSI
  3
"Amdt_StdImp|Product Description: AutoCAD Mechanical|Company: Autodesk, Inc."
 90
     1024
 91
        1
280
     0
281
     0
  0
CLASS
  1
AMDTEDGESTANDARDDIN13715
  2
AmdtEdgeStdDIN13715
  3
"Amdt_StdImp|Product Description: AutoCAD Mechanical|Company: Autodesk, Inc."
 90
     1024
 91
        1
280
     0
281
     0
  0
CLASS
  1
ACMSURFSTANDARDDIN
  2
AcmSurfTextStdDIN
  3
"Amdt_StdImp|Product Description: AutoCAD Mechanical|Company: Autodesk, Inc."
 90
     1024
 91
        1
280
     0
281
     0
  0
CLASS
  1
ACMFCFSTANDARDDIN
  2
AcmFCFStdDIN
  3
"Amdt_StdImp|Product Description: AutoCAD Mechanical|Company: Autodesk, Inc."
 90
     1024
 91
        1
280
     0
281
     0
  0
CLASS
  1
ACMWELDSTANDARDDIN
  2
AcmWeldingStdDIN
  3
"Amdt_StdImp|Product Description: AutoCAD Mechanical|Company: Autodesk, Inc."
 90
     1024
 91
        1
280
     0
281
     0
  0
CLASS
  1
ACMIDSTANDARDDIN
  2
AcmIdStdDIN
  3
"Amdt_StdImp|Product Description: AutoCAD Mechanical|Company: Autodesk, Inc."
 90
     1024
 91
        1
280
     0
281
     0
  0
CLASS
  1
ACMDATUMSTANDARDDIN
  2
AcmDatumStdDIN
  3
"Amdt_StdImp|Product Description: AutoCAD Mechanical|Company: Autodesk, Inc."
 90
     1024
 91
        1
280
     0
281
     0
  0
CLASS
  1
ACMBOMSTANDARDDIN
  2
AcmBOMStdDIN
  3
"Amdt_StdImp|Product Description: AutoCAD Mechanical|Company: Autodesk, Inc."
 90
     1024
 91
        1
280
     0
281
     0
  0
CLASS
  1
ACMDETAILSTANDARDDIN
  2
AmdtDetailSymStdDIN
  3
"Amdt_StdImp|Product Description: AutoCAD Mechanical|Company: Autodesk, Inc."
 90
     1024
 91
        1
280
     0
281
     0
  0
CLASS
  1
ACMSECTIONSTANDARDDIN
  2
AmdtSectionSymStdDIN
  3
"Amdt_StdImp|Product Description: AutoCAD Mechanical|Company: Autodesk, Inc."
 90
     1024
 91
        1
280
     0
281
     0
  0
CLASS
  1
ACMCENTERLINESTANDARDDIN
  2
AmdtCenterLineStdDIN
  3
"Amdt_StdImp|Product Description: AutoCAD Mechanical|Company: Autodesk, Inc."
 90
     1024
 91
        1
280
     0
281
     0
  0
CLASS
  1
ACMTHREADLINESTANDARDDIN
  2
AmdtThreadLineStdDIN
  3
"Amdt_StdImp|Product Description: AutoCAD Mechanical|Company: Autodesk, Inc."
 90
     1024
 91
        1
280
     0
281
     0
  0
CLASS
  1
ACMNOTESTANDARDDIN
  2
AmdtNoteStdDIN
  3
"Amdt_StdImp|Product Description: AutoCAD Mechanical|Company: Autodesk, Inc."
 90
     1024
 91
        1
280
     0
281
     0
  0
CLASS
  1
AMDTEDGESTANDARDISO13715
  2
AmdtEdgeStdISO13715
  3
"Amdt_StdImp|Product Description: AutoCAD Mechanical|Company: Autodesk, Inc."
 90
     1024
 91
        1
280
     0
281
     0
  0
CLASS
  1
ACMSURFSTANDARDISO
  2
AcmSurfTextStdISO
  3
"Amdt_StdImp|Product Description: AutoCAD Mechanical|Company: Autodesk, Inc."
 90
     1024
 91
        1
280
     0
281
     0
  0
CLASS
  1
ACMFCFSTANDARDISO
  2
AcmFCFStdISO
  3
"Amdt_StdImp|Product Description: AutoCAD Mechanical|Company: Autodesk, Inc."
 90
     1024
 91
        1
280
     0
281
     0
  0
CLASS
  1
ACMWELDSTANDARDISO
  2
AcmWeldingStdISO
  3
"Amdt_StdImp|Product Description: AutoCAD Mechanical|Company: Autodesk, Inc."
 90
     1024
 91
        1
280
     0
281
     0
  0
CLASS
  1
ACMIDSTANDARDISO
  2
AcmIdStdISO
  3
"Amdt_StdImp|Product Description: AutoCAD Mechanical|Company: Autodesk, Inc."
 90
     1024
 91
        1
280
     0
281
     0
  0
CLASS
  1
ACMDATUMSTANDARDISO
  2
AcmDatumStdISO
  3
"Amdt_StdImp|Product Description: AutoCAD Mechanical|Company: Autodesk, Inc."
 90
     1024
 91
        1
280
     0
281
     0
  0
CLASS
  1
ACMBOMSTANDARDISO
  2
AcmBOMStdISO
  3
"Amdt_StdImp|Product Description: AutoCAD Mechanical|Company: Autodesk, Inc."
 90
     1024
 91
        1
280
     0
281
     0
  0
CLASS
  1
ACMDETAILSTANDARDISO
  2
AmdtDetailSymStdISO
  3
"Amdt_StdImp|Product Description: AutoCAD Mechanical|Company: Autodesk, Inc."
 90
     1024
 91
        1
280
     0
281
     0
  0
CLASS
  1
ACMSECTIONSTANDARDISO
  2
AmdtSectionSymStdISO
  3
"Amdt_StdImp|Product Description: AutoCAD Mechanical|Company: Autodesk, Inc."
 90
     1024
 91
        1
280
     0
281
     0
  0
CLASS
  1
ACMCENTERLINESTANDARDISO
  2
AmdtCenterLineStdISO
  3
"Amdt_StdImp|Product Description: AutoCAD Mechanical|Company: Autodesk, Inc."
 90
     1024
 91
        1
280
     0
281
     0
  0
CLASS
  1
ACMTHREADLINESTANDARDISO
  2
AmdtThreadLineStdISO
  3
"Amdt_StdImp|Product Description: AutoCAD Mechanical|Company: Autodesk, Inc."
 90
     1024
 91
        1
280
     0
281
     0
  0
CLASS
  1
ACMNOTESTANDARDISO
  2
AmdtNoteStdISO
  3
"Amdt_StdImp|Product Description: AutoCAD Mechanical|Company: Autodesk, Inc."
 90
     1024
 91
        1
280
     0
281
     0
  0
CLASS
  1
ACAMGLAYSTD
  2
AcAmgLayStd
  3
"AmgLay|Product Description: AutoCAD Mechanical|Company: Autodesk, Inc."
 90
     1024
 91
        5
280
     0
281
     0
  0
CLASS
  1
ACAMGDIMSTD
  2
AcAmgDimStd
  3
"AmgDim|Product Description: AutoCAD Mechanical|Company: Autodesk, Inc."
 90
     1024
 91
        5
280
     0
281
     0
  0
CLASS
  1
ACAMGHOLECHARTSTDANSI
  2
AcAmgHoleChartStdANSI
  3
AmgDim|Product Description: AutoCAD Mechanical|Company: Autodesk, Inc.
 90
     1024
 91
        1
280
     0
281
     0
  0
CLASS
  1
ACAMGHOLECHARTSTDBSI
  2
AcAmgHoleChartStdBSI
  3
AmgDim|Product Description: AutoCAD Mechanical|Company: Autodesk, Inc.
 90
     1024
 91
        1
280
     0
281
     0
  0
CLASS
  1
ACAMGHOLECHARTSTDDIN
  2
AcAmgHoleChartStdDIN
  3
AmgDim|Product Description: AutoCAD Mechanical|Company: Autodesk, Inc.
 90
     1024
 91
        1
280
     0
281
     0
  0
CLASS
  1
ACAMGHOLECHARTSTDISO
  2
AcAmgHoleChartStdISO
  3
AmgDim|Product Description: AutoCAD Mechanical|Company: Autodesk, Inc.
 90
     1024
 91
        1
280
     0
281
     0
  0
CLASS
  1
ACAMGHOLECHARTSTDJIS
  2
AcAmgHoleChartStdJIS
  3
AmgDim|Product Description: AutoCAD Mechanical|Company: Autodesk, Inc.
 90
     1024
 91
        1
280
     0
281
     0
  0
CLASS
  1
CATALOGSTATE
  2
AcAmCatalogState
  3
DesignerAssemblies
 90
     1024
 91
        1
280
     0
281
     0
  0
CLASS
  1
ACAMGRCOMPDEFSET
  2
AcAmGrCompDefSet
  3
DesignerAssemblies
 90
     1024
 91
        1
280
     0
281
     0
  0
CLASS
  1
AMDTBROWSERDBTAB
  2
AmdtBrowserDbTab
  3
McadcomServices
 90
     1024
 91
        1
280
     0
281
     0
  0
CLASS
  1
CBROWSERAPPOBJECT
  2
CBrowserAppObject
  3
McadcomServices
 90
     1024
 91
        3
280
     0
281
     0
  0
CLASS
  1
DM_PLACEHOLDER
  2
AcDmSelsetPlaceholder
  3
AcMechDwgViewMgmt
 90
     1024
 91
        1
280
     0
281
     0
  0
CLASS
  1
VAACXREFPANELOBJECT
  2
VaAcXREFPanelObject
  3
VAAC_ADDIN
 90
        0
 91
        0
280
     0
281
     0
  0
CLASS
  1
VAACIMAGEINVENTORY
  2
VaAcImageInventory
  3
VAAC_ADDIN
 90
        0
 91
        0
280
     0
281
     0
  0
CLASS
  1
MATERIAL
  2
AcDbMaterial
  3
ObjectDBX Classes
 90
     1153
 91
        3
280
     0
281
     0
  0
CLASS
  1
VISUALSTYLE
  2
AcDbVisualStyle
  3
ObjectDBX Classes
 90
     4095
 91
       16
280
     0
281
     0
  0
CLASS
  1
SCALE
  2
AcDbScale
  3
ObjectDBX Classes
 90
     1153
 91
       33
280
     0
281
     0
  0
CLASS
  1
MLEADERSTYLE
  2
AcDbMLeaderStyle
  3
ACDB_MLEADERSTYLE_CLASS
 90
     4095
 91
        1
280
     0
281
     0
  0
CLASS
  1
ACMTAPERSTANDARDJIS
  2
AcmTaperStdJIS
  3
"Amdt_StdImp|Product Description: AutoCAD Mechanical|Company: Autodesk, Inc."
 90
     1024
 91
        1
280
     0
281
     0
  0
CLASS
  1
ACMANOOTATIONVIEWSTANDARDJIS
  2
AmdtAnViewStdJIS
  3
"Amdt_StdImp|Product Description: AutoCAD Mechanical|Company: Autodesk, Inc."
 90
     1024
 91
        1
280
     0
281
     0
  0
CLASS
  1
ACMTAPERSTANDARDANSI
  2
AcmTaperStdANSI
  3
"Amdt_StdImp|Product Description: AutoCAD Mechanical|Company: Autodesk, Inc."
 90
     1024
 91
        1
280
     0
281
     0
  0
CLASS
  1
ACMANOOTATIONVIEWSTANDARDANSI
  2
AmdtAnViewStdANSI
  3
"Amdt_StdImp|Product Description: AutoCAD Mechanical|Company: Autodesk, Inc."
 90
     1024
 91
        1
280
     0
281
     0
  0
CLASS
  1
ACMTAPERSTANDARDBSI
  2
AcmTaperStdBSI
  3
"Amdt_StdImp|Product Description: AutoCAD Mechanical|Company: Autodesk, Inc."
 90
     1024
 91
        1
280
     0
281
     0
  0
CLASS
  1
ACMANOOTATIONVIEWSTANDARDBSI
  2
AmdtAnViewStdBSI
  3
"Amdt_StdImp|Product Description: AutoCAD Mechanical|Company: Autodesk, Inc."
 90
     1024
 91
        1
280
     0
281
     0
  0
CLASS
  1
ACMTAPERSTANDARDDIN
  2
AcmTaperStdDIN
  3
"Amdt_StdImp|Product Description: AutoCAD Mechanical|Company: Autodesk, Inc."
 90
     1024
 91
        1
280
     0
281
     0
  0
CLASS
  1
ACMANOOTATIONVIEWSTANDARDDIN
  2
AmdtAnViewStdDIN
  3
"Amdt_StdImp|Product Description: AutoCAD Mechanical|Company: Autodesk, Inc."
 90
     1024
 91
        1
280
     0
281
     0
  0
CLASS
  1
ACMTAPERSTANDARDISO
  2
AcmTaperStdISO
  3
"Amdt_StdImp|Product Description: AutoCAD Mechanical|Company: Autodesk, Inc."
 90
     1024
 91
        1
280
     0
281
     0
  0
CLASS
  1
ACMANOOTATIONVIEWSTANDARDISO
  2
AmdtAnViewStdISO
  3
"Amdt_StdImp|Product Description: AutoCAD Mechanical|Company: Autodesk, Inc."
 90
     1024
 91
        1
280
     0
281
     0
  0
CLASS
  1
CAMSSTRUCTBTNSTATE
  2
StructBtnState
  3
DesignerAssemblies
 90
     1024
 91
        1
280
     0
281
     0
  0
CLASS
  1
CELLSTYLEMAP
  2
AcDbCellStyleMap
  3
ObjectDBX Classes
 90
     1152
 91
        2
280
     0
281
     0
  0
CLASS
  1
SORTENTSTABLE
  2
AcDbSortentsTable
  3
ObjectDBX Classes
 90
        0
 91
        1
280
     0
281
     0
  0
CLASS
  1
ACAMGFILTERDAT
  2
AcAmgFilterDat
  3
"AcadM|Product Description: AutoCAD Mechanical|Company: Autodesk, Inc."
 90
     1024
 91
        6
280
     0
281
     0
  0
ENDSEC
  0
SECTION
  2
TABLES
  0
TABLE
  2
VPORT
  5
13
330
0
100
AcDbSymbolTable
 70
     1
  0
VPORT
  5
3B5
330
13
100
AcDbSymbolTableRecord
100
AcDbViewportTableRecord
  2
*Active
 70
     0
 10
0.0
 20
0.0
 11
1.0
 21
1.0
 12
561.4159420654625
 22
315.6673855193326
 13
0.0
 23
0.0
 14
10.0
 24
10.0
 15
10.0
 25
10.0
 16
0.0
 26
0.0
 36
1.0
 17
0.0
 27
0.0
 37
0.0
 40
538.9005549624035
 41
1.567179487179487
 42
50.0
 43
0.0
 44
0.0
 50
0.0
 51
0.0
 71
     0
 72
   100
 73
     1
 74
     0
 75
     0
 76
     0
 77
     0
 78
     0
281
     0
 65
     1
110
0.0
120
0.0
130
0.0
111
1.0
121
0.0
131
0.0
112
0.0
122
1.0
132
0.0
 79
     0
146
0.0
  0
ENDTAB
  0
TABLE
  2
LTYPE
  5
E
330
0
100
AcDbSymbolTable
 70
    23
  0
LTYPE
  5
F
330
E
100
AcDbSymbolTableRecord
100
AcDbLinetypeTableRecord
  2
BYBLOCK
 70
     0
  3

 72
    65
 73
     0
 40
0.0
  0
LTYPE
  5
10
330
E
100
AcDbSymbolTableRecord
100
AcDbLinetypeTableRecord
  2
BYLAYER
 70
     0
  3

 72
    65
 73
     0
 40
0.0
  0
LTYPE
  5
6
330
E
100
AcDbSymbolTableRecord
100
AcDbLinetypeTableRecord
  2
CONTINUOUS
 70
     0
  3
Solid line
 72
    65
 73
     0
 40
0.0
  0
LTYPE
  5
25
330
E
100
AcDbSymbolTableRecord
100
AcDbLinetypeTableRecord
  2
MITTE
 70
     0
  3
____ _ ____ _ ____ _ ____ _ ____ _ ____ _ ____ 
 72
    65
 73
     4
 40
2.0
 49
1.25
 74
     0
 49
-0.25
 74
     0
 49
0.25
 74
     0
 49
-0.25
 74
     0
  0
LTYPE
  5
6A
330
E
100
AcDbSymbolTableRecord
100
AcDbLinetypeTableRecord
  2
STRICHLINIE
 70
     0
  3
Strichlinie __ __ __ __ __ __ __ __ __ __ __ __
 72
    65
 73
     2
 40
0.75
 49
0.5
 74
     0
 49
-0.25
 74
     0
  0
LTYPE
  5
279
330
E
100
AcDbSymbolTableRecord
100
AcDbLinetypeTableRecord
  2
ACJISTGB
 70
     0
  3
__ . . __ . .
 72
    65
 73
     6
 40
9.0
 49
4.0
 74
     0
 49
-1.0
 74
     0
 49
1.0
 74
     0
 49
-1.0
 74
     0
 49
1.0
 74
     0
 49
-1.0
 74
     0
  0
LTYPE
  5
27A
330
E
100
AcDbSymbolTableRecord
100
AcDbLinetypeTableRecord
  2
ACJISTGL
 70
     0
  3
_ _ _ _ _
 72
    65
 73
     2
 40
3.0
 49
2.0
 74
     0
 49
-1.0
 74
     0
  0
LTYPE
  5
27D
330
E
100
AcDbSymbolTableRecord
100
AcDbLinetypeTableRecord
  2
ACANSTGB
 70
     0
  3
__ . . __ . .
 72
    65
 73
     6
 40
0.35433070866
 49
0.15748031496
 74
     0
 49
-0.03937007874
 74
     0
 49
0.03937007874
 74
     0
 49
-0.03937007874
 74
     0
 49
0.03937007874
 74
     0
 49
-0.03937007874
 74
     0
  0
LTYPE
  5
27E
330
E
100
AcDbSymbolTableRecord
100
AcDbLinetypeTableRecord
  2
ACANSTGL
 70
     0
  3
_ _ _ _ _
 72
    65
 73
     2
 40
0.11811023622
 49
0.07874015748
 74
     0
 49
-0.03937007874
 74
     0
  0
LTYPE
  5
281
330
E
100
AcDbSymbolTableRecord
100
AcDbLinetypeTableRecord
  2
ACBSIWELD
 70
     0
  3
_ _ _ _ _
 72
    65
 73
     2
 40
2.0
 49
2.0
 74
     0
 49
-1.0
 74
     0
  0
LTYPE
  5
282
330
E
100
AcDbSymbolTableRecord
100
AcDbLinetypeTableRecord
  2
ACBSITGB
 70
     0
  3
__ . . __ . .
 72
    65
 73
     6
 40
9.0
 49
4.0
 74
     0
 49
-1.0
 74
     0
 49
1.0
 74
     0
 49
-1.0
 74
     0
 49
1.0
 74
     0
 49
-1.0
 74
     0
  0
LTYPE
  5
283
330
E
100
AcDbSymbolTableRecord
100
AcDbLinetypeTableRecord
  2
ACBSITGL
 70
     0
  3
_ _ _ _ _
 72
    65
 73
     2
 40
3.0
 49
2.0
 74
     0
 49
-1.0
 74
     0
  0
LTYPE
  5
286
330
E
100
AcDbSymbolTableRecord
100
AcDbLinetypeTableRecord
  2
ACDINWELD
 70
     0
  3
_ _ _ _ _
 72
    65
 73
     2
 40
2.0
 49
2.0
 74
     0
 49
-1.0
 74
     0
  0
LTYPE
  5
287
330
E
100
AcDbSymbolTableRecord
100
AcDbLinetypeTableRecord
  2
ACDINTGB
 70
     0
  3
__ . . __ . .
 72
    65
 73
     6
 40
9.0
 49
4.0
 74
     0
 49
-1.0
 74
     0
 49
1.0
 74
     0
 49
-1.0
 74
     0
 49
1.0
 74
     0
 49
-1.0
 74
     0
  0
LTYPE
  5
288
330
E
100
AcDbSymbolTableRecord
100
AcDbLinetypeTableRecord
  2
ACDINTGL
 70
     0
  3
_ _ _ _ _
 72
    65
 73
     2
 40
3.0
 49
2.0
 74
     0
 49
-1.0
 74
     0
  0
LTYPE
  5
28B
330
E
100
AcDbSymbolTableRecord
100
AcDbLinetypeTableRecord
  2
ACISOWELD
 70
     0
  3
_ _ _ _ _
 72
    65
 73
     2
 40
2.0
 49
2.0
 74
     0
 49
-1.0
 74
     0
  0
LTYPE
  5
28C
330
E
100
AcDbSymbolTableRecord
100
AcDbLinetypeTableRecord
  2
ACISOTGB
 70
     0
  3
__ . . __ . .
 72
    65
 73
     6
 40
9.0
 49
4.0
 74
     0
 49
-1.0
 74
     0
 49
1.0
 74
     0
 49
-1.0
 74
     0
 49
1.0
 74
     0
 49
-1.0
 74
     0
  0
LTYPE
  5
28D
330
E
100
AcDbSymbolTableRecord
100
AcDbLinetypeTableRecord
  2
ACISOTGL
 70
     0
  3
_ _ _ _ _
 72
    65
 73
     2
 40
3.0
 49
2.0
 74
     0
 49
-1.0
 74
     0
  0
LTYPE
  5
2E0
330
E
100
AcDbSymbolTableRecord
100
AcDbLinetypeTableRecord
  2
HIDDEN
 70
     0
  3
Verdeckt
 72
    65
 73
     2
 40
0.375
 49
0.25
 74
     0
 49
-0.125
 74
     0
  0
LTYPE
  5
2E1
330
E
100
AcDbSymbolTableRecord
100
AcDbLinetypeTableRecord
  2
PHANTOM2
 70
     0
  3
Phantom (.5x) ___ _ _ ___ _ _ ___ _ _ ___ _ _
 72
    65
 73
     6
 40
1.25
 49
0.625
 74
     0
 49
-0.125
 74
     0
 49
0.125
 74
     0
 49
-0.125
 74
     0
 49
0.125
 74
     0
 49
-0.125
 74
     0
  0
LTYPE
  5
2E2
330
E
100
AcDbSymbolTableRecord
100
AcDbLinetypeTableRecord
  2
CENTER
 70
     0
  3
Mitte ____ _ ____ _ ____ _ ____ _ ____ _ ____
 72
    65
 73
     4
 40
2.0
 49
1.25
 74
     0
 49
-0.25
 74
     0
 49
0.25
 74
     0
 49
-0.25
 74
     0
  0
LTYPE
  5
313
330
E
100
AcDbSymbolTableRecord
100
AcDbLinetypeTableRecord
  2
Amconstr
 70
     0
  3
_______________________
 72
    65
 73
     2
 40
9999.0
 49
9999.0
 74
     0
 49
0.0
 74
     0
  0
LTYPE
  5
319
330
E
100
AcDbSymbolTableRecord
100
AcDbLinetypeTableRecord
  2
CENTER2
 70
     0
  3
Center (.5x) ___ _ ___ _ ___ _ ___ _ ___ _ ___
 72
    65
 73
     4
 40
1.125
 49
0.75
 74
     0
 49
-0.125
 74
     0
 49
0.125
 74
     0
 49
-0.125
 74
     0
  0
LTYPE
  5
31A
330
E
100
AcDbSymbolTableRecord
100
AcDbLinetypeTableRecord
  2
HIDDEN2
 70
     0
  3
Hidden (.5x) _ _ _ _ _ _ _ _ _ _ _ _ _ _ _ _ _
 72
    65
 73
     2
 40
0.1875
 49
0.125
 74
     0
 49
-0.0625
 74
     0
  0
LTYPE
  5
31B
330
E
100
AcDbSymbolTableRecord
100
AcDbLinetypeTableRecord
  2
Amzigzag2
 70
     0
  3
/\/-/\/-/\/-/\/-/\/-/\/
 72
    65
 73
     2
 40
0.4401
 49
0.0001
 74
     4
 75
   135
340
317
 46
0.0016
 50
0.0
 44
0.0
 45
0.0
 49
-0.4400000000000001
 74
     0
  0
ENDTAB
  0
TABLE
  2
LAYER
  5
B
330
0
100
AcDbSymbolTable
 70
     5
  0
LAYER
  5
5
102
{ACAD_XDICTIONARY
360
42B
102
}
330
B
100
AcDbSymbolTableRecord
100
AcDbLayerTableRecord
  2
0
 70
     0
 62
     7
  6
CONTINUOUS
370
    -3
390
2A5
  0
LAYER
  5
2B
102
{ACAD_XDICTIONARY
360
42D
102
}
330
B
100
AcDbSymbolTableRecord
100
AcDbLayerTableRecord
  2
BEM
 70
     1
 62
     1
  6
CONTINUOUS
370
    -3
390
2A5
  0
LAYER
  5
24
102
{ACAD_XDICTIONARY
360
42F
102
}
330
B
100
AcDbSymbolTableRecord
100
AcDbLayerTableRecord
  2
MITTE
 70
     0
 62
     6
  6
MITTE
370
    -3
390
2A5
  0
LAYER
  5
27
102
{ACAD_XDICTIONARY
360
431
102
}
330
B
100
AcDbSymbolTableRecord
100
AcDbLayerTableRecord
  2
LINIE
 70
     0
 62
     6
  6
CONTINUOUS
370
    -3
390
2A5
  0
LAYER
  5
34
330
B
100
AcDbSymbolTableRecord
100
AcDbLayerTableRecord
  2
DEFPOINTS
 70
     0
 62
     7
  6
CONTINUOUS
290
     0
370
    -3
390
2A5
  0
ENDTAB
  0
TABLE
  2
STYLE
  5
C
330
0
100
AcDbSymbolTable
 70
    12
  0
STYLE
  5
D
330
C
100
AcDbSymbolTableRecord
100
AcDbTextStyleTableRecord
  2
STANDARD
 70
     0
 40
0.0
 41
1.0
 50
0.0
 71
     0
 42
10.0
  3
romans.shx
  4

  0
STYLE
  5
277
330
C
100
AcDbSymbolTableRecord
100
AcDbTextStyleTableRecord
  2
ACJISTS
 70
     0
 40
1.0
 41
1.0
 50
0.0
 71
     0
 42
10.0
  3
isocp.shx
  4
bigfont.shx
  0
STYLE
  5
278
330
C
100
AcDbSymbolTableRecord
100
AcDbTextStyleTableRecord
  2
ACJISGDT
 70
     0
 40
0.0
 41
1.0
 50
0.0
 71
     0
 42
10.0
  3
amgdt.shx
  4

  0
STYLE
  5
27B
330
C
100
AcDbSymbolTableRecord
100
AcDbTextStyleTableRecord
  2
ACANSTSB
 70
     0
 40
1.0
 41
1.0
 50
0.0
 71
     0
 42
10.0
  3
romans.shx
  4

  0
STYLE
  5
27C
330
C
100
AcDbSymbolTableRecord
100
AcDbTextStyleTableRecord
  2
ACANSGDT
 70
     0
 40
0.0
 41
1.0
 50
0.0
 71
     0
 42
10.0
  3
amgdt.shx
  4

  0
STYLE
  5
27F
330
C
100
AcDbSymbolTableRecord
100
AcDbTextStyleTableRecord
  2
ACBSITS
 70
     0
 40
1.0
 41
1.0
 50
0.0
 71
     0
 42
10.0
  3
isocp.shx
  4

  0
STYLE
  5
280
330
C
100
AcDbSymbolTableRecord
100
AcDbTextStyleTableRecord
  2
ACBSIGDT
 70
     0
 40
0.0
 41
1.0
 50
0.0
 71
     0
 42
10.0
  3
amgdt.shx
  4

  0
STYLE
  5
284
330
C
100
AcDbSymbolTableRecord
100
AcDbTextStyleTableRecord
  2
ACDINTS
 70
     0
 40
1.0
 41
1.0
 50
0.0
 71
     0
 42
10.0
  3
isocp.shx
  4

  0
STYLE
  5
285
330
C
100
AcDbSymbolTableRecord
100
AcDbTextStyleTableRecord
  2
ACDINGDT
 70
     0
 40
0.0
 41
1.0
 50
0.0
 71
     0
 42
10.0
  3
amgdt.shx
  4

  0
STYLE
  5
289
330
C
100
AcDbSymbolTableRecord
100
AcDbTextStyleTableRecord
  2
ACISOTS
 70
     0
 40
1.0
 41
1.0
 50
0.0
 71
     0
 42
10.0
  3
isocp.shx
  4

  0
STYLE
  5
28A
330
C
100
AcDbSymbolTableRecord
100
AcDbTextStyleTableRecord
  2
ACISOGDT
 70
     0
 40
0.0
 41
1.0
 50
0.0
 71
     0
 42
10.0
  3
amgdt.shx
  4

  0
STYLE
  5
317
330
C
100
AcDbSymbolTableRecord
100
AcDbTextStyleTableRecord
  2

 70
     1
 40
0.0
 41
1.0
 50
0.0
 71
     0
 42
10.0
  3
ltypeshp.shx
  4

  0
ENDTAB
  0
TABLE
  2
VIEW
  5
11
330
0
100
AcDbSymbolTable
 70
     0
  0
ENDTAB
  0
TABLE
  2
UCS
  5
12
330
0
100
AcDbSymbolTable
 70
     0
  0
ENDTAB
  0
TABLE
  2
APPID
  5
15
330
0
100
AcDbSymbolTable
 70
    11
  0
APPID
  5
16
330
15
100
AcDbSymbolTableRecord
100
AcDbRegAppTableRecord
  2
ACAD
 70
     0
  0
APPID
  5
254
330
15
100
AcDbSymbolTableRecord
100
AcDbRegAppTableRecord
  2
MCAD_NO_VIS
 70
     0
  0
APPID
  5
2B9
330
15
100
AcDbSymbolTableRecord
100
AcDbRegAppTableRecord
  2
ACAD_TEMP_GRAPHIC
 70
     0
  0
APPID
  5
2E4
330
15
100
AcDbSymbolTableRecord
100
AcDbRegAppTableRecord
  2
AD_DRAW
 70
     0
  0
APPID
  5
2E7
330
15
100
AcDbSymbolTableRecord
100
AcDbRegAppTableRecord
  2
ACATTRIBSERVICES
 70
     0
  0
APPID
  5
305
330
15
100
AcDbSymbolTableRecord
100
AcDbRegAppTableRecord
  2
DESIGNERASSEMBLIES
 70
     0
  0
APPID
  5
3AC
330
15
100
AcDbSymbolTableRecord
100
AcDbRegAppTableRecord
  2
ACADM_DIM_EDIT
 70
     0
  0
APPID
  5
3AD
330
15
100
AcDbSymbolTableRecord
100
AcDbRegAppTableRecord
  2
AMDT_DM_ADJ
 70
     0
  0
APPID
  5
405
330
15
100
AcDbSymbolTableRecord
100
AcDbRegAppTableRecord
  2
ACAD_MLEADERVER
 70
     0
  0
APPID
  5
43C
330
15
100
AcDbSymbolTableRecord
100
AcDbRegAppTableRecord
  2
ACAD_PSEXT
 70
     0
  0
APPID
  5
440
330
15
100
AcDbSymbolTableRecord
100
AcDbRegAppTableRecord
  2
DCO15
 70
     0
  0
ENDTAB
  0
TABLE
  2
DIMSTYLE
  5
17
330
0
100
AcDbSymbolTable
 70
    36
100
AcDbDimStyleTable
 71
     1
340
1D
  0
DIMSTYLE
105
1D
102
{ACAD_REACTORS
330
39
330
150
330
1D7
330
46
330
110
330
FC
330
2A
330
18C
330
1A6
330
199
330
6F
330
EF
330
7C
330
17D
330
228
330
1B3
330
1C4
330
AE
330
89
330
141
102
}
330
17
100
AcDbSymbolTableRecord
100
AcDbDimStyleTableRecord
  2
ISO-25
 70
     0
 41
7.0
 42
0.0
 43
7.0
 44
1.25
 73
     0
 74
     0
 77
     1
 78
     8
140
10.0
141
0.0
144
0.5
147
4.0
172
     1
176
   256
177
   256
178
   256
284
     8
288
     1
340
D
  0
DIMSTYLE
105
55
330
17
100
AcDbSymbolTableRecord
100
AcDbDimStyleTableRecord
  2
STANDARD
 70
     0
  4
"
 41
7.0
 42
0.0
 43
7.0
 44
1.25
 47
0.1
 48
0.1
 73
     0
 74
     0
 77
     1
 78
     8
140
10.0
141
0.0
143
0.0393701
144
0.5
147
4.0
172
     1
176
   256
177
   256
178
   256
271
     2
272
     3
274
     4
283
     0
284
     8
288
     1
340
D
  0
DIMSTYLE
105
374
330
17
100
AcDbSymbolTableRecord
100
AcDbDimStyleTableRecord
  2
AM_ANSI
 70
     0
  4
mm
 41
0.1
 42
0.05
 43
0.5
 44
0.1
 47
0.1
 48
0.1
 78
     7
 79
     2
140
0.12
141
0.0
146
0.71
147
0.06
176
   256
177
   256
178
     2
274
     4
284
     7
340
D
371
    -1
372
    -1
  0
DIMSTYLE
105
375
330
17
100
AcDbSymbolTableRecord
100
AcDbDimStyleTableRecord
  2
AM_ANSI$3
 70
     0
  4
mm
 41
0.1
 42
0.05
 43
0.5
 44
0.1
 47
0.1
 48
0.1
 78
     7
 79
     2
140
0.12
141
0.0
146
0.71
147
0.06
176
   256
177
   256
178
     2
274
     4
284
     7
288
     1
289
     0
340
D
371
    -1
372
    -1
  0
DIMSTYLE
105
376
330
17
100
AcDbSymbolTableRecord
100
AcDbDimStyleTableRecord
  2
AM_ANSI$4
 70
     0
  4
mm
 41
0.1
 42
0.05
 43
0.5
 44
0.1
 47
0.1
 48
0.1
 78
     7
 79
     2
140
0.12
141
0.0
146
0.71
147
0.06
176
   256
177
   256
178
     2
274
     4
284
     7
288
     1
289
     0
340
D
371
    -1
372
    -1
  0
DIMSTYLE
105
377
330
17
100
AcDbSymbolTableRecord
100
AcDbDimStyleTableRecord
  2
AM_ANSI$7
 70
     0
  4
mm
 41
0.1
 42
0.05
 43
0.5
 44
0.1
 47
0.1
 48
0.1
 78
     7
 79
     2
140
0.24
141
0.0
146
0.71
147
0.06
176
   256
177
   256
178
     2
274
     4
284
     7
340
D
371
    -1
372
    -1
  0
DIMSTYLE
105
378
330
17
100
AcDbSymbolTableRecord
100
AcDbDimStyleTableRecord
  2
AM_ANSI$SF
 70
     0
  4
mm
 41
0.1
 42
0.05
 43
0.5
 44
0.1
 47
0.1
 48
0.1
 75
     1
 76
     1
 78
     7
 79
     2
140
0.12
141
0.0
146
0.71
147
0.06
176
   256
177
   256
178
     2
274
     4
284
     7
340
D
371
    -1
372
    -1
  0
DIMSTYLE
105
37D
330
17
100
AcDbSymbolTableRecord
100
AcDbDimStyleTableRecord
  2
AM_ANSI$SH
 70
     0
  4
mm
 41
0.1
 42
0.05
 43
0.5
 44
0.1
 47
0.1
 48
0.1
 75
     1
 76
     1
 78
     7
 79
     2
140
0.12
141
0.0
146
0.71
147
0.06
173
     1
176
   256
177
   256
178
     2
274
     4
284
     7
340
D
343
379
371
    -1
372
    -1
  0
DIMSTYLE
105
380
330
17
100
AcDbSymbolTableRecord
100
AcDbDimStyleTableRecord
  2
AM_BSI
 70
     0
  4
mm
 41
0.1574803149606299
 42
0.05
 43
0.5
 44
0.1
 47
0.1
 48
0.1
 73
     0
 74
     0
 77
     1
 78
     7
 79
     2
140
0.12
141
0.0
146
0.71
147
0.06
172
     1
176
   256
177
   256
178
     2
274
     4
283
     0
284
     7
340
D
371
    -1
372
    -1
  0
DIMSTYLE
105
381
330
17
100
AcDbSymbolTableRecord
100
AcDbDimStyleTableRecord
  2
AM_BSI$3
 70
     0
  4
mm
 41
0.1574803149606299
 42
0.05
 43
0.5
 44
0.1
 47
0.1
 48
0.1
 73
     0
 77
     1
 78
     7
 79
     2
140
0.12
141
0.0
146
0.71
147
0.06
176
   256
177
   256
178
     2
274
     4
283
     0
284
     7
288
     1
289
     0
340
D
371
    -1
372
    -1
  0
DIMSTYLE
105
382
330
17
100
AcDbSymbolTableRecord
100
AcDbDimStyleTableRecord
  2
AM_BSI$4
 70
     0
  4
mm
 41
0.1574803149606299
 42
0.05
 43
0.5
 44
0.1
 47
0.1
 48
0.1
 73
     0
 77
     1
 78
     7
 79
     2
140
0.12
141
0.0
146
0.71
147
0.06
176
   256
177
   256
178
     2
274
     4
283
     0
284
     7
288
     1
289
     0
340
D
371
    -1
372
    -1
  0
DIMSTYLE
105
383
330
17
100
AcDbSymbolTableRecord
100
AcDbDimStyleTableRecord
  2
AM_BSI$6
 70
     0
  4
mm
 41
0.1574803149606299
 42
0.05
 43
0.5
 44
0.1
 47
0.1
 48
0.1
 73
     0
 74
     0
 78
     7
 79
     2
140
0.12
141
0.0
146
0.71
147
0.06
172
     1
176
   256
177
   256
178
     2
274
     4
283
     0
284
     7
340
D
371
    -1
372
    -1
  0
DIMSTYLE
105
384
330
17
100
AcDbSymbolTableRecord
100
AcDbDimStyleTableRecord
  2
AM_BSI$7
 70
     0
  4
mm
 41
0.1
 42
0.05
 43
0.5
 44
0.1
 47
0.1
 48
0.1
 73
     0
 74
     0
 77
     1
 78
     7
 79
     2
140
0.24
141
0.0
146
0.71
147
0.06
172
     1
176
   256
177
   256
178
     2
274
     4
283
     0
284
     7
340
D
371
    -1
372
    -1
  0
DIMSTYLE
105
385
330
17
100
AcDbSymbolTableRecord
100
AcDbDimStyleTableRecord
  2
AM_BSI$SF
 70
     0
  4
mm
 41
0.1574803149606299
 42
0.05
 43
0.5
 44
0.1
 47
0.1
 48
0.1
 73
     0
 74
     0
 75
     1
 76
     1
 77
     1
 78
     7
 79
     2
140
0.12
141
0.0
146
0.71
147
0.06
172
     1
176
   256
177
   256
178
     2
274
     4
283
     0
284
     7
340
D
371
    -1
372
    -1
  0
DIMSTYLE
105
386
330
17
100
AcDbSymbolTableRecord
100
AcDbDimStyleTableRecord
  2
AM_BSI$SH
 70
     0
  4
mm
 41
0.1574803149606299
 42
0.05
 43
0.5
 44
0.1
 47
0.1
 48
0.1
 73
     0
 74
     0
 75
     1
 76
     1
 77
     1
 78
     7
 79
     2
140
0.12
141
0.0
144
2.0
146
0.71
147
0.06
172
     1
173
     1
176
   256
177
   256
178
     2
274
     4
283
     0
284
     7
340
D
343
379
371
    -1
372
    -1
  0
DIMSTYLE
105
389
330
17
100
AcDbSymbolTableRecord
100
AcDbDimStyleTableRecord
  2
AM_DIN
 70
     0
  4
mm
 41
0.1
 42
0.05
 43
0.5
 44
0.1
 47
0.1
 48
0.1
 73
     0
 74
     0
 77
     1
 78
     7
 79
     2
140
0.12
141
0.0
146
0.71
147
0.06
172
     1
176
   256
177
   256
178
     2
274
     4
283
     0
284
     7
340
D
371
    -1
372
    -1
  0
DIMSTYLE
105
38A
330
17
100
AcDbSymbolTableRecord
100
AcDbDimStyleTableRecord
  2
AM_DIN$3
 70
     0
  4
mm
 41
0.1
 42
0.05
 43
0.5
 44
0.1
 47
0.1
 48
0.1
 73
     0
 77
     1
 78
     7
 79
     2
140
0.12
141
0.0
146
0.71
147
0.06
176
   256
177
   256
178
     2
274
     4
283
     0
284
     7
288
     1
289
     0
340
D
371
    -1
372
    -1
  0
DIMSTYLE
105
38B
330
17
100
AcDbSymbolTableRecord
100
AcDbDimStyleTableRecord
  2
AM_DIN$4
 70
     0
  4
mm
 41
0.1
 42
0.05
 43
0.5
 44
0.1
 47
0.1
 48
0.1
 73
     0
 77
     1
 78
     7
 79
     2
140
0.12
141
0.0
146
0.71
147
0.06
176
   256
177
   256
178
     2
274
     4
283
     0
284
     7
288
     1
289
     0
340
D
371
    -1
372
    -1
  0
DIMSTYLE
105
38C
330
17
100
AcDbSymbolTableRecord
100
AcDbDimStyleTableRecord
  2
AM_DIN$6
 70
     0
  4
mm
 41
0.1
 42
0.05
 43
0.5
 44
0.1
 47
0.1
 48
0.1
 73
     0
 74
     0
 78
     7
 79
     2
140
0.12
141
0.0
146
0.71
147
0.06
172
     1
176
   256
177
   256
178
     2
274
     4
283
     0
284
     7
340
D
371
    -1
372
    -1
  0
DIMSTYLE
105
38D
330
17
100
AcDbSymbolTableRecord
100
AcDbDimStyleTableRecord
  2
AM_DIN$7
 70
     0
  4
mm
 41
0.1
 42
0.05
 43
0.5
 44
0.1
 47
0.1
 48
0.1
 73
     0
 74
     0
 77
     1
 78
     7
 79
     2
140
0.24
141
0.0
146
0.71
147
0.06
172
     1
176
   256
177
   256
178
     2
274
     4
283
     0
284
     7
340
D
371
    -1
372
    -1
  0
DIMSTYLE
105
38E
330
17
100
AcDbSymbolTableRecord
100
AcDbDimStyleTableRecord
  2
AM_DIN$SF
 70
     0
  4
mm
 41
0.1
 42
0.05
 43
0.5
 44
0.1
 47
0.1
 48
0.1
 73
     0
 74
     0
 75
     1
 76
     1
 77
     1
 78
     7
 79
     2
140
0.12
141
0.0
146
0.71
147
0.06
172
     1
176
   256
177
   256
178
     2
274
     4
283
     0
284
     7
340
D
371
    -1
372
    -1
  0
DIMSTYLE
105
38F
330
17
100
AcDbSymbolTableRecord
100
AcDbDimStyleTableRecord
  2
AM_DIN$SH
 70
     0
  4
mm
 41
0.1
 42
0.05
 43
0.5
 44
0.1
 47
0.1
 48
0.1
 73
     0
 74
     0
 75
     1
 76
     1
 77
     1
 78
     7
 79
     2
140
0.12
141
0.0
144
2.0
146
0.71
147
0.06
172
     1
173
     1
176
   256
177
   256
178
     2
274
     4
283
     0
284
     7
340
D
343
379
371
    -1
372
    -1
  0
DIMSTYLE
105
392
330
17
100
AcDbSymbolTableRecord
100
AcDbDimStyleTableRecord
  2
AM_ISO
 70
     0
  4
mm
 41
0.1
 42
0.05
 43
0.5
 44
0.1
 47
0.1
 48
0.1
 73
     0
 74
     0
 77
     1
 78
     7
 79
     2
140
0.12
141
0.0
146
0.71
147
0.06
172
     1
176
   256
177
   256
178
     2
274
     4
283
     0
284
     7
340
D
371
    -1
372
    -1
  0
DIMSTYLE
105
393
330
17
100
AcDbSymbolTableRecord
100
AcDbDimStyleTableRecord
  2
AM_ISO$3
 70
     0
  4
mm
 41
0.1
 42
0.05
 43
0.5
 44
0.1
 47
0.1
 48
0.1
 73
     0
 77
     1
 78
     7
 79
     2
140
0.12
141
0.0
146
0.71
147
0.06
176
   256
177
   256
178
     2
274
     4
283
     0
284
     7
288
     1
289
     0
340
D
371
    -1
372
    -1
  0
DIMSTYLE
105
394
330
17
100
AcDbSymbolTableRecord
100
AcDbDimStyleTableRecord
  2
AM_ISO$4
 70
     0
  4
mm
 41
0.1
 42
0.05
 43
0.5
 44
0.1
 47
0.1
 48
0.1
 73
     0
 77
     1
 78
     7
 79
     2
140
0.12
141
0.0
146
0.71
147
0.06
176
   256
177
   256
178
     2
274
     4
283
     0
284
     7
288
     1
289
     0
340
D
371
    -1
372
    -1
  0
DIMSTYLE
105
395
330
17
100
AcDbSymbolTableRecord
100
AcDbDimStyleTableRecord
  2
AM_ISO$6
 70
     0
  4
mm
 41
0.1
 42
0.05
 43
0.5
 44
0.1
 47
0.1
 48
0.1
 73
     0
 74
     0
 78
     7
 79
     2
140
0.12
141
0.0
146
0.71
147
0.06
172
     1
176
   256
177
   256
178
     2
274
     4
283
     0
284
     7
340
D
371
    -1
372
    -1
  0
DIMSTYLE
105
396
330
17
100
AcDbSymbolTableRecord
100
AcDbDimStyleTableRecord
  2
AM_ISO$7
 70
     0
  4
mm
 41
0.1
 42
0.05
 43
0.5
 44
0.1
 47
0.1
 48
0.1
 73
     0
 74
     0
 77
     1
 78
     7
 79
     2
140
0.24
141
0.0
146
0.71
147
0.06
172
     1
176
   256
177
   256
178
     2
274
     4
283
     0
284
     7
340
D
371
    -1
372
    -1
  0
DIMSTYLE
105
397
330
17
100
AcDbSymbolTableRecord
100
AcDbDimStyleTableRecord
  2
AM_ISO$SF
 70
     0
  4
mm
 41
0.1
 42
0.05
 43
0.5
 44
0.1
 47
0.1
 48
0.1
 73
     0
 74
     0
 75
     1
 76
     1
 77
     1
 78
     7
 79
     2
140
0.12
141
0.0
146
0.71
147
0.06
172
     1
176
   256
177
   256
178
     2
274
     4
283
     0
284
     7
340
D
371
    -1
372
    -1
  0
DIMSTYLE
105
398
330
17
100
AcDbSymbolTableRecord
100
AcDbDimStyleTableRecord
  2
AM_ISO$SH
 70
     0
  4
mm
 41
0.1
 42
0.05
 43
0.5
 44
0.1
 47
0.1
 48
0.1
 73
     0
 74
     0
 75
     1
 76
     1
 77
     1
 78
     7
 79
     2
140
0.12
141
0.0
144
2.0
146
0.71
147
0.06
172
     1
173
     1
176
   256
177
   256
178
     2
274
     4
283
     0
284
     7
340
D
343
379
371
    -1
372
    -1
  0
DIMSTYLE
105
39B
330
17
100
AcDbSymbolTableRecord
100
AcDbDimStyleTableRecord
  2
AM_JIS
 70
     0
  4
mm
 41
0.1
 42
0.05
 43
0.5
 44
0.1
 47
0.1
 48
0.1
 73
     0
 74
     0
 77
     3
 78
     7
 79
     2
140
0.12
141
0.0
146
0.71
147
0.06
172
     1
176
   256
177
   256
178
     2
274
     4
283
     0
284
     7
340
D
341
39C
342
39C
343
39C
344
39C
371
    -1
372
    -1
  0
DIMSTYLE
105
3A2
330
17
100
AcDbSymbolTableRecord
100
AcDbDimStyleTableRecord
  2
AM_JIS$3
 70
     0
  4
mm
 41
0.1
 42
0.05
 43
0.5
 44
0.1
 47
0.1
 48
0.1
 73
     0
 77
     3
 78
     7
 79
     2
140
0.12
141
0.0
146
0.71
147
0.06
176
   256
177
   256
178
     2
274
     4
283
     0
284
     7
288
     1
289
     0
340
D
341
39C
342
39C
343
39C
344
39C
371
    -1
372
    -1
  0
DIMSTYLE
105
3A3
330
17
100
AcDbSymbolTableRecord
100
AcDbDimStyleTableRecord
  2
AM_JIS$4
 70
     0
  4
mm
 41
0.1
 42
0.05
 43
0.5
 44
0.1
 47
0.1
 48
0.1
 73
     0
 77
     3
 78
     7
 79
     2
140
0.12
141
0.0
146
0.71
147
0.06
176
   256
177
   256
178
     2
274
     4
283
     0
284
     7
288
     1
289
     0
340
D
341
39C
342
39C
343
39C
344
39C
371
    -1
372
    -1
  0
DIMSTYLE
105
3A4
330
17
100
AcDbSymbolTableRecord
100
AcDbDimStyleTableRecord
  2
AM_JIS$6
 70
     0
  4
mm
 41
0.1
 42
0.05
 43
0.5
 44
0.1
 47
0.1
 48
0.1
 73
     0
 74
     0
 78
     7
 79
     2
140
0.12
141
0.0
146
0.71
147
0.06
172
     1
176
   256
177
   256
178
     2
274
     4
283
     0
284
     7
340
D
341
39C
342
39C
343
39C
344
39C
371
    -1
372
    -1
  0
DIMSTYLE
105
3A5
330
17
100
AcDbSymbolTableRecord
100
AcDbDimStyleTableRecord
  2
AM_JIS$7
 70
     0
  4
mm
 41
0.1
 42
0.05
 43
0.5
 44
0.1
 47
0.1
 48
0.1
 73
     0
 74
     0
 77
     3
 78
     7
 79
     2
140
0.24
141
0.0
146
0.71
147
0.06
172
     1
176
   256
177
   256
178
     2
274
     4
283
     0
284
     7
340
D
341
39C
342
39C
343
39C
344
39C
371
    -1
372
    -1
  0
DIMSTYLE
105
3A6
330
17
100
AcDbSymbolTableRecord
100
AcDbDimStyleTableRecord
  2
AM_JIS$SF
 70
     0
  4
mm
 41
0.1
 42
0.05
 43
0.5
 44
0.1
 47
0.1
 48
0.1
 73
     0
 74
     0
 75
     1
 76
     1
 77
     3
 78
     7
 79
     2
140
0.12
141
0.0
146
0.71
147
0.06
172
     1
176
   256
177
   256
178
     2
274
     4
283
     0
284
     7
340
D
341
39C
342
39C
343
39C
344
39C
371
    -1
372
    -1
  0
DIMSTYLE
105
3A7
330
17
100
AcDbSymbolTableRecord
100
AcDbDimStyleTableRecord
  2
AM_JIS$SH
 70
     0
  4
mm
 41
0.1
 42
0.05
 43
0.5
 44
0.1
 47
0.1
 48
0.1
 73
     0
 74
     0
 75
     1
 76
     1
 77
     3
 78
     7
 79
     2
140
0.12
141
0.0
144
2.0
146
0.71
147
0.06
172
     1
173
     1
176
   256
177
   256
178
     2
274
     4
283
     0
284
     7
340
D
341
39C
342
39C
343
379
344
39C
371
    -1
372
    -1
  0
ENDTAB
  0
TABLE
  2
BLOCK_RECORD
  5
1
330
0
100
AcDbSymbolTable
 70
    23
  0
BLOCK_RECORD
  5
2
102
{ACAD_XDICTIONARY
360
3
102
}
330
1
100
AcDbSymbolTableRecord
100
AcDbBlockTableRecord
  2
*MODEL_SPACE
340
2AC
  0
BLOCK_RECORD
  5
8
330
1
100
AcDbSymbolTableRecord
100
AcDbBlockTableRecord
  2
*PAPER_SPACE
340
2AD
  0
BLOCK_RECORD
  5
379
330
1
100
AcDbSymbolTableRecord
100
AcDbBlockTableRecord
  2
GENAXEH
340
0
  0
BLOCK_RECORD
  5
39C
330
1
100
AcDbSymbolTableRecord
100
AcDbBlockTableRecord
  2
_Open30
340
0
  0
BLOCK_RECORD
  5
5AE
330
1
100
AcDbSymbolTableRecord
100
AcDbBlockTableRecord
  2
*D3
340
0
  0
BLOCK_RECORD
  5
5BA
330
1
100
AcDbSymbolTableRecord
100
AcDbBlockTableRecord
  2
*D4
340
0
  0
BLOCK_RECORD
  5
5C6
330
1
100
AcDbSymbolTableRecord
100
AcDbBlockTableRecord
  2
*D5
340
0
  0
BLOCK_RECORD
  5
5D2
330
1
100
AcDbSymbolTableRecord
100
AcDbBlockTableRecord
  2
*D6
340
0
  0
BLOCK_RECORD
  5
5DE
330
1
100
AcDbSymbolTableRecord
100
AcDbBlockTableRecord
  2
*D7
340
0
  0
BLOCK_RECORD
  5
5EA
330
1
100
AcDbSymbolTableRecord
100
AcDbBlockTableRecord
  2
*D8
340
0
  0
BLOCK_RECORD
  5
5F6
330
1
100
AcDbSymbolTableRecord
100
AcDbBlockTableRecord
  2
*D9
340
0
  0
BLOCK_RECORD
  5
602
330
1
100
AcDbSymbolTableRecord
100
AcDbBlockTableRecord
  2
*D10
340
0
  0
BLOCK_RECORD
  5
60E
330
1
100
AcDbSymbolTableRecord
100
AcDbBlockTableRecord
  2
*D11
340
0
  0
BLOCK_RECORD
  5
61A
330
1
100
AcDbSymbolTableRecord
100
AcDbBlockTableRecord
  2
*D12
340
0
  0
BLOCK_RECORD
  5
622
330
1
100
AcDbSymbolTableRecord
100
AcDbBlockTableRecord
  2
*D13
340
0
  0
BLOCK_RECORD
  5
630
330
1
100
AcDbSymbolTableRecord
100
AcDbBlockTableRecord
  2
*D14
340
0
  0
BLOCK_RECORD
  5
63E
330
1
100
AcDbSymbolTableRecord
100
AcDbBlockTableRecord
  2
*D15
340
0
  0
BLOCK_RECORD
  5
64C
330
1
100
AcDbSymbolTableRecord
100
AcDbBlockTableRecord
  2
*D16
340
0
  0
BLOCK_RECORD
  5
658
330
1
100
AcDbSymbolTableRecord
100
AcDbBlockTableRecord
  2
*D17
340
0
  0
BLOCK_RECORD
  5
664
330
1
100
AcDbSymbolTableRecord
100
AcDbBlockTableRecord
  2
*D18
340
0
  0
BLOCK_RECORD
  5
670
330
1
100
AcDbSymbolTableRecord
100
AcDbBlockTableRecord
  2
*D19
340
0
  0
BLOCK_RECORD
  5
67B
330
1
100
AcDbSymbolTableRecord
100
AcDbBlockTableRecord
  2
*D20
340
0
  0
BLOCK_RECORD
  5
686
330
1
100
AcDbSymbolTableRecord
100
AcDbBlockTableRecord
  2
*D21
340
0
  0
BLOCK_RECORD
  5
692
330
1
100
AcDbSymbolTableRecord
100
AcDbBlockTableRecord
  2
*D22
340
0
  0
ENDTAB
  0
ENDSEC
  0
SECTION
  2
BLOCKS
  0
BLOCK
  5
4
330
2
100
AcDbEntity
  8
0
100
AcDbBlockBegin
  2
*MODEL_SPACE
 70
     0
 10
0.0
 20
0.0
 30
0.0
  3
*MODEL_SPACE
  1

  0
ENDBLK
  5
7
330
2
100
AcDbEntity
  8
0
100
AcDbBlockEnd
  0
BLOCK
  5
9
330
8
100
AcDbEntity
 67
     1
  8
0
100
AcDbBlockBegin
  2
*PAPER_SPACE
 70
     0
 10
0.0
 20
0.0
 30
0.0
  3
*PAPER_SPACE
  1

  0
ENDBLK
  5
A
330
8
100
AcDbEntity
 67
     1
  8
0
100
AcDbBlockEnd
  0
BLOCK
  5
37B
330
379
100
AcDbEntity
  8
0
 48
10.0
100
AcDbBlockBegin
  2
GENAXEH
 70
     0
 10
0.0
 20
0.0
 30
0.0
  3
GENAXEH
  1

  0
LINE
  5
37A
330
379
100
AcDbEntity
  8
0
100
AcDbLine
 10
-1.0
 20
0.0
 30
0.0
 11
1.0
 21
0.0
 31
0.0
  0
ENDBLK
  5
37C
330
379
100
AcDbEntity
  8
0
 48
10.0
100
AcDbBlockEnd
  0
BLOCK
  5
3A0
330
39C
100
AcDbEntity
  8
0
 48
10.0
100
AcDbBlockBegin
  2
_Open30
 70
     0
 10
0.0
 20
0.0
 30
0.0
  3
_Open30
  1

  0
LINE
  5
39D
330
39C
100
AcDbEntity
  8
0
  6
ByBlock
 62
     0
370
    -2
100
AcDbLine
 10
-1.0
 20
0.26794919
 30
0.0
 11
0.0
 21
0.0
 31
0.0
  0
LINE
  5
39E
330
39C
100
AcDbEntity
  8
0
  6
ByBlock
 62
     0
370
    -2
100
AcDbLine
 10
0.0
 20
0.0
 30
0.0
 11
-1.0
 21
-0.26794919
 31
0.0
  0
LINE
  5
39F
330
39C
100
AcDbEntity
  8
0
  6
ByBlock
 62
     0
370
    -2
100
AcDbLine
 10
0.0
 20
0.0
 30
0.0
 11
-1.0
 21
0.0
 31
0.0
  0
ENDBLK
  5
3A1
330
39C
100
AcDbEntity
  8
0
 48
10.0
100
AcDbBlockEnd
  0
BLOCK
  5
5AF
330
5AE
100
AcDbEntity
  8
0
 48
10.0
100
AcDbBlockBegin
  2
*D3
 70
     1
 10
0.0
 20
0.0
 30
0.0
  3
*D3
  1

  0
LINE
  5
821
330
5AE
100
AcDbEntity
  8
BEM
370
    -2
100
AcDbLine
 10
693.2328563341084
 20
447.9572008276707
 30
0.0
 11
693.2328563341084
 21
583.2581496491948
 31
0.0
  0
LINE
  5
822
330
5AE
100
AcDbEntity
  8
BEM
370
    -2
100
AcDbLine
 10
378.2328563341087
 20
367.7072008276707
 30
0.0
 11
378.2328563341087
 21
583.2581496491948
 31
0.0
  0
LINE
  5
823
330
5AE
100
AcDbEntity
  8
BEM
370
    -2
100
AcDbLine
 10
686.2328563341084
 20
582.0081496491948
 30
0.0
 11
385.2328563341087
 21
582.0081496491948
 31
0.0
  0
SOLID
  5
824
330
5AE
100
AcDbEntity
  8
BEM
100
AcDbTrace
 10
686.2328563341084
 20
583.1748163158614
 30
0.0
 11
686.2328563341084
 21
580.8414829825282
 31
0.0
 12
693.2328563341084
 22
582.0081496491948
 32
0.0
 13
693.2328563341084
 23
582.0081496491948
 33
0.0
  0
SOLID
  5
825
330
5AE
100
AcDbEntity
  8
BEM
100
AcDbTrace
 10
385.2328563341087
 20
583.1748163158614
 30
0.0
 11
385.2328563341087
 21
580.8414829825282
 31
0.0
 12
378.2328563341087
 22
582.0081496491948
 32
0.0
 13
378.2328563341087
 23
582.0081496491948
 33
0.0
  0
MTEXT
  5
826
330
5AE
100
AcDbEntity
  8
BEM
100
AcDbMText
 10
535.7328563341085
 20
591.0081496491947
 30
0.0
 40
10.0
 41
0.0
 71
     5
 72
     1
  1
\A1;315
 73
     1
 44
1.0
  0
POINT
  5
827
330
5AE
100
AcDbEntity
  8
DEFPOINTS
 62
     0
100
AcDbPoint
 10
693.2328563341084
 20
447.9572008276707
 30
0.0
  0
POINT
  5
828
330
5AE
100
AcDbEntity
  8
DEFPOINTS
 62
     0
100
AcDbPoint
 10
378.2328563341087
 20
367.7072008276707
 30
0.0
  0
POINT
  5
829
330
5AE
100
AcDbEntity
  8
DEFPOINTS
 62
     0
100
AcDbPoint
 10
378.2328563341087
 20
582.0081496491948
 30
0.0
  0
ENDBLK
  5
5B0
330
5AE
100
AcDbEntity
  8
0
 48
10.0
100
AcDbBlockEnd
  0
BLOCK
  5
5BB
330
5BA
100
AcDbEntity
  8
0
 48
10.0
100
AcDbBlockBegin
  2
*D4
 70
     1
 10
0.0
 20
0.0
 30
0.0
  3
*D4
  1

  0
LINE
  5
82A
330
5BA
100
AcDbEntity
  8
BEM
370
    -2
100
AcDbLine
 10
433.2328563341071
 20
435.7072008276706
 30
0.0
 11
433.2328563341071
 21
551.5234670731579
 31
0.0
  0
LINE
  5
82B
330
5BA
100
AcDbEntity
  8
BEM
370
    -2
100
AcDbLine
 10
693.2328563341084
 20
447.9572008276707
 30
0.0
 11
693.2328563341084
 21
551.5234670731579
 31
0.0
  0
LINE
  5
82C
330
5BA
100
AcDbEntity
  8
BEM
370
    -2
100
AcDbLine
 10
440.232856334107
 20
550.2734670731578
 30
0.0
 11
686.2328563341084
 21
550.2734670731578
 31
0.0
  0
SOLID
  5
82D
330
5BA
100
AcDbEntity
  8
BEM
100
AcDbTrace
 10
440.232856334107
 20
551.4401337398245
 30
0.0
 11
440.232856334107
 21
549.1068004064913
 31
0.0
 12
433.2328563341071
 22
550.2734670731578
 32
0.0
 13
433.2328563341071
 23
550.2734670731578
 33
0.0
  0
SOLID
  5
82E
330
5BA
100
AcDbEntity
  8
BEM
100
AcDbTrace
 10
686.2328563341084
 20
551.4401337398245
 30
0.0
 11
686.2328563341084
 21
549.1068004064913
 31
0.0
 12
693.2328563341084
 22
550.2734670731578
 32
0.0
 13
693.2328563341084
 23
550.2734670731578
 33
0.0
  0
MTEXT
  5
82F
330
5BA
100
AcDbEntity
  8
BEM
100
AcDbMText
 10
563.2328563341077
 20
559.2734670731579
 30
0.0
 40
10.0
 41
0.0
 71
     5
 72
     1
  1
\A1;260
 73
     1
 44
1.0
  0
POINT
  5
830
330
5BA
100
AcDbEntity
  8
DEFPOINTS
 62
     0
100
AcDbPoint
 10
433.2328563341071
 20
435.7072008276706
 30
0.0
  0
POINT
  5
831
330
5BA
100
AcDbEntity
  8
DEFPOINTS
 62
     0
100
AcDbPoint
 10
693.2328563341084
 20
447.9572008276707
 30
0.0
  0
POINT
  5
832
330
5BA
100
AcDbEntity
  8
DEFPOINTS
 62
     0
100
AcDbPoint
 10
693.2328563341084
 20
550.2734670731578
 30
0.0
  0
ENDBLK
  5
5BC
330
5BA
100
AcDbEntity
  8
0
 48
10.0
100
AcDbBlockEnd
  0
BLOCK
  5
5C7
330
5C6
100
AcDbEntity
  8
0
 48
10.0
100
AcDbBlockBegin
  2
*D5
 70
     1
 10
0.0
 20
0.0
 30
0.0
  3
*D5
  1

  0
LINE
  5
833
330
5C6
100
AcDbEntity
  8
BEM
370
    -2
100
AcDbLine
 10
585.2328563341083
 20
279.1689290443176
 30
0.0
 11
585.2328563341083
 21
243.4285015355925
 31
0.0
  0
LINE
  5
834
330
5C6
100
AcDbEntity
  8
BEM
370
    -2
100
AcDbLine
 10
433.2328563341087
 20
277.7072008276707
 30
0.0
 11
433.2328563341087
 21
243.4285015355925
 31
0.0
  0
LINE
  5
835
330
5C6
100
AcDbEntity
  8
BEM
370
    -2
100
AcDbLine
 10
578.2328563341084
 20
244.6785015355924
 30
0.0
 11
440.2328563341088
 21
244.6785015355924
 31
0.0
  0
SOLID
  5
836
330
5C6
100
AcDbEntity
  8
BEM
100
AcDbTrace
 10
578.2328563341084
 20
245.8451682022591
 30
0.0
 11
578.2328563341084
 21
243.5118348689258
 31
0.0
 12
585.2328563341083
 22
244.6785015355924
 32
0.0
 13
585.2328563341083
 23
244.6785015355924
 33
0.0
  0
SOLID
  5
837
330
5C6
100
AcDbEntity
  8
BEM
100
AcDbTrace
 10
440.2328563341088
 20
245.8451682022591
 30
0.0
 11
440.2328563341088
 21
243.5118348689258
 31
0.0
 12
433.2328563341087
 22
244.6785015355924
 32
0.0
 13
433.2328563341087
 23
244.6785015355924
 33
0.0
  0
MTEXT
  5
838
330
5C6
100
AcDbEntity
  8
BEM
100
AcDbMText
 10
509.2328563341086
 20
253.6785015355924
 30
0.0
 40
10.0
 41
0.0
 71
     5
 72
     1
  1
\A1;152
 73
     1
 44
1.0
  0
POINT
  5
839
330
5C6
100
AcDbEntity
  8
DEFPOINTS
 62
     0
100
AcDbPoint
 10
585.2328563341083
 20
279.1689290443176
 30
0.0
  0
POINT
  5
83A
330
5C6
100
AcDbEntity
  8
DEFPOINTS
 62
     0
100
AcDbPoint
 10
433.2328563341087
 20
277.7072008276707
 30
0.0
  0
POINT
  5
83B
330
5C6
100
AcDbEntity
  8
DEFPOINTS
 62
     0
100
AcDbPoint
 10
433.2328563341087
 20
244.6785015355924
 30
0.0
  0
ENDBLK
  5
5C8
330
5C6
100
AcDbEntity
  8
0
 48
10.0
100
AcDbBlockEnd
  0
BLOCK
  5
5D3
330
5D2
100
AcDbEntity
  8
0
 48
10.0
100
AcDbBlockBegin
  2
*D6
 70
     1
 10
0.0
 20
0.0
 30
0.0
  3
*D6
  1

  0
LINE
  5
83C
330
5D2
100
AcDbEntity
  8
BEM
370
    -2
100
AcDbLine
 10
514.2328563341083
 20
457.9572008276707
 30
0.0
 11
278.1025645858379
 21
457.9572008276708
 31
0.0
  0
LINE
  5
83D
330
5D2
100
AcDbEntity
  8
BEM
370
    -2
100
AcDbLine
 10
433.2328563341087
 20
277.7072008276707
 30
0.0
 11
278.1025645858378
 21
277.7072008276708
 31
0.0
  0
LINE
  5
83E
330
5D2
100
AcDbEntity
  8
BEM
370
    -2
100
AcDbLine
 10
279.3525645858379
 20
450.9572008276708
 30
0.0
 11
279.3525645858379
 21
284.7072008276708
 31
0.0
  0
SOLID
  5
83F
330
5D2
100
AcDbEntity
  8
BEM
100
AcDbTrace
 10
278.1858979191712
 20
450.9572008276708
 30
0.0
 11
280.5192312525046
 21
450.9572008276708
 31
0.0
 12
279.3525645858379
 22
457.9572008276708
 32
0.0
 13
279.3525645858379
 23
457.9572008276708
 33
0.0
  0
SOLID
  5
840
330
5D2
100
AcDbEntity
  8
BEM
100
AcDbTrace
 10
278.1858979191712
 20
284.7072008276708
 30
0.0
 11
280.5192312525045
 21
284.7072008276708
 31
0.0
 12
279.3525645858379
 22
277.7072008276708
 32
0.0
 13
279.3525645858379
 23
277.7072008276708
 33
0.0
  0
MTEXT
  5
841
330
5D2
100
AcDbEntity
  8
BEM
100
AcDbMText
 10
270.3525645858378
 20
367.8322008276709
 30
0.0
 40
10.0
 41
0.0
 71
     5
 72
     1
  1
\A1;180
 11
0.0000000000000001
 21
1.0
 31
0.0
 73
     1
 44
1.0
  0
POINT
  5
842
330
5D2
100
AcDbEntity
  8
DEFPOINTS
 62
     0
100
AcDbPoint
 10
514.2328563341083
 20
457.9572008276707
 30
0.0
  0
POINT
  5
843
330
5D2
100
AcDbEntity
  8
DEFPOINTS
 62
     0
100
AcDbPoint
 10
433.2328563341087
 20
277.7072008276707
 30
0.0
  0
POINT
  5
844
330
5D2
100
AcDbEntity
  8
DEFPOINTS
 62
     0
100
AcDbPoint
 10
279.3525645858379
 20
277.7072008276708
 30
0.0
  0
ENDBLK
  5
5D4
330
5D2
100
AcDbEntity
  8
0
 48
10.0
100
AcDbBlockEnd
  0
BLOCK
  5
5DF
330
5DE
100
AcDbEntity
  8
0
 48
10.0
100
AcDbBlockBegin
  2
*D7
 70
     1
 10
0.0
 20
0.0
 30
0.0
  3
*D7
  1

  0
LINE
  5
845
330
5DE
100
AcDbEntity
  8
BEM
370
    -2
100
AcDbLine
 10
433.2328563341073
 20
411.7072008276706
 30
0.0
 11
309.7856331192823
 21
411.7072008276707
 31
0.0
  0
LINE
  5
846
330
5DE
100
AcDbEntity
  8
BEM
370
    -2
100
AcDbLine
 10
374.4030767199983
 20
301.7072008276707
 30
0.0
 11
309.7856331192823
 21
301.7072008276707
 31
0.0
  0
LINE
  5
847
330
5DE
100
AcDbEntity
  8
BEM
370
    -2
100
AcDbLine
 10
311.0356331192824
 20
404.7072008276707
 30
0.0
 11
311.0356331192823
 21
308.7072008276707
 31
0.0
  0
SOLID
  5
848
330
5DE
100
AcDbEntity
  8
BEM
100
AcDbTrace
 10
309.8689664526157
 20
404.7072008276707
 30
0.0
 11
312.202299785949
 21
404.7072008276707
 31
0.0
 12
311.0356331192824
 22
411.7072008276707
 32
0.0
 13
311.0356331192824
 23
411.7072008276707
 33
0.0
  0
SOLID
  5
849
330
5DE
100
AcDbEntity
  8
BEM
100
AcDbTrace
 10
309.8689664526156
 20
308.7072008276707
 30
0.0
 11
312.202299785949
 21
308.7072008276707
 31
0.0
 12
311.0356331192823
 22
301.7072008276707
 32
0.0
 13
311.0356331192823
 23
301.7072008276707
 33
0.0
  0
MTEXT
  5
84A
330
5DE
100
AcDbEntity
  8
BEM
100
AcDbMText
 10
302.0356331192822
 20
356.7072008276708
 30
0.0
 40
10.0
 41
0.0
 71
     5
 72
     1
  1
\A1;%%c110
 11
0.0000000000000001
 21
1.0
 31
0.0
 73
     1
 44
1.0
  0
POINT
  5
84B
330
5DE
100
AcDbEntity
  8
DEFPOINTS
 62
     0
100
AcDbPoint
 10
433.2328563341073
 20
411.7072008276706
 30
0.0
  0
POINT
  5
84C
330
5DE
100
AcDbEntity
  8
DEFPOINTS
 62
     0
100
AcDbPoint
 10
374.4030767199983
 20
301.7072008276707
 30
0.0
  0
POINT
  5
84D
330
5DE
100
AcDbEntity
  8
DEFPOINTS
 62
     0
100
AcDbPoint
 10
311.0356331192823
 20
301.7072008276707
 30
0.0
  0
ENDBLK
  5
5E0
330
5DE
100
AcDbEntity
  8
0
 48
10.0
100
AcDbBlockEnd
  0
BLOCK
  5
5EB
330
5EA
100
AcDbEntity
  8
0
 48
10.0
100
AcDbBlockBegin
  2
*D8
 70
     1
 10
0.0
 20
0.0
 30
0.0
  3
*D8
  1

  0
LINE
  5
84E
330
5EA
100
AcDbEntity
  8
BEM
370
    -2
100
AcDbLine
 10
167.5581221096054
 20
391.9572008276707
 30
0.0
 11
226.5437951159737
 21
391.9572008276707
 31
0.0
  0
LINE
  5
84F
330
5EA
100
AcDbEntity
  8
BEM
370
    -2
100
AcDbLine
 10
183.8718377028797
 20
356.7072008276707
 30
0.0
 11
226.5437951159737
 21
356.7072008276707
 31
0.0
  0
LINE
  5
850
330
5EA
100
AcDbEntity
  8
BEM
370
    -2
100
AcDbLine
 10
225.2937951159737
 20
384.9572008276707
 30
0.0
 11
225.2937951159737
 21
363.7072008276707
 31
0.0
  0
SOLID
  5
851
330
5EA
100
AcDbEntity
  8
BEM
100
AcDbTrace
 10
224.127128449307
 20
384.9572008276707
 30
0.0
 11
226.4604617826404
 21
384.9572008276707
 31
0.0
 12
225.2937951159737
 22
391.9572008276707
 32
0.0
 13
225.2937951159737
 23
391.9572008276707
 33
0.0
  0
SOLID
  5
852
330
5EA
100
AcDbEntity
  8
BEM
100
AcDbTrace
 10
224.127128449307
 20
363.7072008276707
 30
0.0
 11
226.4604617826404
 21
363.7072008276707
 31
0.0
 12
225.2937951159737
 22
356.7072008276707
 32
0.0
 13
225.2937951159737
 23
356.7072008276707
 33
0.0
  0
MTEXT
  5
853
330
5EA
100
AcDbEntity
  8
BEM
100
AcDbMText
 10
216.2937951159737
 20
374.3322008276708
 30
0.0
 40
10.0
 41
0.0
 71
     5
 72
     1
  1
\A1;35.2
 11
0.0000000000000001
 21
1.0
 31
0.0
 73
     1
 44
1.0
  0
POINT
  5
854
330
5EA
100
AcDbEntity
  8
DEFPOINTS
 62
     0
100
AcDbPoint
 10
167.5581221096054
 20
391.9572008276707
 30
0.0
  0
POINT
  5
855
330
5EA
100
AcDbEntity
  8
DEFPOINTS
 62
     0
100
AcDbPoint
 10
183.8718377028797
 20
356.7072008276707
 30
0.0
  0
POINT
  5
856
330
5EA
100
AcDbEntity
  8
DEFPOINTS
 62
     0
100
AcDbPoint
 10
225.2937951159737
 20
356.7072008276707
 30
0.0
  0
ENDBLK
  5
5EC
330
5EA
100
AcDbEntity
  8
0
 48
10.0
100
AcDbBlockEnd
  0
BLOCK
  5
5F7
330
5F6
100
AcDbEntity
  8
0
 48
10.0
100
AcDbBlockBegin
  2
*D9
 70
     1
 10
0.0
 20
0.0
 30
0.0
  3
*D9
  1

  0
LINE
  5
857
330
5F6
100
AcDbEntity
  8
BEM
370
    -2
100
AcDbLine
 10
138.0398433409166
 20
288.8994402200644
 30
0.0
 11
138.0398433409166
 21
242.1785015355924
 31
0.0
  0
LINE
  5
858
330
5F6
100
AcDbEntity
  8
BEM
370
    -2
100
AcDbLine
 10
62.03984334091666
 20
288.8994402200644
 30
0.0
 11
62.03984334091666
 21
242.1785015355924
 31
0.0
  0
LINE
  5
859
330
5F6
100
AcDbEntity
  8
BEM
370
    -2
100
AcDbLine
 10
131.0398433409166
 20
243.4285015355925
 30
0.0
 11
69.03984334091666
 21
243.4285015355925
 31
0.0
  0
SOLID
  5
85A
330
5F6
100
AcDbEntity
  8
BEM
100
AcDbTrace
 10
131.0398433409166
 20
244.5951682022591
 30
0.0
 11
131.0398433409166
 21
242.2618348689258
 31
0.0
 12
138.0398433409166
 22
243.4285015355925
 32
0.0
 13
138.0398433409166
 23
243.4285015355925
 33
0.0
  0
SOLID
  5
85B
330
5F6
100
AcDbEntity
  8
BEM
100
AcDbTrace
 10
69.03984334091666
 20
244.5951682022591
 30
0.0
 11
69.03984334091666
 21
242.2618348689258
 31
0.0
 12
62.03984334091666
 22
243.4285015355925
 32
0.0
 13
62.03984334091666
 23
243.4285015355925
 33
0.0
  0
MTEXT
  5
85C
330
5F6
100
AcDbEntity
  8
BEM
100
AcDbMText
 10
100.0398433409166
 20
252.4285015355924
 30
0.0
 40
10.0
 41
0.0
 71
     5
 72
     1
  1
\A1;76
 73
     1
 44
1.0
  0
POINT
  5
85D
330
5F6
100
AcDbEntity
  8
DEFPOINTS
 62
     0
100
AcDbPoint
 10
138.0398433409166
 20
288.8994402200644
 30
0.0
  0
POINT
  5
85E
330
5F6
100
AcDbEntity
  8
DEFPOINTS
 62
     0
100
AcDbPoint
 10
62.03984334091666
 20
288.8994402200644
 30
0.0
  0
POINT
  5
85F
330
5F6
100
AcDbEntity
  8
DEFPOINTS
 62
     0
100
AcDbPoint
 10
62.03984334091666
 20
243.4285015355925
 30
0.0
  0
ENDBLK
  5
5F8
330
5F6
100
AcDbEntity
  8
0
 48
10.0
100
AcDbBlockEnd
  0
BLOCK
  5
603
330
602
100
AcDbEntity
  8
0
 48
10.0
100
AcDbBlockBegin
  2
*D10
 70
     1
 10
0.0
 20
0.0
 30
0.0
  3
*D10
  1

  0
LINE
  5
860
330
602
100
AcDbEntity
  8
BEM
370
    -2
100
AcDbLine
 10
379.2328563341087
 20
368.7072008276707
 30
0.0
 11
343.8331071089568
 21
368.7072008276707
 31
0.0
  0
LINE
  5
861
330
602
100
AcDbEntity
  8
BEM
370
    -2
100
AcDbLine
 10
379.2328563341087
 20
344.7072008276707
 30
0.0
 11
343.8331071089568
 21
344.7072008276707
 31
0.0
  0
LINE
  5
862
330
602
100
AcDbEntity
  8
BEM
370
    -2
100
AcDbLine
 10
345.0831071089568
 20
361.7072008276707
 30
0.0
 11
345.0831071089568
 21
351.7072008276707
 31
0.0
  0
SOLID
  5
863
330
602
100
AcDbEntity
  8
BEM
100
AcDbTrace
 10
343.9164404422901
 20
361.7072008276707
 30
0.0
 11
346.2497737756235
 21
361.7072008276707
 31
0.0
 12
345.0831071089568
 22
368.7072008276707
 32
0.0
 13
345.0831071089568
 23
368.7072008276707
 33
0.0
  0
SOLID
  5
864
330
602
100
AcDbEntity
  8
BEM
100
AcDbTrace
 10
343.9164404422901
 20
351.7072008276707
 30
0.0
 11
346.2497737756235
 21
351.7072008276707
 31
0.0
 12
345.0831071089568
 22
344.7072008276707
 32
0.0
 13
345.0831071089568
 23
344.7072008276707
 33
0.0
  0
MTEXT
  5
865
330
602
100
AcDbEntity
  8
BEM
100
AcDbMText
 10
336.0831071089568
 20
356.7072008276708
 30
0.0
 40
10.0
 41
0.0
 71
     5
 72
     1
  1
\A1;%%c24
 11
0.0000000000000001
 21
1.0
 31
0.0
 73
     1
 44
1.0
  0
POINT
  5
866
330
602
100
AcDbEntity
  8
DEFPOINTS
 62
     0
100
AcDbPoint
 10
379.2328563341087
 20
368.7072008276707
 30
0.0
  0
POINT
  5
867
330
602
100
AcDbEntity
  8
DEFPOINTS
 62
     0
100
AcDbPoint
 10
379.2328563341087
 20
344.7072008276707
 30
0.0
  0
POINT
  5
868
330
602
100
AcDbEntity
  8
DEFPOINTS
 62
     0
100
AcDbPoint
 10
345.0831071089568
 20
344.7072008276707
 30
0.0
  0
ENDBLK
  5
604
330
602
100
AcDbEntity
  8
0
 48
10.0
100
AcDbBlockEnd
  0
BLOCK
  5
60F
330
60E
100
AcDbEntity
  8
0
 48
10.0
100
AcDbBlockBegin
  2
*D11
 70
     1
 10
0.0
 20
0.0
 30
0.0
  3
*D11
  1

  0
LINE
  5
869
330
60E
100
AcDbEntity
  8
BEM
370
    -2
100
AcDbLine
 10
428.2328563341087
 20
342.7072008276707
 30
0.0
 11
428.2328563341087
 21
243.4285015355925
 31
0.0
  0
LINE
  5
86A
330
60E
100
AcDbEntity
  8
BEM
370
    -2
100
AcDbLine
 10
378.2328563341087
 20
356.7072008276707
 30
0.0
 11
378.2328563341087
 21
243.4285015355925
 31
0.0
  0
LINE
  5
86B
330
60E
100
AcDbEntity
  8
BEM
370
    -2
100
AcDbLine
 10
421.2328563341086
 20
244.6785015355924
 30
0.0
 11
385.2328563341087
 21
244.6785015355924
 31
0.0
  0
SOLID
  5
86C
330
60E
100
AcDbEntity
  8
BEM
100
AcDbTrace
 10
421.2328563341086
 20
245.8451682022591
 30
0.0
 11
421.2328563341086
 21
243.5118348689258
 31
0.0
 12
428.2328563341087
 22
244.6785015355924
 32
0.0
 13
428.2328563341087
 23
244.6785015355924
 33
0.0
  0
SOLID
  5
86D
330
60E
100
AcDbEntity
  8
BEM
100
AcDbTrace
 10
385.2328563341087
 20
245.8451682022591
 30
0.0
 11
385.2328563341087
 21
243.5118348689258
 31
0.0
 12
378.2328563341087
 22
244.6785015355924
 32
0.0
 13
378.2328563341087
 23
244.6785015355924
 33
0.0
  0
MTEXT
  5
86E
330
60E
100
AcDbEntity
  8
BEM
100
AcDbMText
 10
403.2328563341087
 20
253.6785015355924
 30
0.0
 40
10.0
 41
0.0
 71
     5
 72
     1
  1
\A1;50
 73
     1
 44
1.0
  0
POINT
  5
86F
330
60E
100
AcDbEntity
  8
DEFPOINTS
 62
     0
100
AcDbPoint
 10
428.2328563341087
 20
342.7072008276707
 30
0.0
  0
POINT
  5
870
330
60E
100
AcDbEntity
  8
DEFPOINTS
 62
     0
100
AcDbPoint
 10
378.2328563341087
 20
356.7072008276707
 30
0.0
  0
POINT
  5
871
330
60E
100
AcDbEntity
  8
DEFPOINTS
 62
     0
100
AcDbPoint
 10
378.2328563341087
 20
244.6785015355924
 30
0.0
  0
ENDBLK
  5
610
330
60E
100
AcDbEntity
  8
0
 48
10.0
100
AcDbBlockEnd
  0
BLOCK
  5
61B
330
61A
100
AcDbEntity
  8
0
 48
10.0
100
AcDbBlockBegin
  2
*D12
 70
     1
 10
0.0
 20
0.0
 30
0.0
  3
*D12
  1

  0
LINE
  5
872
330
61A
100
AcDbEntity
  8
BEM
370
    -2
100
AcDbLine
 10
384.4328562830509
 20
298.9569434484376
 30
0.0
 11
422.9016708975589
 21
339.2035800420306
 31
0.0
  0
MTEXT
  5
873
330
61A
100
AcDbEntity
  8
BEM
100
AcDbMText
 10
391.2195810438985
 20
319.0826651848255
 30
0.0
 40
10.0
 41
0.0
 71
     5
 72
     1
  1
\A1;R1.6
 11
0.6909602660277141
 21
0.7228927380814602
 31
0.0
 73
     1
 44
1.0
  0
SOLID
  5
874
330
61A
100
AcDbEntity
  8
BEM
100
AcDbTrace
 10
422.0582960364638
 20
340.0097003523963
 30
0.0
 11
423.745045758654
 21
338.397459731665
 31
0.0
 12
427.7383927597528
 22
344.2638292086008
 32
0.0
 13
427.7383927597528
 23
344.2638292086008
 33
0.0
  0
POINT
  5
875
330
61A
100
AcDbEntity
  8
DEFPOINTS
 62
     0
100
AcDbPoint
 10
427.7383927597528
 20
344.2638292086008
 30
0.0
  0
POINT
  5
876
330
61A
100
AcDbEntity
  8
DEFPOINTS
 62
     0
100
AcDbPoint
 10
426.6328563341087
 20
343.1072008276708
 30
0.0
  0
ENDBLK
  5
61C
330
61A
100
AcDbEntity
  8
0
 48
10.0
100
AcDbBlockEnd
  0
BLOCK
  5
623
330
622
100
AcDbEntity
  8
0
 48
10.0
100
AcDbBlockBegin
  2
*D13
 70
     1
 10
0.0
 20
0.0
 30
0.0
  3
*D13
  1

  0
LINE
  5
877
330
622
100
AcDbEntity
  8
BEM
370
    -2
100
AcDbLine
 10
437.2328563341073
 20
411.7072008276706
 30
0.0
 11
437.2328563341073
 21
486.4078183301767
 31
0.0
  0
LINE
  5
878
330
622
100
AcDbEntity
  8
BEM
370
    -2
100
AcDbLine
 10
433.2328563341071
 20
435.7072008276706
 30
0.0
 11
433.2328563341071
 21
486.4078183301767
 31
0.0
  0
LINE
  5
879
330
622
100
AcDbEntity
  8
BEM
370
    -2
100
AcDbLine
 10
444.2328563341074
 20
485.1578183301767
 30
0.0
 11
451.2328563341074
 21
485.1578183301767
 31
0.0
  0
LINE
  5
87A
330
622
100
AcDbEntity
  8
BEM
370
    -2
100
AcDbLine
 10
426.232856334107
 20
485.1578183301767
 30
0.0
 11
404.0899991912499
 21
485.1578183301767
 31
0.0
  0
LINE
  5
87B
330
622
100
AcDbEntity
  8
BEM
370
    -2
100
AcDbLine
 10
437.2328563341073
 20
485.1578183301767
 30
0.0
 11
433.2328563341071
 21
485.1578183301767
 31
0.0
  0
SOLID
  5
87C
330
622
100
AcDbEntity
  8
BEM
100
AcDbTrace
 10
444.2328563341074
 20
486.3244849968434
 30
0.0
 11
444.2328563341074
 21
483.99115166351
 31
0.0
 12
437.2328563341073
 22
485.1578183301767
 32
0.0
 13
437.2328563341073
 23
485.1578183301767
 33
0.0
  0
SOLID
  5
87D
330
622
100
AcDbEntity
  8
BEM
100
AcDbTrace
 10
426.232856334107
 20
486.3244849968434
 30
0.0
 11
426.232856334107
 21
483.99115166351
 31
0.0
 12
433.2328563341071
 22
485.1578183301767
 32
0.0
 13
433.2328563341071
 23
485.1578183301767
 33
0.0
  0
MTEXT
  5
87E
330
622
100
AcDbEntity
  8
BEM
100
AcDbMText
 10
411.6614277626784
 20
494.1578183301767
 30
0.0
 40
10.0
 41
0.0
 71
     5
 72
     1
  1
\A1;4
 73
     1
 44
1.0
  0
POINT
  5
87F
330
622
100
AcDbEntity
  8
DEFPOINTS
 62
     0
100
AcDbPoint
 10
437.2328563341073
 20
411.7072008276706
 30
0.0
  0
POINT
  5
880
330
622
100
AcDbEntity
  8
DEFPOINTS
 62
     0
100
AcDbPoint
 10
433.2328563341071
 20
435.7072008276706
 30
0.0
  0
POINT
  5
881
330
622
100
AcDbEntity
  8
DEFPOINTS
 62
     0
100
AcDbPoint
 10
433.2328563341071
 20
485.1578183301767
 30
0.0
  0
ENDBLK
  5
624
330
622
100
AcDbEntity
  8
0
 48
10.0
100
AcDbBlockEnd
  0
BLOCK
  5
631
330
630
100
AcDbEntity
  8
0
 48
10.0
100
AcDbBlockBegin
  2
*D14
 70
     1
 10
0.0
 20
0.0
 30
0.0
  3
*D14
  1

  0
LINE
  5
882
330
630
100
AcDbEntity
  8
BEM
370
    -2
100
AcDbLine
 10
445.2328563341088
 20
433.2072008276707
 30
0.0
 11
445.2328563341088
 21
518.9297869760362
 31
0.0
  0
LINE
  5
883
330
630
100
AcDbEntity
  8
BEM
370
    -2
100
AcDbLine
 10
433.2328563341071
 20
435.7072008276706
 30
0.0
 11
433.2328563341071
 21
518.9297869760362
 31
0.0
  0
LINE
  5
884
330
630
100
AcDbEntity
  8
BEM
370
    -2
100
AcDbLine
 10
426.232856334107
 20
517.6797869760362
 30
0.0
 11
419.232856334107
 21
517.6797869760362
 31
0.0
  0
LINE
  5
885
330
630
100
AcDbEntity
  8
BEM
370
    -2
100
AcDbLine
 10
452.2328563341087
 20
517.6797869760362
 30
0.0
 11
481.9947610960135
 21
517.6797869760362
 31
0.0
  0
LINE
  5
886
330
630
100
AcDbEntity
  8
BEM
370
    -2
100
AcDbLine
 10
433.2328563341071
 20
517.6797869760362
 30
0.0
 11
445.2328563341088
 21
517.6797869760362
 31
0.0
  0
SOLID
  5
887
330
630
100
AcDbEntity
  8
BEM
100
AcDbTrace
 10
426.232856334107
 20
518.8464536427028
 30
0.0
 11
426.232856334107
 21
516.5131203093696
 31
0.0
 12
433.2328563341071
 22
517.6797869760362
 32
0.0
 13
433.2328563341071
 23
517.6797869760362
 33
0.0
  0
SOLID
  5
888
330
630
100
AcDbEntity
  8
BEM
100
AcDbTrace
 10
452.2328563341087
 20
518.8464536427028
 30
0.0
 11
452.2328563341087
 21
516.5131203093696
 31
0.0
 12
445.2328563341088
 22
517.6797869760362
 32
0.0
 13
445.2328563341088
 23
517.6797869760362
 33
0.0
  0
MTEXT
  5
889
330
630
100
AcDbEntity
  8
BEM
100
AcDbMText
 10
470.6138087150612
 20
526.6797869760361
 30
0.0
 40
10.0
 41
0.0
 71
     5
 72
     1
  1
\A1;12
 73
     1
 44
1.0
  0
POINT
  5
88A
330
630
100
AcDbEntity
  8
DEFPOINTS
 62
     0
100
AcDbPoint
 10
445.2328563341088
 20
433.2072008276707
 30
0.0
  0
POINT
  5
88B
330
630
100
AcDbEntity
  8
DEFPOINTS
 62
     0
100
AcDbPoint
 10
433.2328563341071
 20
435.7072008276706
 30
0.0
  0
POINT
  5
88C
330
630
100
AcDbEntity
  8
DEFPOINTS
 62
     0
100
AcDbPoint
 10
433.2328563341071
 20
517.6797869760362
 30
0.0
  0
ENDBLK
  5
632
330
630
100
AcDbEntity
  8
0
 48
10.0
100
AcDbBlockEnd
  0
BLOCK
  5
63F
330
63E
100
AcDbEntity
  8
0
 48
10.0
100
AcDbBlockBegin
  2
*D15
 70
     1
 10
0.0
 20
0.0
 30
0.0
  3
*D15
  1

  0
LINE
  5
88D
330
63E
100
AcDbEntity
  8
BEM
370
    -2
100
AcDbLine
 10
954.2126877387062
 20
408.3350321707219
 30
0.0
 11
994.2596139469014
 21
448.3819583789185
 31
0.0
  0
LINE
  5
88E
330
63E
100
AcDbEntity
  8
BEM
370
    -2
100
AcDbLine
 10
902.5848563956548
 20
460.6465879423694
 30
0.0
 11
902.5848563956548
 21
486.354886283909
 31
0.0
  0
ARC
  5
88F
330
63E
100
AcDbEntity
  8
BEM
370
    -2
100
AcDbCircle
 10
902.5848563956548
 20
356.7072008276688
 30
0.0
 40
128.3976854562403
100
AcDbArc
 50
48.12404496572066
 51
86.87595503428033
  0
SOLID
  5
890
330
63E
100
AcDbEntity
  8
BEM
100
AcDbTrace
 10
989.0950606427308
 20
453.1581965387112
 30
0.0
 11
987.4907330757057
 21
451.4639186683113
 31
0.0
 12
993.3757304704181
 22
447.4980749024353
 32
0.0
 13
993.3757304704181
 23
447.4980749024353
 33
0.0
  0
SOLID
  5
891
330
63E
100
AcDbEntity
  8
BEM
100
AcDbTrace
 10
909.5504529806987
 20
483.7478397388201
 30
0.0
 11
909.6140574501847
 21
486.0803060120824
 31
0.0
 12
902.5848563956548
 22
485.1048862839092
 32
0.0
 13
902.5848563956548
 23
485.1048862839092
 33
0.0
  0
MTEXT
  5
892
330
63E
100
AcDbEntity
  8
BEM
100
AcDbMText
 10
956.3962426453304
 20
483.1289500586463
 30
0.0
 40
10.0
 41
0.0
 71
     5
 72
     1
  1
\A1;45\U+00B0
 11
0.920115566802918
 21
-0.3916469631274381
 31
0.0
 73
     1
 44
1.0
  0
POINT
  5
893
330
63E
100
AcDbEntity
  8
DEFPOINTS
 62
     0
100
AcDbPoint
 10
935.8166227388121
 20
480.7298412455918
 30
0.0
  0
POINT
  5
894
330
63E
100
AcDbEntity
  8
DEFPOINTS
 62
     0
100
AcDbPoint
 10
954.2126877387062
 20
408.3350321707219
 30
0.0
  0
POINT
  5
895
330
63E
100
AcDbEntity
  8
DEFPOINTS
 62
     0
100
AcDbPoint
 10
902.5848563956548
 20
460.6465879423694
 30
0.0
  0
POINT
  5
896
330
63E
100
AcDbEntity
  8
DEFPOINTS
 62
     0
100
AcDbPoint
 10
902.5848563956548
 20
275.3616088943624
 30
0.0
  0
POINT
  5
897
330
63E
100
AcDbEntity
  8
DEFPOINTS
 62
     0
100
AcDbPoint
 10
943.4379694967484
 20
397.5603139287637
 30
0.0
  0
ENDBLK
  5
640
330
63E
100
AcDbEntity
  8
0
 48
10.0
100
AcDbBlockEnd
  0
BLOCK
  5
64D
330
64C
100
AcDbEntity
  8
0
 48
10.0
100
AcDbBlockBegin
  2
*D16
 70
     1
 10
0.0
 20
0.0
 30
0.0
  3
*D16
  1

  0
LINE
  5
898
330
64C
100
AcDbEntity
  8
BEM
370
    -2
100
AcDbLine
 10
688.2328563341084
 20
452.9572008276707
 30
0.0
 11
779.2830210192617
 21
452.9572008276707
 31
0.0
  0
LINE
  5
899
330
64C
100
AcDbEntity
  8
BEM
370
    -2
100
AcDbLine
 10
757.212472397455
 20
321.9572008276707
 30
0.0
 11
779.2830210192617
 21
321.9572008276707
 31
0.0
  0
LINE
  5
89A
330
64C
100
AcDbEntity
  8
BEM
370
    -2
100
AcDbLine
 10
778.0330210192617
 20
445.9572008276706
 30
0.0
 11
778.0330210192617
 21
328.9572008276707
 31
0.0
  0
SOLID
  5
89B
330
64C
100
AcDbEntity
  8
BEM
100
AcDbTrace
 10
776.866354352595
 20
445.9572008276706
 30
0.0
 11
779.1996876859283
 21
445.9572008276706
 31
0.0
 12
778.0330210192617
 22
452.9572008276707
 32
0.0
 13
778.0330210192617
 23
452.9572008276707
 33
0.0
  0
SOLID
  5
89C
330
64C
100
AcDbEntity
  8
BEM
100
AcDbTrace
 10
776.866354352595
 20
328.9572008276707
 30
0.0
 11
779.1996876859283
 21
328.9572008276707
 31
0.0
 12
778.0330210192617
 22
321.9572008276707
 32
0.0
 13
778.0330210192617
 23
321.9572008276707
 33
0.0
  0
MTEXT
  5
89D
330
64C
100
AcDbEntity
  8
BEM
100
AcDbMText
 10
769.0330210192615
 20
387.4572008276708
 30
0.0
 40
10.0
 41
0.0
 71
     5
 72
     1
  1
\A1;131
 11
0.0000000000000001
 21
1.0
 31
0.0
 73
     1
 44
1.0
  0
POINT
  5
89E
330
64C
100
AcDbEntity
  8
DEFPOINTS
 62
     0
100
AcDbPoint
 10
688.2328563341084
 20
452.9572008276707
 30
0.0
  0
POINT
  5
89F
330
64C
100
AcDbEntity
  8
DEFPOINTS
 62
     0
100
AcDbPoint
 10
757.212472397455
 20
321.9572008276707
 30
0.0
  0
POINT
  5
8A0
330
64C
100
AcDbEntity
  8
DEFPOINTS
 62
     0
100
AcDbPoint
 10
778.0330210192617
 20
321.9572008276707
 30
0.0
  0
ENDBLK
  5
64E
330
64C
100
AcDbEntity
  8
0
 48
10.0
100
AcDbBlockEnd
  0
BLOCK
  5
659
330
658
100
AcDbEntity
  8
0
 48
10.0
100
AcDbBlockBegin
  2
*D17
 70
     1
 10
0.0
 20
0.0
 30
0.0
  3
*D17
  1

  0
LINE
  5
8A1
330
658
100
AcDbEntity
  8
BEM
370
    -2
100
AcDbLine
 10
697.6188712357841
 20
391.9572008276707
 30
0.0
 11
751.6597482422064
 21
391.9572008276707
 31
0.0
  0
LINE
  5
8A2
330
658
100
AcDbEntity
  8
BEM
370
    -2
100
AcDbLine
 10
606.2239378695953
 20
291.9572008276709
 30
0.0
 11
751.6597482422064
 21
291.9572008276708
 31
0.0
  0
LINE
  5
8A3
330
658
100
AcDbEntity
  8
BEM
370
    -2
100
AcDbLine
 10
750.4097482422064
 20
384.9572008276707
 30
0.0
 11
750.4097482422064
 21
298.9572008276708
 31
0.0
  0
SOLID
  5
8A4
330
658
100
AcDbEntity
  8
BEM
100
AcDbTrace
 10
749.2430815755398
 20
384.9572008276707
 30
0.0
 11
751.576414908873
 21
384.9572008276707
 31
0.0
 12
750.4097482422064
 22
391.9572008276707
 32
0.0
 13
750.4097482422064
 23
391.9572008276707
 33
0.0
  0
SOLID
  5
8A5
330
658
100
AcDbEntity
  8
BEM
100
AcDbTrace
 10
749.2430815755398
 20
298.9572008276708
 30
0.0
 11
751.576414908873
 21
298.9572008276708
 31
0.0
 12
750.4097482422064
 22
291.9572008276708
 32
0.0
 13
750.4097482422064
 23
291.9572008276708
 33
0.0
  0
MTEXT
  5
8A6
330
658
100
AcDbEntity
  8
BEM
100
AcDbMText
 10
741.4097482422063
 20
341.9572008276709
 30
0.0
 40
10.0
 41
0.0
 71
     5
 72
     1
  1
\A1;100
 11
0.0000000000000001
 21
1.0
 31
0.0
 73
     1
 44
1.0
  0
POINT
  5
8A7
330
658
100
AcDbEntity
  8
DEFPOINTS
 62
     0
100
AcDbPoint
 10
697.6188712357841
 20
391.9572008276707
 30
0.0
  0
POINT
  5
8A8
330
658
100
AcDbEntity
  8
DEFPOINTS
 62
     0
100
AcDbPoint
 10
606.2239378695953
 20
291.9572008276709
 30
0.0
  0
POINT
  5
8A9
330
658
100
AcDbEntity
  8
DEFPOINTS
 62
     0
100
AcDbPoint
 10
750.4097482422064
 20
291.9572008276708
 30
0.0
  0
ENDBLK
  5
65A
330
658
100
AcDbEntity
  8
0
 48
10.0
100
AcDbBlockEnd
  0
BLOCK
  5
665
330
664
100
AcDbEntity
  8
0
 48
10.0
100
AcDbBlockBegin
  2
*D18
 70
     1
 10
0.0
 20
0.0
 30
0.0
  3
*D18
  1

  0
LINE
  5
8AA
330
664
100
AcDbEntity
  8
BEM
370
    -2
100
AcDbLine
 10
697.6188712357841
 20
391.9572008276707
 30
0.0
 11
719.0116131553407
 21
391.9572008276707
 31
0.0
  0
LINE
  5
8AB
330
664
100
AcDbEntity
  8
BEM
370
    -2
100
AcDbLine
 10
678.6823460768914
 20
310.9572008276707
 30
0.0
 11
719.0116131553407
 21
310.9572008276707
 31
0.0
  0
LINE
  5
8AC
330
664
100
AcDbEntity
  8
BEM
370
    -2
100
AcDbLine
 10
717.7616131553406
 20
384.9572008276707
 30
0.0
 11
717.7616131553406
 21
317.9572008276707
 31
0.0
  0
SOLID
  5
8AD
330
664
100
AcDbEntity
  8
BEM
100
AcDbTrace
 10
716.5949464886741
 20
384.9572008276707
 30
0.0
 11
718.9282798220073
 21
384.9572008276707
 31
0.0
 12
717.7616131553406
 22
391.9572008276707
 32
0.0
 13
717.7616131553406
 23
391.9572008276707
 33
0.0
  0
SOLID
  5
8AE
330
664
100
AcDbEntity
  8
BEM
100
AcDbTrace
 10
716.5949464886741
 20
317.9572008276707
 30
0.0
 11
718.9282798220073
 21
317.9572008276707
 31
0.0
 12
717.7616131553406
 22
310.9572008276707
 32
0.0
 13
717.7616131553406
 23
310.9572008276707
 33
0.0
  0
MTEXT
  5
8AF
330
664
100
AcDbEntity
  8
BEM
100
AcDbMText
 10
708.7616131553406
 20
351.4572008276708
 30
0.0
 40
10.0
 41
0.0
 71
     5
 72
     1
  1
\A1;81
 11
0.0000000000000001
 21
1.0
 31
0.0
 73
     1
 44
1.0
  0
POINT
  5
8B0
330
664
100
AcDbEntity
  8
DEFPOINTS
 62
     0
100
AcDbPoint
 10
697.6188712357841
 20
391.9572008276707
 30
0.0
  0
POINT
  5
8B1
330
664
100
AcDbEntity
  8
DEFPOINTS
 62
     0
100
AcDbPoint
 10
678.6823460768914
 20
310.9572008276707
 30
0.0
  0
POINT
  5
8B2
330
664
100
AcDbEntity
  8
DEFPOINTS
 62
     0
100
AcDbPoint
 10
717.7616131553406
 20
310.9572008276707
 30
0.0
  0
ENDBLK
  5
666
330
664
100
AcDbEntity
  8
0
 48
10.0
100
AcDbBlockEnd
  0
BLOCK
  5
671
330
670
100
AcDbEntity
  8
0
 48
10.0
100
AcDbBlockBegin
  2
*D19
 70
     1
 10
0.0
 20
0.0
 30
0.0
  3
*D19
  1

  0
LINE
  5
8B3
330
670
100
AcDbEntity
  8
BEM
370
    -2
100
AcDbLine
 10
1029.071499335014
 20
397.4517443657986
 30
0.0
 11
971.1169893350664
 21
378.7831323997445
 31
0.0
  0
LINE
  5
8B4
330
670
100
AcDbEntity
  8
BEM
370
    -2
100
AcDbLine
 10
834.052723456244
 20
334.631269255597
 30
0.0
 11
827.3898771982457
 21
332.4849981305343
 31
0.0
  0
MTEXT
  5
8B5
102
{ACAD_XDICTIONARY
360
93F
102
}
330
670
100
AcDbEntity
  8
BEM
100
AcDbMText
 10
1005.960865236523
 20
399.4626437372851
 30
0.0
 40
10.0
 41
0.0
 71
     5
 72
     1
  1
\A1;\U+2205130
 11
0.9518351797140434
 21
0.3066101607232456
 31
0.0
 73
     1
 44
1.0
  0
LINE
  5
8B6
330
670
100
AcDbEntity
  8
BEM
370
    -2
100
AcDbLine
 10
840.7155697142423
 20
336.7775403806597
 30
0.0
 11
964.4541430770683
 21
376.6368612746818
 31
0.0
  0
SOLID
  5
8B7
330
670
100
AcDbEntity
  8
BEM
100
AcDbTrace
 10
833.695011602067
 20
335.7417436319301
 30
0.0
 11
834.4104353104212
 21
333.520794879264
 31
0.0
 12
840.7155697142423
 22
336.7775403806597
 32
0.0
 13
840.7155697142423
 23
336.7775403806597
 33
0.0
  0
SOLID
  5
8B8
330
670
100
AcDbEntity
  8
BEM
100
AcDbTrace
 10
970.7592774808894
 20
379.8936067760775
 30
0.0
 11
971.4747011892436
 21
377.6726580234115
 31
0.0
 12
964.4541430770683
 22
376.6368612746818
 32
0.0
 13
964.4541430770683
 23
376.6368612746818
 33
0.0
  0
POINT
  5
8B9
330
670
100
AcDbEntity
  8
DEFPOINTS
 62
     0
100
AcDbPoint
 10
964.4541430770683
 20
376.6368612746818
 30
0.0
  0
POINT
  5
8BA
330
670
100
AcDbEntity
  8
DEFPOINTS
 62
     0
100
AcDbPoint
 10
840.7155697142423
 20
336.7775403806597
 30
0.0
  0
ENDBLK
  5
672
330
670
100
AcDbEntity
  8
0
 48
10.0
100
AcDbBlockEnd
  0
BLOCK
  5
67C
330
67B
100
AcDbEntity
  8
0
 48
10.0
100
AcDbBlockBegin
  2
*D20
 70
     1
 10
0.0
 20
0.0
 30
0.0
  3
*D20
  1

  0
LINE
  5
8BB
330
67B
100
AcDbEntity
  8
BEM
370
    -2
100
AcDbLine
 10
1045.011888940391
 20
328.9015414273722
 30
0.0
 11
986.9913738579608
 21
340.2287357934079
 31
0.0
  0
LINE
  5
8BC
330
67B
100
AcDbEntity
  8
BEM
370
    -2
100
AcDbLine
 10
818.1783389333485
 20
373.1856658619329
 30
0.0
 11
811.3080410003702
 21
374.5269362716984
 31
0.0
  0
MTEXT
  5
8BD
102
{ACAD_XDICTIONARY
360
941
102
}
330
67B
100
AcDbEntity
  8
BEM
100
AcDbMText
 10
1025.751591903237
 20
341.831587164227
 30
0.0
 40
10.0
 41
0.0
 71
     5
 72
     1
  1
\A1;\U+2205158
 11
0.9814711332826295
 21
-0.1916100585379353
 31
0.0
 73
     1
 44
1.0
  0
LINE
  5
8BE
330
67B
100
AcDbEntity
  8
BEM
370
    -2
100
AcDbLine
 10
825.0486368663271
 20
371.8443954521674
 30
0.0
 11
980.1210759249824
 21
341.5700062031734
 31
0.0
  0
SOLID
  5
8BF
330
67B
100
AcDbEntity
  8
BEM
100
AcDbTrace
 10
818.4018840016429
 20
374.3307155174292
 30
0.0
 11
817.9547938650543
 21
372.0406162064366
 31
0.0
 12
825.0486368663271
 22
371.8443954521674
 32
0.0
 13
825.0486368663271
 23
371.8443954521674
 33
0.0
  0
SOLID
  5
8C0
330
67B
100
AcDbEntity
  8
BEM
100
AcDbTrace
 10
987.214918926255
 20
341.3737854489042
 30
0.0
 11
986.7678287896666
 21
339.0836861379116
 31
0.0
 12
980.1210759249824
 22
341.5700062031734
 32
0.0
 13
980.1210759249824
 23
341.5700062031734
 33
0.0
  0
POINT
  5
8C1
330
67B
100
AcDbEntity
  8
DEFPOINTS
 62
     0
100
AcDbPoint
 10
980.1210759249824
 20
341.5700062031734
 30
0.0
  0
POINT
  5
8C2
330
67B
100
AcDbEntity
  8
DEFPOINTS
 62
     0
100
AcDbPoint
 10
825.0486368663271
 20
371.8443954521674
 30
0.0
  0
ENDBLK
  5
67D
330
67B
100
AcDbEntity
  8
0
 48
10.0
100
AcDbBlockEnd
  0
BLOCK
  5
687
330
686
100
AcDbEntity
  8
0
 48
10.0
100
AcDbBlockBegin
  2
*D21
 70
     1
 10
0.0
 20
0.0
 30
0.0
  3
*D21
  1

  0
LINE
  5
8C3
330
686
100
AcDbEntity
  8
BEM
370
    -2
100
AcDbLine
 10
658.2328563341084
 20
306.8580701042224
 30
0.0
 11
658.2328563341084
 21
243.4285015355925
 31
0.0
  0
LINE
  5
8C4
330
686
100
AcDbEntity
  8
BEM
370
    -2
100
AcDbLine
 10
585.2328563341083
 20
288.7480666921034
 30
0.0
 11
585.2328563341083
 21
243.4285015355925
 31
0.0
  0
LINE
  5
8C5
330
686
100
AcDbEntity
  8
BEM
370
    -2
100
AcDbLine
 10
651.2328563341084
 20
244.6785015355924
 30
0.0
 11
592.2328563341084
 21
244.6785015355924
 31
0.0
  0
SOLID
  5
8C6
330
686
100
AcDbEntity
  8
BEM
100
AcDbTrace
 10
651.2328563341084
 20
245.8451682022591
 30
0.0
 11
651.2328563341084
 21
243.5118348689258
 31
0.0
 12
658.2328563341084
 22
244.6785015355924
 32
0.0
 13
658.2328563341084
 23
244.6785015355924
 33
0.0
  0
SOLID
  5
8C7
330
686
100
AcDbEntity
  8
BEM
100
AcDbTrace
 10
592.2328563341084
 20
245.8451682022591
 30
0.0
 11
592.2328563341084
 21
243.5118348689258
 31
0.0
 12
585.2328563341083
 22
244.6785015355924
 32
0.0
 13
585.2328563341083
 23
244.6785015355924
 33
0.0
  0
MTEXT
  5
8C8
330
686
100
AcDbEntity
  8
BEM
100
AcDbMText
 10
621.7328563341084
 20
253.6785015355924
 30
0.0
 40
10.0
 41
0.0
 71
     5
 72
     1
  1
\A1;73
 73
     1
 44
1.0
  0
POINT
  5
8C9
330
686
100
AcDbEntity
  8
DEFPOINTS
 62
     0
100
AcDbPoint
 10
658.2328563341084
 20
306.8580701042224
 30
0.0
  0
POINT
  5
8CA
330
686
100
AcDbEntity
  8
DEFPOINTS
 62
     0
100
AcDbPoint
 10
585.2328563341083
 20
288.7480666921034
 30
0.0
  0
POINT
  5
8CB
330
686
100
AcDbEntity
  8
DEFPOINTS
 62
     0
100
AcDbPoint
 10
585.2328563341083
 20
244.6785015355924
 30
0.0
  0
ENDBLK
  5
688
330
686
100
AcDbEntity
  8
0
 48
10.0
100
AcDbBlockEnd
  0
BLOCK
  5
693
330
692
100
AcDbEntity
  8
0
 48
10.0
100
AcDbBlockBegin
  2
*D22
 70
     1
 10
0.0
 20
0.0
 30
0.0
  3
*D22
  1

  0
LINE
  5
8CC
330
692
100
AcDbEntity
  8
BEM
370
    -2
100
AcDbLine
 10
996.4675665082355
 20
299.8103608329578
 30
0.0
 11
959.7586053767601
 21
308.1868705576882
 31
0.0
  0
LINE
  5
8CD
330
692
100
AcDbEntity
  8
BEM
370
    -2
100
AcDbLine
 10
937.3349889687997
 20
313.3036495434017
 30
0.0
 11
930.510410062029
 21
314.8609301042709
 31
0.0
  0
MTEXT
  5
8CE
102
{ACAD_XDICTIONARY
360
943
102
}
330
692
100
AcDbEntity
  8
BEM
100
AcDbMText
 10
987.1419119011079
 20
311.169693283514
 30
0.0
 40
10.0
 41
0.0
 71
     5
 72
     1
  1
\A1;\U+22059
 11
0.9749398438243749
 21
-0.22246865155276
 31
0.0
 73
     1
 44
1.0
  0
LINE
  5
8CF
330
692
100
AcDbEntity
  8
BEM
370
    -2
100
AcDbLine
 10
944.1595678755701
 20
311.7463689825323
 30
0.0
 11
952.9340264699895
 21
309.7441511185575
 31
0.0
  0
SOLID
  5
8D0
330
692
100
AcDbEntity
  8
BEM
100
AcDbTrace
 10
937.5945357289445
 20
314.4410793611967
 30
0.0
 11
937.0754422086546
 21
312.1662197256065
 31
0.0
 12
944.1595678755701
 22
311.7463689825323
 32
0.0
 13
944.1595678755701
 23
311.7463689825323
 33
0.0
  0
SOLID
  5
8D1
330
692
100
AcDbEntity
  8
BEM
100
AcDbTrace
 10
960.018152136905
 20
309.3243003754832
 30
0.0
 11
959.4990586166153
 21
307.0494407398931
 31
0.0
 12
952.9340264699895
 22
309.7441511185575
 32
0.0
 13
952.9340264699895
 23
309.7441511185575
 33
0.0
  0
POINT
  5
8D2
330
692
100
AcDbEntity
  8
DEFPOINTS
 62
     0
100
AcDbPoint
 10
952.9340264699895
 20
309.7441511185575
 30
0.0
  0
POINT
  5
8D3
330
692
100
AcDbEntity
  8
DEFPOINTS
 62
     0
100
AcDbPoint
 10
944.1595678755701
 20
311.7463689825323
 30
0.0
  0
ENDBLK
  5
694
330
692
100
AcDbEntity
  8
0
 48
10.0
100
AcDbBlockEnd
  0
ENDSEC
  0
SECTION
  2
ENTITIES
  0
LINE
  5
20
330
2
100
AcDbEntity
  8
0
100
AcDbLine
 10
521.2328563341084
 20
325.957200827671
 30
0.0
 11
534.5726022962638
 21
325.9572008276707
 31
0.0
1001
ACAD
1000
ASC_BOUNDS
1002
{
1070
    19
1002
}
  0
LINE
  5
21
330
2
100
AcDbEntity
  8
0
100
AcDbLine
 10
521.2328563341084
 20
396.9572008276708
 30
0.0
 11
537.572602296264
 21
396.9572008276708
 31
0.0
  0
LINE
  5
22
330
2
100
AcDbEntity
  8
0
100
AcDbLine
 10
514.2328563341083
 20
457.9572008276709
 30
0.0
 11
534.5726022962638
 21
457.9572008276707
 31
0.0
1001
ACAD
1000
ASC_BOUNDS
1002
{
1070
    19
1002
}
  0
LINE
  5
23
330
2
100
AcDbEntity
  8
MITTE
 48
15.0
100
AcDbLine
 10
508.4906278745916
 20
391.9572008276707
 30
0.0
 11
697.6188712357841
 21
391.9572008276707
 31
0.0
  0
LINE
  5
26
330
2
100
AcDbEntity
  8
LINIE
 48
10.0
100
AcDbLine
 10
522.6058771256455
 20
452.9572008276707
 30
0.0
 11
545.5609125522621
 21
452.9572008276707
 31
0.0
  0
LINE
  5
28
330
2
100
AcDbEntity
  8
LINIE
 48
10.0
100
AcDbLine
 10
540.7780367825128
 20
452.9572008276706
 30
0.0
 11
522.6461036624768
 21
452.9572008276706
 31
0.0
  0
LINE
  5
29
330
2
100
AcDbEntity
  8
LINIE
 48
10.0
100
AcDbLine
 10
522.6058771256455
 20
330.9572008276707
 30
0.0
 11
543.8691368620225
 21
330.9572008276707
 31
0.0
  0
DIMENSION
  5
2A
330
2
100
AcDbEntity
  8
BEM
100
AcDbDimension
  2
*D3
 10
378.2328563341087
 20
582.0081496491948
 30
0.0
 11
535.7328563341085
 21
591.0081496491947
 31
0.0
 70
    32
 71
     5
 42
314.9999999999997
  3
ISO-25
100
AcDbAlignedDimension
 13
693.2328563341084
 23
447.9572008276707
 33
0.0
 14
378.2328563341087
 24
367.7072008276707
 34
0.0
100
AcDbRotatedDimension
1001
ACAD
1000
DSTYLE
1002
{
1070
   144
1040
1.0
1002
}
  0
DIMENSION
  5
39
330
2
100
AcDbEntity
  8
BEM
100
AcDbDimension
  2
*D4
 10
693.2328563341084
 20
550.2734670731578
 30
0.0
 11
563.2328563341077
 21
559.2734670731579
 31
0.0
 70
    32
 71
     5
 42
260.0000000000014
  3
ISO-25
100
AcDbAlignedDimension
 13
433.2328563341071
 23
435.7072008276706
 33
0.0
 14
693.2328563341084
 24
447.9572008276707
 34
0.0
100
AcDbRotatedDimension
1001
ACAD
1000
DSTYLE
1002
{
1070
   144
1040
1.0
1002
}
  0
DIMENSION
  5
46
330
2
100
AcDbEntity
  8
BEM
100
AcDbDimension
  2
*D5
 10
433.2328563341087
 20
244.6785015355924
 30
0.0
 11
509.2328563341086
 21
253.6785015355924
 31
0.0
 70
    32
 71
     5
 42
151.9999999999996
  3
ISO-25
100
AcDbAlignedDimension
 13
585.2328563341083
 23
279.1689290443176
 33
0.0
 14
433.2328563341087
 24
277.7072008276707
 34
0.0
100
AcDbRotatedDimension
1001
ACAD
1000
DSTYLE
1002
{
1070
   144
1040
1.0
1002
}
  0
MTEXT
  5
53
102
{ACAD_REACTORS
330
54
102
}
330
2
100
AcDbEntity
  8
BEM
100
AcDbMText
 10
175.2521146210879
 20
579.5535459370088
 30
0.0
 40
10.0
 41
0.0
 71
     1
 72
     1
  1
Paßfeder\PFitting key\PClavette d'ajustage\PLinguetta\PA 8x7x40 DIN 6885
 73
     1
 44
1.0
  0
LEADER
  5
54
330
2
100
AcDbEntity
  8
BEM
100
AcDbLeader
  3
STANDARD
 73
     0
 75
     1
 40
78.57142857142858
 41
153.3333333333334
 76
     3
 10
403.6056254015124
 20
371.6072008276707
 30
0.0
 10
338.7648173820076
 20
496.9405957522976
 30
0.0
 10
331.7648173820076
 20
496.9405957522976
 30
0.0
340
53
213
-0.8206305724136768
223
-0.0415216132826188
233
0.0
  0
LINE
  5
56
330
2
100
AcDbEntity
  8
0
100
AcDbLine
 10
514.2328563341083
 20
457.9572008276707
 30
0.0
 11
514.2328563341093
 21
314.9572008276707
 31
0.0
1001
ACAD
1000
ASC_BOUNDS
1002
{
1070
    19
1005
0
1005
0
1005
0
1005
0
1002
}
  0
LINE
  5
57
330
2
100
AcDbEntity
  8
0
100
AcDbLine
 10
446.2328563341086
 20
411.7072008276706
 30
0.0
 11
446.2328563341086
 21
301.7072008276707
 31
0.0
  0
LINE
  5
58
330
2
100
AcDbEntity
  8
0
100
AcDbLine
 10
445.2328563341067
 20
280.2072008276687
 30
0.0
 11
445.2328563341088
 21
433.2072008276707
 31
0.0
  0
LINE
  5
59
330
2
100
AcDbEntity
  8
0
100
AcDbLine
 10
433.2328563341071
 20
435.7072008276706
 30
0.0
 11
433.2328563341087
 21
277.7072008276707
 31
0.0
  0
LINE
  5
5A
330
2
100
AcDbEntity
  8
0
100
AcDbLine
 10
442.7328563341088
 20
435.7072008276706
 30
0.0
 11
442.7328563341087
 21
277.7072008276707
 31
0.0
  0
LINE
  5
5B
330
2
100
AcDbEntity
  8
0
100
AcDbLine
 10
521.2328563341084
 20
457.9572008276707
 30
0.0
 11
521.2328563341084
 21
325.9572008276707
 31
0.0
1001
ACAD
1000
ASC_BOUNDS
1002
{
1070
    19
1005
0
1005
0
1005
0
1005
0
1002
}
  0
LINE
  5
5C
330
2
100
AcDbEntity
  8
0
100
AcDbLine
 10
521.2328563341084
 20
428.9572008276707
 30
0.0
 11
521.2328563341089
 21
354.9572008276707
 31
0.0
1001
ACAD
1000
ASC_BOUNDS
1002
{
1070
    19
1005
0
1005
0
1002
}
  0
ARC
  5
5D
330
2
100
AcDbEntity
  8
0
100
AcDbCircle
 10
261.1954208297041
 20
356.7072008276707
 30
0.0
 40
79.0
100
AcDbArc
 50
317.7745649177908
 51
42.4980861824404
  0
ARC
  5
5E
330
2
100
AcDbEntity
  8
0
100
AcDbCircle
 10
261.1954208297041
 20
356.7072008276707
 30
0.0
 40
76.5
100
AcDbArc
 50
319.8808331015942
 51
38.72345197251187
  0
LINE
  5
5F
330
2
100
AcDbEntity
  8
0
100
AcDbLine
 10
322.1954208297041
 20
391.9572008276713
 30
0.0
 11
322.1954208297041
 21
324.4572008276707
 31
0.0
  0
LINE
  5
60
330
2
100
AcDbEntity
  8
0
100
AcDbLine
 10
322.1954208297041
 20
391.9572008276707
 30
0.0
 11
322.1954208297041
 21
324.4572008276707
 31
0.0
  0
ARC
  5
61
330
2
100
AcDbEntity
  8
0
100
AcDbCircle
 10
222.5159344746872
 20
399.9572008276707
 30
0.0
 40
100.0
100
AcDbArc
 50
310.9260633096046
 51
355.4114342642143
1001
ACAD
1000
ASC_BOUNDS
1002
{
1070
    19
1005
0
1002
}
  0
ARC
  5
62
330
2
100
AcDbEntity
  8
0
100
AcDbCircle
 10
261.1954208297041
 20
356.7072008276707
 30
0.0
 40
79.0
100
AcDbArc
 50
137.5019138175594
 51
222.2254350822092
  0
ARC
  5
63
330
2
100
AcDbEntity
  8
0
100
AcDbCircle
 10
261.1954208297041
 20
356.7072008276707
 30
0.0
 40
76.5
100
AcDbArc
 50
141.2765480274881
 51
220.1191668984043
  0
ARC
  5
64
330
2
100
AcDbEntity
  8
0
100
AcDbCircle
 10
261.1954208297041
 20
391.9572008276709
 30
0.0
 40
65.81669415865359
100
AcDbArc
 50
179.5853943548262
 51
202.0561142201633
  0
LINE
  5
65
330
2
100
AcDbEntity
  8
0
100
AcDbLine
 10
200.1954208297041
 20
391.9572008276712
 30
0.0
 11
200.1954208297041
 21
324.4572008276707
 31
0.0
  0
LINE
  5
66
330
2
100
AcDbEntity
  8
0
100
AcDbLine
 10
200.1954208297041
 20
391.9572008276707
 30
0.0
 11
200.1954208297041
 21
324.4572008276707
 31
0.0
  0
ARC
  5
67
330
2
100
AcDbEntity
  8
0
100
AcDbCircle
 10
299.874907184721
 20
399.9572008276707
 30
0.0
 40
100.0
100
AcDbArc
 50
184.5885657357857
 51
229.0739366903955
1001
ACAD
1000
ASC_BOUNDS
1002
{
1070
    19
1005
0
1002
}
  0
LINE
  5
68
330
2
100
AcDbEntity
  8
LINIE
 48
10.0
100
AcDbLine
 10
482.2424752773421
 20
367.2072008276707
 30
0.0
 11
482.2424752773421
 21
380.2519328596497
 31
0.0
  0
LINE
  5
69
330
2
100
AcDbEntity
  8
LINIE
  6
STRICHLINIE
 48
10.0
100
AcDbLine
 10
437.2328563341073
 20
411.7072008276706
 30
0.0
 11
437.2328563341085
 21
301.7072008276707
 31
0.0
  0
LINE
  5
6B
330
2
100
AcDbEntity
  8
MITTE
 48
10.0
100
AcDbLine
 10
261.1954208297041
 20
461.7091180723234
 30
0.0
 11
261.1954208297041
 21
271.9389126216768
 31
0.0
  0
HATCH
  5
6D
330
2
100
AcDbEntity
  8
LINIE
 48
10.0
100
AcDbHatch
 10
0.0
 20
0.0
 30
0.0
210
0.0
220
0.0
230
1.0
  2
AR-CONC
 70
     0
 71
     0
 91
        2
 92
        7
 72
     1
 73
     1
 93
        6
 10
200.1954208297041
 20
391.957200827671
 42
0.1965790673635085
 10
234.3664495270159
 20
324.4016452721151
 42
0.1804963181033798
 10
240.9172952927863
 20
321.9572008276707
 42
0.0
 10
281.4735463666218
 20
321.9572008276707
 42
0.1804963181033815
 10
288.0243921323924
 20
324.4016452721151
 42
0.1965790673635087
 10
322.1954208297041
 20
391.9572008276711
 42
1.0
 97
        0
 92
        7
 72
     1
 73
     1
 93
       10
 10
283.6954208297041
 20
319.4572008276707
 42
-0.4142135623730951
 10
286.1954208297041
 20
321.9572008276707
 42
0.0
 10
276.6954208297041
 20
321.9572008276707
 42
0.0
 10
236.1954208297041
 20
321.9572008276707
 42
-0.4142135623730951
 10
238.6954208297041
 20
319.4572008276707
 42
0.0
 10
238.6954208297041
 20
311.4572008276707
 42
0.0503820444849804
 10
238.7459310869211
 20
310.9572008276698
 42
0.0
 10
283.6449105724871
 20
310.9572008276698
 42
0.0568446423399838
 10
283.6945903593162
 20
311.5216342216417
 42
-0.0000090034323923
 10
283.6954208297041
 20
311.5218233086761
 42
0.0
 97
        0
 75
     0
 76
     1
 52
0.0
 41
2.0
 77
     0
 78
    13
 53
50.0
 43
304.3636792406472
 44
66.24749110591733
 45
14.34520365201507
 46
-1.255042699651902
 79
     2
 49
1.5
 49
-16.5
 53
355.0
 43
304.3636792406472
 44
66.24749110591733
 45
-2.77502667226
 46
15.04384267400024
 79
     2
 49
1.199999999999999
 49
-13.2
 53
100.4514
 43
305.5591128406472
 44
66.14290430591734
 45
11.57018763428043
 46
13.78879084121907
 79
     2
 49
1.274803799999998
 49
-14.02284223999999
 53
46.1842
 43
304.3636792406472
 44
70.24749110591733
 45
21.34482097251289
 46
-3.310380286580361
 79
     2
 49
2.25
 49
-24.75
 53
96.63559999999996
 43
306.1424141406472
 44
69.97162496591733
 45
18.69325411097406
 46
19.48235741800883
 79
     2
 49
1.912205759999998
 49
-21.03425999999997
 53
351.1842000000001
 43
304.3636792406472
 44
70.24749110591733
 45
18.69323890267254
 46
19.48237201850649
 79
     2
 49
1.8
 49
-19.8
 53
21.0
 43
306.3636792406472
 44
69.24749110591733
 45
11.93814104236923
 46
-8.052377813306776
 79
     2
 49
1.5
 49
-16.5
 53
326.0
 43
306.3636792406472
 44
69.24749110591733
 45
4.866306638431634
 46
14.50300090093706
 79
     2
 49
1.199999999999999
 49
-13.2
 53
71.45140000000001
 43
307.3585239006472
 44
68.57645898591733
 45
16.8044525716298
 46
6.450609934199047
 79
     2
 49
1.2748038
 49
-14.02284224
 53
37.5
 43
304.3636792406472
 44
66.24749110591733
 45
0.2431971063458134
 46
6.657877076626229
 79
     6
 49
0.0
 49
-13.04
 49
0.0
 49
-13.4
 49
0.0
 49
-13.25
 53
7.499999999999999
 43
304.3636792406472
 44
66.24749110591733
 45
5.261390748842972
 46
7.888234237647204
 79
     6
 49
0.0
 49
-7.639999999999999
 49
0.0
 49
-12.74
 49
0.0
 49
-5.049999999999999
 53
327.5
 43
299.9036792406472
 44
66.24749110591733
 45
10.67644872344818
 46
-0.451097434687596
 79
     6
 49
0.0
 49
-5.0
 49
0.0
 49
-15.6
 49
0.0
 49
-20.7
 53
317.5
 43
297.9036792406472
 44
66.24749110591733
 45
11.66372338684772
 46
2.002099646646352
 79
     6
 49
0.0
 49
-6.5
 49
0.0
 49
-10.36
 49
0.0
 49
-14.7
 47
0.4120896387672359
 98
        2
 10
274.8256423898322
 20
400.7121752266714
 10
263.2832837041649
 20
317.0579780448682
  0
LINE
  5
6E
330
2
100
AcDbEntity
  8
LINIE
 48
10.0
100
AcDbLine
 10
505.2328563341086
 20
419.2752234652157
 30
0.0
 11
505.2328563341086
 21
318.353295915505
 31
0.0
  0
DIMENSION
  5
6F
330
2
100
AcDbEntity
  8
BEM
100
AcDbDimension
  2
*D6
 10
279.3525645858379
 20
277.7072008276708
 30
0.0
 11
270.3525645858378
 21
367.8322008276709
 31
0.0
 70
    32
  1
180
 71
     5
 42
180.2500000000001
  3
ISO-25
100
AcDbAlignedDimension
 13
514.2328563341083
 23
457.9572008276707
 33
0.0
 14
433.2328563341087
 24
277.7072008276707
 34
0.0
 50
90.0
100
AcDbRotatedDimension
1001
ACAD
1000
DSTYLE
1002
{
1070
   144
1040
1.0
1002
}
  0
DIMENSION
  5
7C
330
2
100
AcDbEntity
  8
BEM
100
AcDbDimension
  2
*D7
 10
311.0356331192823
 20
301.7072008276707
 30
0.0
 11
302.0356331192822
 21
356.7072008276708
 31
0.0
 70
    32
  1
%%c<>
 71
     5
 42
110.0
  3
ISO-25
100
AcDbAlignedDimension
 13
433.2328563341073
 23
411.7072008276706
 33
0.0
 14
374.4030767199983
 24
301.7072008276707
 34
0.0
 50
90.0
100
AcDbRotatedDimension
1001
ACAD
1000
DSTYLE
1002
{
1070
   144
1040
1.0
1002
}
  0
DIMENSION
  5
89
330
2
100
AcDbEntity
  8
BEM
100
AcDbDimension
  2
*D8
 10
225.2937951159737
 20
356.7072008276707
 30
0.0
 11
225.2937951159736
 21
374.3322008276708
 31
0.0
 70
   160
  1
35.2
 71
     5
 42
35.25
  3
ISO-25
100
AcDbAlignedDimension
 13
167.5581221096054
 23
391.9572008276707
 33
0.0
 14
183.8718377028797
 24
356.7072008276707
 34
0.0
 50
90.0
100
AcDbRotatedDimension
1001
ACAD
1000
DSTYLE
1002
{
1070
   144
1040
1.0
1070
   289
1070
     0
1002
}
  0
ARC
  5
98
330
2
100
AcDbEntity
  8
0
100
AcDbCircle
 10
212.9454208297042
 20
289.4619013660502
 30
0.0
 40
23.65000000000001
100
AcDbArc
 50
70.14839776841435
 51
109.8516022315841
  0
ARC
  5
99
330
2
100
AcDbEntity
  8
0
100
AcDbCircle
 10
212.9454208297042
 20
315.6072008276709
 30
0.0
 40
23.65000000000001
100
AcDbArc
 50
250.1483977684143
 51
289.8516022315856
  0
LINE
  5
9A
330
2
100
AcDbEntity
  8
0
100
AcDbLine
 10
242.6954208297042
 20
291.9572008276708
 30
0.0
 11
203.6954208297042
 21
291.9572008276708
 31
0.0
1001
ACAD
1000
ASC_BOUNDS
1002
{
1070
    19
1005
0
1002
}
  0
LINE
  5
9B
330
2
100
AcDbEntity
  8
0
100
AcDbLine
 10
202.6954208297041
 20
321.9572008276707
 30
0.0
 11
319.6954208297041
 21
321.9572008276707
 31
0.0
1001
ACAD
1000
ASC_BOUNDS
1002
{
1070
    19
1005
0
1002
}
  0
LINE
  5
9C
330
2
100
AcDbEntity
  8
0
100
AcDbLine
 10
200.6954208297042
 20
313.1119013660502
 30
0.0
 11
238.6954208297043
 21
313.1119013660501
 31
0.0
  0
LINE
  5
9D
330
2
100
AcDbEntity
  8
0
100
AcDbLine
 10
245.6954208297041
 20
321.9572008276707
 30
0.0
 11
200.6954208297041
 21
321.9572008276707
 31
0.0
1001
ACAD
1000
ASC_BOUNDS
1002
{
1070
    19
1002
}
  0
LINE
  5
9E
330
2
100
AcDbEntity
  8
BEM
100
AcDbLine
 10
50.54221944305737
 20
301.4246436751873
 30
0.0
 11
46.44026658755669
 21
268.3587784418868
 31
0.0
  0
LINE
  5
9F
330
2
100
AcDbEntity
  8
MITTE
 48
10.0
100
AcDbLine
 10
345.0274151916672
 20
356.7072008276707
 30
0.0
 11
177.9730003328007
 21
356.7072008276707
 31
0.0
  0
LINE
  5
A0
330
2
100
AcDbEntity
  8
MITTE
 48
10.0
100
AcDbLine
 10
345.0274151916672
 20
356.7072008276707
 30
0.0
 11
177.9730003328007
 21
356.7072008276707
 31
0.0
  0
TEXT
  5
A1
330
2
100
AcDbEntity
  8
0
100
AcDbText
 10
201.6410972882259
 20
257.1641489508599
 30
0.0
 40
10.0
  1
L
100
AcDbText
  0
LINE
  5
A2
330
2
100
AcDbEntity
  8
0
100
AcDbLine
 10
202.6954208297042
 20
292.9572008276708
 30
0.0
 11
202.6954208297042
 21
311.9572008276709
 31
0.0
1001
ACAD
1000
ASC_BOUNDS
1002
{
1070
    19
1002
}
  0
LINE
  5
A3
330
2
100
AcDbEntity
  8
0
100
AcDbLine
 10
204.9142316275996
 20
293.3625947399021
 30
0.0
 11
204.9142316275996
 21
311.706507453819
 31
0.0
  0
LINE
  5
A4
330
2
100
AcDbEntity
  8
0
100
AcDbLine
 10
202.6954208297042
 20
292.9572008276708
 30
0.0
 11
204.9142316275996
 21
293.3625947399021
 31
0.0
  0
LINE
  5
A5
330
2
100
AcDbEntity
  8
0
100
AcDbLine
 10
202.6954208297042
 20
292.9572008276708
 30
0.0
 11
203.6954208297042
 21
291.9572008276708
 31
0.0
1001
ACAD
1000
ASC_BOUNDS
1002
{
1070
    19
1002
}
  0
LINE
  5
A6
330
2
100
AcDbEntity
  8
0
100
AcDbLine
 10
200.6954208297041
 20
313.1119013660502
 30
0.0
 11
200.6954208297041
 21
321.9572008276707
 31
0.0
1001
ACAD
1000
ASC_BOUNDS
1002
{
1070
    19
1002
}
  0
LINE
  5
A7
330
2
100
AcDbEntity
  8
0
100
AcDbLine
 10
202.6954208297042
 20
311.9572008276709
 30
0.0
 11
204.9142316275996
 21
311.706507453819
 31
0.0
  0
LINE
  5
A8
330
2
100
AcDbEntity
  8
0
100
AcDbLine
 10
202.6954208297042
 20
311.9572008276709
 30
0.0
 11
200.6954208297042
 21
313.1119013660502
 31
0.0
1001
ACAD
1000
ASC_BOUNDS
1002
{
1070
    19
1002
}
  0
ARC
  5
A9
330
2
100
AcDbEntity
  8
0
100
AcDbCircle
 10
202.6954208297041
 20
324.4572008276707
 30
0.0
 40
2.5
100
AcDbArc
 50
180.0
 51
270.0
  0
ARC
  5
AA
330
2
100
AcDbEntity
  8
0
100
AcDbCircle
 10
202.6954208297041
 20
324.4572008276707
 30
0.0
 40
2.5
100
AcDbArc
 50
180.0
 51
270.0
  0
ARC
  5
AB
330
2
100
AcDbEntity
  8
0
100
AcDbCircle
 10
261.1954208297041
 20
356.7072008276707
 30
0.0
 40
76.5
100
AcDbArc
 50
237.8228085508669
 51
302.177191449133
  0
ARC
  5
AC
330
2
100
AcDbEntity
  8
0
100
AcDbCircle
 10
261.1954208297041
 20
356.7072008276707
 30
0.0
 40
79.0
100
AcDbArc
 50
235.0467976873824
 51
304.9532023126176
  0
LINE
  5
AD
330
2
100
AcDbEntity
  8
BEM
100
AcDbLine
 10
149.5374672387759
 20
301.4246436751873
 30
0.0
 11
153.7269217848658
 21
267.6534268177625
 31
0.0
  0
DIMENSION
  5
AE
330
2
100
AcDbEntity
  8
BEM
100
AcDbDimension
  2
*D9
 10
62.03984334091666
 20
243.4285015355925
 30
0.0
 11
100.0398433409166
 21
252.4285015355924
 31
0.0
 70
    32
 71
     5
 42
76.0
  3
ISO-25
100
AcDbAlignedDimension
 13
138.0398433409166
 23
288.8994402200644
 33
0.0
 14
62.03984334091666
 24
288.8994402200644
 34
0.0
100
AcDbRotatedDimension
1001
ACAD
1000
DSTYLE
1002
{
1070
   144
1040
1.0
1070
   289
1070
     0
1002
}
  0
TEXT
  5
BD
330
2
100
AcDbEntity
  8
0
100
AcDbText
 10
314.4060501948506
 20
254.6044422821292
 30
0.0
 40
10.0
  1
R
100
AcDbText
  0
ARC
  5
BE
330
2
100
AcDbEntity
  8
0
100
AcDbCircle
 10
288.9454208297042
 20
289.4619013660502
 30
0.0
 40
23.65000000000001
100
AcDbArc
 50
70.14839776841435
 51
102.8257844304613
  0
LINE
  5
BF
330
2
100
AcDbEntity
  8
0
100
AcDbLine
 10
283.6954208297042
 20
313.1119013660502
 30
0.0
 11
321.6954208297042
 21
313.1119013660501
 31
0.0
  0
LINE
  5
C0
330
2
100
AcDbEntity
  8
0
100
AcDbLine
 10
318.6954208297042
 20
291.9572008276708
 30
0.0
 11
279.6954208297042
 21
291.9572008276708
 31
0.0
1001
ACAD
1000
ASC_BOUNDS
1002
{
1070
    19
1005
0
1002
}
  0
LINE
  5
C1
330
2
100
AcDbEntity
  8
0
100
AcDbLine
 10
321.6954208297041
 20
321.9572008276707
 30
0.0
 11
276.6954208297041
 21
321.9572008276707
 31
0.0
1001
ACAD
1000
ASC_BOUNDS
1002
{
1070
    19
1002
}
  0
ARC
  5
C2
330
2
100
AcDbEntity
  8
0
100
AcDbCircle
 10
288.9454208297042
 20
315.6072008276709
 30
0.0
 40
23.65000000000001
100
AcDbArc
 50
250.1483977684143
 51
289.8516022315856
  0
ARC
  5
C3
330
2
100
AcDbEntity
  8
0
100
AcDbCircle
 10
261.1954208297041
 20
356.7072008276707
 30
0.0
 40
55.0
100
AcDbArc
 50
251.4469954649797
 51
288.5530045350204
  0
LINE
  5
C4
330
2
100
AcDbEntity
  8
0
100
AcDbLine
 10
238.7459310869212
 20
310.9572008276698
 30
0.0
 11
283.6449105724872
 21
310.9572008276698
 31
0.0
  0
LINE
  5
C5
330
2
100
AcDbEntity
  8
0
100
AcDbLine
 10
234.7493752491272
 20
321.9572008276707
 30
0.0
 11
288.407317854504
 21
321.9572008276707
 31
0.0
  0
LINE
  5
C6
330
2
100
AcDbEntity
  8
0
100
AcDbLine
 10
243.6954208297042
 20
292.9572008276708
 30
0.0
 11
243.6954208297042
 21
310.9572008276698
 31
0.0
1001
ACAD
1000
ASC_BOUNDS
1002
{
1070
    19
1002
}
  0
LINE
  5
C7
330
2
100
AcDbEntity
  8
0
100
AcDbLine
 10
241.4766100318087
 20
293.3625947399021
 30
0.0
 11
241.4766100318087
 21
310.9572008276698
 31
0.0
  0
LINE
  5
C8
330
2
100
AcDbEntity
  8
0
100
AcDbLine
 10
225.4142316275996
 20
293.3625947399021
 30
0.0
 11
225.4142316275996
 21
311.706507453819
 31
0.0
  0
LINE
  5
C9
330
2
100
AcDbEntity
  8
0
100
AcDbLine
 10
220.9766100318087
 20
293.3625947399021
 30
0.0
 11
220.9766100318087
 21
311.706507453819
 31
0.0
  0
LINE
  5
CA
330
2
100
AcDbEntity
  8
MITTE
 48
7.0
100
AcDbLine
 10
223.1954208297041
 20
288.8994402200644
 30
0.0
 11
223.1954208297041
 21
325.2904750581615
 31
0.0
  0
ARC
  5
CB
330
2
100
AcDbEntity
  8
0
100
AcDbCircle
 10
233.4454208297042
 20
315.6072008276709
 30
0.0
 40
23.65000000000001
100
AcDbArc
 50
250.1483977684143
 51
289.8516022315856
  0
LWPOLYLINE
  5
CC
330
2
100
AcDbEntity
  8
BEM
100
AcDbPolyline
 90
        2
 70
     1
 43
1.0
 10
50.04221944305737
 20
301.4246436751873
 42
1.0
 10
51.04221944305738
 20
301.4246436751873
 42
1.0
  0
LINE
  5
CD
330
2
100
AcDbEntity
  8
0
100
AcDbLine
 10
220.9766100318087
 20
293.3625947399021
 30
0.0
 11
225.4142316275996
 21
293.3625947399021
 31
0.0
  0
LINE
  5
CE
330
2
100
AcDbEntity
  8
0
100
AcDbLine
 10
241.4766100318087
 20
293.3625947399021
 30
0.0
 11
243.6954208297042
 21
292.9572008276708
 31
0.0
  0
LINE
  5
CF
330
2
100
AcDbEntity
  8
0
100
AcDbLine
 10
243.6954208297042
 20
292.9572008276708
 30
0.0
 11
242.6954208297042
 21
291.9572008276708
 31
0.0
1001
ACAD
1000
ASC_BOUNDS
1002
{
1070
    19
1002
}
  0
ARC
  5
D0
330
2
100
AcDbEntity
  8
0
100
AcDbCircle
 10
233.4454208297042
 20
289.4619013660502
 30
0.0
 40
23.65000000000001
100
AcDbArc
 50
77.17421556953865
 51
109.8516022315841
  0
LINE
  5
D1
330
2
100
AcDbEntity
  8
0
100
AcDbLine
 10
220.9766100318087
 20
311.706507453819
 30
0.0
 11
225.4142316275996
 21
311.706507453819
 31
0.0
  0
LINE
  5
D2
330
2
100
AcDbEntity
  8
0
100
AcDbLine
 10
238.6954208297041
 20
319.4572008276707
 30
0.0
 11
238.6954208297041
 21
311.4572008276707
 31
0.0
  0
ARC
  5
D3
330
2
100
AcDbEntity
  8
0
100
AcDbCircle
 10
241.1954208297041
 20
311.4572008276707
 30
0.0
 40
2.5
100
AcDbArc
 50
180.0
 51
191.5369590328363
  0
ARC
  5
D4
330
2
100
AcDbEntity
  8
0
100
AcDbCircle
 10
240.9172952927864
 20
331.9572008276707
 30
0.0
 40
10.0
100
AcDbArc
 50
229.0739366903955
 51
270.0
1001
ACAD
1000
ASC_BOUNDS
1002
{
1070
    19
1005
0
1002
}
  0
ARC
  5
D5
330
2
100
AcDbEntity
  8
0
100
AcDbCircle
 10
236.1954208297041
 20
319.4572008276707
 30
0.0
 40
2.5
100
AcDbArc
 50
0.0
 51
90.0
  0
LINE
  5
D6
330
2
100
AcDbEntity
  8
0
100
AcDbLine
 10
280.9142316275996
 20
293.3625947399021
 30
0.0
 11
280.9142316275996
 21
310.9572008276698
 31
0.0
  0
LINE
  5
D7
330
2
100
AcDbEntity
  8
0
100
AcDbLine
 10
278.6954208297042
 20
292.9572008276708
 30
0.0
 11
278.6954208297042
 21
310.9572008276698
 31
0.0
1001
ACAD
1000
ASC_BOUNDS
1002
{
1070
    19
1002
}
  0
LINE
  5
D8
330
2
100
AcDbEntity
  8
0
100
AcDbLine
 10
278.6954208297042
 20
292.9572008276708
 30
0.0
 11
280.9142316275996
 21
293.3625947399021
 31
0.0
  0
LINE
  5
D9
330
2
100
AcDbEntity
  8
0
100
AcDbLine
 10
278.6954208297042
 20
292.9572008276708
 30
0.0
 11
279.6954208297042
 21
291.9572008276708
 31
0.0
1001
ACAD
1000
ASC_BOUNDS
1002
{
1070
    19
1002
}
  0
LINE
  5
DA
330
2
100
AcDbEntity
  8
0
100
AcDbLine
 10
283.6954208297041
 20
319.4572008276707
 30
0.0
 11
283.6954208297041
 21
311.4572008276707
 31
0.0
  0
ARC
  5
DB
330
2
100
AcDbEntity
  8
0
100
AcDbCircle
 10
281.1954208297041
 20
311.4572008276707
 30
0.0
 40
2.5
100
AcDbArc
 50
348.4630409671636
 51
0.0
  0
ARC
  5
DC
330
2
100
AcDbEntity
  8
0
100
AcDbCircle
 10
286.1954208297041
 20
319.4572008276707
 30
0.0
 40
2.5
100
AcDbArc
 50
90.0
 51
180.0
  0
ARC
  5
DD
330
2
100
AcDbEntity
  8
0
100
AcDbCircle
 10
281.4735463666218
 20
331.9572008276707
 30
0.0
 40
10.0
100
AcDbArc
 50
270.0
 51
310.9260633096046
1001
ACAD
1000
ASC_BOUNDS
1002
{
1070
    19
1005
0
1002
}
  0
LINE
  5
DE
330
2
100
AcDbEntity
  8
0
100
AcDbLine
 10
296.9766100318087
 20
293.3625947399021
 30
0.0
 11
296.9766100318087
 21
311.706507453819
 31
0.0
  0
LINE
  5
DF
330
2
100
AcDbEntity
  8
0
100
AcDbLine
 10
301.4142316275997
 20
293.3625947399021
 30
0.0
 11
301.4142316275997
 21
311.706507453819
 31
0.0
  0
LINE
  5
E0
330
2
100
AcDbEntity
  8
0
100
AcDbLine
 10
319.6954208297042
 20
292.9572008276708
 30
0.0
 11
319.6954208297042
 21
311.9572008276709
 31
0.0
1001
ACAD
1000
ASC_BOUNDS
1002
{
1070
    19
1002
}
  0
LINE
  5
E1
330
2
100
AcDbEntity
  8
0
100
AcDbLine
 10
317.4766100318087
 20
293.3625947399021
 30
0.0
 11
317.4766100318087
 21
311.706507453819
 31
0.0
  0
LINE
  5
E2
330
2
100
AcDbEntity
  8
MITTE
 48
7.0
100
AcDbLine
 10
299.1954208297041
 20
288.8994402200644
 30
0.0
 11
299.1954208297041
 21
325.2904750581615
 31
0.0
  0
ARC
  5
E3
330
2
100
AcDbEntity
  8
0
100
AcDbCircle
 10
309.4454208297042
 20
315.6072008276709
 30
0.0
 40
23.65000000000001
100
AcDbArc
 50
250.1483977684143
 51
289.8516022315856
  0
LWPOLYLINE
  5
E4
330
2
100
AcDbEntity
  8
BEM
100
AcDbPolyline
 90
        2
 70
     1
 43
1.0
 10
149.0374672387759
 20
301.4246436751873
 42
1.0
 10
150.0374672387759
 20
301.4246436751873
 42
1.0
  0
LINE
  5
E5
330
2
100
AcDbEntity
  8
0
100
AcDbLine
 10
296.9766100318087
 20
293.3625947399021
 30
0.0
 11
301.4142316275997
 21
293.3625947399021
 31
0.0
  0
LINE
  5
E6
330
2
100
AcDbEntity
  8
0
100
AcDbLine
 10
317.4766100318087
 20
293.3625947399021
 30
0.0
 11
319.6954208297042
 21
292.9572008276708
 31
0.0
  0
LINE
  5
E7
330
2
100
AcDbEntity
  8
0
100
AcDbLine
 10
319.6954208297042
 20
292.9572008276708
 30
0.0
 11
318.6954208297042
 21
291.9572008276708
 31
0.0
1001
ACAD
1000
ASC_BOUNDS
1002
{
1070
    19
1002
}
  0
ARC
  5
E8
330
2
100
AcDbEntity
  8
0
100
AcDbCircle
 10
309.4454208297042
 20
289.4619013660502
 30
0.0
 40
23.65000000000001
100
AcDbArc
 50
70.14839776841435
 51
109.8516022315841
  0
LINE
  5
E9
330
2
100
AcDbEntity
  8
0
100
AcDbLine
 10
296.9766100318087
 20
311.706507453819
 30
0.0
 11
301.4142316275997
 21
311.706507453819
 31
0.0
  0
LINE
  5
EA
330
2
100
AcDbEntity
  8
0
100
AcDbLine
 10
321.6954208297041
 20
313.1119013660501
 30
0.0
 11
321.6954208297041
 21
321.9572008276707
 31
0.0
1001
ACAD
1000
ASC_BOUNDS
1002
{
1070
    19
1002
}
  0
LINE
  5
EB
330
2
100
AcDbEntity
  8
0
100
AcDbLine
 10
319.6954208297042
 20
311.9572008276709
 30
0.0
 11
321.6954208297042
 21
313.1119013660501
 31
0.0
1001
ACAD
1000
ASC_BOUNDS
1002
{
1070
    19
1002
}
  0
LINE
  5
EC
330
2
100
AcDbEntity
  8
0
100
AcDbLine
 10
319.6954208297042
 20
311.9572008276709
 30
0.0
 11
317.4766100318087
 21
311.706507453819
 31
0.0
  0
ARC
  5
ED
330
2
100
AcDbEntity
  8
0
100
AcDbCircle
 10
319.6954208297041
 20
324.4572008276707
 30
0.0
 40
2.5
100
AcDbArc
 50
270.0
 51
0.0
  0
ARC
  5
EE
330
2
100
AcDbEntity
  8
0
100
AcDbCircle
 10
319.6954208297041
 20
324.4572008276707
 30
0.0
 40
2.5
100
AcDbArc
 50
270.0
 51
0.0
  0
DIMENSION
  5
EF
330
2
100
AcDbEntity
  8
BEM
100
AcDbDimension
  2
*D10
 10
345.0831071089568
 20
344.7072008276707
 30
0.0
 11
345.0831071089567
 21
356.7072008276708
 31
0.0
 70
   160
  1
%%c<>
 71
     5
 42
24.0
  3
ISO-25
100
AcDbAlignedDimension
 13
379.2328563341087
 23
368.7072008276707
 33
0.0
 14
379.2328563341087
 24
344.7072008276707
 34
0.0
 50
90.0
100
AcDbRotatedDimension
1001
ACAD
1000
DSTYLE
1002
{
1070
   144
1040
1.0
1002
}
  0
DIMENSION
  5
FC
330
2
100
AcDbEntity
  8
BEM
100
AcDbDimension
  2
*D11
 10
378.2328563341087
 20
244.6785015355924
 30
0.0
 11
403.2328563341087
 21
253.6785015355924
 31
0.0
 70
    32
 71
     5
 42
50.0
  3
ISO-25
100
AcDbAlignedDimension
 13
428.2328563341087
 23
342.7072008276707
 33
0.0
 14
378.2328563341087
 24
356.7072008276707
 34
0.0
100
AcDbRotatedDimension
1001
ACAD
1000
DSTYLE
1002
{
1070
   144
1040
1.0
1002
}
  0
LINE
  5
109
330
2
100
AcDbEntity
  8
0
100
AcDbLine
 10
442.7328563341087
 20
277.7072008276707
 30
0.0
 11
433.2328563341087
 21
277.7072008276707
 31
0.0
  0
LINE
  5
10A
330
2
100
AcDbEntity
  8
0
100
AcDbLine
 10
445.2328563341087
 20
280.2072008276707
 30
0.0
 11
442.7328563341087
 21
277.7072008276707
 31
0.0
  0
LINE
  5
10B
330
2
100
AcDbEntity
  8
0
100
AcDbLine
 10
473.5822212394976
 20
362.2072008276707
 30
0.0
 11
448.7328563341086
 21
362.2072008276707
 31
0.0
  0
LINE
  5
10C
330
2
100
AcDbEntity
  8
0
100
AcDbLine
 10
473.5822212394976
 20
354.2072008276707
 30
0.0
 11
448.7328563341086
 21
354.2072008276707
 31
0.0
  0
LINE
  5
10D
330
2
100
AcDbEntity
  8
0
100
AcDbLine
 10
448.7328563341086
 20
326.7072008276707
 30
0.0
 11
477.8231826881178
 21
326.7072008276707
 31
0.0
  0
LINE
  5
10E
330
2
100
AcDbEntity
  8
0
100
AcDbLine
 10
448.2179666527751
 20
307.1250031014201
 30
0.0
 11
486.9574513118218
 21
315.2784264261766
 31
0.0
  0
LINE
  5
10F
330
2
100
AcDbEntity
  8
MITTE
 48
15.0
100
AcDbLine
 10
374.5338504827419
 20
356.7072008276707
 30
0.0
 11
523.6945055410485
 21
356.7072008276707
 31
0.0
  0
DIMENSION
  5
110
330
2
100
AcDbEntity
  8
BEM
100
AcDbDimension
  2
*D12
 10
426.6328563341087
 20
343.1072008276708
 30
0.0
 11
397.7256156866317
 21
312.8640227905761
 31
0.0
 70
   164
 71
     5
 42
1.599999999999681
  3
ISO-25
100
AcDbRadialDimension
 15
427.7383927597528
 25
344.2638292086008
 35
0.0
 40
0.0
1001
ACAD
1000
DSTYLE
1002
{
1070
   144
1040
1.0
1070
   279
1070
     1
1002
}
  0
LINE
  5
119
330
2
100
AcDbEntity
  8
BEM
100
AcDbLine
 10
433.2328563341086
 20
301.7072008276707
 30
0.0
 11
403.3382729328946
 21
301.7072008276707
 31
0.0
  0
ARC
  5
11A
330
2
100
AcDbEntity
  8
0
100
AcDbCircle
 10
448.7328563341085
 20
304.678599901607
 30
0.0
 40
2.5
100
AcDbArc
 50
101.8854606354789
 51
180.0
  0
LINE
  5
11B
330
2
100
AcDbEntity
  8
LINIE
  6
STRICHLINIE
 48
5.0
100
AcDbLine
 10
437.2328563341085
 20
301.7072008276707
 30
0.0
 11
433.2328563341086
 21
301.7072008276707
 31
0.0
  0
LINE
  5
11C
330
2
100
AcDbEntity
  8
0
100
AcDbLine
 10
446.2328563341085
 20
301.7072008276707
 30
0.0
 11
445.2328563341085
 21
301.7072008276707
 31
0.0
  0
ARC
  5
11D
330
2
100
AcDbEntity
  8
0
100
AcDbCircle
 10
448.7328563341086
 20
324.2072008276707
 30
0.0
 40
2.5
100
AcDbArc
 50
90.0
 51
180.0
  0
LINE
  5
11E
330
2
100
AcDbEntity
  8
0
100
AcDbLine
 10
379.2328563341087
 20
344.7072008276707
 30
0.0
 11
426.6328563341087
 21
344.7072008276706
 31
0.0
  0
LINE
  5
11F
330
2
100
AcDbEntity
  8
0
100
AcDbLine
 10
379.2328563341087
 20
368.7072008276707
 30
0.0
 11
426.6328563341087
 21
368.7072008276707
 31
0.0
  0
LINE
  5
120
330
2
100
AcDbEntity
  8
0
100
AcDbLine
 10
423.2328563341087
 20
371.6072008276707
 30
0.0
 11
383.2328563341087
 21
371.6072008276707
 31
0.0
  0
LINE
  5
121
330
2
100
AcDbEntity
  8
0
100
AcDbLine
 10
379.2328563341087
 20
368.7072008276707
 30
0.0
 11
379.2328563341087
 21
344.7072008276707
 31
0.0
  0
LINE
  5
122
330
2
100
AcDbEntity
  8
0
100
AcDbLine
 10
378.2328563341087
 20
367.7072008276707
 30
0.0
 11
378.2328563341087
 21
345.7072008276707
 31
0.0
  0
LINE
  5
123
330
2
100
AcDbEntity
  8
0
100
AcDbLine
 10
379.2328563341087
 20
344.7072008276707
 30
0.0
 11
378.2328563341087
 21
345.7072008276707
 31
0.0
  0
LINE
  5
124
330
2
100
AcDbEntity
  8
0
100
AcDbLine
 10
379.2328563341087
 20
368.7072008276707
 30
0.0
 11
378.2328563341087
 21
367.7072008276707
 31
0.0
  0
LINE
  5
125
330
2
100
AcDbEntity
  8
0
100
AcDbLine
 10
383.2328563341087
 20
368.7072008276707
 30
0.0
 11
383.2328563341087
 21
371.6072008276707
 31
0.0
  0
LINE
  5
126
330
2
100
AcDbEntity
  8
0
100
AcDbLine
 10
428.2328563341087
 20
370.7072008276707
 30
0.0
 11
428.2328563341087
 21
342.7072008276707
 31
0.0
  0
ARC
  5
127
330
2
100
AcDbEntity
  8
0
100
AcDbCircle
 10
448.7328563341086
 20
351.7072008276707
 30
0.0
 40
2.5
100
AcDbArc
 50
90.0
 51
180.0
  0
LINE
  5
128
330
2
100
AcDbEntity
  8
0
100
AcDbLine
 10
428.2328563341087
 20
342.7072008276707
 30
0.0
 11
433.2328563341081
 21
342.7072008276706
 31
0.0
  0
ARC
  5
129
330
2
100
AcDbEntity
  8
0
100
AcDbCircle
 10
426.6328563341087
 20
343.1072008276707
 30
0.0
 40
1.6
100
AcDbArc
 50
0.0
 51
90.0
  0
LINE
  5
12A
330
2
100
AcDbEntity
  8
0
100
AcDbLine
 10
428.2328563341087
 20
370.7072008276707
 30
0.0
 11
433.2328563341078
 21
370.7072008276707
 31
0.0
  0
LINE
  5
12B
330
2
100
AcDbEntity
  8
0
100
AcDbLine
 10
423.2328563341087
 20
368.7072008276707
 30
0.0
 11
423.2328563341087
 21
371.6072008276707
 31
0.0
  0
ARC
  5
12C
330
2
100
AcDbEntity
  8
0
100
AcDbCircle
 10
426.6328563341087
 20
370.3072008276707
 30
0.0
 40
1.6
100
AcDbArc
 50
270.0
 51
0.0
  0
ARC
  5
12D
330
2
100
AcDbEntity
  8
0
100
AcDbCircle
 10
448.7328563341086
 20
364.7072008276707
 30
0.0
 40
2.5
100
AcDbArc
 50
180.0
 51
270.0
  0
LINE
  5
12E
330
2
100
AcDbEntity
  8
0
100
AcDbLine
 10
514.2328563341085
 20
369.2620569427786
 30
0.0
 11
514.2328563341085
 21
314.7072008276707
 31
0.0
  0
LINE
  5
12F
330
2
100
AcDbEntity
  8
0
100
AcDbLine
 10
521.2328563341091
 20
341.9572008276707
 30
0.0
 11
521.2328563341093
 21
314.9572008276707
 31
0.0
1001
ACAD
1000
ASC_BOUNDS
1002
{
1070
    19
1005
0
1005
0
1002
}
  0
LINE
  5
130
330
2
100
AcDbEntity
  8
LINIE
 48
10.0
100
AcDbLine
 10
482.2424752773421
 20
349.2072008276707
 30
0.0
 11
482.2424752773421
 21
329.2458604948965
 31
0.0
  0
LINE
  5
131
330
2
100
AcDbEntity
  8
0
100
AcDbLine
 10
490.2328563341087
 20
315.7072008276707
 30
0.0
 11
504.2328563341086
 21
315.7072008276707
 31
0.0
  0
ARC
  5
132
330
2
100
AcDbEntity
  8
0
100
AcDbCircle
 10
491.0765687624888
 20
295.7072008276707
 30
0.0
 40
20.0
100
AcDbArc
 50
90.0
 51
101.8854606354789
  0
ARC
  5
133
330
2
100
AcDbEntity
  8
0
100
AcDbCircle
 10
490.2328563341087
 20
325.7072008276707
 30
0.0
 40
10.0
100
AcDbArc
 50
186.8921025793466
 51
270.0
  0
ARC
  5
134
330
2
100
AcDbEntity
  8
0
100
AcDbCircle
 10
477.8231826881178
 20
324.2072008276707
 30
0.0
 40
2.5
100
AcDbArc
 50
6.892102579345818
 51
90.0
  0
LINE
  5
135
330
2
100
AcDbEntity
  8
0
100
AcDbLine
 10
506.2328563341086
 20
314.7072008276707
 30
0.0
 11
514.2328563341086
 21
314.7072008276707
 31
0.0
  0
ARC
  5
136
330
2
100
AcDbEntity
  8
0
100
AcDbCircle
 10
504.2328563341086
 20
313.2072008276707
 30
0.0
 40
2.5
100
AcDbArc
 50
36.86989764584391
 51
90.0
  0
LINE
  5
137
330
2
100
AcDbEntity
  8
0
100
AcDbLine
 10
514.2328563341093
 20
314.9572008276707
 30
0.0
 11
521.2328563341093
 21
314.9572008276707
 31
0.0
1001
ACAD
1000
ASC_BOUNDS
1002
{
1070
    19
1005
0
1002
}
  0
ARC
  5
138
330
2
100
AcDbEntity
  8
0
100
AcDbCircle
 10
473.5822212394976
 20
344.2072008276707
 30
0.0
 40
10.0
100
AcDbArc
 50
30.00000000000002
 51
90.0
  0
LINE
  5
139
330
2
100
AcDbEntity
  8
LINIE
 48
10.0
100
AcDbLine
 10
482.2424752773421
 20
363.7141279310063
 30
0.0
 11
482.2424752773421
 21
352.0506223454554
 31
0.0
  0
ARC
  5
13A
330
2
100
AcDbEntity
  8
0
100
AcDbCircle
 10
473.5822212394976
 20
372.2072008276707
 30
0.0
 40
10.0
100
AcDbArc
 50
270.0
 51
330.0000000000002
  0
ARC
  5
13B
330
2
100
AcDbEntity
  8
0
100
AcDbCircle
 10
261.1954208297041
 20
391.9572008276707
 30
0.0
 40
61.0
100
AcDbArc
 50
0.0
 51
180.0
1001
ACAD
1000
ASC_BOUNDS
1002
{
1070
    19
1005
0
1002
}
  0
LINE
  5
13C
330
2
100
AcDbEntity
  8
MITTE
 48
10.0
100
AcDbLine
 10
192.1689180758474
 20
391.9572008276707
 30
0.0
 11
328.7136995983929
 21
391.9572008276707
 31
0.0
  0
ARC
  5
13D
330
2
100
AcDbEntity
  8
0
100
AcDbCircle
 10
203.3759909560834
 20
392.1663991912824
 30
0.0
 40
8.0
100
AcDbArc
 50
109.6254537415547
 51
181.4984437231792
  0
ARC
  5
13E
330
2
100
AcDbEntity
  8
0
100
AcDbCircle
 10
261.6066376609093
 20
449.7838510077236
 30
0.0
 40
8.0
100
AcDbArc
 50
19.35914998622922
 51
159.8259803411061
  0
ARC
  5
13F
330
2
100
AcDbEntity
  8
0
100
AcDbCircle
 10
319.0148507033248
 20
392.1663991912824
 30
0.0
 40
8.0
100
AcDbArc
 50
293.4264341163755
 51
70.37454625844524
  0
DIMENSION
  5
141
330
2
100
AcDbEntity
  8
BEM
100
AcDbDimension
  2
*D13
 10
433.2328563341071
 20
485.1578183301767
 30
0.0
 11
411.6614277626784
 21
485.1578183301767
 31
0.0
 70
   160
 71
     5
 42
4.000000000000341
  3
ISO-25
100
AcDbAlignedDimension
 13
437.2328563341073
 23
411.7072008276706
 33
0.0
 14
433.2328563341071
 24
435.7072008276706
 34
0.0
100
AcDbRotatedDimension
1001
ACAD
1000
DSTYLE
1002
{
1070
   144
1040
1.0
1070
   289
1070
     0
1002
}
  0
DIMENSION
  5
150
330
2
100
AcDbEntity
  8
BEM
100
AcDbDimension
  2
*D14
 10
433.2328563341071
 20
517.6797869760362
 30
0.0
 11
470.6138087150612
 21
517.6797869760362
 31
0.0
 70
   160
 71
     5
 42
12.0000000000017
  3
ISO-25
100
AcDbAlignedDimension
 13
445.2328563341088
 23
433.2072008276707
 33
0.0
 14
433.2328563341071
 24
435.7072008276706
 34
0.0
100
AcDbRotatedDimension
1001
ACAD
1000
DSTYLE
1002
{
1070
   144
1040
1.0
1002
}
  0
LINE
  5
15F
330
2
100
AcDbEntity
  8
0
100
AcDbLine
 10
473.5822212394976
 20
406.7072008276706
 30
0.0
 11
448.7328563341086
 21
406.7072008276706
 31
0.0
  0
LINE
  5
160
330
2
100
AcDbEntity
  8
0
100
AcDbLine
 10
448.7328563341086
 20
386.7072008276712
 30
0.0
 11
477.7328563341086
 21
386.7072008276708
 31
0.0
  0
ARC
  5
161
330
2
100
AcDbEntity
  8
0
100
AcDbCircle
 10
448.7328563341086
 20
389.2072008276707
 30
0.0
 40
2.5
100
AcDbArc
 50
180.0
 51
270.0
  0
LINE
  5
162
330
2
100
AcDbEntity
  8
LINIE
  6
STRICHLINIE
 48
5.0
100
AcDbLine
 10
437.2328563341073
 20
411.7072008276706
 30
0.0
 11
433.2328563341073
 21
411.7072008276706
 31
0.0
  0
LINE
  5
163
330
2
100
AcDbEntity
  8
0
100
AcDbLine
 10
446.2328563341085
 20
411.7072008276706
 30
0.0
 11
445.2328563341085
 21
411.7072008276706
 31
0.0
  0
ARC
  5
164
330
2
100
AcDbEntity
  8
0
100
AcDbCircle
 10
448.7328563341086
 20
409.2072008276707
 30
0.0
 40
2.5
100
AcDbArc
 50
180.0
 51
270.0
  0
LINE
  5
165
330
2
100
AcDbEntity
  8
0
100
AcDbLine
 10
442.7328563341088
 20
435.7072008276706
 30
0.0
 11
433.2328563341071
 21
435.7072008276706
 31
0.0
  0
LINE
  5
166
330
2
100
AcDbEntity
  8
0
100
AcDbLine
 10
445.2328563341088
 20
433.2072008276707
 30
0.0
 11
442.7328563341088
 21
435.7072008276706
 31
0.0
  0
LINE
  5
167
330
2
100
AcDbEntity
  8
0
100
AcDbLine
 10
505.2328563341086
 20
446.2072008276707
 30
0.0
 11
505.2328563341086
 21
423.6505765006446
 31
0.0
  0
LINE
  5
168
330
2
100
AcDbEntity
  8
0
100
AcDbLine
 10
514.2328563341085
 20
446.2072008276707
 30
0.0
 11
514.2328563341084
 21
427.4572008276706
 31
0.0
  0
ARC
  5
169
330
2
100
AcDbEntity
  8
0
100
AcDbCircle
 10
495.2328563341086
 20
404.2072008276707
 30
0.0
 40
15.0
100
AcDbArc
 50
78.40981768499275
 51
180.0
  0
LINE
  5
16A
330
2
100
AcDbEntity
  8
0
100
AcDbLine
 10
480.2328563341086
 20
404.2072008276707
 30
0.0
 11
480.2328563341086
 21
389.2072008276708
 31
0.0
  0
LINE
  5
16B
330
2
100
AcDbEntity
  8
0
100
AcDbLine
 10
456.7328563341085
 20
388.7072008276708
 30
0.0
 11
471.7328563341085
 21
388.7072008276708
 31
0.0
  0
LINE
  5
16C
330
2
100
AcDbEntity
  8
MITTE
 48
5.0
100
AcDbLine
 10
464.2328563341085
 20
392.6735070850035
 30
0.0
 11
464.2328563341085
 21
382.1700861622026
 31
0.0
  0
ARC
  5
16D
330
2
100
AcDbEntity
  8
0
100
AcDbCircle
 10
454.2833665913254
 20
389.2072008276709
 30
0.0
 40
2.5
100
AcDbArc
 50
270.0
 51
348.4630409671835
  0
ARC
  5
16E
330
2
100
AcDbEntity
  8
0
100
AcDbCircle
 10
477.7328563341086
 20
389.2072008276708
 30
0.0
 40
2.5
100
AcDbArc
 50
270.0
 51
0.0
  0
ARC
  5
16F
330
2
100
AcDbEntity
  8
0
100
AcDbCircle
 10
474.1823460768917
 20
389.2072008276709
 30
0.0
 40
2.5
100
AcDbArc
 50
191.5369590328164
 51
270.0
  0
ARC
  5
170
330
2
100
AcDbEntity
  8
0
100
AcDbCircle
 10
473.5822212394976
 20
416.7072008276707
 30
0.0
 40
10.0
100
AcDbArc
 50
270.0
 51
330.0000000000002
  0
LINE
  5
171
330
2
100
AcDbEntity
  8
0
100
AcDbLine
 10
499.9987825077765
 20
419.1853068950794
 30
0.0
 11
503.9828563341086
 21
421.4855129911835
 31
0.0
  0
ARC
  5
172
330
2
100
AcDbEntity
  8
0
100
AcDbCircle
 10
498.7487825077765
 20
421.3503704045406
 30
0.0
 40
2.5
100
AcDbArc
 50
258.4098176849932
 51
299.999999999999
  0
ARC
  5
173
330
2
100
AcDbEntity
  8
0
100
AcDbCircle
 10
502.7328563341086
 20
423.6505765006446
 30
0.0
 40
2.5
100
AcDbArc
 50
300.0
 51
0.0
  0
LINE
  5
174
330
2
100
AcDbEntity
  8
0
100
AcDbLine
 10
521.2328563341083
 20
457.9572008276707
 30
0.0
 11
521.2328563341084
 21
441.9572008276706
 31
0.0
1001
ACAD
1000
ASC_BOUNDS
1002
{
1070
    19
1005
0
1005
0
1002
}
  0
LINE
  5
175
330
2
100
AcDbEntity
  8
0
100
AcDbLine
 10
514.2328563341085
 20
446.2072008276707
 30
0.0
 11
505.2328563341086
 21
446.2072008276707
 31
0.0
  0
LINE
  5
176
330
2
100
AcDbEntity
  8
0
100
AcDbLine
 10
693.2328563341084
 20
447.9572008276707
 30
0.0
 11
693.2328563341084
 21
326.9572008276707
 31
0.0
1001
ACAD
1000
ASC_BOUNDS
1002
{
1070
    19
1002
}
  0
LINE
  5
177
330
2
100
AcDbEntity
  8
0
100
AcDbLine
 10
621.2328563341084
 20
389.0245229490274
 30
0.0
 11
621.2328563341084
 21
325.4572008276707
 31
0.0
1001
ACAD
1000
ASC_BOUNDS
1002
{
1070
    19
1002
}
  0
CIRCLE
  5
178
330
2
100
AcDbEntity
  8
0
100
AcDbCircle
 10
809.6916855515589
 20
356.7072008276707
 30
0.0
 40
79.0
  0
CIRCLE
  5
179
330
2
100
AcDbEntity
  8
0
100
AcDbCircle
 10
809.6916855515589
 20
356.7072008276707
 30
0.0
 40
55.0
  0
LINE
  5
17A
330
2
100
AcDbEntity
  8
MITTE
 48
10.0
100
AcDbLine
 10
809.6916855515589
 20
460.6465879423694
 30
0.0
 11
809.6916855515589
 21
275.3616088943624
 31
0.0
  0
CIRCLE
  5
17B
330
2
100
AcDbEntity
  8
MITTE
 48
10.0
100
AcDbCircle
 10
809.6916855515589
 20
356.7072008276707
 30
0.0
 40
65.0
  0
LINE
  5
17C
330
2
100
AcDbEntity
  8
LINIE
 48
10.0
100
AcDbLine
 10
544.9101115803328
 20
390.8004100344085
 30
0.0
 11
544.9101115803328
 21
333.096162772355
 31
0.0
  0
DIMENSION
  5
17D
330
2
100
AcDbEntity
  8
BEM
100
AcDbDimension
  2
*D15
 10
943.4379694967484
 20
397.5603139287636
 30
0.0
 11
952.8714199771835
 21
474.8479099574201
 31
0.0
 70
   162
 71
     5
 42
0.7853981633974304
  3
ISO-25
100
AcDb2LineAngularDimension
 13
902.5848563956548
 23
460.6465879423694
 33
0.0
 14
902.5848563956548
 24
275.3616088943624
 34
0.0
 15
954.2126877387062
 25
408.3350321707219
 35
0.0
 16
935.8166227388121
 26
480.7298412455918
 36
0.0
1001
ACAD
1000
DSTYLE
1002
{
1070
    79
1070
     2
1070
   144
1040
1.0
1070
   179
1070
     4
1002
}
  0
DIMENSION
  5
18C
330
2
100
AcDbEntity
  8
BEM
100
AcDbDimension
  2
*D16
 10
778.0330210192617
 20
321.9572008276707
 30
0.0
 11
769.0330210192615
 21
387.4572008276708
 31
0.0
 70
    32
 71
     5
 42
131.0
  3
ISO-25
100
AcDbAlignedDimension
 13
688.2328563341084
 23
452.9572008276707
 33
0.0
 14
757.212472397455
 24
321.9572008276707
 34
0.0
 50
90.0
100
AcDbRotatedDimension
1001
ACAD
1000
DSTYLE
1002
{
1070
   144
1040
1.0
1002
}
  0
DIMENSION
  5
199
330
2
100
AcDbEntity
  8
BEM
100
AcDbDimension
  2
*D17
 10
750.4097482422064
 20
291.9572008276708
 30
0.0
 11
741.4097482422063
 21
341.9572008276709
 31
0.0
 70
    32
 71
     5
 42
99.99999999999989
  3
ISO-25
100
AcDbAlignedDimension
 13
697.6188712357841
 23
391.9572008276707
 33
0.0
 14
606.2239378695953
 24
291.9572008276709
 34
0.0
 50
90.0
100
AcDbRotatedDimension
1001
ACAD
1000
DSTYLE
1002
{
1070
   144
1040
1.0
1002
}
  0
DIMENSION
  5
1A6
330
2
100
AcDbEntity
  8
BEM
100
AcDbDimension
  2
*D18
 10
717.7616131553406
 20
310.9572008276707
 30
0.0
 11
708.7616131553406
 21
351.4572008276708
 31
0.0
 70
    32
 71
     5
 42
81.0
  3
ISO-25
100
AcDbAlignedDimension
 13
697.6188712357841
 23
391.9572008276707
 33
0.0
 14
678.6823460768914
 24
310.9572008276707
 34
0.0
 50
90.0
100
AcDbRotatedDimension
1001
ACAD
1000
DSTYLE
1002
{
1070
   144
1040
1.0
1002
}
  0
DIMENSION
  5
1B3
330
2
100
AcDbEntity
  8
BEM
100
AcDbDimension
  2
*D19
 10
840.7155697142423
 20
336.7775403806597
 30
0.0
 11
1008.720356683033
 21
390.8961271198588
 31
0.0
 70
   163
 71
     5
 42
130.0000000000002
  3
ISO-25
100
AcDbDiametricDimension
 15
964.4541430770683
 25
376.6368612746818
 35
0.0
 40
0.0
1001
ACAD
1000
DSTYLE
1002
{
1070
   144
1040
1.0
1002
}
  0
CIRCLE
  5
1BF
330
2
100
AcDbEntity
  8
0
100
AcDbCircle
 10
763.7297447744333
 20
310.7452600505452
 30
0.0
 40
4.5
  0
ARC
  5
1C0
330
2
100
AcDbEntity
  8
0
100
AcDbCircle
 10
761.441685551559
 20
314.6072008276708
 30
0.0
 40
23.65000000000001
100
AcDbArc
 50
250.1483977684151
 51
279.6362623934385
  0
LINE
  5
1C1
330
2
100
AcDbEntity
  8
0
100
AcDbLine
 10
752.1916855515589
 20
290.9572008276708
 30
0.0
 11
765.8974222286075
 21
290.9572008276708
 31
0.0
1001
ACAD
1000
ASC_BOUNDS
1002
{
1070
    19
1005
0
1002
}
  0
LINE
  5
1C2
330
2
100
AcDbEntity
  8
MITTE
 48
3.0
100
AcDbLine
 10
770.8127880621256
 20
317.8283033382375
 30
0.0
 11
757.842115250811
 21
304.8576305269228
 31
0.0
  0
LINE
  5
1C3
330
2
100
AcDbEntity
  8
MITTE
 48
10.0
100
AcDbLine
 10
890.8905703444331
 20
356.7072008276707
 30
0.0
 11
728.4600372668125
 21
356.7072008276707
 31
0.0
  0
DIMENSION
  5
1C4
330
2
100
AcDbEntity
  8
BEM
100
AcDbDimension
  2
*D20
 10
825.0486368663271
 20
371.8443954521674
 30
0.0
 11
1024.027101376396
 21
332.9983469646834
 31
0.0
 70
   163
 71
     5
 42
158.0
  3
ISO-25
100
AcDbDiametricDimension
 15
980.1210759249824
 25
341.5700062031734
 35
0.0
 40
0.0
1001
ACAD
1000
DSTYLE
1002
{
1070
   144
1040
1.0
1002
}
  0
ARC
  5
1D1
330
2
100
AcDbEntity
  8
0
100
AcDbCircle
 10
688.2328563341084
 20
326.9572008276707
 30
0.0
 40
5.0
100
AcDbArc
 50
270.0
 51
0.0
1001
ACAD
1000
ASC_BOUNDS
1002
{
1070
    19
1002
}
  0
MTEXT
  5
1D2
102
{ACAD_REACTORS
330
1D3
102
}
330
2
100
AcDbEntity
  8
BEM
 48
10.0
100
AcDbMText
 10
613.0433420937672
 20
186.1266045212951
 30
0.0
 40
10.0
 41
0.0
 71
     4
 72
     1
  1
\A1;
 73
     1
 44
1.0
  0
LEADER
  5
1D3
330
2
100
AcDbEntity
  8
BEM
100
AcDbLeader
  3
ISO-25
 73
     0
 74
     0
 75
     1
 40
10.0
 76
     3
 10
658.2328563341084
 20
310.9572008276707
 30
0.0
 10
701.4514438456269
 20
243.3740956272124
 30
0.0
 10
708.4514438456269
 20
243.3740956272124
 30
0.0
340
1D2
1001
ACAD
1000
DSTYLE
1002
{
1070
   144
1040
1.0
1002
}
  0
LINE
  5
1D4
330
2
100
AcDbEntity
  8
BEM
100
AcDbLine
 10
688.2328563341084
 20
321.9572008276707
 30
0.0
 11
707.1890790531226
 21
321.9572008276707
 31
0.0
  0
MTEXT
  5
1D5
102
{ACAD_REACTORS
330
1D6
102
}
330
2
100
AcDbEntity
  8
BEM
 48
10.0
100
AcDbMText
 10
457.9302800175508
 20
202.179276141615
 30
0.0
 40
10.0
 41
0.0
 71
     6
 72
     1
  1
\A1;
 73
     1
 44
1.0
  0
LEADER
  5
1D6
330
2
100
AcDbEntity
  8
BEM
100
AcDbLeader
  3
ISO-25
 73
     0
 75
     1
 40
10.0
 76
     3
 10
585.2328563341083
 20
291.9572008276708
 30
0.0
 10
568.3383817694105
 20
259.4267672475323
 30
0.0
 10
561.3383817694105
 20
259.4267672475323
 30
0.0
340
1D5
1001
ACAD
1000
DSTYLE
1002
{
1070
   144
1040
1.0
1002
}
  0
DIMENSION
  5
1D7
330
2
100
AcDbEntity
  8
BEM
100
AcDbDimension
  2
*D21
 10
585.2328563341083
 20
244.6785015355924
 30
0.0
 11
621.7328563341084
 21
253.6785015355924
 31
0.0
 70
    32
 71
     5
 42
73.0
  3
ISO-25
100
AcDbAlignedDimension
 13
658.2328563341084
 23
306.8580701042224
 33
0.0
 14
585.2328563341083
 24
288.7480666921034
 34
0.0
100
AcDbRotatedDimension
1001
ACAD
1000
DSTYLE
1002
{
1070
   144
1040
1.0
1002
}
  0
LINE
  5
1E4
330
2
100
AcDbEntity
  8
BEM
100
AcDbLine
 10
561.3383817694105
 20
259.4267672475323
 30
0.0
 11
534.4021866439382
 21
259.4267672475323
 31
0.0
  0
MTEXT
  5
1E5
330
2
100
AcDbEntity
  8
BEM
100
AcDbMText
 10
534.8497566957927
 20
269.2546048276681
 30
0.0
 40
10.0
 41
0.0
 71
     4
 72
     1
  1
G 1"
 73
     1
 44
1.0
  0
LINE
  5
1E6
330
2
100
AcDbEntity
  8
0
100
AcDbLine
 10
545.7328563341084
 20
322.9572008276707
 30
0.0
 11
628.2328563341082
 21
322.9572008276707
 31
0.0
1001
ACAD
1000
ASC_BOUNDS
1002
{
1070
    19
1002
}
  0
ARC
  5
1E7
330
2
100
AcDbEntity
  8
0
100
AcDbCircle
 10
557.2328563341084
 20
326.9572008276707
 30
0.0
 40
4.0
100
AcDbArc
 50
0.0
 51
90.0
1001
ACAD
1000
ASC_BOUNDS
1002
{
1070
    19
1002
}
  0
LINE
  5
1E8
330
2
100
AcDbEntity
  8
0
100
AcDbLine
 10
545.2328563341084
 20
324.4572008276707
 30
0.0
 11
545.2328563341084
 21
330.6217129631956
 31
0.0
  0
ARC
  5
1E9
330
2
100
AcDbEntity
  8
0
100
AcDbCircle
 10
547.8013588515868
 20
320.9572008276708
 30
0.0
 40
10.0
100
AcDbArc
 50
90.0
 51
131.4096221092709
1001
ACAD
1000
ASC_BOUNDS
1002
{
1070
    19
1002
}
  0
ARC
  5
1EA
330
2
100
AcDbEntity
  8
0
100
AcDbCircle
 10
567.4245005691918
 20
305.063633307716
 30
0.0
 40
8.048268058334087
100
AcDbArc
 50
54.34252181018372
 51
125.657478189816
  0
LINE
  5
1EB
330
2
100
AcDbEntity
  8
0
100
AcDbLine
 10
607.7328563341084
 20
313.1119013660501
 30
0.0
 11
562.7328563341084
 21
313.1119013660501
 31
0.0
  0
LINE
  5
1EC
330
2
100
AcDbEntity
  8
0
100
AcDbLine
 10
607.7328563341084
 20
322.9572008276708
 30
0.0
 11
562.7328563341084
 21
322.9572008276706
 31
0.0
1001
ACAD
1000
ASC_BOUNDS
1002
{
1070
    19
1002
}
  0
ARC
  5
1ED
330
2
100
AcDbEntity
  8
0
100
AcDbCircle
 10
567.4245005691918
 20
300.0054688860049
 30
0.0
 40
8.048268058334087
100
AcDbArc
 50
234.342521810184
 51
305.6574781898163
  0
LINE
  5
1EE
330
2
100
AcDbEntity
  8
0
100
AcDbLine
 10
606.2239378695953
 20
291.9572008276709
 30
0.0
 11
564.2417747986213
 21
291.9572008276708
 31
0.0
  0
LINE
  5
1EF
330
2
100
AcDbEntity
  8
0
100
AcDbLine
 10
562.7328563341084
 20
293.4661192921837
 30
0.0
 11
562.7328563341084
 21
311.6029829015371
 31
0.0
  0
LINE
  5
1F0
330
2
100
AcDbEntity
  8
0
100
AcDbLine
 10
562.7328563341084
 20
293.4661192921837
 30
0.0
 11
564.2417747986213
 21
291.9572008276708
 31
0.0
1001
ACAD
1000
ASC_BOUNDS
1002
{
1070
    19
1002
}
  0
ARC
  5
1F1
330
2
100
AcDbEntity
  8
0
100
AcDbCircle
 10
534.5726022962639
 20
335.9572008276708
 30
0.0
 40
10.0
100
AcDbArc
 50
269.9999999999996
 51
311.409622109271
1001
ACAD
1000
ASC_BOUNDS
1002
{
1070
    19
1002
}
  0
ARC
  5
1F2
330
2
100
AcDbEntity
  8
0
100
AcDbCircle
 10
547.7328563341083
 20
324.4572008276707
 30
0.0
 40
2.5
100
AcDbArc
 50
180.0
 51
216.8698976458439
  0
LINE
  5
1F3
330
2
100
AcDbEntity
  8
0
100
AcDbLine
 10
562.7328563341084
 20
313.1119013660501
 30
0.0
 11
562.7328563341084
 21
322.9572008276707
 31
0.0
1001
ACAD
1000
ASC_BOUNDS
1002
{
1070
    19
1002
}
  0
LINE
  5
1F4
330
2
100
AcDbEntity
  8
0
100
AcDbLine
 10
562.7328563341084
 20
311.6029829015371
 30
0.0
 11
564.2417747986213
 21
313.1119013660501
 31
0.0
1001
ACAD
1000
ASC_BOUNDS
1002
{
1070
    19
1002
}
  0
ARC
  5
1F5
330
2
100
AcDbEntity
  8
0
100
AcDbCircle
 10
565.2328563341085
 20
325.9572008276707
 30
0.0
 40
4.0
100
AcDbArc
 50
180.0
 51
228.590377890729
1001
ACAD
1000
ASC_BOUNDS
1002
{
1070
    19
1002
}
  0
LINE
  5
1F6
330
2
100
AcDbEntity
  8
0
100
AcDbLine
 10
561.2328563341085
 20
325.9572008276707
 30
0.0
 11
561.2328563341084
 21
326.9572008276707
 31
0.0
1001
ACAD
1000
ASC_BOUNDS
1002
{
1070
    19
1002
}
  0
LINE
  5
1F7
330
2
100
AcDbEntity
  8
0
100
AcDbLine
 10
607.7328563341084
 20
293.4661192921838
 30
0.0
 11
607.7328563341084
 21
311.6029829015371
 31
0.0
  0
LINE
  5
1F8
330
2
100
AcDbEntity
  8
0
100
AcDbLine
 10
594.5064748296041
 20
293.1907694177547
 30
0.0
 11
594.506474829604
 21
311.8783327759666
 31
0.0
  0
LINE
  5
1F9
330
2
100
AcDbEntity
  8
0
100
AcDbLine
 10
598.3495678639415
 20
293.4661192921837
 30
0.0
 11
598.3495678639416
 21
311.6029829015371
 31
0.0
  0
LINE
  5
1FA
330
2
100
AcDbEntity
  8
0
100
AcDbLine
 10
572.1161448042753
 20
293.4661192921837
 30
0.0
 11
572.1161448042753
 21
311.6029829015371
 31
0.0
  0
LINE
  5
1FB
330
2
100
AcDbEntity
  8
0
100
AcDbLine
 10
575.9592378386127
 20
293.1907694177547
 30
0.0
 11
575.9592378386127
 21
311.8783327759663
 31
0.0
  0
LINE
  5
1FC
330
2
100
AcDbEntity
  8
MITTE
 48
8.0
100
AcDbLine
 10
585.2328563341083
 20
328.4831704239703
 30
0.0
 11
585.2328563341083
 21
288.7480666921034
 31
0.0
  0
ARC
  5
1FD
330
2
100
AcDbEntity
  8
0
100
AcDbCircle
 10
585.2328563341083
 20
327.4322008276708
 30
0.0
 40
35.475
100
AcDbArc
 50
254.8460917587441
 51
285.1539082412559
  0
LINE
  5
1FE
330
2
100
AcDbEntity
  8
0
100
AcDbLine
 10
572.1161448042753
 20
293.4661192921837
 30
0.0
 11
575.9592378386127
 21
293.4661192921837
 31
0.0
  0
LINE
  5
1FF
330
2
100
AcDbEntity
  8
0
100
AcDbLine
 10
607.7328563341084
 20
293.4661192921838
 30
0.0
 11
606.2239378695953
 21
291.9572008276709
 31
0.0
1001
ACAD
1000
ASC_BOUNDS
1002
{
1070
    19
1002
}
  0
ARC
  5
200
330
2
100
AcDbEntity
  8
0
100
AcDbCircle
 10
603.0412120990249
 20
300.0054688860049
 30
0.0
 40
8.048268058334087
100
AcDbArc
 50
234.3425218101837
 51
305.657478189816
  0
LINE
  5
201
330
2
100
AcDbEntity
  8
0
100
AcDbLine
 10
598.3495678639415
 20
293.4661192921837
 30
0.0
 11
594.5064748296041
 21
293.4661192921837
 31
0.0
  0
ARC
  5
202
330
2
100
AcDbEntity
  8
0
100
AcDbCircle
 10
585.2328563341083
 20
277.6369013660501
 30
0.0
 40
35.475
100
AcDbArc
 50
74.84609175874409
 51
105.1539082412559
  0
LINE
  5
203
330
2
100
AcDbEntity
  8
0
100
AcDbLine
 10
572.1161448042753
 20
311.6029829015371
 30
0.0
 11
575.9592378386127
 21
311.6029829015371
 31
0.0
  0
LINE
  5
204
330
2
100
AcDbEntity
  8
0
100
AcDbLine
 10
607.7328563341084
 20
313.11190136605
 30
0.0
 11
607.7328563341084
 21
322.9572008276707
 31
0.0
1001
ACAD
1000
ASC_BOUNDS
1002
{
1070
    19
1002
}
  0
ARC
  5
205
330
2
100
AcDbEntity
  8
0
100
AcDbCircle
 10
603.0412120990249
 20
305.063633307716
 30
0.0
 40
8.048268058334087
100
AcDbArc
 50
54.34252181018398
 51
125.6574781898162
  0
LINE
  5
206
330
2
100
AcDbEntity
  8
0
100
AcDbLine
 10
598.3495678639415
 20
311.6029829015371
 30
0.0
 11
594.5064748296041
 21
311.6029829015371
 31
0.0
  0
LINE
  5
207
330
2
100
AcDbEntity
  8
0
100
AcDbLine
 10
607.7328563341084
 20
311.6029829015371
 30
0.0
 11
606.2239378695956
 21
313.1119013660501
 31
0.0
1001
ACAD
1000
ASC_BOUNDS
1002
{
1070
    19
1002
}
  0
LINE
  5
208
330
2
100
AcDbEntity
  8
0
100
AcDbLine
 10
547.8013588515868
 20
330.9572008276708
 30
0.0
 11
557.2328563341084
 21
330.9572008276707
 31
0.0
1001
ACAD
1000
ASC_BOUNDS
1002
{
1070
    19
1002
}
  0
LINE
  5
209
330
2
100
AcDbEntity
  8
0
100
AcDbLine
 10
643.0873563341083
 20
312.4362008276707
 30
0.0
 11
673.3783563341084
 21
312.4362008276707
 31
0.0
1001
ACAD
1000
ASC_BOUNDS
1002
{
1070
    19
1002
}
  0
LINE
  5
20A
102
{ACAD_REACTORS
330
20C
102
}
330
2
100
AcDbEntity
  8
0
100
AcDbLine
 10
633.7833665913252
 20
310.9572008276707
 30
0.0
 11
678.6823460768914
 21
310.9572008276707
 31
0.0
1001
ACAD
1000
ASC_BOUNDS
1002
{
1070
    19
1005
0
1002
}
  0
SPLINE
  5
20B
102
{ACAD_REACTORS
330
20C
102
}
330
2
100
AcDbEntity
  8
LINIE
 48
10.0
100
AcDbSpline
210
0.0
220
0.0
230
1.0
 70
     8
 71
     3
 72
    12
 73
     8
 74
     6
 42
0.0000000001
 43
0.0000000001
 44
0.0000000001
 40
0.0
 40
0.0
 40
0.0
 40
0.0
 40
4.851711911382247
 40
18.01859907913513
 40
32.66528729343511
 40
43.80667159575175
 40
46.09696782555252
 40
46.09696782555252
 40
46.09696782555252
 40
46.09696782555252
 10
633.7328563341083
 20
318.9645674409123
 30
0.0
 10
635.2170601644598
 20
319.6064930823916
 30
0.0
 10
640.7291916057515
 20
321.9905177284751
 30
0.0
 10
651.84973414913
 20
323.6487595334216
 30
0.0
 10
664.5794381820853
 20
320.0153768429539
 30
0.0
 10
674.0750083213952
 20
322.0761983017539
 30
0.0
 10
678.4560887424714
 20
321.0856269242421
 30
0.0
 10
679.2031264602648
 20
320.916720145538
 30
0.0
 11
633.7328563341083
 21
318.9645674409123
 31
0.0
 11
638.2305714763021
 21
320.7838164537548
 31
0.0
 11
651.2608124413721
 21
322.6758360309659
 31
0.0
 11
665.819743394966
 21
321.074897201592
 31
0.0
 11
676.9573246875536
 21
321.3659764397917
 31
0.0
 11
679.2031264602648
 21
320.916720145538
 31
0.0
  0
HATCH
  5
20C
330
2
100
AcDbEntity
  8
LINIE
 48
10.0
100
AcDbHatch
 10
0.0
 20
0.0
 30
0.0
210
0.0
220
0.0
230
1.0
  2
ANSI31
 70
     0
 71
     1
 91
        4
 92
        5
 93
        6
 72
     1
 10
674.8573563341083
 20
310.9572008276707
 11
678.6823460768914
 21
310.9572008276707
 72
     2
 10
676.2328563341084
 20
311.4572008276708
 40
2.499999999999976
 50
348.4630409671814
 51
359.9999999999974
 73
     1
 72
     1
 10
678.7328563341083
 20
311.4572008276707
 11
678.7328563341083
 21
319.4572008276707
 72
     2
 10
681.2328563341082
 20
319.4572008276707
 40
2.5
 50
180.0
 51
215.7188059857694
 73
     0
 72
     4
 94
        3
 73
     0
 74
     0
 95
        9
 96
        5
 40
41.68509778057305
 40
41.68509778057305
 40
41.68509778057305
 40
41.68509778057305
 40
43.97539401037382
 40
46.09696782555253
 40
46.09696782555253
 40
46.09696782555253
 40
46.09696782555253
 10
679.2031264602648
 20
320.916720145538
 10
678.4560887424714
 20
321.0856269242421
 10
677.0170463658921
 20
321.4109973927705
 10
675.560605678686
 20
321.52313296642
 10
674.8573563341075
 20
321.5426762822958
 72
     1
 10
674.8573563341085
 20
321.5426762822957
 11
674.8573563341083
 21
310.9572008276707
 97
        6
330
21D
330
20B
330
21A
330
20A
330
21B
330
219
 92
        5
 93
        4
 72
     4
 94
        3
 73
     0
 74
     0
 95
        8
 96
        4
 40
40.20165906937324
 40
40.20165906937324
 40
40.20165906937324
 40
40.20165906937324
 40
41.68509778057305
 40
41.68509778057305
 40
41.68509778057305
 40
41.68509778057305
 10
674.8573563341076
 20
321.5426762822957
 10
674.3656330228986
 20
321.5563412847141
 10
673.872502545064
 20
321.5531976566252
 10
673.3783563341082
 20
321.538348881465
 72
     1
 10
673.3783563341086
 20
321.538348881465
 11
673.378356334108
 21
312.4362008276709
 72
     1
 10
673.378356334108
 20
312.4362008276709
 11
674.8573563341083
 21
310.9572008276706
 72
     1
 10
674.8573563341083
 20
310.9572008276706
 11
674.8573563341084
 21
321.5426762822957
 97
        4
330
20B
330
218
330
21C
330
21A
 92
        5
 93
        4
 72
     1
 10
641.6083563341082
 20
310.9572008276708
 11
643.0873563341082
 21
312.4362008276707
 72
     1
 10
643.0873563341082
 20
312.4362008276707
 11
643.0873563341083
 21
322.0949895120291
 72
     4
 94
        3
 73
     0
 74
     0
 95
        8
 96
        4
 40
8.357331474458055
 40
8.357331474458055
 40
8.357331474458055
 40
8.357331474458055
 40
9.859576091809559
 40
9.859576091809559
 40
9.859576091809559
 40
9.859576091809559
 10
643.0873563341114
 20
322.0949895120298
 10
642.5918917246048
 20
321.9991739667729
 10
642.0986851240213
 20
321.8925848595264
 10
641.6083563341124
 20
321.7753903362911
 72
     1
 10
641.6083563341082
 20
321.7753903362902
 11
641.6083563341082
 21
310.9572008276708
 97
        4
330
20B
330
213
330
215
330
211
 92
        5
 93
        5
 72
     4
 94
        3
 73
     0
 74
     0
 95
        9
 96
        5
 40
0.0
 40
0.0
 40
0.0
 40
0.0
 40
3.505619563075807
 40
8.357331474458055
 40
8.357331474458055
 40
8.357331474458055
 40
8.357331474458055
 10
641.6083563341124
 20
321.7753903362911
 10
640.4641311004921
 20
321.5019066382343
 10
637.7736800983036
 20
320.7122440968348
 10
635.2170601644598
 20
319.6064930823916
 10
633.7328563341083
 20
318.9645674409123
 72
     1
 10
633.7328563341083
 20
318.9645674409123
 11
633.7328563341084
 21
311.4572008276707
 72
     2
 10
636.2328563341084
 20
311.4572008276708
 40
2.499999999999976
 50
180.0000000000025
 51
191.5369590328181
 73
     1
 72
     1
 10
633.7833665913252
 20
310.9572008276707
 11
641.6083563341081
 21
310.9572008276707
 72
     1
 10
641.6083563341081
 20
310.9572008276707
 11
641.6083563341084
 21
321.7753903362898
 97
        5
330
20B
330
212
330
214
330
20A
330
213
 75
     0
 76
     1
 52
0.0
 41
25.0
 77
     0
 78
     1
 53
45.0
 43
99.40810175185971
 44
66.24749110591733
 45
-2.20970869120796
 46
2.209708691207961
 79
     0
 47
0.3395931865206437
 98
        4
 10
675.8775367664936
 20
314.7439094291903
 10
674.5187030982012
 20
315.4230953247481
 10
642.2464098113394
 20
316.1022827299435
 10
638.5096172235346
 20
315.4230953247481
  0
ARC
  5
20D
330
2
100
AcDbEntity
  8
0
100
AcDbCircle
 10
631.2328563341083
 20
319.4572008276707
 30
0.0
 40
2.5
100
AcDbArc
 50
0.0
 51
90.0
1001
ACAD
1000
ASC_BOUNDS
1002
{
1070
    19
1002
}
  0
LINE
  5
20E
330
2
100
AcDbEntity
  8
0
100
AcDbLine
 10
642.4109891833734
 20
321.9572008276707
 30
0.0
 11
628.2328563341081
 21
321.9572008276707
 31
0.0
1001
ACAD
1000
ASC_BOUNDS
1002
{
1070
    19
1002
}
  0
ARC
  5
20F
330
2
100
AcDbEntity
  8
0
100
AcDbCircle
 10
618.7328563341083
 20
325.4572008276707
 30
0.0
 40
2.5
100
AcDbArc
 50
270.0
 51
0.0
1001
ACAD
1000
ASC_BOUNDS
1002
{
1070
    19
1002
}
  0
LINE
  5
210
330
2
100
AcDbEntity
  8
0
100
AcDbLine
 10
628.2328563341082
 20
322.9572008276707
 30
0.0
 11
628.2328563341081
 21
321.9572008276707
 31
0.0
1001
ACAD
1000
ASC_BOUNDS
1002
{
1070
    19
1002
}
  0
LINE
  5
211
102
{ACAD_REACTORS
330
20C
102
}
330
2
100
AcDbEntity
  8
0
100
AcDbLine
 10
643.0873563341083
 20
322.0949895120445
 30
0.0
 11
643.0873563341082
 21
312.4362008276707
 31
0.0
1001
ACAD
1000
ASC_BOUNDS
1002
{
1070
    19
1002
}
  0
LINE
  5
212
102
{ACAD_REACTORS
330
20C
102
}
330
2
100
AcDbEntity
  8
0
100
AcDbLine
 10
633.7328563341083
 20
319.4572008276707
 30
0.0
 11
633.7328563341084
 21
311.4572008276707
 31
0.0
1001
ACAD
1000
ASC_BOUNDS
1002
{
1070
    19
1002
}
  0
LINE
  5
213
102
{ACAD_REACTORS
330
20C
102
}
330
2
100
AcDbEntity
  8
LINIE
 48
10.0
100
AcDbLine
 10
641.6083563341084
 20
321.775390336306
 30
0.0
 11
641.6083563341082
 21
310.9572008276707
 31
0.0
1001
ACAD
1000
ASC_BOUNDS
1002
{
1070
    19
1002
}
  0
ARC
  5
214
102
{ACAD_REACTORS
330
20C
102
}
330
2
100
AcDbEntity
  8
0
100
AcDbCircle
 10
636.2328563341084
 20
311.4572008276707
 30
0.0
 40
2.5
100
AcDbArc
 50
180.0
 51
191.5369590328156
1001
ACAD
1000
ASC_BOUNDS
1002
{
1070
    19
1002
}
  0
LINE
  5
215
102
{ACAD_REACTORS
330
20C
102
}
330
2
100
AcDbEntity
  8
0
100
AcDbLine
 10
643.0873563341083
 20
312.4362008276707
 30
0.0
 11
641.6083563341082
 21
310.9572008276707
 31
0.0
1001
ACAD
1000
ASC_BOUNDS
1002
{
1070
    19
1002
}
  0
LINE
  5
216
330
2
100
AcDbEntity
  8
0
100
AcDbLine
 10
688.2328563341084
 20
321.9572008276707
 30
0.0
 11
657.3460039596993
 21
321.9572008276707
 31
0.0
1001
ACAD
1000
ASC_BOUNDS
1002
{
1070
    19
1002
}
  0
LINE
  5
217
330
2
100
AcDbEntity
  8
MITTE
 48
10.0
100
AcDbLine
 10
658.2328563341084
 20
327.6585451547319
 30
0.0
 11
658.2328563341084
 21
306.8580701042224
 31
0.0
  0
LINE
  5
218
102
{ACAD_REACTORS
330
20C
102
}
330
2
100
AcDbEntity
  8
0
100
AcDbLine
 10
673.3783563341083
 20
321.5383488814673
 30
0.0
 11
673.3783563341082
 21
312.4362008276707
 31
0.0
1001
ACAD
1000
ASC_BOUNDS
1002
{
1070
    19
1002
}
  0
LINE
  5
219
102
{ACAD_REACTORS
330
20C
102
}
330
2
100
AcDbEntity
  8
0
100
AcDbLine
 10
678.7328563341083
 20
319.4572008276707
 30
0.0
 11
678.7328563341083
 21
311.4572008276707
 31
0.0
1001
ACAD
1000
ASC_BOUNDS
1002
{
1070
    19
1002
}
  0
LINE
  5
21A
102
{ACAD_REACTORS
330
20C
102
}
330
2
100
AcDbEntity
  8
LINIE
 48
10.0
100
AcDbLine
 10
674.8573563341084
 20
321.5426762823047
 30
0.0
 11
674.8573563341083
 21
310.9572008276707
 31
0.0
1001
ACAD
1000
ASC_BOUNDS
1002
{
1070
    19
1002
}
  0
ARC
  5
21B
102
{ACAD_REACTORS
330
20C
102
}
330
2
100
AcDbEntity
  8
0
100
AcDbCircle
 10
676.2328563341083
 20
311.4572008276707
 30
0.0
 40
2.5
100
AcDbArc
 50
348.4630409671843
 51
0.0
1001
ACAD
1000
ASC_BOUNDS
1002
{
1070
    19
1002
}
  0
LINE
  5
21C
102
{ACAD_REACTORS
330
20C
102
}
330
2
100
AcDbEntity
  8
0
100
AcDbLine
 10
673.3783563341083
 20
312.4362008276707
 30
0.0
 11
674.8573563341083
 21
310.9572008276707
 31
0.0
1001
ACAD
1000
ASC_BOUNDS
1002
{
1070
    19
1002
}
  0
ARC
  5
21D
102
{ACAD_REACTORS
330
20C
102
}
330
2
100
AcDbEntity
  8
0
100
AcDbCircle
 10
681.2328563341083
 20
319.4572008276707
 30
0.0
 40
2.5
100
AcDbArc
 50
90.0
 51
180.0
1001
ACAD
1000
ASC_BOUNDS
1002
{
1070
    19
1002
}
  0
MTEXT
  5
221
330
2
100
AcDbEntity
  8
BEM
100
AcDbMText
 10
703.718977275616
 20
253.2019319173025
 30
0.0
 40
10.0
 41
0.0
 71
     4
 72
     1
  1
G 1"
 73
     1
 44
1.0
  0
LINE
  5
222
330
2
100
AcDbEntity
  8
BEM
100
AcDbLine
 10
708.4514438456269
 20
243.3740956272124
 30
0.0
 11
737.9776581842959
 21
243.3740956272124
 31
0.0
  0
LINE
  5
223
330
2
100
AcDbEntity
  8
BEM
100
AcDbLine
 10
721.5201064249765
 20
321.9572008276707
 30
0.0
 11
742.3406532422557
 21
321.9572008276707
 31
0.0
  0
LINE
  5
224
330
2
100
AcDbEntity
  8
0
100
AcDbLine
 10
753.4104963494544
 20
292.3625947399021
 30
0.0
 11
753.4104963494544
 21
301.2686966812121
 31
0.0
  0
LINE
  5
225
330
2
100
AcDbEntity
  8
0
100
AcDbLine
 10
751.191685551559
 20
291.9572008276708
 30
0.0
 11
751.191685551559
 21
303.6152993736824
 31
0.0
1001
ACAD
1000
ASC_BOUNDS
1002
{
1070
    19
1002
}
  0
LINE
  5
226
330
2
100
AcDbEntity
  8
0
100
AcDbLine
 10
751.191685551559
 20
291.9572008276708
 30
0.0
 11
752.1916855515589
 21
290.9572008276708
 31
0.0
1001
ACAD
1000
ASC_BOUNDS
1002
{
1070
    19
1002
}
  0
LINE
  5
227
330
2
100
AcDbEntity
  8
0
100
AcDbLine
 10
753.4104963494544
 20
292.3625947399021
 30
0.0
 11
751.191685551559
 21
291.9572008276708
 31
0.0
  0
DIMENSION
  5
228
330
2
100
AcDbEntity
  8
BEM
100
AcDbDimension
  2
*D22
 10
944.1595678755701
 20
311.7463689825323
 30
0.0
 11
985.139694037133
 21
302.3952346890947
 31
0.0
 70
   163
 71
     5
 42
8.999999999999886
  3
ISO-25
100
AcDbDiametricDimension
 15
952.9340264699895
 25
309.7441511185575
 35
0.0
 40
0.0
1001
ACAD
1000
DSTYLE
1002
{
1070
   144
1040
1.0
1002
}
  0
CIRCLE
  5
234
330
2
100
AcDbEntity
  8
0
100
AcDbCircle
 10
809.6916855515589
 20
356.7072008276707
 30
0.0
 40
11.0
  0
CIRCLE
  5
235
330
2
100
AcDbEntity
  8
0
100
AcDbCircle
 10
809.6916855515589
 20
356.7072008276707
 30
0.0
 40
12.0
  0
ARC
  5
236
330
2
100
AcDbEntity
  8
0
100
AcDbCircle
 10
809.6916855515589
 20
356.7072008276707
 30
0.0
 40
14.0
100
AcDbArc
 50
106.6015495990197
 51
73.39845040097944
  0
LINE
  5
237
330
2
100
AcDbEntity
  8
0
100
AcDbLine
 10
805.691685551559
 20
371.6072008276707
 30
0.0
 11
813.691685551559
 21
371.6072008276707
 31
0.0
  0
LINE
  5
238
330
2
100
AcDbEntity
  8
0
100
AcDbLine
 10
805.691685551559
 20
371.6072008276707
 30
0.0
 11
805.691685551559
 21
368.0209093266554
 31
0.0
  0
LINE
  5
239
330
2
100
AcDbEntity
  8
0
100
AcDbLine
 10
813.691685551559
 20
371.6072008276707
 30
0.0
 11
813.691685551559
 21
368.0209093266554
 31
0.0
  0
ARC
  5
23A
330
2
100
AcDbEntity
  8
0
100
AcDbCircle
 10
857.9416855515589
 20
314.6072008276708
 30
0.0
 40
23.65000000000001
100
AcDbArc
 50
260.3637376065615
 51
289.8516022315849
  0
LINE
  5
23B
330
2
100
AcDbEntity
  8
0
100
AcDbLine
 10
853.4859488745103
 20
290.9572008276708
 30
0.0
 11
867.191685551559
 21
290.9572008276708
 31
0.0
1001
ACAD
1000
ASC_BOUNDS
1002
{
1070
    19
1002
}
  0
LINE
  5
23C
330
2
100
AcDbEntity
  8
0
100
AcDbLine
 10
865.9728747536634
 20
292.3625947399021
 30
0.0
 11
865.9728747536634
 21
301.2686966812121
 31
0.0
  0
LINE
  5
23D
330
2
100
AcDbEntity
  8
0
100
AcDbLine
 10
868.191685551559
 20
291.9572008276708
 30
0.0
 11
868.191685551559
 21
303.6152993736824
 31
0.0
1001
ACAD
1000
ASC_BOUNDS
1002
{
1070
    19
1002
}
  0
LINE
  5
23E
330
2
100
AcDbEntity
  8
0
100
AcDbLine
 10
868.191685551559
 20
291.9572008276708
 30
0.0
 11
865.9728747536634
 21
292.3625947399021
 31
0.0
  0
LINE
  5
23F
330
2
100
AcDbEntity
  8
0
100
AcDbLine
 10
868.191685551559
 20
291.9572008276708
 30
0.0
 11
867.191685551559
 21
290.9572008276708
 31
0.0
1001
ACAD
1000
ASC_BOUNDS
1002
{
1070
    19
1002
}
  0
CIRCLE
  5
240
330
2
100
AcDbEntity
  8
0
100
AcDbCircle
 10
855.6536263286844
 20
310.745260050545
 30
0.0
 40
4.5
  0
LINE
  5
241
330
2
100
AcDbEntity
  8
MITTE
 48
3.0
100
AcDbLine
 10
850.0233609247532
 20
316.3755254544764
 30
0.0
 11
860.3094510752212
 21
306.0894353040081
 31
0.0
  0
CIRCLE
  5
242
330
2
100
AcDbEntity
  8
0
100
AcDbCircle
 10
763.7297447744328
 20
402.6691416047956
 30
0.0
 40
4.5
  0
ARC
  5
243
330
2
100
AcDbEntity
  8
0
100
AcDbCircle
 10
809.6916855515589
 20
391.9572008276707
 30
0.0
 40
61.0
100
AcDbArc
 50
17.28014201780177
 51
162.7198579821982
1001
ACAD
1000
ASC_BOUNDS
1002
{
1070
    19
1005
0
1002
}
  0
LINE
  5
244
330
2
100
AcDbEntity
  8
MITTE
 48
3.0
100
AcDbLine
 10
758.3617289824478
 20
408.0371573967803
 30
0.0
 11
769.3146869899013
 21
397.0841993893272
 31
0.0
  0
ARC
  5
245
330
2
100
AcDbEntity
  8
0
100
AcDbCircle
 10
688.2328563341084
 20
447.9572008276707
 30
0.0
 40
5.0
100
AcDbArc
 50
0.0
 51
90.0
1001
ACAD
1000
ASC_BOUNDS
1002
{
1070
    19
1002
}
  0
LINE
  5
246
330
2
100
AcDbEntity
  8
0
100
AcDbLine
 10
547.8013588515868
 20
452.9572008276706
 30
0.0
 11
688.2328563341084
 21
452.9572008276707
 31
0.0
1001
ACAD
1000
ASC_BOUNDS
1002
{
1070
    19
1002
}
  0
ARC
  5
247
330
2
100
AcDbEntity
  8
0
100
AcDbCircle
 10
537.572602296264
 20
386.9572008276707
 30
0.0
 40
10.0
100
AcDbArc
 50
48.59037789072893
 51
90.0000000000004
  0
ARC
  5
248
330
2
100
AcDbEntity
  8
0
100
AcDbCircle
 10
534.5726022962639
 20
447.9572008276706
 30
0.0
 40
10.0
100
AcDbArc
 50
48.59037789072893
 51
90.0000000000004
1001
ACAD
1000
ASC_BOUNDS
1002
{
1070
    19
1002
}
  0
ARC
  5
249
330
2
100
AcDbEntity
  8
0
100
AcDbCircle
 10
547.8013588515868
 20
462.9572008276706
 30
0.0
 40
10.0
100
AcDbArc
 50
228.590377890729
 51
270.0
1001
ACAD
1000
ASC_BOUNDS
1002
{
1070
    19
1002
}
  0
ARC
  5
24A
330
2
100
AcDbEntity
  8
0
100
AcDbCircle
 10
623.7328563341084
 20
389.0245229490274
 30
0.0
 40
2.5
100
AcDbArc
 50
90.0
 51
180.0
1001
ACAD
1000
ASC_BOUNDS
1002
{
1070
    19
1002
}
  0
ARC
  5
24B
330
2
100
AcDbEntity
  8
0
100
AcDbCircle
 10
809.6916855515589
 20
391.2072008276707
 30
0.0
 40
55.0
100
AcDbArc
 50
32.26219197885921
 51
147.7378080211408
  0
ARC
  5
24C
330
2
100
AcDbEntity
  8
0
100
AcDbCircle
 10
809.6916855515589
 20
449.9572008276707
 30
0.0
 40
8.0
100
AcDbArc
 50
18.4050554223071
 51
161.5949445776928
  0
CIRCLE
  5
24D
330
2
100
AcDbEntity
  8
0
100
AcDbCircle
 10
855.6536263286844
 20
402.6691416047963
 30
0.0
 40
4.5
  0
LINE
  5
24E
330
2
100
AcDbEntity
  8
MITTE
 48
3.0
100
AcDbLine
 10
861.3195168946102
 20
408.3350321707219
 30
0.0
 11
850.5447986526521
 21
397.5603139287639
 31
0.0
  0
MTEXT
  5
5AB
330
2
100
AcDbEntity
  8
BEM
100
AcDbMText
 10
68.7581380835386
 20
232.0266651526234
 30
0.0
 40
10.0
 41
161.8643881791417
 71
     1
 72
     5
  1
Zuluft\Pair inlet\PBrachement de l'air\PAria in entrata
 73
     1
 44
1.0
  0
MTEXT
  5
5AC
330
2
100
AcDbEntity
  8
BEM
100
AcDbMText
 10
704.1710121965161
 20
236.4396902004353
 30
0.0
 40
10.0
 41
161.8643881791417
 71
     1
 72
     5
  1
Abluft\Pexhaust air\PSortie de l'air\PAria in uscita
 73
     1
 44
1.0
  0
ENDSEC
  0
SECTION
  2
OBJECTS
  0
DICTIONARY
  5
1B
330
0
100
AcDbDictionary
281
     1
  3
ACAD_COLOR
350
2A7
  3
ACAD_GROUP
350
19
  3
ACAD_LAYOUT
350
2AA
  3
ACAD_MATERIAL
350
2A6
  3
ACAD_MLEADERSTYLE
350
403
  3
ACAD_MLINESTYLE
350
1A
  3
ACAD_PLOTSETTINGS
350
2AB
  3
ACAD_PLOTSTYLENAME
350
2A4
  3
ACAD_SCALELIST
350
3E1
  3
ACAD_TABLESTYLE
350
2A8
  3
ACAD_VISUALSTYLE
350
3D0
  3
ACDB_RECOMPOSE_DATA
350
444
  3
ACDBVARIABLEDICTIONARY
350
271
  3
ACMDICTIONARY
350
24F
  3
AMG
350
2B4
  3
AMGSNAPSETTINGS
350
4AF
  3
ASE_INDEX_DICTIONARY
350
8DE
  0
DICTIONARY
  5
42B
330
5
100
AcDbDictionary
280
     1
281
     1
  3
ADSK_XREC_LAYER_RECONCILED
360
42C
  0
DICTIONARY
  5
42D
330
2B
100
AcDbDictionary
280
     1
281
     1
  3
ADSK_XREC_LAYER_RECONCILED
360
42E
  0
DICTIONARY
  5
42F
330
24
100
AcDbDictionary
280
     1
281
     1
  3
ADSK_XREC_LAYER_RECONCILED
360
430
  0
DICTIONARY
  5
431
330
27
100
AcDbDictionary
280
     1
281
     1
  3
ADSK_XREC_LAYER_RECONCILED
360
432
  0
DICTIONARY
  5
3
330
2
100
AcDbDictionary
280
     1
281
     1
  3
ACAD_SORTENTS
360
5AD
  0
DICTIONARY
  5
93F
330
8B5
100
AcDbDictionary
280
     1
281
     1
  3
ACAD_MTEXT_2008_RT
360
940
  0
DICTIONARY
  5
941
330
8BD
100
AcDbDictionary
280
     1
281
     1
  3
ACAD_MTEXT_2008_RT
360
942
  0
DICTIONARY
  5
943
330
8CE
100
AcDbDictionary
280
     1
281
     1
  3
ACAD_MTEXT_2008_RT
360
944
  0
DICTIONARY
  5
2A7
102
{ACAD_REACTORS
330
1B
102
}
330
1B
100
AcDbDictionary
281
     1
  0
DICTIONARY
  5
19
102
{ACAD_REACTORS
330
1B
102
}
330
1B
100
AcDbDictionary
281
     1
  0
DICTIONARY
  5
2AA
102
{ACAD_REACTORS
330
1B
102
}
330
1B
100
AcDbDictionary
281
     1
  3
Layout1
350
2AD
  3
Model
350
2AC
  0
DICTIONARY
  5
2A6
102
{ACAD_REACTORS
330
1B
102
}
330
1B
100
AcDbDictionary
281
     1
  3
ByBlock
350
3C0
  3
ByLayer
350
3B8
  3
Global
350
3C8
  0
DICTIONARY
  5
403
102
{ACAD_REACTORS
330
1B
102
}
330
1B
100
AcDbDictionary
281
     1
  3
Standard
350
404
  0
DICTIONARY
  5
1A
102
{ACAD_REACTORS
330
1B
102
}
330
1B
100
AcDbDictionary
281
     1
  3
STANDARD
350
1C
  0
DICTIONARY
  5
2AB
102
{ACAD_REACTORS
330
1B
102
}
330
1B
100
AcDbDictionary
281
     1
  0
ACDBDICTIONARYWDFLT
  5
2A4
102
{ACAD_REACTORS
330
1B
102
}
330
1B
100
AcDbDictionary
281
     1
  3
Normal
350
2A5
100
AcDbDictionaryWithDefault
340
2A5
  0
DICTIONARY
  5
3E1
102
{ACAD_REACTORS
330
1B
102
}
330
1B
100
AcDbDictionary
281
     1
  3
A0
350
3E2
  3
A1
350
3E3
  3
A2
350
3E4
  3
A3
350
3E5
  3
A4
350
3E6
  3
A5
350
3E7
  3
A6
350
3E8
  3
A7
350
3E9
  3
A8
350
3EA
  3
A9
350
3EB
  3
B0
350
3EC
  3
B1
350
3ED
  3
B2
350
3EE
  3
B3
350
3EF
  3
B4
350
3F0
  3
B5
350
3F1
  3
B6
350
3F2
  3
B7
350
3F3
  3
B8
350
3F4
  3
B9
350
3F5
  3
C0
350
3F6
  3
C1
350
3F7
  3
C2
350
3F8
  3
C3
350
3F9
  3
C4
350
3FA
  3
C5
350
3FB
  3
C6
350
3FC
  3
C7
350
3FD
  3
C8
350
3FE
  3
C9
350
3FF
  3
D0
350
400
  3
D1
350
401
  3
D2
350
402
  0
DICTIONARY
  5
2A8
102
{ACAD_REACTORS
330
1B
102
}
330
1B
100
AcDbDictionary
281
     1
  3
Standard
350
2A9
  0
DICTIONARY
  5
3D0
102
{ACAD_REACTORS
330
1B
102
}
330
1B
100
AcDbDictionary
281
     1
  3
2dWireframe
350
3D6
  3
3D Hidden
350
3D8
  3
3dWireframe
350
3D7
  3
Basic
350
3D5
  3
Brighten
350
3DC
  3
ColorChange
350
3E0
  3
Conceptual
350
3D9
  3
Dim
350
3DB
  3
Facepattern
350
3DF
  3
Flat
350
3D1
  3
FlatWithEdges
350
3D2
  3
Gouraud
350
3D3
  3
GouraudWithEdges
350
3D4
  3
Linepattern
350
3DE
  3
Realistic
350
3DA
  3
Thicken
350
3DD
  0
XRECORD
  5
444
102
{ACAD_REACTORS
330
1B
102
}
330
1B
100
AcDbXrecord
280
     1
 90
        1
330
2A9
  0
DICTIONARY
  5
271
102
{ACAD_REACTORS
330
1B
102
}
330
1B
100
AcDbDictionary
281
     1
  3
CANNOSCALE
350
447
  3
CMLEADERSTYLE
350
445
  3
CTABLESTYLE
350
3B6
  3
INDEXCTL
350
272
  3
LIGHTINGUNITS
350
448
  3
MSLTSCALE
350
446
  0
DICTIONARY
  5
24F
102
{ACAD_REACTORS
330
1B
102
}
330
1B
100
AcDbDictionary
280
     1
281
     1
  3
ACMSTDDICTIONARY
360
250
  3
AMDTSECTSYM_ARROWCOLOR
360
31E
  0
DICTIONARY
  5
2B4
102
{ACAD_REACTORS
330
1B
102
}
330
1B
100
AcDbDictionary
281
     1
  0
DICTIONARY
  5
4AF
102
{ACAD_REACTORS
330
1B
102
}
330
1B
100
AcDbDictionary
281
     1
  0
DICTIONARY
  5
8DE
102
{ACAD_REACTORS
330
1B
102
}
330
1B
100
AcDbDictionary
281
     1
  3
ASEBlockHierarchyIndexRecord
350
8DF
1001
DCO15
1040
1734259030.387
  0
XRECORD
  5
42C
102
{ACAD_REACTORS
330
42B
102
}
330
42B
100
AcDbXrecord
280
     1
290
     1
  0
XRECORD
  5
42E
102
{ACAD_REACTORS
330
42D
102
}
330
42D
100
AcDbXrecord
280
     1
290
     1
  0
XRECORD
  5
430
102
{ACAD_REACTORS
330
42F
102
}
330
42F
100
AcDbXrecord
280
     1
290
     1
  0
XRECORD
  5
432
102
{ACAD_REACTORS
330
431
102
}
330
431
100
AcDbXrecord
280
     1
290
     1
  0
SORTENTSTABLE
  5
5AD
102
{ACAD_REACTORS
330
3
102
}
330
3
100
AcDbSortentsTable
330
2
331
6B
  5
6B
331
C2
  5
C2
331
150
  5
150
331
235
  5
235
331
119
  5
119
331
CA
  5
CA
331
1F6
  5
1F6
331
23D
  5
23D
331
1FE
  5
1FE
331
160
  5
160
331
121
  5
121
331
D2
  5
D2
331
206
  5
206
331
168
  5
168
331
DA
  5
DA
331
1BF
  5
1BF
331
245
  5
245
331
20E
  5
20E
331
54
  5
54
331
5C
  5
5C
331
64
  5
64
331
9B
  5
9B
331
E2
  5
E2
331
129
  5
129
331
170
  5
170
331
24D
  5
24D
331
EA
  5
EA
331
A3
  5
A3
331
131
  5
131
331
178
  5
178
331
216
  5
216
331
139
  5
139
331
AB
  5
AB
331
1D7
  5
1D7
331
226
  5
226
331
1E7
  5
1E7
331
10A
  5
10A
331
141
  5
141
331
1EF
  5
1EF
331
7C
  5
7C
331
C3
  5
C3
331
1F7
  5
1F7
331
11A
  5
11A
331
CB
  5
CB
331
236
  5
236
331
23E
  5
23E
331
1FF
  5
1FF
331
122
  5
122
331
D3
  5
D3
331
161
  5
161
331
246
  5
246
331
DB
  5
DB
331
169
  5
169
331
207
  5
207
331
20F
  5
20F
331
5D
  5
5D
331
65
  5
65
331
12A
  5
12A
331
9C
  5
9C
331
E3
  5
E3
331
171
  5
171
331
1C0
  5
1C0
331
24E
  5
24E
331
179
  5
179
331
A4
  5
A4
331
EB
  5
EB
331
132
  5
132
331
217
  5
217
331
AC
  5
AC
331
13A
  5
13A
331
1E8
  5
1E8
331
199
  5
199
331
10B
  5
10B
331
227
  5
227
331
6D
  5
6D
331
26
  5
26
331
C4
  5
C4
331
1F0
  5
1F0
331
237
  5
237
331
11B
  5
11B
331
CC
  5
CC
331
1F8
  5
1F8
331
200
  5
200
331
162
  5
162
331
123
  5
123
331
D4
  5
D4
331
23F
  5
23F
331
208
  5
208
331
DC
  5
DC
331
16A
  5
16A
331
247
  5
247
331
46
  5
46
331
56
  5
56
331
5E
  5
5E
331
66
  5
66
331
210
  5
210
331
E4
  5
E4
331
9D
  5
9D
331
12B
  5
12B
331
172
  5
172
331
1C1
  5
1C1
331
1D1
  5
1D1
331
EC
  5
EC
331
A5
  5
A5
331
133
  5
133
331
17A
  5
17A
331
218
  5
218
331
13B
  5
13B
331
FC
  5
FC
331
AD
  5
AD
331
228
  5
228
331
1E9
  5
1E9
331
BD
  5
BD
331
10C
  5
10C
331
6E
  5
6E
331
1F1
  5
1F1
331
C5
  5
C5
331
1F9
  5
1F9
331
11C
  5
11C
331
CD
  5
CD
331
238
  5
238
331
240
  5
240
331
201
  5
201
331
124
  5
124
331
D5
  5
D5
331
163
  5
163
331
DD
  5
DD
331
16B
  5
16B
331
209
  5
209
331
57
  5
57
331
5F
  5
5F
331
67
  5
67
331
248
  5
248
331
211
  5
211
331
12C
  5
12C
331
9E
  5
9E
331
E5
  5
E5
331
173
  5
173
331
1C2
  5
1C2
331
219
  5
219
331
1D2
  5
1D2
331
A6
  5
A6
331
ED
  5
ED
331
134
  5
134
331
17B
  5
17B
331
13C
  5
13C
331
AE
  5
AE
331
221
  5
221
331
10D
  5
10D
331
BE
  5
BE
331
1EA
  5
1EA
331
20
  5
20
331
6F
  5
6F
331
28
  5
28
331
C6
  5
C6
331
1F2
  5
1F2
331
239
  5
239
331
1B3
  5
1B3
331
CE
  5
CE
331
11D
  5
11D
331
1FA
  5
1FA
331
202
  5
202
331
164
  5
164
331
125
  5
125
331
D6
  5
D6
331
241
  5
241
331
20A
  5
20A
331
DE
  5
DE
331
16C
  5
16C
331
58
  5
58
331
60
  5
60
331
249
  5
249
331
212
  5
212
331
E6
  5
E6
331
9F
  5
9F
331
12D
  5
12D
331
174
  5
174
331
1C3
  5
1C3
331
1D3
  5
1D3
331
EE
  5
EE
331
A7
  5
A7
331
135
  5
135
331
17C
  5
17C
331
21A
  5
21A
331
222
  5
222
331
13D
  5
13D
331
18C
  5
18C
331
1EB
  5
1EB
331
10E
  5
10E
331
BF
  5
BF
331
21
  5
21
331
68
  5
68
331
29
  5
29
331
39
  5
39
331
1F3
  5
1F3
331
C7
  5
C7
331
23A
  5
23A
331
11E
  5
11E
331
CF
  5
CF
331
1FB
  5
1FB
331
242
  5
242
331
203
  5
203
331
126
  5
126
331
D7
  5
D7
331
165
  5
165
331
DF
  5
DF
331
16D
  5
16D
331
20B
  5
20B
331
59
  5
59
331
61
  5
61
331
98
  5
98
331
24A
  5
24A
331
213
  5
213
331
175
  5
175
331
A0
  5
A0
331
E7
  5
E7
331
12E
  5
12E
331
1C4
  5
1C4
331
21B
  5
21B
331
1D4
  5
1D4
331
A8
  5
A8
331
EF
  5
EF
331
136
  5
136
331
17D
  5
17D
331
1E4
  5
1E4
331
13E
  5
13E
331
223
  5
223
331
10F
  5
10F
331
1EC
  5
1EC
331
69
  5
69
331
22
  5
22
331
2A
  5
2A
331
89
  5
89
331
C0
  5
C0
331
C8
  5
C8
331
1F4
  5
1F4
331
23B
  5
23B
331
1FC
  5
1FC
331
11F
  5
11F
331
D0
  5
D0
331
204
  5
204
331
166
  5
166
331
127
  5
127
331
D8
  5
D8
331
243
  5
243
331
16E
  5
16E
331
20C
  5
20C
331
5A
  5
5A
331
62
  5
62
331
99
  5
99
331
E0
  5
E0
331
24B
  5
24B
331
E8
  5
E8
331
A1
  5
A1
331
12F
  5
12F
331
176
  5
176
331
214
  5
214
331
137
  5
137
331
A9
  5
A9
331
1D5
  5
1D5
331
21C
  5
21C
331
224
  5
224
331
1E5
  5
1E5
331
13F
  5
13F
331
1ED
  5
1ED
331
5AB
  5
5AA
331
23
  5
23
331
110
  5
110
331
C1
  5
C1
331
1F5
  5
1F5
331
1A6
  5
1A6
331
C9
  5
C9
331
234
  5
234
331
23C
  5
23C
331
15F
  5
15F
331
120
  5
120
331
D1
  5
D1
331
1FD
  5
1FD
331
244
  5
244
331
205
  5
205
331
D9
  5
D9
331
167
  5
167
331
16F
  5
16F
331
20D
  5
20D
331
53
  5
53
331
5B
  5
5B
331
63
  5
63
331
128
  5
128
331
9A
  5
9A
331
E1
  5
E1
331
24C
  5
24C
331
177
  5
177
331
A2
  5
A2
331
E9
  5
E9
331
130
  5
130
331
215
  5
215
331
AA
  5
AA
331
138
  5
138
331
1D6
  5
1D6
331
21D
  5
21D
331
1E6
  5
1E6
331
109
  5
109
331
225
  5
225
331
1EE
  5
1EE
331
5AC
  5
5AB
  0
XRECORD
  5
940
102
{ACAD_REACTORS
330
93F
102
}
330
93F
100
AcDbXrecord
280
     1
 40
5712.0
  1
\A1;\U+2205130
  0
XRECORD
  5
942
102
{ACAD_REACTORS
330
941
102
}
330
941
100
AcDbXrecord
280
     1
 40
5850.0
  1
\A1;\U+2205158
  0
XRECORD
  5
944
102
{ACAD_REACTORS
330
943
102
}
330
943
100
AcDbXrecord
280
     1
 40
4473.0
  1
\A1;\U+22059
  0
LAYOUT
  5
2AD
102
{ACAD_REACTORS
330
2AA
102
}
330
2AA
100
AcDbPlotSettings
  1

  2
Basyouni CAD 1
  4

  6

 40
0.0
 41
0.0
 42
0.0
 43
0.0
 44
0.0
 45
0.0
 46
0.0
 47
0.0
 48
0.0
 49
0.0
140
0.0
141
0.0
142
1.0
143
1.0
 70
   688
 72
     0
 73
     0
 74
     5
  7
Zeich.ctb
 75
    16
147
1.0
 76
     0
 77
     2
 78
   300
148
0.0
149
0.0
100
AcDbLayout
  1
Layout1
 70
     0
 71
     1
 10
0.0
 20
0.0
 11
420.0
 21
297.0
 12
0.0
 22
0.0
 32
0.0
 14
1.000000000000000E+20
 24
1.000000000000000E+20
 34
1.000000000000000E+20
 15
-1.000000000000000E+20
 25
-1.000000000000000E+20
 35
-1.000000000000000E+20
146
0.0
 13
0.0
 23
0.0
 33
0.0
 16
1.0
 26
0.0
 36
0.0
 17
0.0
 27
1.0
 37
0.0
 76
     0
330
8
  0
LAYOUT
  5
2AC
102
{ACAD_REACTORS
330
2AA
102
}
330
2AA
100
AcDbPlotSettings
  1

  2
Konstruktion
  4
A4
  6

 40
7.143749713897705
 41
7.186082363128662
 42
7.059066772460937
 43
5.027069091796875
 44
209.9733276367187
 45
296.9683227539062
 46
34.59346663369555
 47
0.0
 48
0.0
 49
0.0
140
0.0
141
0.0
142
1.0
143
3.611022119161864
 70
  3764
 72
     1
 73
     1
 74
     1
  7
Zeich.ctb
 75
     0
147
0.276929901562637
 76
     0
 77
     2
 78
   300
148
82.62205451887803
149
-72.69859467947231
100
AcDbLayout
  1
Model
 70
     1
 71
     0
 10
0.0
 20
0.0
 11
12.0
 21
9.0
 12
0.0
 22
0.0
 32
0.0
 14
0.0
 24
0.0
 34
0.0
 15
0.0
 25
0.0
 35
0.0
146
0.0
 13
0.0
 23
0.0
 33
0.0
 16
1.0
 26
0.0
 36
0.0
 17
0.0
 27
1.0
 37
0.0
 76
     0
330
2
331
3B5
1001
ACAD_PSEXT
1000
Konstruktion
1000
Kyocera FS-1030D
1000
IP_192.168.10.181
1000

1070
     0
  0
MATERIAL
  5
3C0
102
{ACAD_XDICTIONARY
360
3C1
102
}
102
{ACAD_REACTORS
330
2A6
102
}
330
2A6
100
AcDbMaterial
  1
ByBlock
 72
     0
 43
0.0208333333333333
 43
0.0
 43
0.0
 43
0.0
 43
0.0
 43
0.0208333333333333
 43
0.0
 43
0.0
 43
0.0
 43
0.0
 43
1.0
 43
0.0
 43
0.0
 43
0.0
 43
0.0
 43
1.0
 77
     0
 47
0.0208333333333333
 47
0.0
 47
0.0
 47
0.0
 47
0.0
 47
0.0208333333333333
 47
0.0
 47
0.0
 47
0.0
 47
0.0
 47
1.0
 47
0.0
 47
0.0
 47
0.0
 47
0.0
 47
1.0
171
     0
 49
0.0208333333333333
 49
0.0
 49
0.0
 49
0.0
 49
0.0
 49
0.0208333333333333
 49
0.0
 49
0.0
 49
0.0
 49
0.0
 49
1.0
 49
0.0
 49
0.0
 49
0.0
 49
0.0
 49
1.0
175
     0
142
0.0208333333333333
142
0.0
142
0.0
142
0.0
142
0.0
142
0.0208333333333333
142
0.0
142
0.0
142
0.0
142
0.0
142
1.0
142
0.0
142
0.0
142
0.0
142
0.0
142
1.0
179
     0
144
0.0208333333333333
144
0.0
144
0.0
144
0.0
144
0.0
144
0.0208333333333333
144
0.0
144
0.0
144
0.0
144
0.0
144
1.0
144
0.0
144
0.0
144
0.0
144
0.0
144
1.0
147
0.0208333333333333
147
0.0
147
0.0
147
0.0
147
0.0
147
0.0208333333333333
147
0.0
147
0.0
147
0.0
147
0.0
147
1.0
147
0.0
147
0.0
147
0.0
147
0.0
147
1.0
  0
MATERIAL
  5
3B8
102
{ACAD_XDICTIONARY
360
3B9
102
}
102
{ACAD_REACTORS
330
2A6
102
}
330
2A6
100
AcDbMaterial
  1
ByLayer
 72
     0
 43
0.0208333333333333
 43
0.0
 43
0.0
 43
0.0
 43
0.0
 43
0.0208333333333333
 43
0.0
 43
0.0
 43
0.0
 43
0.0
 43
1.0
 43
0.0
 43
0.0
 43
0.0
 43
0.0
 43
1.0
 77
     0
 47
0.0208333333333333
 47
0.0
 47
0.0
 47
0.0
 47
0.0
 47
0.0208333333333333
 47
0.0
 47
0.0
 47
0.0
 47
0.0
 47
1.0
 47
0.0
 47
0.0
 47
0.0
 47
0.0
 47
1.0
171
     0
 49
0.0208333333333333
 49
0.0
 49
0.0
 49
0.0
 49
0.0
 49
0.0208333333333333
 49
0.0
 49
0.0
 49
0.0
 49
0.0
 49
1.0
 49
0.0
 49
0.0
 49
0.0
 49
0.0
 49
1.0
175
     0
142
0.0208333333333333
142
0.0
142
0.0
142
0.0
142
0.0
142
0.0208333333333333
142
0.0
142
0.0
142
0.0
142
0.0
142
1.0
142
0.0
142
0.0
142
0.0
142
0.0
142
1.0
179
     0
144
0.0208333333333333
144
0.0
144
0.0
144
0.0
144
0.0
144
0.0208333333333333
144
0.0
144
0.0
144
0.0
144
0.0
144
1.0
144
0.0
144
0.0
144
0.0
144
0.0
144
1.0
147
0.0208333333333333
147
0.0
147
0.0
147
0.0
147
0.0
147
0.0208333333333333
147
0.0
147
0.0
147
0.0
147
0.0
147
1.0
147
0.0
147
0.0
147
0.0
147
0.0
147
1.0
  0
MATERIAL
  5
3C8
102
{ACAD_XDICTIONARY
360
3C9
102
}
102
{ACAD_REACTORS
330
2A6
102
}
330
2A6
100
AcDbMaterial
  1
Global
 72
     0
 43
0.0208333333333333
 43
0.0
 43
0.0
 43
0.0
 43
0.0
 43
0.0208333333333333
 43
0.0
 43
0.0
 43
0.0
 43
0.0
 43
1.0
 43
0.0
 43
0.0
 43
0.0
 43
0.0
 43
1.0
 77
     0
 47
0.0208333333333333
 47
0.0
 47
0.0
 47
0.0
 47
0.0
 47
0.0208333333333333
 47
0.0
 47
0.0
 47
0.0
 47
0.0
 47
1.0
 47
0.0
 47
0.0
 47
0.0
 47
0.0
 47
1.0
171
     0
 49
0.0208333333333333
 49
0.0
 49
0.0
 49
0.0
 49
0.0
 49
0.0208333333333333
 49
0.0
 49
0.0
 49
0.0
 49
0.0
 49
1.0
 49
0.0
 49
0.0
 49
0.0
 49
0.0
 49
1.0
175
     0
142
0.0208333333333333
142
0.0
142
0.0
142
0.0
142
0.0
142
0.0208333333333333
142
0.0
142
0.0
142
0.0
142
0.0
142
1.0
142
0.0
142
0.0
142
0.0
142
0.0
142
1.0
179
     0
144
0.0208333333333333
144
0.0
144
0.0
144
0.0
144
0.0
144
0.0208333333333333
144
0.0
144
0.0
144
0.0
144
0.0
144
1.0
144
0.0
144
0.0
144
0.0
144
0.0
144
1.0
147
0.0208333333333333
147
0.0
147
0.0
147
0.0
147
0.0
147
0.0208333333333333
147
0.0
147
0.0
147
0.0
147
0.0
147
1.0
147
0.0
147
0.0
147
0.0
147
0.0
147
1.0
  0
MLEADERSTYLE
  5
404
102
{ACAD_REACTORS
330
403
102
}
330
403
100
AcDbMLeaderStyle
170
     2
171
     1
172
     0
 90
        2
 40
0.0
 41
0.0
173
     1
 91
-1056964608
340
F
 92
       -2
290
     1
 42
0.09
291
     1
 43
0.36
  3
Standard
 44
0.18
300

342
D
174
     1
178
     6
175
     1
176
     0
 93
-1056964608
 45
0.18
292
     0
297
     0
 46
0.18
 94
-1056964608
 47
1.0
 49
1.0
140
1.0
293
     1
141
0.0
294
     1
177
     0
142
1.0
295
     0
296
     0
143
0.125
1001
ACAD_MLEADERVER
1070
     2
  0
MLINESTYLE
  5
1C
102
{ACAD_REACTORS
330
1A
102
}
330
1A
100
AcDbMlineStyle
  2
STANDARD
 70
     0
  3

 62
     0
 51
90.0
 52
90.0
 71
     2
 49
0.5
 62
   256
  6
BYLAYER
 49
-0.5
 62
   256
  6
BYLAYER
  0
ACDBPLACEHOLDER
  5
2A5
102
{ACAD_REACTORS
330
2A4
102
}
330
2A4
  0
SCALE
  5
3E2
102
{ACAD_REACTORS
330
3E1
102
}
330
3E1
100
AcDbScale
 70
     0
300
1:1
140
1.0
141
1.0
290
     1
  0
SCALE
  5
3E3
102
{ACAD_REACTORS
330
3E1
102
}
330
3E1
100
AcDbScale
 70
     0
300
1:2
140
1.0
141
2.0
290
     0
  0
SCALE
  5
3E4
102
{ACAD_REACTORS
330
3E1
102
}
330
3E1
100
AcDbScale
 70
     0
300
1:4
140
1.0
141
4.0
290
     0
  0
SCALE
  5
3E5
102
{ACAD_REACTORS
330
3E1
102
}
330
3E1
100
AcDbScale
 70
     0
300
1:5
140
1.0
141
5.0
290
     0
  0
SCALE
  5
3E6
102
{ACAD_REACTORS
330
3E1
102
}
330
3E1
100
AcDbScale
 70
     0
300
1:8
140
1.0
141
8.0
290
     0
  0
SCALE
  5
3E7
102
{ACAD_REACTORS
330
3E1
102
}
330
3E1
100
AcDbScale
 70
     0
300
1:10
140
1.0
141
10.0
290
     0
  0
SCALE
  5
3E8
102
{ACAD_REACTORS
330
3E1
102
}
330
3E1
100
AcDbScale
 70
     0
300
1:16
140
1.0
141
16.0
290
     0
  0
SCALE
  5
3E9
102
{ACAD_REACTORS
330
3E1
102
}
330
3E1
100
AcDbScale
 70
     0
300
1:20
140
1.0
141
20.0
290
     0
  0
SCALE
  5
3EA
102
{ACAD_REACTORS
330
3E1
102
}
330
3E1
100
AcDbScale
 70
     0
300
1:30
140
1.0
141
30.0
290
     0
  0
SCALE
  5
3EB
102
{ACAD_REACTORS
330
3E1
102
}
330
3E1
100
AcDbScale
 70
     0
300
1:40
140
1.0
141
40.0
290
     0
  0
SCALE
  5
3EC
102
{ACAD_REACTORS
330
3E1
102
}
330
3E1
100
AcDbScale
 70
     0
300
1:50
140
1.0
141
50.0
290
     0
  0
SCALE
  5
3ED
102
{ACAD_REACTORS
330
3E1
102
}
330
3E1
100
AcDbScale
 70
     0
300
1:100
140
1.0
141
100.0
290
     0
  0
SCALE
  5
3EE
102
{ACAD_REACTORS
330
3E1
102
}
330
3E1
100
AcDbScale
 70
     0
300
2:1
140
2.0
141
1.0
290
     0
  0
SCALE
  5
3EF
102
{ACAD_REACTORS
330
3E1
102
}
330
3E1
100
AcDbScale
 70
     0
300
4:1
140
4.0
141
1.0
290
     0
  0
SCALE
  5
3F0
102
{ACAD_REACTORS
330
3E1
102
}
330
3E1
100
AcDbScale
 70
     0
300
8:1
140
8.0
141
1.0
290
     0
  0
SCALE
  5
3F1
102
{ACAD_REACTORS
330
3E1
102
}
330
3E1
100
AcDbScale
 70
     0
300
10:1
140
10.0
141
1.0
290
     0
  0
SCALE
  5
3F2
102
{ACAD_REACTORS
330
3E1
102
}
330
3E1
100
AcDbScale
 70
     0
300
100:1
140
100.0
141
1.0
290
     0
  0
SCALE
  5
3F3
102
{ACAD_REACTORS
330
3E1
102
}
330
3E1
100
AcDbScale
 70
     0
300
1/128" = 1'-0"
140
0.0078125
141
12.0
290
     0
  0
SCALE
  5
3F4
102
{ACAD_REACTORS
330
3E1
102
}
330
3E1
100
AcDbScale
 70
     0
300
1/64" = 1'-0"
140
0.015625
141
12.0
290
     0
  0
SCALE
  5
3F5
102
{ACAD_REACTORS
330
3E1
102
}
330
3E1
100
AcDbScale
 70
     0
300
1/32" = 1'-0"
140
0.03125
141
12.0
290
     0
  0
SCALE
  5
3F6
102
{ACAD_REACTORS
330
3E1
102
}
330
3E1
100
AcDbScale
 70
     0
300
1/16" = 1'-0"
140
0.0625
141
12.0
290
     0
  0
SCALE
  5
3F7
102
{ACAD_REACTORS
330
3E1
102
}
330
3E1
100
AcDbScale
 70
     0
300
3/32" = 1'-0"
140
0.09375
141
12.0
290
     0
  0
SCALE
  5
3F8
102
{ACAD_REACTORS
330
3E1
102
}
330
3E1
100
AcDbScale
 70
     0
300
1/8" = 1'-0"
140
0.125
141
12.0
290
     0
  0
SCALE
  5
3F9
102
{ACAD_REACTORS
330
3E1
102
}
330
3E1
100
AcDbScale
 70
     0
300
3/16" = 1'-0"
140
0.1875
141
12.0
290
     0
  0
SCALE
  5
3FA
102
{ACAD_REACTORS
330
3E1
102
}
330
3E1
100
AcDbScale
 70
     0
300
1/4" = 1'-0"
140
0.25
141
12.0
290
     0
  0
SCALE
  5
3FB
102
{ACAD_REACTORS
330
3E1
102
}
330
3E1
100
AcDbScale
 70
     0
300
3/8" = 1'-0"
140
0.375
141
12.0
290
     0
  0
SCALE
  5
3FC
102
{ACAD_REACTORS
330
3E1
102
}
330
3E1
100
AcDbScale
 70
     0
300
1/2" = 1'-0"
140
0.5
141
12.0
290
     0
  0
SCALE
  5
3FD
102
{ACAD_REACTORS
330
3E1
102
}
330
3E1
100
AcDbScale
 70
     0
300
3/4" = 1'-0"
140
0.75
141
12.0
290
     0
  0
SCALE
  5
3FE
102
{ACAD_REACTORS
330
3E1
102
}
330
3E1
100
AcDbScale
 70
     0
300
1" = 1'-0"
140
1.0
141
12.0
290
     0
  0
SCALE
  5
3FF
102
{ACAD_REACTORS
330
3E1
102
}
330
3E1
100
AcDbScale
 70
     0
300
1-1/2" = 1'-0"
140
1.5
141
12.0
290
     0
  0
SCALE
  5
400
102
{ACAD_REACTORS
330
3E1
102
}
330
3E1
100
AcDbScale
 70
     0
300
3" = 1'-0"
140
3.0
141
12.0
290
     0
  0
SCALE
  5
401
102
{ACAD_REACTORS
330
3E1
102
}
330
3E1
100
AcDbScale
 70
     0
300
6" = 1'-0"
140
6.0
141
12.0
290
     0
  0
SCALE
  5
402
102
{ACAD_REACTORS
330
3E1
102
}
330
3E1
100
AcDbScale
 70
     0
300
1'-0" = 1'-0"
140
12.0
141
12.0
290
     0
  0
TABLESTYLE
  5
2A9
102
{ACAD_XDICTIONARY
360
442
102
}
102
{ACAD_REACTORS
330
2A8
102
}
330
2A8
100
AcDbTableStyle
  3
Standard
 70
     0
 71
     0
 40
0.06
 41
0.06
280
     0
281
     0
  7
STANDARD
140
0.18
170
     2
 62
     0
 63
     7
283
     0
274
    -2
284
     1
 64
     0
275
    -2
285
     1
 65
     0
276
    -2
286
     1
 66
     0
277
    -2
287
     1
 67
     0
278
    -2
288
     1
 68
     0
279
    -2
289
     1
 69
     0
  7
STANDARD
140
0.25
170
     5
 62
     0
 63
     7
283
     0
274
    -2
284
     1
 64
     0
275
    -2
285
     1
 65
     0
276
    -2
286
     1
 66
     0
277
    -2
287
     1
 67
     0
278
    -2
288
     1
 68
     0
279
    -2
289
     1
 69
     0
  7
STANDARD
140
0.18
170
     5
 62
     0
 63
     7
283
     0
274
    -2
284
     1
 64
     0
275
    -2
285
     1
 65
     0
276
    -2
286
     1
 66
     0
277
    -2
287
     1
 67
     0
278
    -2
288
     1
 68
     0
279
    -2
289
     1
 69
     0
  0
VISUALSTYLE
  5
3D6
102
{ACAD_REACTORS
330
3D0
102
}
330
3D0
100
AcDbVisualStyle
  2
2dWireframe
 70
     4
 71
     0
 72
     2
 73
     0
 90
        0
 40
-0.6
 41
-30.0
 62
     5
 63
     7
421
 16777215
 74
     1
 91
        4
 64
     7
 65
   257
 75
     1
175
     1
 42
1.0
 92
        0
 66
   257
 43
1.0
 76
     1
 77
     6
 78
     2
 67
     7
 79
     5
170
     0
171
     0
290
     0
174
     0
 93
        1
 44
0.0
173
     0
291
     0
 45
0.0
1001
ACAD
1000
AcDbSavedByObjectVersion
1070
     0
  0
VISUALSTYLE
  5
3D8
102
{ACAD_REACTORS
330
3D0
102
}
330
3D0
100
AcDbVisualStyle
  2
3D Hidden
 70
     6
 71
     1
 72
     2
 73
     2
 90
        0
 40
-0.6
 41
-30.0
 62
     5
 63
     7
421
 16777215
 74
     2
 91
        2
 64
     7
 65
   257
 75
     2
175
     1
 42
40.0
 92
        0
 66
   257
 43
1.0
 76
     1
 77
     6
 78
     2
 67
     7
 79
     3
170
     0
171
     0
290
     0
174
     0
 93
        1
 44
0.0
173
     0
291
     0
 45
0.0
1001
ACAD
1000
AcDbSavedByObjectVersion
1070
     0
  0
VISUALSTYLE
  5
3D7
102
{ACAD_REACTORS
330
3D0
102
}
330
3D0
100
AcDbVisualStyle
  2
3dWireframe
 70
     5
 71
     0
 72
     2
 73
     0
 90
        0
 40
-0.6
 41
-30.0
 62
     5
 63
     7
421
 16777215
 74
     1
 91
        4
 64
     7
 65
   257
 75
     1
175
     1
 42
1.0
 92
        0
 66
   257
 43
1.0
 76
     1
 77
     6
 78
     2
 67
     7
 79
     5
170
     0
171
     0
290
     0
174
     0
 93
        1
 44
0.0
173
     0
291
     0
 45
0.0
1001
ACAD
1000
AcDbSavedByObjectVersion
1070
     0
  0
VISUALSTYLE
  5
3D5
102
{ACAD_REACTORS
330
3D0
102
}
330
3D0
100
AcDbVisualStyle
  2
Basic
 70
     7
 71
     1
 72
     0
 73
     1
 90
        0
 40
-0.6
 41
-30.0
 62
     5
 63
     7
421
 16777215
 74
     0
 91
        4
 64
     7
 65
   257
 75
     1
175
     1
 42
1.0
 92
        8
 66
     7
 43
1.0
 76
     1
 77
     6
 78
     2
 67
     7
 79
     5
170
     0
171
     0
290
     0
174
     0
 93
        1
 44
0.0
173
     0
291
     1
 45
0.0
1001
ACAD
1000
AcDbSavedByObjectVersion
1070
     0
  0
VISUALSTYLE
  5
3DC
102
{ACAD_REACTORS
330
3D0
102
}
330
3D0
100
AcDbVisualStyle
  2
Brighten
 70
    12
 71
     2
 72
     2
 73
     0
 90
        0
 40
-0.6
 41
-30.0
 62
     5
 63
     7
421
 16777215
 74
     1
 91
        4
 64
     7
 65
   257
 75
     1
175
     1
 42
1.0
 92
        8
 66
     7
 43
1.0
 76
     1
 77
     6
 78
     2
 67
     7
 79
     5
170
     0
171
     0
290
     0
174
     0
 93
        1
 44
50.0
173
     0
291
     1
 45
0.0
1001
ACAD
1000
AcDbSavedByObjectVersion
1070
     0
  0
VISUALSTYLE
  5
3E0
102
{ACAD_REACTORS
330
3D0
102
}
330
3D0
100
AcDbVisualStyle
  2
ColorChange
 70
    16
 71
     2
 72
     2
 73
     3
 90
        0
 40
-0.6
 41
-30.0
 62
     5
 63
     8
421
  8421504
 74
     1
 91
        4
 64
     7
 65
   257
 75
     1
175
     1
 42
1.0
 92
        8
 66
     8
424
  8421504
 43
1.0
 76
     1
 77
     6
 78
     2
 67
     7
 79
     5
170
     0
171
     0
290
     0
174
     0
 93
        1
 44
0.0
173
     0
291
     1
 45
0.0
1001
ACAD
1000
AcDbSavedByObjectVersion
1070
     0
  0
VISUALSTYLE
  5
3D9
102
{ACAD_REACTORS
330
3D0
102
}
330
3D0
100
AcDbVisualStyle
  2
Conceptual
 70
     9
 71
     3
 72
     2
 73
     0
 90
        0
 40
-0.6
 41
-30.0
 62
     5
 63
     7
421
 16777215
 74
     2
 91
        2
 64
     7
 65
   257
 75
     1
175
     1
 42
40.0
 92
        8
 66
     7
 43
1.0
 76
     1
 77
     6
 78
     2
 67
     7
 79
     3
170
     0
171
     0
290
     0
174
     0
 93
        1
 44
0.0
173
     0
291
     0
 45
0.0
1001
ACAD
1000
AcDbSavedByObjectVersion
1070
     0
  0
VISUALSTYLE
  5
3DB
102
{ACAD_REACTORS
330
3D0
102
}
330
3D0
100
AcDbVisualStyle
  2
Dim
 70
    11
 71
     2
 72
     2
 73
     0
 90
        0
 40
-0.6
 41
-30.0
 62
     5
 63
     7
421
 16777215
 74
     1
 91
        4
 64
     7
 65
   257
 75
     1
175
     1
 42
1.0
 92
        8
 66
     7
 43
1.0
 76
     1
 77
     6
 78
     2
 67
     7
 79
     5
170
     0
171
     0
290
     0
174
     0
 93
        1
 44
-50.0
173
     0
291
     1
 45
0.0
1001
ACAD
1000
AcDbSavedByObjectVersion
1070
     0
  0
VISUALSTYLE
  5
3DF
102
{ACAD_REACTORS
330
3D0
102
}
330
3D0
100
AcDbVisualStyle
  2
Facepattern
 70
    15
 71
     2
 72
     2
 73
     0
 90
        0
 40
-0.6
 41
-30.0
 62
     5
 63
     7
421
 16777215
 74
     1
 91
        4
 64
     7
 65
   257
 75
     1
175
     1
 42
1.0
 92
        8
 66
     7
 43
1.0
 76
     1
 77
     6
 78
     2
 67
     7
 79
     5
170
     0
171
     0
290
     0
174
     0
 93
        1
 44
0.0
173
     0
291
     1
 45
0.0
1001
ACAD
1000
AcDbSavedByObjectVersion
1070
     0
  0
VISUALSTYLE
  5
3D1
102
{ACAD_REACTORS
330
3D0
102
}
330
3D0
100
AcDbVisualStyle
  2
Flat
 70
     0
 71
     2
 72
     1
 73
     1
 90
        2
 40
-0.6
 41
30.0
 62
     5
 63
     7
421
 16777215
 74
     0
 91
        4
 64
     7
 65
   257
 75
     1
175
     1
 42
1.0
 92
        8
 66
     7
 43
1.0
 76
     1
 77
     6
 78
     2
 67
     7
 79
     5
170
     0
171
     0
290
     0
174
     0
 93
       13
 44
0.0
173
     0
291
     1
 45
0.0
1001
ACAD
1000
AcDbSavedByObjectVersion
1070
     0
  0
VISUALSTYLE
  5
3D2
102
{ACAD_REACTORS
330
3D0
102
}
330
3D0
100
AcDbVisualStyle
  2
FlatWithEdges
 70
     1
 71
     2
 72
     1
 73
     1
 90
        2
 40
-0.6
 41
30.0
 62
     5
 63
     7
421
 16777215
 74
     1
 91
        4
 64
     7
 65
   257
 75
     1
175
     1
 42
1.0
 92
        0
 66
   257
 43
1.0
 76
     1
 77
     6
 78
     2
 67
     7
 79
     5
170
     0
171
     0
290
     0
174
     0
 93
       13
 44
0.0
173
     0
291
     1
 45
0.0
1001
ACAD
1000
AcDbSavedByObjectVersion
1070
     0
  0
VISUALSTYLE
  5
3D3
102
{ACAD_REACTORS
330
3D0
102
}
330
3D0
100
AcDbVisualStyle
  2
Gouraud
 70
     2
 71
     2
 72
     2
 73
     1
 90
        2
 40
-0.6
 41
30.0
 62
     5
 63
     7
421
 16777215
 74
     0
 91
        4
 64
     7
 65
   257
 75
     1
175
     1
 42
1.0
 92
        0
 66
     7
 43
1.0
 76
     1
 77
     6
 78
     2
 67
     7
 79
     5
170
     0
171
     0
290
     0
174
     0
 93
       13
 44
0.0
173
     0
291
     1
 45
0.0
1001
ACAD
1000
AcDbSavedByObjectVersion
1070
     0
  0
VISUALSTYLE
  5
3D4
102
{ACAD_REACTORS
330
3D0
102
}
330
3D0
100
AcDbVisualStyle
  2
GouraudWithEdges
 70
     3
 71
     2
 72
     2
 73
     1
 90
        2
 40
-0.6
 41
30.0
 62
     5
 63
     7
421
 16777215
 74
     1
 91
        4
 64
     7
 65
   257
 75
     1
175
     1
 42
1.0
 92
        0
 66
   257
 43
1.0
 76
     1
 77
     6
 78
     2
 67
     7
 79
     5
170
     0
171
     0
290
     0
174
     0
 93
       13
 44
0.0
173
     0
291
     1
 45
0.0
1001
ACAD
1000
AcDbSavedByObjectVersion
1070
     0
  0
VISUALSTYLE
  5
3DE
102
{ACAD_REACTORS
330
3D0
102
}
330
3D0
100
AcDbVisualStyle
  2
Linepattern
 70
    14
 71
     2
 72
     2
 73
     0
 90
        0
 40
-0.6
 41
-30.0
 62
     5
 63
     7
421
 16777215
 74
     1
 91
        4
 64
     7
 65
   257
 75
     7
175
     7
 42
1.0
 92
        8
 66
     7
 43
1.0
 76
     1
 77
     6
 78
     2
 67
     7
 79
     5
170
     0
171
     0
290
     0
174
     0
 93
        1
 44
0.0
173
     0
291
     1
 45
0.0
1001
ACAD
1000
AcDbSavedByObjectVersion
1070
     0
  0
VISUALSTYLE
  5
3DA
102
{ACAD_REACTORS
330
3D0
102
}
330
3D0
100
AcDbVisualStyle
  2
Realistic
 70
     8
 71
     2
 72
     2
 73
     0
 90
        0
 40
-0.6
 41
-30.0
 62
     5
 63
     7
421
 16777215
 74
     1
 91
        0
 64
     7
 65
   257
 75
     1
175
     1
 42
1.0
 92
        8
 66
     8
424
  7895160
 43
1.0
 76
     1
 77
     6
 78
     2
 67
     7
 79
     5
170
     0
171
     0
290
     0
174
     0
 93
       13
 44
0.0
173
     0
291
     0
 45
0.0
1001
ACAD
1000
AcDbSavedByObjectVersion
1070
     0
  0
VISUALSTYLE
  5
3DD
102
{ACAD_REACTORS
330
3D0
102
}
330
3D0
100
AcDbVisualStyle
  2
Thicken
 70
    13
 71
     2
 72
     2
 73
     0
 90
        0
 40
-0.6
 41
-30.0
 62
     5
 63
     7
421
 16777215
 74
     1
 91
        4
 64
     7
 65
   257
 75
     1
175
     1
 42
1.0
 92
       12
 66
     7
 43
1.0
 76
     1
 77
     6
 78
     2
 67
     7
 79
     5
170
     0
171
     0
290
     0
174
     0
 93
        1
 44
0.0
173
     0
291
     1
 45
0.0
1001
ACAD
1000
AcDbSavedByObjectVersion
1070
     0
  0
DICTIONARYVAR
  5
447
102
{ACAD_REACTORS
330
271
102
}
330
271
100
DictionaryVariables
280
     0
  1
1:1
  0
DICTIONARYVAR
  5
445
102
{ACAD_REACTORS
330
271
102
}
330
271
100
DictionaryVariables
280
     0
  1
STANDARD
  0
DICTIONARYVAR
  5
3B6
102
{ACAD_REACTORS
330
271
102
}
330
271
100
DictionaryVariables
280
     0
  1
STANDARD
  0
DICTIONARYVAR
  5
272
102
{ACAD_REACTORS
330
271
102
}
330
271
100
DictionaryVariables
280
     0
  1
1
  0
DICTIONARYVAR
  5
448
102
{ACAD_REACTORS
330
271
102
}
330
271
100
DictionaryVariables
280
     0
  1
0
  0
DICTIONARYVAR
  5
446
102
{ACAD_REACTORS
330
271
102
}
330
271
100
DictionaryVariables
280
     0
  1
0
  0
DICTIONARY
  5
250
102
{ACAD_REACTORS
330
24F
102
}
330
24F
100
AcDbDictionary
281
     1
  0
XRECORD
  5
31E
102
{ACAD_REACTORS
330
24F
102
}
330
24F
100
AcDbXrecord
280
     1
 90
-1023410169
  0
XRECORD
  5
8DF
102
{ACAD_REACTORS
330
8DE
102
}
330
8DE
100
AcDbXrecord
280
     1
330
0
  0
DICTIONARY
  5
3C1
330
3C0
100
AcDbDictionary
280
     1
281
     1
  3
ACAD_XREC_ROUNDTRIP
360
93D
  3
BUMPTILE
360
3C3
  3
DIFFUSETILE
360
3C2
  3
OPACITYTILE
360
3C6
  3
REFLECTIONTILE
360
3C5
  3
REFRACTIONTILE
360
3C7
  3
SPECULARTILE
360
3C4
  0
DICTIONARY
  5
3B9
330
3B8
100
AcDbDictionary
280
     1
281
     1
  3
ACAD_XREC_ROUNDTRIP
360
93C
  3
BUMPTILE
360
3BB
  3
DIFFUSETILE
360
3BA
  3
OPACITYTILE
360
3BE
  3
REFLECTIONTILE
360
3BD
  3
REFRACTIONTILE
360
3BF
  3
SPECULARTILE
360
3BC
  0
DICTIONARY
  5
3C9
330
3C8
100
AcDbDictionary
280
     1
281
     1
  3
ACAD_XREC_ROUNDTRIP
360
93E
  3
BUMPTILE
360
3CB
  3
DIFFUSETILE
360
3CA
  3
OPACITYTILE
360
3CE
  3
REFLECTIONTILE
360
3CD
  3
REFRACTIONTILE
360
3CF
  3
SPECULARTILE
360
3CC
  0
DICTIONARY
  5
442
330
2A9
100
AcDbDictionary
280
     1
281
     1
  3
ACAD_ROUNDTRIP_2008_TABLESTYLE_CELLSTYLEMAP
360
93A
  3
ACAD_XREC_ROUNDTRIP
360
93B
  0
XRECORD
  5
93D
102
{ACAD_REACTORS
330
3C1
102
}
330
3C1
100
AcDbXrecord
280
     1
102
MATERIAL
148
0.0
149
0.0
149
0.0
 93
        0
 94
      127
282
     0
 72
     0
 77
     0
171
     0
175
     0
179
     0
273
     0
  0
XRECORD
  5
3C3
102
{ACAD_REACTORS
330
3C1
102
}
330
3C1
100
AcDbXrecord
280
     1
270
     1
271
     1
  0
XRECORD
  5
3C2
102
{ACAD_REACTORS
330
3C1
102
}
330
3C1
100
AcDbXrecord
280
     1
270
     1
271
     1
  0
XRECORD
  5
3C6
102
{ACAD_REACTORS
330
3C1
102
}
330
3C1
100
AcDbXrecord
280
     1
270
     1
271
     1
  0
XRECORD
  5
3C5
102
{ACAD_REACTORS
330
3C1
102
}
330
3C1
100
AcDbXrecord
280
     1
270
     1
271
     1
  0
XRECORD
  5
3C7
102
{ACAD_REACTORS
330
3C1
102
}
330
3C1
100
AcDbXrecord
280
     1
270
     1
271
     1
  0
XRECORD
  5
3C4
102
{ACAD_REACTORS
330
3C1
102
}
330
3C1
100
AcDbXrecord
280
     1
270
     1
271
     1
  0
XRECORD
  5
93C
102
{ACAD_REACTORS
330
3B9
102
}
330
3B9
100
AcDbXrecord
280
     1
102
MATERIAL
148
0.0
149
0.0
149
0.0
 93
        0
 94
      127
282
     0
 72
     0
 77
     0
171
     0
175
     0
179
     0
273
     0
  0
XRECORD
  5
3BB
102
{ACAD_REACTORS
330
3B9
102
}
330
3B9
100
AcDbXrecord
280
     1
270
     1
271
     1
  0
XRECORD
  5
3BA
102
{ACAD_REACTORS
330
3B9
102
}
330
3B9
100
AcDbXrecord
280
     1
270
     1
271
     1
  0
XRECORD
  5
3BE
102
{ACAD_REACTORS
330
3B9
102
}
330
3B9
100
AcDbXrecord
280
     1
270
     1
271
     1
  0
XRECORD
  5
3BD
102
{ACAD_REACTORS
330
3B9
102
}
330
3B9
100
AcDbXrecord
280
     1
270
     1
271
     1
  0
XRECORD
  5
3BF
102
{ACAD_REACTORS
330
3B9
102
}
330
3B9
100
AcDbXrecord
280
     1
270
     1
271
     1
  0
XRECORD
  5
3BC
102
{ACAD_REACTORS
330
3B9
102
}
330
3B9
100
AcDbXrecord
280
     1
270
     1
271
     1
  0
XRECORD
  5
93E
102
{ACAD_REACTORS
330
3C9
102
}
330
3C9
100
AcDbXrecord
280
     1
102
MATERIAL
148
0.0
149
0.0
149
0.0
 93
        0
 94
      127
282
     0
 72
     0
 77
     0
171
     0
175
     0
179
     0
273
     0
  0
XRECORD
  5
3CB
102
{ACAD_REACTORS
330
3C9
102
}
330
3C9
100
AcDbXrecord
280
     1
270
     1
271
     1
  0
XRECORD
  5
3CA
102
{ACAD_REACTORS
330
3C9
102
}
330
3C9
100
AcDbXrecord
280
     1
270
     1
271
     1
  0
XRECORD
  5
3CE
102
{ACAD_REACTORS
330
3C9
102
}
330
3C9
100
AcDbXrecord
280
     1
270
     1
271
     1
  0
XRECORD
  5
3CD
102
{ACAD_REACTORS
330
3C9
102
}
330
3C9
100
AcDbXrecord
280
     1
270
     1
271
     1
  0
XRECORD
  5
3CF
102
{ACAD_REACTORS
330
3C9
102
}
330
3C9
100
AcDbXrecord
280
     1
270
     1
271
     1
  0
XRECORD
  5
3CC
102
{ACAD_REACTORS
330
3C9
102
}
330
3C9
100
AcDbXrecord
280
     1
270
     1
271
     1
  0
CELLSTYLEMAP
  5
93A
102
{ACAD_REACTORS
330
442
102
}
330
442
100
AcDbCellStyleMap
 90
        3
300
CELLSTYLE
  1
TABLEFORMAT_BEGIN
 90
        5
170
     1
 91
        0
 92
    32768
 62
   257
 93
        1
300
CONTENTFORMAT
  1
CONTENTFORMAT_BEGIN
 90
        0
 91
        0
 92
        4
 93
        0
300

 40
0.0
140
1.0
 94
        5
 62
     0
340
D
144
0.25
309
CONTENTFORMAT_END
171
     0
 94
        6
 95
        1
302
GRIDFORMAT
  1
GRIDFORMAT_BEGIN
 90
        0
 91
        1
 62
     0
 92
       -2
340
0
 93
        0
 40
0.045
309
GRIDFORMAT_END
 95
        2
302
GRIDFORMAT
  1
GRIDFORMAT_BEGIN
 90
        0
 91
        1
 62
     0
 92
       -2
340
0
 93
        0
 40
0.045
309
GRIDFORMAT_END
 95
        4
302
GRIDFORMAT
  1
GRIDFORMAT_BEGIN
 90
        0
 91
        1
 62
     0
 92
       -2
340
0
 93
        0
 40
0.045
309
GRIDFORMAT_END
 95
        8
302
GRIDFORMAT
  1
GRIDFORMAT_BEGIN
 90
        0
 91
        1
 62
     0
 92
       -2
340
0
 93
        0
 40
0.045
309
GRIDFORMAT_END
 95
       16
302
GRIDFORMAT
  1
GRIDFORMAT_BEGIN
 90
        0
 91
        1
 62
     0
 92
       -2
340
0
 93
        0
 40
0.045
309
GRIDFORMAT_END
 95
       32
302
GRIDFORMAT
  1
GRIDFORMAT_BEGIN
 90
        0
 91
        1
 62
     0
 92
       -2
340
0
 93
        0
 40
0.045
309
GRIDFORMAT_END
309
TABLEFORMAT_END
  1
CELLSTYLE_BEGIN
 90
        1
 91
        1
300
_TITLE
309
CELLSTYLE_END
300
CELLSTYLE
  1
TABLEFORMAT_BEGIN
 90
        5
170
     1
 91
        0
 92
        0
 62
   257
 93
        1
300
CONTENTFORMAT
  1
CONTENTFORMAT_BEGIN
 90
        0
 91
        0
 92
        4
 93
        0
300

 40
0.0
140
1.0
 94
        5
 62
     0
340
D
144
0.18
309
CONTENTFORMAT_END
171
     0
 94
        6
 95
        1
302
GRIDFORMAT
  1
GRIDFORMAT_BEGIN
 90
        0
 91
        1
 62
     0
 92
       -2
340
0
 93
        0
 40
0.045
309
GRIDFORMAT_END
 95
        2
302
GRIDFORMAT
  1
GRIDFORMAT_BEGIN
 90
        0
 91
        1
 62
     0
 92
       -2
340
0
 93
        0
 40
0.045
309
GRIDFORMAT_END
 95
        4
302
GRIDFORMAT
  1
GRIDFORMAT_BEGIN
 90
        0
 91
        1
 62
     0
 92
       -2
340
0
 93
        0
 40
0.045
309
GRIDFORMAT_END
 95
        8
302
GRIDFORMAT
  1
GRIDFORMAT_BEGIN
 90
        0
 91
        1
 62
     0
 92
       -2
340
0
 93
        0
 40
0.045
309
GRIDFORMAT_END
 95
       16
302
GRIDFORMAT
  1
GRIDFORMAT_BEGIN
 90
        0
 91
        1
 62
     0
 92
       -2
340
0
 93
        0
 40
0.045
309
GRIDFORMAT_END
 95
       32
302
GRIDFORMAT
  1
GRIDFORMAT_BEGIN
 90
        0
 91
        1
 62
     0
 92
       -2
340
0
 93
        0
 40
0.045
309
GRIDFORMAT_END
309
TABLEFORMAT_END
  1
CELLSTYLE_BEGIN
 90
        2
 91
        1
300
_HEADER
309
CELLSTYLE_END
300
CELLSTYLE
  1
TABLEFORMAT_BEGIN
 90
        5
170
     1
 91
        0
 92
        0
 62
   257
 93
        1
300
CONTENTFORMAT
  1
CONTENTFORMAT_BEGIN
 90
        0
 91
        0
 92
        4
 93
        0
300

 40
0.0
140
1.0
 94
        2
 62
     0
340
D
144
0.18
309
CONTENTFORMAT_END
171
     0
 94
        6
 95
        1
302
GRIDFORMAT
  1
GRIDFORMAT_BEGIN
 90
        0
 91
        1
 62
     0
 92
       -2
340
0
 93
        0
 40
0.045
309
GRIDFORMAT_END
 95
        2
302
GRIDFORMAT
  1
GRIDFORMAT_BEGIN
 90
        0
 91
        1
 62
     0
 92
       -2
340
0
 93
        0
 40
0.045
309
GRIDFORMAT_END
 95
        4
302
GRIDFORMAT
  1
GRIDFORMAT_BEGIN
 90
        0
 91
        1
 62
     0
 92
       -2
340
0
 93
        0
 40
0.045
309
GRIDFORMAT_END
 95
        8
302
GRIDFORMAT
  1
GRIDFORMAT_BEGIN
 90
        0
 91
        1
 62
     0
 92
       -2
340
0
 93
        0
 40
0.045
309
GRIDFORMAT_END
 95
       16
302
GRIDFORMAT
  1
GRIDFORMAT_BEGIN
 90
        0
 91
        1
 62
     0
 92
       -2
340
0
 93
        0
 40
0.045
309
GRIDFORMAT_END
 95
       32
302
GRIDFORMAT
  1
GRIDFORMAT_BEGIN
 90
        0
 91
        1
 62
     0
 92
       -2
340
0
 93
        0
 40
0.045
309
GRIDFORMAT_END
309
TABLEFORMAT_END
  1
CELLSTYLE_BEGIN
 90
        3
 91
        2
300
_DATA
309
CELLSTYLE_END
  0
XRECORD
  5
93B
102
{ACAD_REACTORS
330
442
102
}
330
442
100
AcDbXrecord
280
     1
102
ACAD_ROUNDTRIP_PRE2007_TABLESTYLE
 90
        4
 91
        0
  1

 92
        4
 93
        0
  2

 94
        4
 95
        0
  3

  0
ENDSEC
  0
EOF
