  0
SECTION
  2
HEADER
  9
$ACADVER
  1
AC1018
  9
$ACADMAINTVER
 70
   104
  9
$DWGCODEPAGE
  3
ANSI_1252
  9
$LASTSAVEDBY
  1
ibasyouni
  9
$CUSTOMPROPERTYTAG
  1
AmdtFileType
  9
$CUSTOMPROPERTY
  1
84
  9
$INSBASE
 10
0.0
 20
0.0
 30
0.0
  9
$EXTMIN
 10
29.93196146597279
 20
79.9880553767141
 30
0.0
  9
$EXTMAX
 10
1035.778531333326
 20
426.7823788577548
 30
0.0
  9
$LIMMIN
 10
0.0
 20
0.0
  9
$LIMMAX
 10
1000.0
 20
500.0
  9
$ORTHOMODE
 70
     1
  9
$REGENMODE
 70
     1
  9
$FILLMODE
 70
     1
  9
$QTEXTMODE
 70
     0
  9
$MIRRTEXT
 70
     1
  9
$LTSCALE
 40
1.0
  9
$ATTMODE
 70
     1
  9
$TEXTSIZE
 40
3.5
  9
$TRACEWID
 40
1.0
  9
$TEXTSTYLE
  7
Stil1
  9
$CLAYER
  8
0
  9
$CELTYPE
  6
BYLAYER
  9
$CECOLOR
 62
   256
  9
$CELTSCALE
 40
10.0
  9
$DISPSILH
 70
     0
  9
$DIMSCALE
 40
1.0
  9
$DIMASZ
 40
7.0
  9
$DIMEXO
 40
0.0
  9
$DIMDLI
 40
7.0
  9
$DIMRND
 40
0.0
  9
$DIMDLE
 40
0.0
  9
$DIMEXE
 40
1.25
  9
$DIMTP
 40
0.0
  9
$DIMTM
 40
0.0
  9
$DIMTXT
 40
10.0
  9
$DIMCEN
 40
0.0
  9
$DIMTSZ
 40
0.0
  9
$DIMTOL
 70
     0
  9
$DIMLIM
 70
     0
  9
$DIMTIH
 70
     0
  9
$DIMTOH
 70
     0
  9
$DIMSE1
 70
     0
  9
$DIMSE2
 70
     0
  9
$DIMTAD
 70
     1
  9
$DIMZIN
 70
     8
  9
$DIMBLK
  1

  9
$DIMASO
 70
     1
  9
$DIMSHO
 70
     1
  9
$DIMPOST
  1

  9
$DIMAPOST
  1

  9
$DIMALT
 70
     0
  9
$DIMALTD
 70
     2
  9
$DIMALTF
 40
25.4
  9
$DIMLFAC
 40
1.0
  9
$DIMTOFL
 70
     1
  9
$DIMTVP
 40
0.0
  9
$DIMTIX
 70
     0
  9
$DIMSOXD
 70
     0
  9
$DIMSAH
 70
     0
  9
$DIMBLK1
  1

  9
$DIMBLK2
  1

  9
$DIMSTYLE
  2
ISO-25
  9
$DIMCLRD
 70
   256
  9
$DIMCLRE
 70
   256
  9
$DIMCLRT
 70
   256
  9
$DIMTFAC
 40
1.0
  9
$DIMGAP
 40
4.0
  9
$DIMJUST
 70
     0
  9
$DIMSD1
 70
     0
  9
$DIMSD2
 70
     0
  9
$DIMTOLJ
 70
     1
  9
$DIMTZIN
 70
     0
  9
$DIMALTZ
 70
     0
  9
$DIMALTTZ
 70
     0
  9
$DIMUPT
 70
     1
  9
$DIMDEC
 70
     4
  9
$DIMTDEC
 70
     4
  9
$DIMALTU
 70
     2
  9
$DIMALTTD
 70
     2
  9
$DIMTXSTY
  7
STANDARD
  9
$DIMAUNIT
 70
     0
  9
$DIMADEC
 70
     1
  9
$DIMALTRND
 40
0.0
  9
$DIMAZIN
 70
     0
  9
$DIMDSEP
 70
    46
  9
$DIMATFIT
 70
     0
  9
$DIMFRAC
 70
     0
  9
$DIMLDRBLK
  1

  9
$DIMLUNIT
 70
     2
  9
$DIMLWD
 70
    -2
  9
$DIMLWE
 70
    -2
  9
$DIMTMOVE
 70
     0
  9
$LUNITS
 70
     2
  9
$LUPREC
 70
     4
  9
$SKETCHINC
 40
1.0
  9
$FILLETRAD
 40
0.0
  9
$AUNITS
 70
     0
  9
$AUPREC
 70
     0
  9
$MENU
  1
.
  9
$ELEVATION
 40
0.0
  9
$PELEVATION
 40
0.0
  9
$THICKNESS
 40
0.0
  9
$LIMCHECK
 70
     0
  9
$CHAMFERA
 40
2.0
  9
$CHAMFERB
 40
2.0
  9
$CHAMFERC
 40
0.0
  9
$CHAMFERD
 40
0.0
  9
$SKPOLY
 70
     0
  9
$TDCREATE
 40
2450848.795139884
  9
$TDUCREATE
 40
2450848.711806551
  9
$TDUPDATE
 40
2455819.538539132
  9
$TDUUPDATE
 40
2455819.455205799
  9
$TDINDWG
 40
2.4550766551
  9
$TDUSRTIMER
 40
2.4550766551
  9
$USRTIMER
 70
     1
  9
$ANGBASE
 50
0.0
  9
$ANGDIR
 70
     0
  9
$PDMODE
 70
     0
  9
$PDSIZE
 40
0.0
  9
$PLINEWID
 40
0.5
  9
$SPLFRAME
 70
     0
  9
$SPLINETYPE
 70
     6
  9
$SPLINESEGS
 70
     8
  9
$HANDSEED
  5
4728
  9
$SURFTAB1
 70
     6
  9
$SURFTAB2
 70
     6
  9
$SURFTYPE
 70
     6
  9
$SURFU
 70
     6
  9
$SURFV
 70
     6
  9
$UCSBASE
  2

  9
$UCSNAME
  2

  9
$UCSORG
 10
0.0
 20
0.0
 30
0.0
  9
$UCSXDIR
 10
1.0
 20
0.0
 30
0.0
  9
$UCSYDIR
 10
0.0
 20
1.0
 30
0.0
  9
$UCSORTHOREF
  2

  9
$UCSORTHOVIEW
 70
     0
  9
$UCSORGTOP
 10
0.0
 20
0.0
 30
0.0
  9
$UCSORGBOTTOM
 10
0.0
 20
0.0
 30
0.0
  9
$UCSORGLEFT
 10
0.0
 20
0.0
 30
0.0
  9
$UCSORGRIGHT
 10
0.0
 20
0.0
 30
0.0
  9
$UCSORGFRONT
 10
0.0
 20
0.0
 30
0.0
  9
$UCSORGBACK
 10
0.0
 20
0.0
 30
0.0
  9
$PUCSBASE
  2

  9
$PUCSNAME
  2

  9
$PUCSORG
 10
0.0
 20
0.0
 30
0.0
  9
$PUCSXDIR
 10
1.0
 20
0.0
 30
0.0
  9
$PUCSYDIR
 10
0.0
 20
1.0
 30
0.0
  9
$PUCSORTHOREF
  2

  9
$PUCSORTHOVIEW
 70
     0
  9
$PUCSORGTOP
 10
0.0
 20
0.0
 30
0.0
  9
$PUCSORGBOTTOM
 10
0.0
 20
0.0
 30
0.0
  9
$PUCSORGLEFT
 10
0.0
 20
0.0
 30
0.0
  9
$PUCSORGRIGHT
 10
0.0
 20
0.0
 30
0.0
  9
$PUCSORGFRONT
 10
0.0
 20
0.0
 30
0.0
  9
$PUCSORGBACK
 10
0.0
 20
0.0
 30
0.0
  9
$USERI1
 70
     0
  9
$USERI2
 70
     0
  9
$USERI3
 70
     0
  9
$USERI4
 70
     0
  9
$USERI5
 70
     0
  9
$USERR1
 40
0.0
  9
$USERR2
 40
0.0
  9
$USERR3
 40
0.0
  9
$USERR4
 40
0.0
  9
$USERR5
 40
0.0
  9
$WORLDVIEW
 70
     1
  9
$SHADEDGE
 70
     3
  9
$SHADEDIF
 70
    70
  9
$TILEMODE
 70
     1
  9
$MAXACTVP
 70
    16
  9
$PINSBASE
 10
0.0
 20
0.0
 30
0.0
  9
$PLIMCHECK
 70
     0
  9
$PEXTMIN
 10
1.000000000000000E+20
 20
1.000000000000000E+20
 30
1.000000000000000E+20
  9
$PEXTMAX
 10
-1.000000000000000E+20
 20
-1.000000000000000E+20
 30
-1.000000000000000E+20
  9
$PLIMMIN
 10
0.0
 20
0.0
  9
$PLIMMAX
 10
420.0
 20
297.0
  9
$UNITMODE
 70
     0
  9
$VISRETAIN
 70
     0
  9
$PLINEGEN
 70
     0
  9
$PSLTSCALE
 70
     0
  9
$TREEDEPTH
 70
  3020
  9
$CMLSTYLE
  2
STANDARD
  9
$CMLJUST
 70
     0
  9
$CMLSCALE
 40
1.0
  9
$PROXYGRAPHICS
 70
     1
  9
$MEASUREMENT
 70
     0
  9
$CELWEIGHT
370
    -1
  9
$ENDCAPS
280
     0
  9
$JOINSTYLE
280
     0
  9
$LWDISPLAY
290
     0
  9
$INSUNITS
 70
     0
  9
$HYPERLINKBASE
  1

  9
$STYLESHEET
  1
Zeich.ctb
  9
$XEDIT
290
     1
  9
$CEPSNTYPE
380
     0
  9
$PSTYLEMODE
290
     1
  9
$FINGERPRINTGUID
  2
{785BA218-F8F7-11D4-B795-0010B575C074}
  9
$VERSIONGUID
  2
{00889631-AEB6-4085-9626-68A5CB216825}
  9
$EXTNAMES
290
     1
  9
$PSVPSCALE
 40
0.0
  9
$OLESTARTUP
290
     0
  9
$SORTENTS
280
    96
  9
$INDEXCTL
280
     0
  9
$HIDETEXT
280
     0
  9
$XCLIPFRAME
290
     0
  9
$HALOGAP
280
     0
  9
$OBSCOLOR
 70
   257
  9
$OBSLTYPE
280
     0
  9
$INTERSECTIONDISPLAY
280
     0
  9
$INTERSECTIONCOLOR
 70
   257
  9
$DIMASSOC
280
     1
  9
$PROJECTNAME
  1

  0
ENDSEC
  0
SECTION
  2
CLASSES
  0
CLASS
  1
IDBUFFER
  2
AcDbIdBuffer
  3
ObjectDBX Classes
 90
        0
 91
        0
280
     0
281
     0
  0
CLASS
  1
DICTIONARYVAR
  2
AcDbDictionaryVar
  3
ObjectDBX Classes
 90
        0
 91
        7
280
     0
281
     0
  0
CLASS
  1
ACMESTATEMGR
  2
AcMeStateMgr
  3
AcMeServices
 90
     1024
 91
        1
280
     0
281
     0
  0
CLASS
  1
ACMESCOPE
  2
AcMeScope
  3
AcMeServices
 90
     1024
 91
        1
280
     0
281
     0
  0
CLASS
  1
ACMECOMMANDHISTORY
  2
AcMeCommandHistory
  3
AcMeServices
 90
     1024
 91
        1
280
     0
281
     0
  0
CLASS
  1
ACRFINSADJUSTERMGR
  2
AcRfInsAdjusterMgr
  3
AcMeServices
 90
     1024
 91
        1
280
     0
281
     0
  0
CLASS
  1
ACMEDRAWINGMAN
  2
AcMeDrawingMan
  3
AcMeServices
 90
     1024
 91
        1
280
     0
281
     0
  0
CLASS
  1
AMATTR
  2
AcMeAttribute
  3
AcMeServices
 90
     1024
 91
        0
280
     0
281
     0
  0
CLASS
  1
ACMEBOMCOLUMN
  2
AcMeBOMColumn
  3
AcMeServices
 90
     1024
 91
        0
280
     0
281
     0
  0
CLASS
  1
ACMEBOMCONF
  2
AcMeBOMConf
  3
AcMeServices
 90
     1024
 91
        0
280
     0
281
     0
  0
CLASS
  1
ACMEBOMTABLE
  2
AcMeBOMTable
  3
AcMeServices
 90
     1024
 91
        0
280
     0
281
     0
  0
CLASS
  1
ACMEBOMENTRY
  2
AcMeBOMEntry
  3
AcMeServices
 90
     1024
 91
        0
280
     0
281
     0
  0
CLASS
  1
ACMEVIEW
  2
AcMeView
  3
AcMeServices
 90
     1024
 91
        0
280
     0
281
     0
  0
CLASS
  1
ACIMSYSVARMAN
  2
AcImSysVarManager
  3
AcMeServices
 90
     1024
 91
        5
280
     0
281
     0
  0
CLASS
  1
ACIMINTSYSVAR
  2
AcImIntSysVar
  3
AcMeServices
 90
     1024
 91
       28
280
     0
281
     0
  0
CLASS
  1
ACIMSTRSYSVAR
  2
AcImStrSysVar
  3
AcMeServices
 90
     1024
 91
        5
280
     0
281
     0
  0
CLASS
  1
ACMSTANDARDJIS
  2
AcmStandardJIS
  3
"Amdt_StdImp|Product Description: AutoCAD Mechanical|Company: Autodesk, Inc."
 90
     1024
 91
        1
280
     0
281
     0
  0
CLASS
  1
ACMSTANDARDANSI
  2
AcmStandardANSI
  3
"Amdt_StdImp|Product Description: AutoCAD Mechanical|Company: Autodesk, Inc."
 90
     1024
 91
        1
280
     0
281
     0
  0
CLASS
  1
ACMSTANDARDBSI
  2
AcmStandardBSI
  3
"Amdt_StdImp|Product Description: AutoCAD Mechanical|Company: Autodesk, Inc."
 90
     1024
 91
        1
280
     0
281
     0
  0
CLASS
  1
ACMSTANDARDDIN
  2
AcmStandardDIN
  3
"Amdt_StdImp|Product Description: AutoCAD Mechanical|Company: Autodesk, Inc."
 90
     1024
 91
        1
280
     0
281
     0
  0
CLASS
  1
ACMSTANDARDISO
  2
AcmStandardISO
  3
"Amdt_StdImp|Product Description: AutoCAD Mechanical|Company: Autodesk, Inc."
 90
     1024
 91
        1
280
     0
281
     0
  0
CLASS
  1
LAYER_INDEX
  2
AcDbLayerIndex
  3
ObjectDBX Classes
 90
        0
 91
        0
280
     0
281
     0
  0
CLASS
  1
ACDBDICTIONARYWDFLT
  2
AcDbDictionaryWithDefault
  3
ObjectDBX Classes
 90
        0
 91
        1
280
     0
281
     0
  0
CLASS
  1
ACME_DOCUMENT
  2
AcMeDbDoc
  3
AcMeServices
 90
     1024
 91
        2
280
     0
281
     0
  0
CLASS
  1
AMGSETTINGSOBJ
  2
AmgSettingsObj
  3
"AcadM|Product Description: AutoCAD Mechanical|Company: Autodesk, Inc."
 90
     1024
 91
        2
280
     0
281
     0
  0
CLASS
  1
ACIMREALSYSVAR
  2
AcImRealSysVar
  3
AcMeServices
 90
     1024
 91
        3
280
     0
281
     0
  0
CLASS
  1
ACDBENTITYCACHE
  2
AcMeEntityCache
  3
AcMeServices
 90
     1024
 91
        1
280
     0
281
     0
  0
CLASS
  1
GSMANAGER
  2
AcMeGSManager
  3
AcMeServices
 90
     1024
 91
        1
280
     0
281
     0
  0
CLASS
  1
AMDTINTERNALREACTOR
  2
AmdtInternalReactor
  3
AcMeServices
 90
     1024
 91
        2
280
     0
281
     0
  0
CLASS
  1
ACME_DATABASE
  2
AcMeDbDatabase
  3
AcMeServices
 90
     1024
 91
        1
280
     0
281
     0
  0
CLASS
  1
ACMDATADICTIONARY
  2
AcmDataDictionary
  3
"AcmSymBB|Product Description: AutoCAD Mechanical|Company: Autodesk, Inc."
 90
     1024
 91
        1
280
     0
281
     0
  0
CLASS
  1
ACMDATAENTRYBLOCK
  2
AcmDataEntryBlock
  3
AcmSymBB|Product Description: AutoCAD Mechanical|Company: Autodesk, Inc.
 90
     1024
 91
        1
280
     0
281
     0
  0
CLASS
  1
ACMSURFSTANDARDJIS
  2
AcmSurfTextStdJIS
  3
"Amdt_StdImp|Product Description: AutoCAD Mechanical|Company: Autodesk, Inc."
 90
     1024
 91
        2
280
     0
281
     0
  0
CLASS
  1
ACMFCFSTANDARDJIS
  2
AcmFCFStdJIS
  3
"Amdt_StdImp|Product Description: AutoCAD Mechanical|Company: Autodesk, Inc."
 90
     1024
 91
        2
280
     0
281
     0
  0
CLASS
  1
ACMWELDSTANDARDJIS
  2
AcmWeldingStdJIS
  3
"Amdt_StdImp|Product Description: AutoCAD Mechanical|Company: Autodesk, Inc."
 90
     1024
 91
        2
280
     0
281
     0
  0
CLASS
  1
ACMIDSTANDARDJIS
  2
AcmIdStdJIS
  3
"Amdt_StdImp|Product Description: AutoCAD Mechanical|Company: Autodesk, Inc."
 90
     1024
 91
        2
280
     0
281
     0
  0
CLASS
  1
ACMDATUMSTANDARDJIS
  2
AcmDatumStdJIS
  3
"Amdt_StdImp|Product Description: AutoCAD Mechanical|Company: Autodesk, Inc."
 90
     1024
 91
        2
280
     0
281
     0
  0
CLASS
  1
ACMBOMSTANDARDJIS
  2
AcmBOMStdJIS
  3
"Amdt_StdImp|Product Description: AutoCAD Mechanical|Company: Autodesk, Inc."
 90
     1024
 91
        2
280
     0
281
     0
  0
CLASS
  1
AMGOBJPROPCFG
  2
AmgObjPropCfg
  3
"AmgLay|Product Description: AutoCAD Mechanical|Company: Autodesk, Inc."
 90
     1025
 91
        1
280
     0
281
     0
  0
CLASS
  1
ACMSURFSTANDARDANSI
  2
AcmSurfTextStdANSI
  3
"Amdt_StdImp|Product Description: AutoCAD Mechanical|Company: Autodesk, Inc."
 90
     1024
 91
        2
280
     0
281
     0
  0
CLASS
  1
ACMFCFSTANDARDANSI
  2
AcmFCFStdANSI
  3
"Amdt_StdImp|Product Description: AutoCAD Mechanical|Company: Autodesk, Inc."
 90
     1024
 91
        2
280
     0
281
     0
  0
CLASS
  1
ACMWELDSTANDARDANSI
  2
AcmWeldingStdANSI
  3
"Amdt_StdImp|Product Description: AutoCAD Mechanical|Company: Autodesk, Inc."
 90
     1024
 91
        2
280
     0
281
     0
  0
CLASS
  1
ACMIDSTANDARDANSI
  2
AcmIdStdANSI
  3
"Amdt_StdImp|Product Description: AutoCAD Mechanical|Company: Autodesk, Inc."
 90
     1024
 91
        2
280
     0
281
     0
  0
CLASS
  1
ACMDATUMSTANDARDANSI
  2
AcmDatumStdANSI
  3
"Amdt_StdImp|Product Description: AutoCAD Mechanical|Company: Autodesk, Inc."
 90
     1024
 91
        2
280
     0
281
     0
  0
CLASS
  1
ACMBOMSTANDARDANSI
  2
AcmBOMStdANSI
  3
"Amdt_StdImp|Product Description: AutoCAD Mechanical|Company: Autodesk, Inc."
 90
     1024
 91
        2
280
     0
281
     0
  0
CLASS
  1
ACMSURFSTANDARDBSI
  2
AcmSurfTextStdBSI
  3
"Amdt_StdImp|Product Description: AutoCAD Mechanical|Company: Autodesk, Inc."
 90
     1024
 91
        2
280
     0
281
     0
  0
CLASS
  1
ACMFCFSTANDARDBSI
  2
AcmFCFStdBSI
  3
"Amdt_StdImp|Product Description: AutoCAD Mechanical|Company: Autodesk, Inc."
 90
     1024
 91
        2
280
     0
281
     0
  0
CLASS
  1
ACMWELDSTANDARDBSI
  2
AcmWeldingStdBSI
  3
"Amdt_StdImp|Product Description: AutoCAD Mechanical|Company: Autodesk, Inc."
 90
     1024
 91
        2
280
     0
281
     0
  0
CLASS
  1
ACMIDSTANDARDBSI
  2
AcmIdStdBSI
  3
"Amdt_StdImp|Product Description: AutoCAD Mechanical|Company: Autodesk, Inc."
 90
     1024
 91
        2
280
     0
281
     0
  0
CLASS
  1
ACMDATUMSTANDARDBSI
  2
AcmDatumStdBSI
  3
"Amdt_StdImp|Product Description: AutoCAD Mechanical|Company: Autodesk, Inc."
 90
     1024
 91
        2
280
     0
281
     0
  0
CLASS
  1
ACMBOMSTANDARDBSI
  2
AcmBOMStdBSI
  3
"Amdt_StdImp|Product Description: AutoCAD Mechanical|Company: Autodesk, Inc."
 90
     1024
 91
        2
280
     0
281
     0
  0
CLASS
  1
AMDTEDGESTANDARDDIN
  2
AmdtEdgeStdDIN
  3
"Amdt_StdImp|Product Description: AutoCAD Mechanical|Company: Autodesk, Inc."
 90
     1024
 91
        2
280
     0
281
     0
  0
CLASS
  1
ACMSURFSTANDARDDIN
  2
AcmSurfTextStdDIN
  3
"Amdt_StdImp|Product Description: AutoCAD Mechanical|Company: Autodesk, Inc."
 90
     1024
 91
        2
280
     0
281
     0
  0
CLASS
  1
ACMFCFSTANDARDDIN
  2
AcmFCFStdDIN
  3
"Amdt_StdImp|Product Description: AutoCAD Mechanical|Company: Autodesk, Inc."
 90
     1024
 91
        2
280
     0
281
     0
  0
CLASS
  1
ACMWELDSTANDARDDIN
  2
AcmWeldingStdDIN
  3
"Amdt_StdImp|Product Description: AutoCAD Mechanical|Company: Autodesk, Inc."
 90
     1024
 91
        2
280
     0
281
     0
  0
CLASS
  1
ACMIDSTANDARDDIN
  2
AcmIdStdDIN
  3
"Amdt_StdImp|Product Description: AutoCAD Mechanical|Company: Autodesk, Inc."
 90
     1024
 91
        2
280
     0
281
     0
  0
CLASS
  1
ACMDATUMSTANDARDDIN
  2
AcmDatumStdDIN
  3
"Amdt_StdImp|Product Description: AutoCAD Mechanical|Company: Autodesk, Inc."
 90
     1024
 91
        2
280
     0
281
     0
  0
CLASS
  1
ACMBOMSTANDARDDIN
  2
AcmBOMStdDIN
  3
"Amdt_StdImp|Product Description: AutoCAD Mechanical|Company: Autodesk, Inc."
 90
     1024
 91
        2
280
     0
281
     0
  0
CLASS
  1
AMDTEDGESTANDARDISO
  2
AmdtEdgeStdISO
  3
"Amdt_StdImp|Product Description: AutoCAD Mechanical|Company: Autodesk, Inc."
 90
     1024
 91
        2
280
     0
281
     0
  0
CLASS
  1
ACMSURFSTANDARDISO
  2
AcmSurfTextStdISO
  3
"Amdt_StdImp|Product Description: AutoCAD Mechanical|Company: Autodesk, Inc."
 90
     1024
 91
        2
280
     0
281
     0
  0
CLASS
  1
ACMFCFSTANDARDISO
  2
AcmFCFStdISO
  3
"Amdt_StdImp|Product Description: AutoCAD Mechanical|Company: Autodesk, Inc."
 90
     1024
 91
        2
280
     0
281
     0
  0
CLASS
  1
ACMWELDSTANDARDISO
  2
AcmWeldingStdISO
  3
"Amdt_StdImp|Product Description: AutoCAD Mechanical|Company: Autodesk, Inc."
 90
     1024
 91
        2
280
     0
281
     0
  0
CLASS
  1
ACMIDSTANDARDISO
  2
AcmIdStdISO
  3
"Amdt_StdImp|Product Description: AutoCAD Mechanical|Company: Autodesk, Inc."
 90
     1024
 91
        2
280
     0
281
     0
  0
CLASS
  1
ACMDATUMSTANDARDISO
  2
AcmDatumStdISO
  3
"Amdt_StdImp|Product Description: AutoCAD Mechanical|Company: Autodesk, Inc."
 90
     1024
 91
        2
280
     0
281
     0
  0
CLASS
  1
ACMBOMSTANDARDISO
  2
AcmBOMStdISO
  3
"Amdt_StdImp|Product Description: AutoCAD Mechanical|Company: Autodesk, Inc."
 90
     1024
 91
        2
280
     0
281
     0
  0
CLASS
  1
ACAMGFILTERDAT
  2
AcAmgFilterDat
  3
"AcadM|Product Description: AutoCAD Mechanical|Company: Autodesk, Inc."
 90
     1024
 91
        5
280
     0
281
     0
  0
CLASS
  1
ACMDIMBREAKPERSREACTOR
  2
AcmDimBreakPersReactor
  3
AmgDim|Product Description: AutoCAD Mechanical|Company: Autodesk, Inc.
 90
     4095
 91
        2
280
     0
281
     0
  0
CLASS
  1
AMDTNOTE
  2
AmdtNote
  3
"AcmSymBB|Product Description: AutoCAD Mechanical|Company: Autodesk, Inc."
 90
     4095
 91
        0
280
     0
281
     1
  0
CLASS
  1
MATERIAL
  2
AcDbMaterial
  3
ObjectDBX Classes
 90
     1153
 91
        3
280
     0
281
     0
  0
CLASS
  1
VISUALSTYLE
  2
AcDbVisualStyle
  3
ObjectDBX Classes
 90
     4095
 91
       16
280
     0
281
     0
  0
CLASS
  1
TABLESTYLE
  2
AcDbTableStyle
  3
ObjectDBX Classes
 90
     4095
 91
        1
280
     0
281
     0
  0
CLASS
  1
SCALE
  2
AcDbScale
  3
ObjectDBX Classes
 90
     1153
 91
       33
280
     0
281
     0
  0
CLASS
  1
MLEADERSTYLE
  2
AcDbMLeaderStyle
  3
ACDB_MLEADERSTYLE_CLASS
 90
     4095
 91
        1
280
     0
281
     0
  0
CLASS
  1
ACGREFMASTER
  2
AcGrefMaster
  3
AcAttribServices
 90
     1024
 91
        1
280
     0
281
     0
  0
CLASS
  1
AM_DRAWING_MGR
  2
AcDmDwgMgr
  3
AcMechDwgViewMgmt
 90
     1024
 91
        1
280
     0
281
     0
  0
CLASS
  1
AM_DWG_DOCUMENT
  2
AcDmDwgDocument
  3
AcMechDwgViewMgmt
 90
     1024
 91
        1
280
     0
281
     0
  0
CLASS
  1
AM_DWG_SHEET
  2
AcDmSheet
  3
AcMechDwgViewMgmt
 90
     1024
 91
        1
280
     0
281
     0
  0
CLASS
  1
AM_VIEWDIMPARMAP
  2
AcDmViewDimParMap
  3
AcMechDwgViewMgmt
 90
     1024
 91
        1
280
     0
281
     0
  0
CLASS
  1
AM_DWGMGR_NAME
  2
AcDmDwgMgrName
  3
AcMechDwgViewMgmt
 90
     1024
 91
        1
280
     0
281
     0
  0
CLASS
  1
ACGREFACADMASTER
  2
AcGrefacadMaster
  3
AcGrefServices
 90
     1024
 91
        1
280
     0
281
     0
  0
CLASS
  1
AMDTMENUSTATEMGR
  2
AmdtMenuStateMgr
  3
McadcomServices
 90
     1024
 91
        1
280
     0
281
     0
  0
CLASS
  1
AMDTMCOMMENUSTATE
  2
AmdtMcomMenuState
  3
McadcomServices
 90
     1024
 91
        1
280
     0
281
     0
  0
CLASS
  1
AMIMASTER
  2
AmiMaster
  3
AmiServices
 90
     1024
 91
        1
280
     0
281
     0
  0
CLASS
  1
MAPIAMMOUDLE
  2
MApiAmModule
  3
MApiAmServices
 90
     1024
 91
        1
280
     0
281
     0
  0
CLASS
  1
AMDTADMENUSTATE
  2
AmdtAdMenuState
  3
DesignerServices
 90
     1024
 91
        1
280
     0
281
     0
  0
CLASS
  1
ADAPPL
  2
AcAdAppl
  3
DesignerServices
 90
     1024
 91
        1
280
     0
281
     0
  0
CLASS
  1
DEPMGR
  2
AcAdDepMgr
  3
DesignerServices
 90
     1024
 91
        1
280
     0
281
     0
  0
CLASS
  1
PARAMMGR
  2
AcAdParamMgr
  3
DesignerServices
 90
     1024
 91
        1
280
     0
281
     0
  0
CLASS
  1
PARAMSCOPE
  2
AcAdParamScope
  3
DesignerServices
 90
     1024
 91
        1
280
     0
281
     0
  0
CLASS
  1
NAMEDAPPL
  2
AcAdNamedAppl
  3
DesignerServices
 90
     1024
 91
        1
280
     0
281
     0
  0
CLASS
  1
AMDTDMMENUSTATE
  2
AmdtDmMenuState
  3
AcMechDwgViewMgmt
 90
     1024
 91
        1
280
     0
281
     0
  0
CLASS
  1
AMDTAMMENUSTATE
  2
AmdtAmMenuState
  3
DesignerAssemblies
 90
     1024
 91
        1
280
     0
281
     0
  0
CLASS
  1
ACAMPROJECT
  2
AcAmProject
  3
DesignerAssemblies
 90
     1024
 91
        1
280
     0
281
     0
  0
CLASS
  1
ACAMGRCOMPDEF
  2
AcAmGrCompDef
  3
DesignerAssemblies
 90
     1024
 91
        1
280
     0
281
     0
  0
CLASS
  1
ACCMCONTEXT
  2
AcCmContext
  3
DesignerAssemblies
 90
     1024
 91
        1
280
     0
281
     0
  0
CLASS
  1
ACAMCOMPDEF
  2
AcAmCompDef
  3
DesignerAssemblies
 90
     1024
 91
        1
280
     0
281
     0
  0
CLASS
  1
ACAMCOMPDEFMGR
  2
AcAmCompDefMgr
  3
DesignerAssemblies
 90
     1024
 91
        1
280
     0
281
     0
  0
CLASS
  1
AMCONTEXTMGR
  2
AcAmContextMgr
  3
DesignerAssemblies
 90
     1024
 91
        1
280
     0
281
     0
  0
CLASS
  1
ACAMCONTEXTMODELER
  2
AcAmContextModeler
  3
DesignerAssemblies
 90
     1024
 91
        1
280
     0
281
     0
  0
CLASS
  1
ACRFATTGENMGR
  2
AcRfAttGeneralMgr
  3
AcAttribServices
 90
     1024
 91
        1
280
     0
281
     0
  0
CLASS
  1
ACRFOBJATTMGR
  2
AcRfObjAttGroupMgr
  3
AcAttribServices
 90
     1024
 91
        1
280
     0
281
     0
  0
CLASS
  1
ACRFMCADAPIATTHOLDER
  2
AcRfMCADAPIAttHolder
  3
AcAttribServices
 90
     1024
 91
        1
280
     0
281
     0
  0
CLASS
  1
AMDTSYSATTR
  2
AmdtSystemAttribute
  3
AcAttribServices
 90
     1024
 91
        1
280
     0
281
     0
  0
CLASS
  1
ACAMGTITLESTD
  2
AcAmgTitleStd
  3
"AmgTitle|Product Description: AutoCAD Mechanical|Company: Autodesk, Inc."
 90
     4095
 91
        5
280
     0
281
     0
  0
CLASS
  1
ACMDETAILSTANDARDJIS
  2
AmdtDetailSymStdJIS
  3
"Amdt_StdImp|Product Description: AutoCAD Mechanical|Company: Autodesk, Inc."
 90
     1024
 91
        1
280
     0
281
     0
  0
CLASS
  1
ACMSECTIONSTANDARDJIS
  2
AmdtSectionSymStdJIS
  3
"Amdt_StdImp|Product Description: AutoCAD Mechanical|Company: Autodesk, Inc."
 90
     1024
 91
        1
280
     0
281
     0
  0
CLASS
  1
ACMCENTERLINESTANDARDJIS
  2
AmdtCenterLineStdJIS
  3
"Amdt_StdImp|Product Description: AutoCAD Mechanical|Company: Autodesk, Inc."
 90
     1024
 91
        1
280
     0
281
     0
  0
CLASS
  1
ACMTHREADLINESTANDARDJIS
  2
AmdtThreadLineStdJIS
  3
"Amdt_StdImp|Product Description: AutoCAD Mechanical|Company: Autodesk, Inc."
 90
     1024
 91
        1
280
     0
281
     0
  0
CLASS
  1
ACMNOTESTANDARDJIS
  2
AmdtNoteStdJIS
  3
"Amdt_StdImp|Product Description: AutoCAD Mechanical|Company: Autodesk, Inc."
 90
     1024
 91
        1
280
     0
281
     0
  0
CLASS
  1
AMDTNOTETEMPLATEDB
  2
AmdtNoteTemplateDB
  3
AcmSymBB|Product Description: AutoCAD Mechanical|Company: Autodesk, Inc.
 90
     1024
 91
       30
280
     0
281
     0
  0
CLASS
  1
ACMTAPERSTANDARDJIS
  2
AcmTaperStdJIS
  3
"Amdt_StdImp|Product Description: AutoCAD Mechanical|Company: Autodesk, Inc."
 90
     1024
 91
        1
280
     0
281
     0
  0
CLASS
  1
ACMANOOTATIONVIEWSTANDARDJIS
  2
AmdtAnViewStdJIS
  3
"Amdt_StdImp|Product Description: AutoCAD Mechanical|Company: Autodesk, Inc."
 90
     1024
 91
        1
280
     0
281
     0
  0
CLASS
  1
ACMDETAILSTANDARDANSI
  2
AmdtDetailSymStdANSI
  3
"Amdt_StdImp|Product Description: AutoCAD Mechanical|Company: Autodesk, Inc."
 90
     1024
 91
        1
280
     0
281
     0
  0
CLASS
  1
ACMSECTIONSTANDARDANSI
  2
AmdtSectionSymStdANSI
  3
"Amdt_StdImp|Product Description: AutoCAD Mechanical|Company: Autodesk, Inc."
 90
     1024
 91
        1
280
     0
281
     0
  0
CLASS
  1
ACMCENTERLINESTANDARDANSI
  2
AmdtCenterLineStdANSI
  3
"Amdt_StdImp|Product Description: AutoCAD Mechanical|Company: Autodesk, Inc."
 90
     1024
 91
        1
280
     0
281
     0
  0
CLASS
  1
ACMTHREADLINESTANDARDANSI
  2
AmdtThreadLineStdANSI
  3
"Amdt_StdImp|Product Description: AutoCAD Mechanical|Company: Autodesk, Inc."
 90
     1024
 91
        1
280
     0
281
     0
  0
CLASS
  1
ACMNOTESTANDARDANSI
  2
AmdtNoteStdANSI
  3
"Amdt_StdImp|Product Description: AutoCAD Mechanical|Company: Autodesk, Inc."
 90
     1024
 91
        1
280
     0
281
     0
  0
CLASS
  1
ACMTAPERSTANDARDANSI
  2
AcmTaperStdANSI
  3
"Amdt_StdImp|Product Description: AutoCAD Mechanical|Company: Autodesk, Inc."
 90
     1024
 91
        1
280
     0
281
     0
  0
CLASS
  1
ACMANOOTATIONVIEWSTANDARDANSI
  2
AmdtAnViewStdANSI
  3
"Amdt_StdImp|Product Description: AutoCAD Mechanical|Company: Autodesk, Inc."
 90
     1024
 91
        1
280
     0
281
     0
  0
CLASS
  1
ACMDETAILSTANDARDBSI
  2
AmdtDetailSymStdBSI
  3
"Amdt_StdImp|Product Description: AutoCAD Mechanical|Company: Autodesk, Inc."
 90
     1024
 91
        1
280
     0
281
     0
  0
CLASS
  1
ACMSECTIONSTANDARDBSI2001
  2
AmdtSectionSymStdBSI2001
  3
"Amdt_StdImp|Product Description: AutoCAD Mechanical|Company: Autodesk, Inc."
 90
     1024
 91
        1
280
     0
281
     0
  0
CLASS
  1
ACMCENTERLINESTANDARDBSI
  2
AmdtCenterLineStdBSI
  3
"Amdt_StdImp|Product Description: AutoCAD Mechanical|Company: Autodesk, Inc."
 90
     1024
 91
        1
280
     0
281
     0
  0
CLASS
  1
ACMTHREADLINESTANDARDBSI
  2
AmdtThreadLineStdBSI
  3
"Amdt_StdImp|Product Description: AutoCAD Mechanical|Company: Autodesk, Inc."
 90
     1024
 91
        1
280
     0
281
     0
  0
CLASS
  1
ACMNOTESTANDARDBSI
  2
AmdtNoteStdBSI
  3
"Amdt_StdImp|Product Description: AutoCAD Mechanical|Company: Autodesk, Inc."
 90
     1024
 91
        1
280
     0
281
     0
  0
CLASS
  1
ACMTAPERSTANDARDBSI
  2
AcmTaperStdBSI
  3
"Amdt_StdImp|Product Description: AutoCAD Mechanical|Company: Autodesk, Inc."
 90
     1024
 91
        1
280
     0
281
     0
  0
CLASS
  1
ACMANOOTATIONVIEWSTANDARDBSI
  2
AmdtAnViewStdBSI
  3
"Amdt_StdImp|Product Description: AutoCAD Mechanical|Company: Autodesk, Inc."
 90
     1024
 91
        1
280
     0
281
     0
  0
CLASS
  1
ACMDETAILSTANDARDDIN
  2
AmdtDetailSymStdDIN
  3
"Amdt_StdImp|Product Description: AutoCAD Mechanical|Company: Autodesk, Inc."
 90
     1024
 91
        1
280
     0
281
     0
  0
CLASS
  1
ACMSECTIONSTANDARDDIN
  2
AmdtSectionSymStdDIN
  3
"Amdt_StdImp|Product Description: AutoCAD Mechanical|Company: Autodesk, Inc."
 90
     1024
 91
        1
280
     0
281
     0
  0
CLASS
  1
ACMCENTERLINESTANDARDDIN
  2
AmdtCenterLineStdDIN
  3
"Amdt_StdImp|Product Description: AutoCAD Mechanical|Company: Autodesk, Inc."
 90
     1024
 91
        1
280
     0
281
     0
  0
CLASS
  1
ACMTHREADLINESTANDARDDIN
  2
AmdtThreadLineStdDIN
  3
"Amdt_StdImp|Product Description: AutoCAD Mechanical|Company: Autodesk, Inc."
 90
     1024
 91
        1
280
     0
281
     0
  0
CLASS
  1
ACMNOTESTANDARDDIN
  2
AmdtNoteStdDIN
  3
"Amdt_StdImp|Product Description: AutoCAD Mechanical|Company: Autodesk, Inc."
 90
     1024
 91
        1
280
     0
281
     0
  0
CLASS
  1
ACMTAPERSTANDARDDIN
  2
AcmTaperStdDIN
  3
"Amdt_StdImp|Product Description: AutoCAD Mechanical|Company: Autodesk, Inc."
 90
     1024
 91
        1
280
     0
281
     0
  0
CLASS
  1
ACMANOOTATIONVIEWSTANDARDDIN
  2
AmdtAnViewStdDIN
  3
"Amdt_StdImp|Product Description: AutoCAD Mechanical|Company: Autodesk, Inc."
 90
     1024
 91
        1
280
     0
281
     0
  0
CLASS
  1
ACMDETAILSTANDARDISO
  2
AmdtDetailSymStdISO
  3
"Amdt_StdImp|Product Description: AutoCAD Mechanical|Company: Autodesk, Inc."
 90
     1024
 91
        1
280
     0
281
     0
  0
CLASS
  1
ACMSECTIONSTANDARDISO2001
  2
AmdtSectionSymStdISO2001
  3
"Amdt_StdImp|Product Description: AutoCAD Mechanical|Company: Autodesk, Inc."
 90
     1024
 91
        1
280
     0
281
     0
  0
CLASS
  1
ACMCENTERLINESTANDARDISO
  2
AmdtCenterLineStdISO
  3
"Amdt_StdImp|Product Description: AutoCAD Mechanical|Company: Autodesk, Inc."
 90
     1024
 91
        1
280
     0
281
     0
  0
CLASS
  1
ACMTHREADLINESTANDARDISO
  2
AmdtThreadLineStdISO
  3
"Amdt_StdImp|Product Description: AutoCAD Mechanical|Company: Autodesk, Inc."
 90
     1024
 91
        1
280
     0
281
     0
  0
CLASS
  1
ACMNOTESTANDARDISO
  2
AmdtNoteStdISO
  3
"Amdt_StdImp|Product Description: AutoCAD Mechanical|Company: Autodesk, Inc."
 90
     1024
 91
        1
280
     0
281
     0
  0
CLASS
  1
ACMTAPERSTANDARDISO
  2
AcmTaperStdISO
  3
"Amdt_StdImp|Product Description: AutoCAD Mechanical|Company: Autodesk, Inc."
 90
     1024
 91
        1
280
     0
281
     0
  0
CLASS
  1
ACMANOOTATIONVIEWSTANDARDISO
  2
AmdtAnViewStdISO
  3
"Amdt_StdImp|Product Description: AutoCAD Mechanical|Company: Autodesk, Inc."
 90
     1024
 91
        1
280
     0
281
     0
  0
CLASS
  1
ACAMGLAYSTD
  2
AcAmgLayStd
  3
"AmgLay|Product Description: AutoCAD Mechanical|Company: Autodesk, Inc."
 90
     1024
 91
        5
280
     0
281
     0
  0
CLASS
  1
ACAMGDIMSTD
  2
AcAmgDimStd
  3
"AmgDim|Product Description: AutoCAD Mechanical|Company: Autodesk, Inc."
 90
     1024
 91
        5
280
     0
281
     0
  0
CLASS
  1
ACAMGHOLECHARTSTDANSI
  2
AcAmgHoleChartStdANSI
  3
AmgDim|Product Description: AutoCAD Mechanical|Company: Autodesk, Inc.
 90
     1024
 91
        1
280
     0
281
     0
  0
CLASS
  1
ACAMGHOLECHARTSTDBSI
  2
AcAmgHoleChartStdBSI
  3
AmgDim|Product Description: AutoCAD Mechanical|Company: Autodesk, Inc.
 90
     1024
 91
        1
280
     0
281
     0
  0
CLASS
  1
ACAMGHOLECHARTSTDDIN
  2
AcAmgHoleChartStdDIN
  3
AmgDim|Product Description: AutoCAD Mechanical|Company: Autodesk, Inc.
 90
     1024
 91
        1
280
     0
281
     0
  0
CLASS
  1
ACAMGHOLECHARTSTDISO
  2
AcAmgHoleChartStdISO
  3
AmgDim|Product Description: AutoCAD Mechanical|Company: Autodesk, Inc.
 90
     1024
 91
        1
280
     0
281
     0
  0
CLASS
  1
ACAMGHOLECHARTSTDJIS
  2
AcAmgHoleChartStdJIS
  3
AmgDim|Product Description: AutoCAD Mechanical|Company: Autodesk, Inc.
 90
     1024
 91
        1
280
     0
281
     0
  0
CLASS
  1
CATALOGSTATE
  2
AcAmCatalogState
  3
DesignerAssemblies
 90
     1024
 91
        1
280
     0
281
     0
  0
CLASS
  1
ACAMGRCOMPDEFSET
  2
AcAmGrCompDefSet
  3
DesignerAssemblies
 90
     1024
 91
        1
280
     0
281
     0
  0
CLASS
  1
AMDTBROWSERDBTAB
  2
AmdtBrowserDbTab
  3
McadcomServices
 90
     1024
 91
        1
280
     0
281
     0
  0
CLASS
  1
CBROWSERAPPOBJECT
  2
CBrowserAppObject
  3
McadcomServices
 90
     1024
 91
        3
280
     0
281
     0
  0
CLASS
  1
DM_PLACEHOLDER
  2
AcDmSelsetPlaceholder
  3
AcMechDwgViewMgmt
 90
     1024
 91
        1
280
     0
281
     0
  0
CLASS
  1
PLOTSETTINGS
  2
AcDbPlotSettings
  3
ObjectDBX Classes
 90
        0
 91
        1
280
     0
281
     0
  0
CLASS
  1
CAMSSTRUCTBTNSTATE
  2
StructBtnState
  3
DesignerAssemblies
 90
     1024
 91
        1
280
     0
281
     0
  0
CLASS
  1
CELLSTYLEMAP
  2
AcDbCellStyleMap
  3
ObjectDBX Classes
 90
     1152
 91
        3
280
     0
281
     0
  0
ENDSEC
  0
SECTION
  2
TABLES
  0
TABLE
  2
VPORT
  5
12
330
0
100
AcDbSymbolTable
 70
     1
  0
VPORT
  5
44ED
330
12
100
AcDbSymbolTableRecord
100
AcDbViewportTableRecord
  2
*Active
 70
     0
 10
0.0
 20
0.0
 11
1.0
 21
1.0
 12
632.84757019726
 22
260.8132314792551
 13
0.0
 23
0.0
 14
10.0
 24
10.0
 15
40.0
 25
40.0
 16
0.0
 26
0.0
 36
1.0
 17
0.0
 27
0.0
 37
0.0
 40
178.5137921621931
 41
1.555897435897435
 42
50.0
 43
0.0
 44
0.0
 50
0.0
 51
0.0
 71
     0
 72
   100
 73
     1
 74
     0
 75
     0
 76
     0
 77
     0
 78
     0
281
     0
 65
     1
110
0.0
120
0.0
130
0.0
111
1.0
121
0.0
131
0.0
112
0.0
122
1.0
132
0.0
 79
     0
146
0.0
  0
ENDTAB
  0
TABLE
  2
LTYPE
  5
D
330
0
100
AcDbSymbolTable
 70
    21
  0
LTYPE
  5
E
330
D
100
AcDbSymbolTableRecord
100
AcDbLinetypeTableRecord
  2
BYBLOCK
 70
     0
  3

 72
    65
 73
     0
 40
0.0
  0
LTYPE
  5
F
330
D
100
AcDbSymbolTableRecord
100
AcDbLinetypeTableRecord
  2
BYLAYER
 70
     0
  3

 72
    65
 73
     0
 40
0.0
  0
LTYPE
  5
5
330
D
100
AcDbSymbolTableRecord
100
AcDbLinetypeTableRecord
  2
CONTINUOUS
 70
     0
  3
Solid line
 72
    65
 73
     0
 40
0.0
  0
LTYPE
  5
20
330
D
100
AcDbSymbolTableRecord
100
AcDbLinetypeTableRecord
  2
MITTE
 70
     0
  3
____ _ ____ _ ____ _ ____ _ ____ _ ____ _ ____ 
 72
    65
 73
     4
 40
2.0
 49
1.25
 74
     0
 49
-0.25
 74
     0
 49
0.25
 74
     0
 49
-0.25
 74
     0
  0
LTYPE
  5
129
330
D
100
AcDbSymbolTableRecord
100
AcDbLinetypeTableRecord
  2
STRICHLINIE
 70
     0
  3
Strichlinie __ __ __ __ __ __ __ __ __ __ __ __
 72
    65
 73
     2
 40
0.75
 49
0.5
 74
     0
 49
-0.25
 74
     0
  0
LTYPE
  5
26C
330
D
100
AcDbSymbolTableRecord
100
AcDbLinetypeTableRecord
  2
ACJISTGB
 70
     0
  3
__ . . __ . .
 72
    65
 73
     6
 40
9.0
 49
4.0
 74
     0
 49
-1.0
 74
     0
 49
1.0
 74
     0
 49
-1.0
 74
     0
 49
1.0
 74
     0
 49
-1.0
 74
     0
  0
LTYPE
  5
26D
330
D
100
AcDbSymbolTableRecord
100
AcDbLinetypeTableRecord
  2
ACJISTGL
 70
     0
  3
_ _ _ _ _
 72
    65
 73
     2
 40
3.0
 49
2.0
 74
     0
 49
-1.0
 74
     0
  0
LTYPE
  5
270
330
D
100
AcDbSymbolTableRecord
100
AcDbLinetypeTableRecord
  2
ACANSTGB
 70
     0
  3
__ . . __ . .
 72
    65
 73
     6
 40
0.35433070866
 49
0.15748031496
 74
     0
 49
-0.03937007874
 74
     0
 49
0.03937007874
 74
     0
 49
-0.03937007874
 74
     0
 49
0.03937007874
 74
     0
 49
-0.03937007874
 74
     0
  0
LTYPE
  5
271
330
D
100
AcDbSymbolTableRecord
100
AcDbLinetypeTableRecord
  2
ACANSTGL
 70
     0
  3
_ _ _ _ _
 72
    65
 73
     2
 40
0.11811023622
 49
0.07874015748
 74
     0
 49
-0.03937007874
 74
     0
  0
LTYPE
  5
274
330
D
100
AcDbSymbolTableRecord
100
AcDbLinetypeTableRecord
  2
ACBSIWELD
 70
     0
  3
_ _ _ _ _
 72
    65
 73
     2
 40
2.0
 49
2.0
 74
     0
 49
-1.0
 74
     0
  0
LTYPE
  5
275
330
D
100
AcDbSymbolTableRecord
100
AcDbLinetypeTableRecord
  2
ACBSITGB
 70
     0
  3
__ . . __ . .
 72
    65
 73
     6
 40
9.0
 49
4.0
 74
     0
 49
-1.0
 74
     0
 49
1.0
 74
     0
 49
-1.0
 74
     0
 49
1.0
 74
     0
 49
-1.0
 74
     0
  0
LTYPE
  5
276
330
D
100
AcDbSymbolTableRecord
100
AcDbLinetypeTableRecord
  2
ACBSITGL
 70
     0
  3
_ _ _ _ _
 72
    65
 73
     2
 40
3.0
 49
2.0
 74
     0
 49
-1.0
 74
     0
  0
LTYPE
  5
279
330
D
100
AcDbSymbolTableRecord
100
AcDbLinetypeTableRecord
  2
ACDINWELD
 70
     0
  3
_ _ _ _ _
 72
    65
 73
     2
 40
2.0
 49
2.0
 74
     0
 49
-1.0
 74
     0
  0
LTYPE
  5
27A
330
D
100
AcDbSymbolTableRecord
100
AcDbLinetypeTableRecord
  2
ACDINTGB
 70
     0
  3
__ . . __ . .
 72
    65
 73
     6
 40
9.0
 49
4.0
 74
     0
 49
-1.0
 74
     0
 49
1.0
 74
     0
 49
-1.0
 74
     0
 49
1.0
 74
     0
 49
-1.0
 74
     0
  0
LTYPE
  5
27B
330
D
100
AcDbSymbolTableRecord
100
AcDbLinetypeTableRecord
  2
ACDINTGL
 70
     0
  3
_ _ _ _ _
 72
    65
 73
     2
 40
3.0
 49
2.0
 74
     0
 49
-1.0
 74
     0
  0
LTYPE
  5
27E
330
D
100
AcDbSymbolTableRecord
100
AcDbLinetypeTableRecord
  2
ACISOWELD
 70
     0
  3
_ _ _ _ _
 72
    65
 73
     2
 40
2.0
 49
2.0
 74
     0
 49
-1.0
 74
     0
  0
LTYPE
  5
27F
330
D
100
AcDbSymbolTableRecord
100
AcDbLinetypeTableRecord
  2
ACISOTGB
 70
     0
  3
__ . . __ . .
 72
    65
 73
     6
 40
9.0
 49
4.0
 74
     0
 49
-1.0
 74
     0
 49
1.0
 74
     0
 49
-1.0
 74
     0
 49
1.0
 74
     0
 49
-1.0
 74
     0
  0
LTYPE
  5
280
330
D
100
AcDbSymbolTableRecord
100
AcDbLinetypeTableRecord
  2
ACISOTGL
 70
     0
  3
_ _ _ _ _
 72
    65
 73
     2
 40
3.0
 49
2.0
 74
     0
 49
-1.0
 74
     0
  0
LTYPE
  5
6ED
330
D
100
AcDbSymbolTableRecord
100
AcDbLinetypeTableRecord
  2
Amconstr
 70
     0
  3
_______________________
 72
    65
 73
     2
 40
9999.0
 49
9999.0
 74
     0
 49
0.0
 74
     0
  0
LTYPE
  5
6F3
330
D
100
AcDbSymbolTableRecord
100
AcDbLinetypeTableRecord
  2
PHANTOM2
 70
     0
  3
Phantom (.5x) ___ _ _ ___ _ _ ___ _ _ ___ _ _
 72
    65
 73
     6
 40
1.25
 49
0.625
 74
     0
 49
-0.125
 74
     0
 49
0.125
 74
     0
 49
-0.125
 74
     0
 49
0.125
 74
     0
 49
-0.125
 74
     0
  0
LTYPE
  5
6F4
330
D
100
AcDbSymbolTableRecord
100
AcDbLinetypeTableRecord
  2
Amzigzag2
 70
     0
  3
/\/-/\/-/\/-/\/-/\/-/\/
 72
    65
 73
     2
 40
0.4401
 49
0.0001
 74
     4
 75
   135
340
6F1
 46
0.0016
 50
0.0
 44
0.0
 45
0.0
 49
-0.4400000000000001
 74
     0
  0
LTYPE
  5
456E
330
D
100
AcDbSymbolTableRecord
100
AcDbLinetypeTableRecord
  2
HIDDEN
 70
     0
  3
Verdeckt
 72
    65
 73
     2
 40
0.375
 49
0.25
 74
     0
 49
-0.125
 74
     0
  0
LTYPE
  5
456F
330
D
100
AcDbSymbolTableRecord
100
AcDbLinetypeTableRecord
  2
CENTER
 70
     0
  3
Mitte ____ _ ____ _ ____ _ ____ _ ____ _ ____
 72
    65
 73
     4
 40
2.0
 49
1.25
 74
     0
 49
-0.25
 74
     0
 49
0.25
 74
     0
 49
-0.25
 74
     0
  0
ENDTAB
  0
TABLE
  2
LAYER
  5
A
330
0
100
AcDbSymbolTable
 70
     6
  0
LAYER
  5
4
102
{ACAD_XDICTIONARY
360
461C
102
}
330
A
100
AcDbSymbolTableRecord
100
AcDbLayerTableRecord
  2
0
 70
     0
 62
     7
  6
CONTINUOUS
370
    -3
390
6C1
  0
LAYER
  5
27
102
{ACAD_XDICTIONARY
360
461E
102
}
330
A
100
AcDbSymbolTableRecord
100
AcDbLayerTableRecord
  2
BEM
 70
     1
 62
     1
  6
CONTINUOUS
370
    -3
390
6C1
  0
LAYER
  5
1F
102
{ACAD_XDICTIONARY
360
4620
102
}
330
A
100
AcDbSymbolTableRecord
100
AcDbLayerTableRecord
  2
MITTE
 70
     0
 62
     6
  6
MITTE
370
    -3
390
6C1
  0
LAYER
  5
79
102
{ACAD_XDICTIONARY
360
4622
102
}
330
A
100
AcDbSymbolTableRecord
100
AcDbLayerTableRecord
  2
LINIE
 70
     0
 62
     6
  6
CONTINUOUS
370
    -3
390
6C1
  0
LAYER
  5
30
330
A
100
AcDbSymbolTableRecord
100
AcDbLayerTableRecord
  2
Defpoints
 70
     0
 62
     7
  6
CONTINUOUS
290
     0
370
    -3
390
6C1
  0
LAYER
  5
2BE
102
{ACAD_XDICTIONARY
360
4624
102
}
330
A
100
AcDbSymbolTableRecord
100
AcDbLayerTableRecord
  2
SCHRAFF
 70
     0
 62
     1
  6
CONTINUOUS
370
    -3
390
6C1
  0
ENDTAB
  0
TABLE
  2
STYLE
  5
B
330
0
100
AcDbSymbolTable
 70
    13
  0
STYLE
  5
C
330
B
100
AcDbSymbolTableRecord
100
AcDbTextStyleTableRecord
  2
STANDARD
 70
     0
 40
0.0
 41
1.0
 50
0.0
 71
     0
 42
3.5
  3
romans.shx
  4

  0
STYLE
  5
26A
330
B
100
AcDbSymbolTableRecord
100
AcDbTextStyleTableRecord
  2
ACJISTS
 70
     0
 40
1.0
 41
1.0
 50
0.0
 71
     0
 42
3.5
  3
isocp.shx
  4
bigfont.shx
  0
STYLE
  5
26B
330
B
100
AcDbSymbolTableRecord
100
AcDbTextStyleTableRecord
  2
ACJISGDT
 70
     0
 40
0.0
 41
1.0
 50
0.0
 71
     0
 42
3.5
  3
amgdt.shx
  4

  0
STYLE
  5
26E
330
B
100
AcDbSymbolTableRecord
100
AcDbTextStyleTableRecord
  2
ACANSTSB
 70
     0
 40
1.0
 41
1.0
 50
0.0
 71
     0
 42
3.5
  3
romans.shx
  4

  0
STYLE
  5
26F
330
B
100
AcDbSymbolTableRecord
100
AcDbTextStyleTableRecord
  2
ACANSGDT
 70
     0
 40
0.0
 41
1.0
 50
0.0
 71
     0
 42
3.5
  3
amgdt.shx
  4

  0
STYLE
  5
272
330
B
100
AcDbSymbolTableRecord
100
AcDbTextStyleTableRecord
  2
ACBSITS
 70
     0
 40
1.0
 41
1.0
 50
0.0
 71
     0
 42
3.5
  3
isocp.shx
  4

  0
STYLE
  5
273
330
B
100
AcDbSymbolTableRecord
100
AcDbTextStyleTableRecord
  2
ACBSIGDT
 70
     0
 40
0.0
 41
1.0
 50
0.0
 71
     0
 42
3.5
  3
amgdt.shx
  4

  0
STYLE
  5
277
330
B
100
AcDbSymbolTableRecord
100
AcDbTextStyleTableRecord
  2
ACDINTS
 70
     0
 40
1.0
 41
1.0
 50
0.0
 71
     0
 42
3.5
  3
isocp.shx
  4

  0
STYLE
  5
278
330
B
100
AcDbSymbolTableRecord
100
AcDbTextStyleTableRecord
  2
ACDINGDT
 70
     0
 40
0.0
 41
1.0
 50
0.0
 71
     0
 42
3.5
  3
amgdt.shx
  4

  0
STYLE
  5
27C
330
B
100
AcDbSymbolTableRecord
100
AcDbTextStyleTableRecord
  2
ACISOTS
 70
     0
 40
1.0
 41
1.0
 50
0.0
 71
     0
 42
3.5
  3
isocp.shx
  4

  0
STYLE
  5
27D
330
B
100
AcDbSymbolTableRecord
100
AcDbTextStyleTableRecord
  2
ACISOGDT
 70
     0
 40
0.0
 41
1.0
 50
0.0
 71
     0
 42
3.5
  3
amgdt.shx
  4

  0
STYLE
  5
6F1
330
B
100
AcDbSymbolTableRecord
100
AcDbTextStyleTableRecord
  2

 70
     1
 40
0.0
 41
1.0
 50
0.0
 71
     0
 42
3.5
  3
ltypeshp.shx
  4

  0
STYLE
  5
752
330
B
100
AcDbSymbolTableRecord
100
AcDbTextStyleTableRecord
  2
Stil1
 70
     0
 40
0.0
 41
1.0
 50
0.0
 71
     0
 42
3.5
  3
ARIAL.TTF
  4

1001
ACAD
1000
Arial
1071
       34
  0
ENDTAB
  0
TABLE
  2
VIEW
  5
10
330
0
100
AcDbSymbolTable
 70
     0
  0
ENDTAB
  0
TABLE
  2
UCS
  5
11
330
0
100
AcDbSymbolTable
 70
     0
  0
ENDTAB
  0
TABLE
  2
APPID
  5
14
330
0
100
AcDbSymbolTable
 70
    16
  0
APPID
  5
15
330
14
100
AcDbSymbolTableRecord
100
AcDbRegAppTableRecord
  2
ACAD
 70
     0
  0
APPID
  5
242
330
14
100
AcDbSymbolTableRecord
100
AcDbRegAppTableRecord
  2
MCAD_NO_VIS
 70
     0
  0
APPID
  5
6D1
330
14
100
AcDbSymbolTableRecord
100
AcDbRegAppTableRecord
  2
ACAD_TEMP_GRAPHIC
 70
     0
  0
APPID
  5
770
330
14
100
AcDbSymbolTableRecord
100
AcDbRegAppTableRecord
  2
GENIUS_GENDTOL_13
 70
     0
  0
APPID
  5
4540
330
14
100
AcDbSymbolTableRecord
100
AcDbRegAppTableRecord
  2
ACAD_MLEADERVER
 70
     0
  0
APPID
  5
4571
330
14
100
AcDbSymbolTableRecord
100
AcDbRegAppTableRecord
  2
AD_DRAW
 70
     0
  0
APPID
  5
4574
330
14
100
AcDbSymbolTableRecord
100
AcDbRegAppTableRecord
  2
ACATTRIBSERVICES
 70
     0
  0
APPID
  5
4593
330
14
100
AcDbSymbolTableRecord
100
AcDbRegAppTableRecord
  2
DESIGNERASSEMBLIES
 70
     0
  0
APPID
  5
4616
330
14
100
AcDbSymbolTableRecord
100
AcDbRegAppTableRecord
  2
ACADM_DIM_EDIT
 70
     0
  0
APPID
  5
4617
330
14
100
AcDbSymbolTableRecord
100
AcDbRegAppTableRecord
  2
AMDT_DM_ADJ
 70
     0
  0
APPID
  5
4630
330
14
100
AcDbSymbolTableRecord
100
AcDbRegAppTableRecord
  2
ACAD_PSEXT
 70
     0
  0
APPID
  5
4634
330
14
100
AcDbSymbolTableRecord
100
AcDbRegAppTableRecord
  2
DCO15
 70
     0
  0
APPID
  5
466A
330
14
100
AcDbSymbolTableRecord
100
AcDbRegAppTableRecord
  2
ACAD_DSTYLE_DIMJAG
 70
     0
  0
APPID
  5
466B
330
14
100
AcDbSymbolTableRecord
100
AcDbRegAppTableRecord
  2
ACAD_DSTYLE_DIMTALN
 70
     0
  0
APPID
  5
4722
330
14
100
AcDbSymbolTableRecord
100
AcDbRegAppTableRecord
  2
ACAD_DSTYLE_DIMARC_LENGTH_SYMBOL
 70
     0
  0
APPID
  5
4723
330
14
100
AcDbSymbolTableRecord
100
AcDbRegAppTableRecord
  2
ACAD_DSTYLE_DIMJOGGED_JOGANGLE_SYMBOL
 70
     0
  0
ENDTAB
  0
TABLE
  2
DIMSTYLE
  5
16
330
0
100
AcDbSymbolTable
 70
    29
100
AcDbDimStyleTable
 71
     1
340
1C
  0
DIMSTYLE
105
1C
102
{ACAD_REACTORS
330
BF6
330
BF7
330
BFC
330
BFD
330
BFE
330
C03
330
C24
330
C29
330
C2A
330
C2B
330
C43
330
C49
330
C4B
330
C4C
330
C5F
330
1BA9
330
1BD5
102
}
330
16
100
AcDbSymbolTableRecord
100
AcDbDimStyleTableRecord
  2
ISO-25
 70
     0
 41
7.0
 42
0.0
 43
7.0
 44
1.25
 73
     0
 74
     0
 77
     1
 78
     8
140
10.0
141
0.0
147
4.0
172
     1
176
   256
177
   256
178
   256
179
     1
288
     1
289
     0
340
C
1001
ACAD_DSTYLE_DIMJAG
1070
   388
1040
1.5
1001
ACAD_DSTYLE_DIMTALN
1070
   392
1070
     0
  0
DIMSTYLE
105
45E6
330
16
100
AcDbSymbolTableRecord
100
AcDbDimStyleTableRecord
  2
AM_BSI
 70
     0
  4
mm
 41
0.1574803149606299
 42
0.05
 43
0.5
 44
0.1
 47
0.1
 48
0.1
 73
     0
 74
     0
 77
     1
 78
     7
 79
     2
140
0.12
141
0.0
146
0.71
147
0.06
172
     1
176
   256
177
   256
178
     2
274
     4
283
     0
284
     7
340
C
371
    -1
372
    -1
1001
ACAD_DSTYLE_DIMARC_LENGTH_SYMBOL
1070
   379
1070
     1
  0
DIMSTYLE
105
45E7
330
16
100
AcDbSymbolTableRecord
100
AcDbDimStyleTableRecord
  2
AM_BSI$3
 70
     0
  4
mm
 41
0.1574803149606299
 42
0.05
 43
0.5
 44
0.1
 47
0.1
 48
0.1
 73
     0
 77
     1
 78
     7
 79
     2
140
0.12
141
0.0
146
0.71
147
0.06
176
   256
177
   256
178
     2
274
     4
283
     0
284
     7
288
     1
289
     0
340
C
371
    -1
372
    -1
1001
ACAD_DSTYLE_DIMARC_LENGTH_SYMBOL
1070
   379
1070
     1
  0
DIMSTYLE
105
45E8
330
16
100
AcDbSymbolTableRecord
100
AcDbDimStyleTableRecord
  2
AM_BSI$4
 70
     0
  4
mm
 41
0.1574803149606299
 42
0.05
 43
0.5
 44
0.1
 47
0.1
 48
0.1
 73
     0
 77
     1
 78
     7
 79
     2
140
0.12
141
0.0
146
0.71
147
0.06
176
   256
177
   256
178
     2
274
     4
283
     0
284
     7
288
     1
289
     0
340
C
371
    -1
372
    -1
1001
ACAD_DSTYLE_DIMARC_LENGTH_SYMBOL
1070
   379
1070
     1
  0
DIMSTYLE
105
45E9
330
16
100
AcDbSymbolTableRecord
100
AcDbDimStyleTableRecord
  2
AM_BSI$6
 70
     0
  4
mm
 41
0.1574803149606299
 42
0.05
 43
0.5
 44
0.1
 47
0.1
 48
0.1
 73
     0
 74
     0
 78
     7
 79
     2
140
0.12
141
0.0
146
0.71
147
0.06
172
     1
176
   256
177
   256
178
     2
274
     4
283
     0
284
     7
340
C
371
    -1
372
    -1
1001
ACAD_DSTYLE_DIMARC_LENGTH_SYMBOL
1070
   379
1070
     1
  0
DIMSTYLE
105
45EA
330
16
100
AcDbSymbolTableRecord
100
AcDbDimStyleTableRecord
  2
AM_BSI$7
 70
     0
  4
mm
 41
0.1
 42
0.05
 43
0.5
 44
0.1
 47
0.1
 48
0.1
 73
     0
 74
     0
 77
     1
 78
     7
 79
     2
140
0.24
141
0.0
146
0.71
147
0.06
172
     1
176
   256
177
   256
178
     2
274
     4
283
     0
284
     7
340
C
371
    -1
372
    -1
1001
ACAD_DSTYLE_DIMARC_LENGTH_SYMBOL
1070
   379
1070
     1
  0
DIMSTYLE
105
45EB
330
16
100
AcDbSymbolTableRecord
100
AcDbDimStyleTableRecord
  2
AM_BSI$SF
 70
     0
  4
mm
 41
0.1574803149606299
 42
0.05
 43
0.5
 44
0.1
 47
0.1
 48
0.1
 73
     0
 74
     0
 75
     1
 76
     1
 77
     1
 78
     7
 79
     2
140
0.12
141
0.0
146
0.71
147
0.06
172
     1
176
   256
177
   256
178
     2
274
     4
283
     0
284
     7
340
C
371
    -1
372
    -1
1001
ACAD_DSTYLE_DIMARC_LENGTH_SYMBOL
1070
   379
1070
     1
  0
DIMSTYLE
105
45F0
330
16
100
AcDbSymbolTableRecord
100
AcDbDimStyleTableRecord
  2
AM_BSI$SH
 70
     0
  4
mm
 41
0.1574803149606299
 42
0.05
 43
0.5
 44
0.1
 47
0.1
 48
0.1
 73
     0
 74
     0
 75
     1
 76
     1
 77
     1
 78
     7
 79
     2
140
0.12
141
0.0
144
2.0
146
0.71
147
0.06
172
     1
173
     1
176
   256
177
   256
178
     2
274
     4
283
     0
284
     7
340
C
343
45EC
371
    -1
372
    -1
1001
ACAD_DSTYLE_DIMARC_LENGTH_SYMBOL
1070
   379
1070
     1
  0
DIMSTYLE
105
45F3
330
16
100
AcDbSymbolTableRecord
100
AcDbDimStyleTableRecord
  2
AM_DIN
 70
     0
  4
mm
 41
0.1
 42
0.05
 43
0.5
 44
0.1
 47
0.1
 48
0.1
 73
     0
 74
     0
 77
     1
 78
     7
 79
     2
140
0.12
141
0.0
146
0.71
147
0.06
172
     1
176
   256
177
   256
178
     2
274
     4
283
     0
284
     7
340
C
371
    -1
372
    -1
1001
ACAD_DSTYLE_DIMJOGGED_JOGANGLE_SYMBOL
1070
   384
1040
1.570796326794896
  0
DIMSTYLE
105
45F4
330
16
100
AcDbSymbolTableRecord
100
AcDbDimStyleTableRecord
  2
AM_DIN$3
 70
     0
  4
mm
 41
0.1
 42
0.05
 43
0.5
 44
0.1
 47
0.1
 48
0.1
 73
     0
 77
     1
 78
     7
 79
     2
140
0.12
141
0.0
146
0.71
147
0.06
176
   256
177
   256
178
     2
274
     4
283
     0
284
     7
288
     1
289
     0
340
C
371
    -1
372
    -1
1001
ACAD_DSTYLE_DIMJOGGED_JOGANGLE_SYMBOL
1070
   384
1040
1.570796326794896
  0
DIMSTYLE
105
45F5
330
16
100
AcDbSymbolTableRecord
100
AcDbDimStyleTableRecord
  2
AM_DIN$4
 70
     0
  4
mm
 41
0.1
 42
0.05
 43
0.5
 44
0.1
 47
0.1
 48
0.1
 73
     0
 77
     1
 78
     7
 79
     2
140
0.12
141
0.0
146
0.71
147
0.06
176
   256
177
   256
178
     2
274
     4
283
     0
284
     7
288
     1
289
     0
340
C
371
    -1
372
    -1
1001
ACAD_DSTYLE_DIMJOGGED_JOGANGLE_SYMBOL
1070
   384
1040
1.570796326794896
  0
DIMSTYLE
105
45F6
330
16
100
AcDbSymbolTableRecord
100
AcDbDimStyleTableRecord
  2
AM_DIN$6
 70
     0
  4
mm
 41
0.1
 42
0.05
 43
0.5
 44
0.1
 47
0.1
 48
0.1
 73
     0
 74
     0
 78
     7
 79
     2
140
0.12
141
0.0
146
0.71
147
0.06
172
     1
176
   256
177
   256
178
     2
274
     4
283
     0
284
     7
340
C
371
    -1
372
    -1
1001
ACAD_DSTYLE_DIMJOGGED_JOGANGLE_SYMBOL
1070
   384
1040
1.570796326794896
  0
DIMSTYLE
105
45F7
330
16
100
AcDbSymbolTableRecord
100
AcDbDimStyleTableRecord
  2
AM_DIN$7
 70
     0
  4
mm
 41
0.1
 42
0.05
 43
0.5
 44
0.1
 47
0.1
 48
0.1
 73
     0
 74
     0
 77
     1
 78
     7
 79
     2
140
0.24
141
0.0
146
0.71
147
0.06
172
     1
176
   256
177
   256
178
     2
274
     4
283
     0
284
     7
340
C
371
    -1
372
    -1
1001
ACAD_DSTYLE_DIMJOGGED_JOGANGLE_SYMBOL
1070
   384
1040
1.570796326794896
  0
DIMSTYLE
105
45F8
330
16
100
AcDbSymbolTableRecord
100
AcDbDimStyleTableRecord
  2
AM_DIN$SF
 70
     0
  4
mm
 41
0.1
 42
0.05
 43
0.5
 44
0.1
 47
0.1
 48
0.1
 73
     0
 74
     0
 75
     1
 76
     1
 77
     1
 78
     7
 79
     2
140
0.12
141
0.0
146
0.71
147
0.06
172
     1
176
   256
177
   256
178
     2
274
     4
283
     0
284
     7
340
C
371
    -1
372
    -1
1001
ACAD_DSTYLE_DIMJOGGED_JOGANGLE_SYMBOL
1070
   384
1040
1.570796326794896
  0
DIMSTYLE
105
45F9
330
16
100
AcDbSymbolTableRecord
100
AcDbDimStyleTableRecord
  2
AM_DIN$SH
 70
     0
  4
mm
 41
0.1
 42
0.05
 43
0.5
 44
0.1
 47
0.1
 48
0.1
 73
     0
 74
     0
 75
     1
 76
     1
 77
     1
 78
     7
 79
     2
140
0.12
141
0.0
144
2.0
146
0.71
147
0.06
172
     1
173
     1
176
   256
177
   256
178
     2
274
     4
283
     0
284
     7
340
C
343
45EC
371
    -1
372
    -1
1001
ACAD_DSTYLE_DIMJOGGED_JOGANGLE_SYMBOL
1070
   384
1040
1.570796326794896
  0
DIMSTYLE
105
45FC
330
16
100
AcDbSymbolTableRecord
100
AcDbDimStyleTableRecord
  2
AM_ISO
 70
     0
  4
mm
 41
0.1
 42
0.05
 43
0.5
 44
0.1
 47
0.1
 48
0.1
 73
     0
 74
     0
 77
     1
 78
     7
 79
     2
140
0.12
141
0.0
146
0.71
147
0.06
172
     1
176
   256
177
   256
178
     2
274
     4
283
     0
284
     7
340
C
371
    -1
372
    -1
1001
ACAD_DSTYLE_DIMARC_LENGTH_SYMBOL
1070
   379
1070
     1
  0
DIMSTYLE
105
45FD
330
16
100
AcDbSymbolTableRecord
100
AcDbDimStyleTableRecord
  2
AM_ISO$3
 70
     0
  4
mm
 41
0.1
 42
0.05
 43
0.5
 44
0.1
 47
0.1
 48
0.1
 73
     0
 77
     1
 78
     7
 79
     2
140
0.12
141
0.0
146
0.71
147
0.06
176
   256
177
   256
178
     2
274
     4
283
     0
284
     7
288
     1
289
     0
340
C
371
    -1
372
    -1
1001
ACAD_DSTYLE_DIMARC_LENGTH_SYMBOL
1070
   379
1070
     1
  0
DIMSTYLE
105
45FE
330
16
100
AcDbSymbolTableRecord
100
AcDbDimStyleTableRecord
  2
AM_ISO$4
 70
     0
  4
mm
 41
0.1
 42
0.05
 43
0.5
 44
0.1
 47
0.1
 48
0.1
 73
     0
 77
     1
 78
     7
 79
     2
140
0.12
141
0.0
146
0.71
147
0.06
176
   256
177
   256
178
     2
274
     4
283
     0
284
     7
288
     1
289
     0
340
C
371
    -1
372
    -1
1001
ACAD_DSTYLE_DIMARC_LENGTH_SYMBOL
1070
   379
1070
     1
  0
DIMSTYLE
105
45FF
330
16
100
AcDbSymbolTableRecord
100
AcDbDimStyleTableRecord
  2
AM_ISO$6
 70
     0
  4
mm
 41
0.1
 42
0.05
 43
0.5
 44
0.1
 47
0.1
 48
0.1
 73
     0
 74
     0
 78
     7
 79
     2
140
0.12
141
0.0
146
0.71
147
0.06
172
     1
176
   256
177
   256
178
     2
274
     4
283
     0
284
     7
340
C
371
    -1
372
    -1
1001
ACAD_DSTYLE_DIMARC_LENGTH_SYMBOL
1070
   379
1070
     1
  0
DIMSTYLE
105
4600
330
16
100
AcDbSymbolTableRecord
100
AcDbDimStyleTableRecord
  2
AM_ISO$7
 70
     0
  4
mm
 41
0.1
 42
0.05
 43
0.5
 44
0.1
 47
0.1
 48
0.1
 73
     0
 74
     0
 77
     1
 78
     7
 79
     2
140
0.24
141
0.0
146
0.71
147
0.06
172
     1
176
   256
177
   256
178
     2
274
     4
283
     0
284
     7
340
C
371
    -1
372
    -1
1001
ACAD_DSTYLE_DIMARC_LENGTH_SYMBOL
1070
   379
1070
     1
  0
DIMSTYLE
105
4601
330
16
100
AcDbSymbolTableRecord
100
AcDbDimStyleTableRecord
  2
AM_ISO$SF
 70
     0
  4
mm
 41
0.1
 42
0.05
 43
0.5
 44
0.1
 47
0.1
 48
0.1
 73
     0
 74
     0
 75
     1
 76
     1
 77
     1
 78
     7
 79
     2
140
0.12
141
0.0
146
0.71
147
0.06
172
     1
176
   256
177
   256
178
     2
274
     4
283
     0
284
     7
340
C
371
    -1
372
    -1
1001
ACAD_DSTYLE_DIMARC_LENGTH_SYMBOL
1070
   379
1070
     1
  0
DIMSTYLE
105
4602
330
16
100
AcDbSymbolTableRecord
100
AcDbDimStyleTableRecord
  2
AM_ISO$SH
 70
     0
  4
mm
 41
0.1
 42
0.05
 43
0.5
 44
0.1
 47
0.1
 48
0.1
 73
     0
 74
     0
 75
     1
 76
     1
 77
     1
 78
     7
 79
     2
140
0.12
141
0.0
144
2.0
146
0.71
147
0.06
172
     1
173
     1
176
   256
177
   256
178
     2
274
     4
283
     0
284
     7
340
C
343
45EC
371
    -1
372
    -1
1001
ACAD_DSTYLE_DIMARC_LENGTH_SYMBOL
1070
   379
1070
     1
  0
DIMSTYLE
105
4605
330
16
100
AcDbSymbolTableRecord
100
AcDbDimStyleTableRecord
  2
AM_JIS
 70
     0
  4
mm
 41
0.1
 42
0.05
 43
0.5
 44
0.1
 47
0.1
 48
0.1
 73
     0
 74
     0
 77
     3
 78
     7
 79
     2
140
0.12
141
0.0
146
0.71
147
0.06
172
     1
176
   256
177
   256
178
     2
274
     4
283
     0
284
     7
340
C
341
4606
342
4606
343
4606
344
4606
371
    -1
372
    -1
1001
ACAD_DSTYLE_DIMARC_LENGTH_SYMBOL
1070
   379
1070
     1
  0
DIMSTYLE
105
460C
330
16
100
AcDbSymbolTableRecord
100
AcDbDimStyleTableRecord
  2
AM_JIS$3
 70
     0
  4
mm
 41
0.1
 42
0.05
 43
0.5
 44
0.1
 47
0.1
 48
0.1
 73
     0
 77
     3
 78
     7
 79
     2
140
0.12
141
0.0
146
0.71
147
0.06
176
   256
177
   256
178
     2
274
     4
283
     0
284
     7
288
     1
289
     0
340
C
341
4606
342
4606
343
4606
344
4606
371
    -1
372
    -1
1001
ACAD_DSTYLE_DIMARC_LENGTH_SYMBOL
1070
   379
1070
     1
  0
DIMSTYLE
105
460D
330
16
100
AcDbSymbolTableRecord
100
AcDbDimStyleTableRecord
  2
AM_JIS$4
 70
     0
  4
mm
 41
0.1
 42
0.05
 43
0.5
 44
0.1
 47
0.1
 48
0.1
 73
     0
 77
     3
 78
     7
 79
     2
140
0.12
141
0.0
146
0.71
147
0.06
176
   256
177
   256
178
     2
274
     4
283
     0
284
     7
288
     1
289
     0
340
C
341
4606
342
4606
343
4606
344
4606
371
    -1
372
    -1
1001
ACAD_DSTYLE_DIMARC_LENGTH_SYMBOL
1070
   379
1070
     1
  0
DIMSTYLE
105
460E
330
16
100
AcDbSymbolTableRecord
100
AcDbDimStyleTableRecord
  2
AM_JIS$6
 70
     0
  4
mm
 41
0.1
 42
0.05
 43
0.5
 44
0.1
 47
0.1
 48
0.1
 73
     0
 74
     0
 78
     7
 79
     2
140
0.12
141
0.0
146
0.71
147
0.06
172
     1
176
   256
177
   256
178
     2
274
     4
283
     0
284
     7
340
C
341
4606
342
4606
343
4606
344
4606
371
    -1
372
    -1
1001
ACAD_DSTYLE_DIMARC_LENGTH_SYMBOL
1070
   379
1070
     1
  0
DIMSTYLE
105
460F
330
16
100
AcDbSymbolTableRecord
100
AcDbDimStyleTableRecord
  2
AM_JIS$7
 70
     0
  4
mm
 41
0.1
 42
0.05
 43
0.5
 44
0.1
 47
0.1
 48
0.1
 73
     0
 74
     0
 77
     3
 78
     7
 79
     2
140
0.24
141
0.0
146
0.71
147
0.06
172
     1
176
   256
177
   256
178
     2
274
     4
283
     0
284
     7
340
C
341
4606
342
4606
343
4606
344
4606
371
    -1
372
    -1
1001
ACAD_DSTYLE_DIMARC_LENGTH_SYMBOL
1070
   379
1070
     1
  0
DIMSTYLE
105
4610
330
16
100
AcDbSymbolTableRecord
100
AcDbDimStyleTableRecord
  2
AM_JIS$SF
 70
     0
  4
mm
 41
0.1
 42
0.05
 43
0.5
 44
0.1
 47
0.1
 48
0.1
 73
     0
 74
     0
 75
     1
 76
     1
 77
     3
 78
     7
 79
     2
140
0.12
141
0.0
146
0.71
147
0.06
172
     1
176
   256
177
   256
178
     2
274
     4
283
     0
284
     7
340
C
341
4606
342
4606
343
4606
344
4606
371
    -1
372
    -1
1001
ACAD_DSTYLE_DIMARC_LENGTH_SYMBOL
1070
   379
1070
     1
  0
DIMSTYLE
105
4611
330
16
100
AcDbSymbolTableRecord
100
AcDbDimStyleTableRecord
  2
AM_JIS$SH
 70
     0
  4
mm
 41
0.1
 42
0.05
 43
0.5
 44
0.1
 47
0.1
 48
0.1
 73
     0
 74
     0
 75
     1
 76
     1
 77
     3
 78
     7
 79
     2
140
0.12
141
0.0
144
2.0
146
0.71
147
0.06
172
     1
173
     1
176
   256
177
   256
178
     2
274
     4
283
     0
284
     7
340
C
341
4606
342
4606
343
45EC
344
4606
371
    -1
372
    -1
1001
ACAD_DSTYLE_DIMARC_LENGTH_SYMBOL
1070
   379
1070
     1
  0
ENDTAB
  0
TABLE
  2
BLOCK_RECORD
  5
1
330
0
100
AcDbSymbolTable
 70
    19
  0
BLOCK_RECORD
  5
2
102
{ACAD_XDICTIONARY
360
28B
102
}
330
1
100
AcDbSymbolTableRecord
100
AcDbBlockTableRecord
  2
*MODEL_SPACE
340
6C4
  0
BLOCK_RECORD
  5
7
330
1
100
AcDbSymbolTableRecord
100
AcDbBlockTableRecord
  2
*PAPER_SPACE
340
6C5
  0
BLOCK_RECORD
  5
C69
330
1
100
AcDbSymbolTableRecord
100
AcDbBlockTableRecord
  2
*D0
340
0
  0
BLOCK_RECORD
  5
C77
330
1
100
AcDbSymbolTableRecord
100
AcDbBlockTableRecord
  2
*D1
340
0
  0
BLOCK_RECORD
  5
C83
330
1
100
AcDbSymbolTableRecord
100
AcDbBlockTableRecord
  2
*D2
340
0
  0
BLOCK_RECORD
  5
C91
330
1
100
AcDbSymbolTableRecord
100
AcDbBlockTableRecord
  2
*D3
340
0
  0
BLOCK_RECORD
  5
C9F
330
1
100
AcDbSymbolTableRecord
100
AcDbBlockTableRecord
  2
*D4
340
0
  0
BLOCK_RECORD
  5
CAD
330
1
100
AcDbSymbolTableRecord
100
AcDbBlockTableRecord
  2
*D5
340
0
  0
BLOCK_RECORD
  5
CBB
330
1
100
AcDbSymbolTableRecord
100
AcDbBlockTableRecord
  2
*D6
340
0
  0
BLOCK_RECORD
  5
CC7
330
1
100
AcDbSymbolTableRecord
100
AcDbBlockTableRecord
  2
*D7
340
0
  0
BLOCK_RECORD
  5
CD3
330
1
100
AcDbSymbolTableRecord
100
AcDbBlockTableRecord
  2
*D8
340
0
  0
BLOCK_RECORD
  5
CDF
330
1
100
AcDbSymbolTableRecord
100
AcDbBlockTableRecord
  2
*D9
340
0
  0
BLOCK_RECORD
  5
CEA
330
1
100
AcDbSymbolTableRecord
100
AcDbBlockTableRecord
  2
*D10
340
0
  0
BLOCK_RECORD
  5
CF5
330
1
100
AcDbSymbolTableRecord
100
AcDbBlockTableRecord
  2
*D11
340
0
  0
BLOCK_RECORD
  5
D01
330
1
100
AcDbSymbolTableRecord
100
AcDbBlockTableRecord
  2
*D12
340
0
  0
BLOCK_RECORD
  5
D0F
330
1
100
AcDbSymbolTableRecord
100
AcDbBlockTableRecord
  2
*D13
340
0
  0
BLOCK_RECORD
  5
D1D
330
1
100
AcDbSymbolTableRecord
100
AcDbBlockTableRecord
  2
*D14
340
0
  0
BLOCK_RECORD
  5
1BAC
330
1
100
AcDbSymbolTableRecord
100
AcDbBlockTableRecord
  2
*D15
340
0
  0
BLOCK_RECORD
  5
45EC
330
1
100
AcDbSymbolTableRecord
100
AcDbBlockTableRecord
  2
GENAXEH
340
0
  0
BLOCK_RECORD
  5
4606
330
1
100
AcDbSymbolTableRecord
100
AcDbBlockTableRecord
  2
_Open30
340
0
  0
ENDTAB
  0
ENDSEC
  0
SECTION
  2
BLOCKS
  0
BLOCK
  5
3
330
2
100
AcDbEntity
  8
0
100
AcDbBlockBegin
  2
*MODEL_SPACE
 70
     0
 10
0.0
 20
0.0
 30
0.0
  3
*MODEL_SPACE
  1

  0
ENDBLK
  5
6
330
2
100
AcDbEntity
  8
0
100
AcDbBlockEnd
  0
BLOCK
  5
8
330
7
100
AcDbEntity
 67
     1
  8
0
100
AcDbBlockBegin
  2
*PAPER_SPACE
 70
     0
 10
0.0
 20
0.0
 30
0.0
  3
*PAPER_SPACE
  1

  0
ENDBLK
  5
9
330
7
100
AcDbEntity
 67
     1
  8
0
100
AcDbBlockEnd
  0
BLOCK
  5
C75
330
C69
100
AcDbEntity
  8
0
 48
10.0
100
AcDbBlockBegin
  2
*D0
 70
     1
 10
0.0
 20
0.0
 30
0.0
  3
*D0
  1

  0
LINE
  5
466C
330
C69
100
AcDbEntity
  8
BEM
370
    -2
100
AcDbLine
 10
506.03144207963
 20
412.7823788577549
 30
0.0
 11
506.03144207963
 21
414.0323788577549
 31
0.0
  0
LINE
  5
466D
330
C69
100
AcDbEntity
  8
BEM
370
    -2
100
AcDbLine
 10
466.0314420796302
 20
352.6709441755555
 30
0.0
 11
466.0314420796302
 21
414.0323788577549
 31
0.0
  0
LINE
  5
466E
330
C69
100
AcDbEntity
  8
BEM
370
    -2
100
AcDbLine
 10
499.0314420796301
 20
412.7823788577549
 30
0.0
 11
473.0314420796302
 21
412.7823788577549
 31
0.0
  0
SOLID
  5
466F
330
C69
100
AcDbEntity
  8
BEM
100
AcDbTrace
 10
499.0314420796301
 20
413.9490455244215
 30
0.0
 11
499.0314420796301
 21
411.6157121910882
 31
0.0
 12
506.03144207963
 22
412.7823788577549
 32
0.0
 13
506.03144207963
 23
412.7823788577549
 33
0.0
  0
SOLID
  5
4670
330
C69
100
AcDbEntity
  8
BEM
100
AcDbTrace
 10
473.0314420796302
 20
413.9490455244215
 30
0.0
 11
473.0314420796302
 21
411.6157121910882
 31
0.0
 12
466.0314420796302
 22
412.7823788577549
 32
0.0
 13
466.0314420796302
 23
412.7823788577549
 33
0.0
  0
MTEXT
  5
4671
330
C69
100
AcDbEntity
  8
BEM
100
AcDbMText
 10
487.1049238795345
 20
421.7823788577549
 30
0.0
 40
10.0
 41
0.0
 71
     5
 72
     1
  1
\A1;40
 73
     1
 44
1.0
  0
POINT
  5
4672
330
C69
100
AcDbEntity
  8
Defpoints
 62
     0
100
AcDbPoint
 10
506.03144207963
 20
412.7823788577549
 30
0.0
  0
POINT
  5
4673
330
C69
100
AcDbEntity
  8
Defpoints
 62
     0
100
AcDbPoint
 10
466.0314420796302
 20
352.6709441755555
 30
0.0
  0
POINT
  5
4674
330
C69
100
AcDbEntity
  8
Defpoints
 62
     0
100
AcDbPoint
 10
466.0314420796302
 20
412.7823788577549
 30
0.0
  0
ENDBLK
  5
C76
330
C69
100
AcDbEntity
  8
0
 48
10.0
100
AcDbBlockEnd
  0
BLOCK
  5
C81
330
C77
100
AcDbEntity
  8
0
 48
10.0
100
AcDbBlockBegin
  2
*D1
 70
     1
 10
0.0
 20
0.0
 30
0.0
  3
*D1
  1

  0
LINE
  5
4675
330
C77
100
AcDbEntity
  8
BEM
370
    -2
100
AcDbLine
 10
507.03144207963
 20
295.3635852264796
 30
0.0
 11
396.484423397463
 21
295.3635852264796
 31
0.0
  0
LINE
  5
4676
330
C77
100
AcDbEntity
  8
BEM
370
    -2
100
AcDbLine
 10
507.03144207963
 20
235.3635852264796
 30
0.0
 11
396.484423397463
 21
235.3635852264796
 31
0.0
  0
LINE
  5
4677
330
C77
100
AcDbEntity
  8
BEM
370
    -2
100
AcDbLine
 10
397.734423397463
 20
288.3635852264796
 30
0.0
 11
397.734423397463
 21
242.3635852264796
 31
0.0
  0
SOLID
  5
4678
330
C77
100
AcDbEntity
  8
BEM
100
AcDbTrace
 10
396.5677567307963
 20
288.3635852264796
 30
0.0
 11
398.9010900641297
 21
288.3635852264796
 31
0.0
 12
397.734423397463
 22
295.3635852264796
 32
0.0
 13
397.734423397463
 23
295.3635852264796
 33
0.0
  0
SOLID
  5
4679
330
C77
100
AcDbEntity
  8
BEM
100
AcDbTrace
 10
396.5677567307963
 20
242.3635852264796
 30
0.0
 11
398.9010900641297
 21
242.3635852264796
 31
0.0
 12
397.734423397463
 22
235.3635852264796
 32
0.0
 13
397.734423397463
 23
235.3635852264796
 33
0.0
  0
MTEXT
  5
467A
330
C77
100
AcDbEntity
  8
BEM
100
AcDbMText
 10
388.734423397463
 20
265.3635852264797
 30
0.0
 40
10.0
 41
0.0
 71
     5
 72
     1
  1
\A1;%%c60
 11
0.0000000000000001
 21
1.0
 31
0.0
 73
     1
 44
1.0
  0
POINT
  5
467B
330
C77
100
AcDbEntity
  8
Defpoints
 62
     0
100
AcDbPoint
 10
507.03144207963
 20
295.3635852264796
 30
0.0
  0
POINT
  5
467C
330
C77
100
AcDbEntity
  8
Defpoints
 62
     0
100
AcDbPoint
 10
507.03144207963
 20
235.3635852264796
 30
0.0
  0
POINT
  5
467D
330
C77
100
AcDbEntity
  8
Defpoints
 62
     0
100
AcDbPoint
 10
397.734423397463
 20
235.3635852264796
 30
0.0
  0
ENDBLK
  5
C82
330
C77
100
AcDbEntity
  8
0
 48
10.0
100
AcDbBlockEnd
  0
BLOCK
  5
C8F
330
C83
100
AcDbEntity
  8
0
 48
10.0
100
AcDbBlockBegin
  2
*D2
 70
     1
 10
0.0
 20
0.0
 30
0.0
  3
*D2
  1

  0
LINE
  5
4703
330
C83
100
AcDbEntity
  8
BEM
 48
10.0
370
    -2
100
AcDbLine
 10
231.1229219885041
 20
341.2556161043349
 30
0.0
 11
231.1229219885041
 21
370.3800717864215
 31
0.0
  0
LINE
  5
4704
330
C83
100
AcDbEntity
  8
BEM
 48
10.0
370
    -2
100
AcDbLine
 10
246.1229219885041
 20
289.0075216515954
 30
0.0
 11
246.1229219885041
 21
291.1254471521756
 31
0.0
  0
LINE
  5
4705
330
C83
100
AcDbEntity
  8
BEM
 48
10.0
370
    -2
100
AcDbLine
 10
224.1229219885041
 20
369.1300717864215
 30
0.0
 11
217.1229219885041
 21
369.1300717864215
 31
0.0
  0
LINE
  5
4706
330
C83
100
AcDbEntity
  8
BEM
 48
10.0
370
    -2
100
AcDbLine
 10
253.1229219885041
 20
369.1300717864215
 30
0.0
 11
260.1229219885041
 21
369.1300717864215
 31
0.0
  0
LINE
  5
4707
330
C83
100
AcDbEntity
  8
BEM
 48
10.0
370
    -2
100
AcDbLine
 10
231.1229219885041
 20
369.1300717864215
 30
0.0
 11
246.1229219885041
 21
369.1300717864215
 31
0.0
  0
SOLID
  5
4708
330
C83
100
AcDbEntity
  8
BEM
 48
10.0
100
AcDbTrace
 10
224.1229219885041
 20
370.2967384530881
 30
0.0
 11
224.1229219885041
 21
367.9634051197548
 31
0.0
 12
231.1229219885041
 22
369.1300717864215
 32
0.0
 13
231.1229219885041
 23
369.1300717864215
 33
0.0
  0
SOLID
  5
4709
330
C83
100
AcDbEntity
  8
BEM
 48
10.0
100
AcDbTrace
 10
253.1229219885041
 20
370.2967384530881
 30
0.0
 11
253.1229219885041
 21
367.9634051197548
 31
0.0
 12
246.1229219885041
 22
369.1300717864215
 32
0.0
 13
246.1229219885041
 23
369.1300717864215
 33
0.0
  0
MTEXT
  5
470A
330
C83
100
AcDbEntity
  8
BEM
 48
10.0
100
AcDbMText
 10
238.6229219885041
 20
378.1300717864215
 30
0.0
 40
10.0
 41
0.0
 71
     5
 72
     1
  1
\A1;15
 73
     1
 44
1.0
  0
POINT
  5
470B
330
C83
100
AcDbEntity
  8
Defpoints
 62
     0
 48
10.0
100
AcDbPoint
 10
231.1229219885041
 20
341.2556161043349
 30
0.0
  0
POINT
  5
470C
330
C83
100
AcDbEntity
  8
Defpoints
 62
     0
 48
10.0
100
AcDbPoint
 10
246.1229219885041
 20
289.0075216515954
 30
0.0
  0
POINT
  5
470D
330
C83
100
AcDbEntity
  8
Defpoints
 62
     0
 48
10.0
100
AcDbPoint
 10
246.1229219885041
 20
369.1300717864215
 30
0.0
  0
LINE
  5
470E
330
C83
100
AcDbEntity
  8
BEM
 48
10.0
370
    -2
100
AcDbLine
 10
246.1229219885041
 20
310.7391816590807
 30
0.0
 11
246.1229219885041
 21
370.3800717864215
 31
0.0
  0
ENDBLK
  5
C90
330
C83
100
AcDbEntity
  8
0
 48
10.0
100
AcDbBlockEnd
  0
BLOCK
  5
C9D
330
C91
100
AcDbEntity
  8
0
 48
10.0
100
AcDbBlockBegin
  2
*D3
 70
     1
 10
0.0
 20
0.0
 30
0.0
  3
*D3
  1

  0
LINE
  5
4689
330
C91
100
AcDbEntity
  8
BEM
 48
10.0
370
    -2
100
AcDbLine
 10
221.3949219885041
 20
249.3635852264796
 30
0.0
 11
163.8095231432689
 21
249.3635852264796
 31
0.0
  0
LINE
  5
468A
330
C91
100
AcDbEntity
  8
BEM
 48
10.0
370
    -2
100
AcDbLine
 10
184.8298970721134
 20
265.3635852264796
 30
0.0
 11
163.8095231432689
 21
265.3635852264796
 31
0.0
  0
LINE
  5
468B
330
C91
100
AcDbEntity
  8
BEM
 48
10.0
370
    -2
100
AcDbLine
 10
165.0595231432689
 20
242.3635852264796
 30
0.0
 11
165.0595231432689
 21
235.3635852264796
 31
0.0
  0
LINE
  5
468C
330
C91
100
AcDbEntity
  8
BEM
 48
10.0
370
    -2
100
AcDbLine
 10
165.0595231432689
 20
272.3635852264796
 30
0.0
 11
165.0595231432689
 21
279.3635852264796
 31
0.0
  0
LINE
  5
468D
330
C91
100
AcDbEntity
  8
BEM
 48
10.0
370
    -2
100
AcDbLine
 10
165.0595231432689
 20
249.3635852264796
 30
0.0
 11
165.0595231432689
 21
265.3635852264796
 31
0.0
  0
SOLID
  5
468E
330
C91
100
AcDbEntity
  8
BEM
 48
10.0
100
AcDbTrace
 10
163.8928564766022
 20
242.3635852264796
 30
0.0
 11
166.2261898099355
 21
242.3635852264796
 31
0.0
 12
165.0595231432689
 22
249.3635852264796
 32
0.0
 13
165.0595231432689
 23
249.3635852264796
 33
0.0
  0
SOLID
  5
468F
330
C91
100
AcDbEntity
  8
BEM
 48
10.0
100
AcDbTrace
 10
163.8928564766022
 20
272.3635852264796
 30
0.0
 11
166.2261898099355
 21
272.3635852264796
 31
0.0
 12
165.0595231432689
 22
265.3635852264796
 32
0.0
 13
165.0595231432689
 23
265.3635852264796
 33
0.0
  0
MTEXT
  5
4690
330
C91
100
AcDbEntity
  8
BEM
 48
10.0
100
AcDbMText
 10
156.0595231432688
 20
257.3635852264796
 30
0.0
 40
10.0
 41
0.0
 71
     5
 72
     1
  1
\A1;16
 11
0.0000000000000001
 21
1.0
 31
0.0
 73
     1
 44
1.0
  0
POINT
  5
4691
330
C91
100
AcDbEntity
  8
Defpoints
 62
     0
 48
10.0
100
AcDbPoint
 10
221.3949219885041
 20
249.3635852264796
 30
0.0
  0
POINT
  5
4692
330
C91
100
AcDbEntity
  8
Defpoints
 62
     0
 48
10.0
100
AcDbPoint
 10
184.8298970721134
 20
265.3635852264796
 30
0.0
  0
POINT
  5
4693
330
C91
100
AcDbEntity
  8
Defpoints
 62
     0
 48
10.0
100
AcDbPoint
 10
165.0595231432689
 20
265.3635852264796
 30
0.0
  0
ENDBLK
  5
C9E
330
C91
100
AcDbEntity
  8
0
 48
10.0
100
AcDbBlockEnd
  0
BLOCK
  5
CAB
330
C9F
100
AcDbEntity
  8
0
 48
10.0
100
AcDbBlockBegin
  2
*D4
 70
     1
 10
0.0
 20
0.0
 30
0.0
  3
*D4
  1

  0
LINE
  5
4694
330
C9F
100
AcDbEntity
  8
BEM
 48
10.0
370
    -2
100
AcDbLine
 10
257.7498701248378
 20
277.3635852264796
 30
0.0
 11
294.1768695727441
 21
277.3635852264796
 31
0.0
  0
LINE
  5
4695
330
C9F
100
AcDbEntity
  8
BEM
 48
10.0
370
    -2
100
AcDbLine
 10
276.1326902505725
 20
265.3635852264796
 30
0.0
 11
294.1768695727441
 21
265.3635852264796
 31
0.0
  0
LINE
  5
4696
330
C9F
100
AcDbEntity
  8
BEM
 48
10.0
370
    -2
100
AcDbLine
 10
292.9268695727441
 20
258.3635852264796
 30
0.0
 11
292.9268695727441
 21
251.3635852264796
 31
0.0
  0
LINE
  5
4697
330
C9F
100
AcDbEntity
  8
BEM
 48
10.0
370
    -2
100
AcDbLine
 10
292.9268695727441
 20
284.3635852264796
 30
0.0
 11
292.9268695727441
 21
314.1254899883843
 31
0.0
  0
LINE
  5
4698
330
C9F
100
AcDbEntity
  8
BEM
 48
10.0
370
    -2
100
AcDbLine
 10
292.9268695727441
 20
265.3635852264796
 30
0.0
 11
292.9268695727441
 21
277.3635852264796
 31
0.0
  0
SOLID
  5
4699
330
C9F
100
AcDbEntity
  8
BEM
 48
10.0
100
AcDbTrace
 10
291.7602029060774
 20
258.3635852264796
 30
0.0
 11
294.0935362394108
 21
258.3635852264796
 31
0.0
 12
292.9268695727441
 22
265.3635852264796
 32
0.0
 13
292.9268695727441
 23
265.3635852264796
 33
0.0
  0
SOLID
  5
469A
330
C9F
100
AcDbEntity
  8
BEM
 48
10.0
100
AcDbTrace
 10
291.7602029060774
 20
284.3635852264796
 30
0.0
 11
294.0935362394108
 21
284.3635852264796
 31
0.0
 12
292.9268695727441
 22
277.3635852264796
 32
0.0
 13
292.9268695727441
 23
277.3635852264796
 33
0.0
  0
MTEXT
  5
469B
330
C9F
100
AcDbEntity
  8
BEM
 48
10.0
100
AcDbMText
 10
283.9268695727441
 20
302.744537607432
 30
0.0
 40
10.0
 41
0.0
 71
     5
 72
     1
  1
\A1;12
 11
0.0000000000000001
 21
1.0
 31
0.0
 73
     1
 44
1.0
  0
POINT
  5
469C
330
C9F
100
AcDbEntity
  8
Defpoints
 62
     0
 48
10.0
100
AcDbPoint
 10
257.7498701248378
 20
277.3635852264796
 30
0.0
  0
POINT
  5
469D
330
C9F
100
AcDbEntity
  8
Defpoints
 62
     0
 48
10.0
100
AcDbPoint
 10
276.1326902505725
 20
265.3635852264796
 30
0.0
  0
POINT
  5
469E
330
C9F
100
AcDbEntity
  8
Defpoints
 62
     0
 48
10.0
100
AcDbPoint
 10
292.9268695727441
 20
265.3635852264796
 30
0.0
  0
ENDBLK
  5
CAC
330
C9F
100
AcDbEntity
  8
0
 48
10.0
100
AcDbBlockEnd
  0
BLOCK
  5
CB9
330
CAD
100
AcDbEntity
  8
0
 48
10.0
100
AcDbBlockBegin
  2
*D5
 70
     1
 10
0.0
 20
0.0
 30
0.0
  3
*D5
  1

  0
LINE
  5
469F
330
CAD
100
AcDbEntity
  8
BEM
370
    -2
100
AcDbLine
 10
468.0314420796301
 20
274.3635852264797
 30
0.0
 11
440.2245539068746
 21
274.3635852264797
 31
0.0
  0
LINE
  5
46A0
330
CAD
100
AcDbEntity
  8
BEM
370
    -2
100
AcDbLine
 10
468.0314420796301
 20
256.3635852264796
 30
0.0
 11
440.2245539068746
 21
256.3635852264796
 31
0.0
  0
LINE
  5
46A1
330
CAD
100
AcDbEntity
  8
BEM
370
    -2
100
AcDbLine
 10
441.4745539068746
 20
281.3635852264797
 30
0.0
 11
441.4745539068746
 21
288.3635852264797
 31
0.0
  0
LINE
  5
46A2
330
CAD
100
AcDbEntity
  8
BEM
370
    -2
100
AcDbLine
 10
441.4745539068746
 20
249.3635852264796
 30
0.0
 11
441.4745539068746
 21
242.3635852264796
 31
0.0
  0
LINE
  5
46A3
330
CAD
100
AcDbEntity
  8
BEM
370
    -2
100
AcDbLine
 10
441.4745539068746
 20
274.3635852264797
 30
0.0
 11
441.4745539068746
 21
256.3635852264796
 31
0.0
  0
SOLID
  5
46A4
330
CAD
100
AcDbEntity
  8
BEM
100
AcDbTrace
 10
440.3078872402079
 20
281.3635852264797
 30
0.0
 11
442.6412205735413
 21
281.3635852264797
 31
0.0
 12
441.4745539068746
 22
274.3635852264797
 32
0.0
 13
441.4745539068746
 23
274.3635852264797
 33
0.0
  0
SOLID
  5
46A5
330
CAD
100
AcDbEntity
  8
BEM
100
AcDbTrace
 10
440.3078872402079
 20
249.3635852264796
 30
0.0
 11
442.6412205735413
 21
249.3635852264796
 31
0.0
 12
441.4745539068746
 22
256.3635852264796
 32
0.0
 13
441.4745539068746
 23
256.3635852264796
 33
0.0
  0
MTEXT
  5
46A6
330
CAD
100
AcDbEntity
  8
BEM
100
AcDbMText
 10
432.4745539068746
 20
265.3635852264798
 30
0.0
 40
10.0
 41
0.0
 71
     5
 72
     1
  1
\A1;%%c18
 11
0.0000000000000001
 21
1.0
 31
0.0
 73
     1
 44
1.0
  0
POINT
  5
46A7
330
CAD
100
AcDbEntity
  8
Defpoints
 62
     0
100
AcDbPoint
 10
468.0314420796301
 20
274.3635852264797
 30
0.0
  0
POINT
  5
46A8
330
CAD
100
AcDbEntity
  8
Defpoints
 62
     0
100
AcDbPoint
 10
468.0314420796301
 20
256.3635852264796
 30
0.0
  0
POINT
  5
46A9
330
CAD
100
AcDbEntity
  8
Defpoints
 62
     0
100
AcDbPoint
 10
441.4745539068746
 20
256.3635852264796
 30
0.0
  0
ENDBLK
  5
CBA
330
CAD
100
AcDbEntity
  8
0
 48
10.0
100
AcDbBlockEnd
  0
BLOCK
  5
CC5
330
CBB
100
AcDbEntity
  8
0
 48
10.0
100
AcDbBlockBegin
  2
*D6
 70
     1
 10
0.0
 20
0.0
 30
0.0
  3
*D6
  1

  0
LINE
  5
46AA
330
CBB
100
AcDbEntity
  8
BEM
370
    -2
100
AcDbLine
 10
945.5989745477872
 20
320.3635852264796
 30
0.0
 11
1012.509229709288
 21
320.3635852264796
 31
0.0
  0
LINE
  5
46AB
330
CBB
100
AcDbEntity
  8
BEM
370
    -2
100
AcDbLine
 10
945.3172284126742
 20
210.3635852264796
 30
0.0
 11
1012.509229709288
 21
210.3635852264796
 31
0.0
  0
LINE
  5
46AC
330
CBB
100
AcDbEntity
  8
BEM
370
    -2
100
AcDbLine
 10
1011.259229709288
 20
313.3635852264796
 30
0.0
 11
1011.259229709288
 21
217.3635852264796
 31
0.0
  0
SOLID
  5
46AD
330
CBB
100
AcDbEntity
  8
BEM
100
AcDbTrace
 10
1010.092563042621
 20
313.3635852264796
 30
0.0
 11
1012.425896375955
 21
313.3635852264796
 31
0.0
 12
1011.259229709288
 22
320.3635852264796
 32
0.0
 13
1011.259229709288
 23
320.3635852264796
 33
0.0
  0
SOLID
  5
46AE
330
CBB
100
AcDbEntity
  8
BEM
100
AcDbTrace
 10
1010.092563042621
 20
217.3635852264796
 30
0.0
 11
1012.425896375954
 21
217.3635852264796
 31
0.0
 12
1011.259229709288
 22
210.3635852264796
 32
0.0
 13
1011.259229709288
 23
210.3635852264796
 33
0.0
  0
MTEXT
  5
46AF
330
CBB
100
AcDbEntity
  8
BEM
100
AcDbMText
 10
999.6401820902404
 20
265.3635852264796
 30
0.0
 40
10.0
 41
0.0
 71
     5
 72
     1
  1
\A1;(110)
 11
0.0000000000000001
 21
1.0
 31
0.0
 73
     1
 44
1.0
  0
POINT
  5
46B0
330
CBB
100
AcDbEntity
  8
Defpoints
 62
     0
100
AcDbPoint
 10
945.5989745477872
 20
320.3635852264796
 30
0.0
  0
POINT
  5
46B1
330
CBB
100
AcDbEntity
  8
Defpoints
 62
     0
100
AcDbPoint
 10
945.3172284126742
 20
210.3635852264796
 30
0.0
  0
POINT
  5
46B2
330
CBB
100
AcDbEntity
  8
Defpoints
 62
     0
100
AcDbPoint
 10
1011.259229709288
 20
210.3635852264796
 30
0.0
  0
ENDBLK
  5
CC6
330
CBB
100
AcDbEntity
  8
0
 48
10.0
100
AcDbBlockEnd
  0
BLOCK
  5
CD1
330
CC7
100
AcDbEntity
  8
0
 48
10.0
100
AcDbBlockBegin
  2
*D7
 70
     1
 10
0.0
 20
0.0
 30
0.0
  3
*D7
  1

  0
LINE
  5
46B3
330
CC7
100
AcDbEntity
  8
BEM
370
    -2
100
AcDbLine
 10
936.3222726122089
 20
335.3635852264796
 30
0.0
 11
1035.778531333326
 21
335.3635852264796
 31
0.0
  0
LINE
  5
46B4
330
CC7
100
AcDbEntity
  8
BEM
370
    -2
100
AcDbLine
 10
936.3222726122089
 20
195.3635852264794
 30
0.0
 11
1035.778531333326
 21
195.3635852264794
 31
0.0
  0
LINE
  5
46B5
330
CC7
100
AcDbEntity
  8
BEM
370
    -2
100
AcDbLine
 10
1034.528531333326
 20
328.3635852264796
 30
0.0
 11
1034.528531333326
 21
202.3635852264794
 31
0.0
  0
SOLID
  5
46B6
330
CC7
100
AcDbEntity
  8
BEM
100
AcDbTrace
 10
1033.361864666659
 20
328.3635852264796
 30
0.0
 11
1035.695197999992
 21
328.3635852264796
 31
0.0
 12
1034.528531333326
 22
335.3635852264796
 32
0.0
 13
1034.528531333326
 23
335.3635852264796
 33
0.0
  0
SOLID
  5
46B7
330
CC7
100
AcDbEntity
  8
BEM
100
AcDbTrace
 10
1033.361864666659
 20
202.3635852264794
 30
0.0
 11
1035.695197999992
 21
202.3635852264794
 31
0.0
 12
1034.528531333326
 22
195.3635852264794
 32
0.0
 13
1034.528531333326
 23
195.3635852264794
 33
0.0
  0
MTEXT
  5
46B8
330
CC7
100
AcDbEntity
  8
BEM
100
AcDbMText
 10
1025.528531333326
 20
265.3635852264796
 30
0.0
 40
10.0
 41
0.0
 71
     5
 72
     1
  1
\A1;140
 11
0.0000000000000001
 21
1.0
 31
0.0
 73
     1
 44
1.0
  0
POINT
  5
46B9
330
CC7
100
AcDbEntity
  8
Defpoints
 62
     0
100
AcDbPoint
 10
936.3222726122089
 20
335.3635852264796
 30
0.0
  0
POINT
  5
46BA
330
CC7
100
AcDbEntity
  8
Defpoints
 62
     0
100
AcDbPoint
 10
936.3222726122089
 20
195.3635852264794
 30
0.0
  0
POINT
  5
46BB
330
CC7
100
AcDbEntity
  8
Defpoints
 62
     0
100
AcDbPoint
 10
1034.528531333326
 20
195.3635852264794
 30
0.0
  0
ENDBLK
  5
CD2
330
CC7
100
AcDbEntity
  8
0
 48
10.0
100
AcDbBlockEnd
  0
BLOCK
  5
CDD
330
CD3
100
AcDbEntity
  8
0
 48
10.0
100
AcDbBlockBegin
  2
*D8
 70
     1
 10
0.0
 20
0.0
 30
0.0
  3
*D8
  1

  0
LINE
  5
46BC
330
CD3
100
AcDbEntity
  8
BEM
370
    -2
100
AcDbLine
 10
757.83144207963
 20
296.3635852264796
 30
0.0
 11
817.7892964316729
 21
296.3635852264796
 31
0.0
  0
LINE
  5
46BD
330
CD3
100
AcDbEntity
  8
BEM
370
    -2
100
AcDbLine
 10
757.83144207963
 20
234.3635852264796
 30
0.0
 11
817.7892964316727
 21
234.3635852264796
 31
0.0
  0
LINE
  5
46BE
330
CD3
100
AcDbEntity
  8
BEM
370
    -2
100
AcDbLine
 10
816.539296431673
 20
289.3635852264796
 30
0.0
 11
816.5392964316728
 21
241.3635852264796
 31
0.0
  0
SOLID
  5
46BF
330
CD3
100
AcDbEntity
  8
BEM
100
AcDbTrace
 10
815.3726297650063
 20
289.3635852264796
 30
0.0
 11
817.7059630983395
 21
289.3635852264796
 31
0.0
 12
816.539296431673
 22
296.3635852264796
 32
0.0
 13
816.539296431673
 23
296.3635852264796
 33
0.0
  0
SOLID
  5
46C0
330
CD3
100
AcDbEntity
  8
BEM
100
AcDbTrace
 10
815.3726297650061
 20
241.3635852264796
 30
0.0
 11
817.7059630983395
 21
241.3635852264796
 31
0.0
 12
816.5392964316728
 22
234.3635852264796
 32
0.0
 13
816.5392964316728
 23
234.3635852264796
 33
0.0
  0
MTEXT
  5
46C1
330
CD3
100
AcDbEntity
  8
BEM
100
AcDbMText
 10
807.5392964316728
 20
257.0424481945341
 30
0.0
 40
10.0
 41
0.0
 71
     5
 72
     1
  1
\A1;%%c62
 11
0.0000000000000001
 21
1.0
 31
0.0
 73
     1
 44
1.0
  0
POINT
  5
46C2
330
CD3
100
AcDbEntity
  8
Defpoints
 62
     0
100
AcDbPoint
 10
757.83144207963
 20
296.3635852264796
 30
0.0
  0
POINT
  5
46C3
330
CD3
100
AcDbEntity
  8
Defpoints
 62
     0
100
AcDbPoint
 10
757.83144207963
 20
234.3635852264796
 30
0.0
  0
POINT
  5
46C4
330
CD3
100
AcDbEntity
  8
Defpoints
 62
     0
100
AcDbPoint
 10
816.5392964316728
 20
234.3635852264796
 30
0.0
  0
ENDBLK
  5
CDE
330
CD3
100
AcDbEntity
  8
0
 48
10.0
100
AcDbBlockEnd
  0
BLOCK
  5
CE8
330
CDF
100
AcDbEntity
  8
0
 48
10.0
100
AcDbBlockBegin
  2
*D9
 70
     1
 10
0.0
 20
0.0
 30
0.0
  3
*D9
  1

  0
LINE
  5
46C5
330
CDF
100
AcDbEntity
  8
BEM
370
    -2
100
AcDbLine
 10
858.8951112814147
 20
229.7185635814611
 30
0.0
 11
895.4459220772363
 21
246.5454034082994
 31
0.0
  0
LINE
  5
46C6
330
CDF
100
AcDbEntity
  8
BEM
370
    -2
100
AcDbLine
 10
977.1986231471814
 20
284.1817670446598
 30
0.0
 11
983.5571665637328
 21
287.1090397719322
 31
0.0
  0
MTEXT
  5
46C7
102
{ACAD_XDICTIONARY
360
4724
102
}
330
CDF
100
AcDbEntity
  8
BEM
100
AcDbMText
 10
870.2276086074139
 20
244.8436172382384
 30
0.0
 40
10.0
 41
0.0
 71
     5
 72
     1
  1
\A1;\U+220576
 11
0.9083633452216036
 21
0.4181818181817783
 31
0.0
 73
     1
 44
1.0
  0
LINE
  5
46C8
330
CDF
100
AcDbEntity
  8
BEM
370
    -2
100
AcDbLine
 10
970.8400797306302
 20
281.2544943173873
 30
0.0
 11
901.8044654937876
 21
249.4726761355718
 31
0.0
  0
SOLID
  5
46C9
330
CDF
100
AcDbEntity
  8
BEM
100
AcDbTrace
 10
976.7107443593026
 20
285.2415242807516
 30
0.0
 11
977.6865019350601
 21
283.1220098085679
 31
0.0
 12
970.8400797306302
 22
281.2544943173873
 32
0.0
 13
970.8400797306302
 23
281.2544943173873
 33
0.0
  0
SOLID
  5
46CA
330
CDF
100
AcDbEntity
  8
BEM
100
AcDbTrace
 10
894.9580432893576
 20
247.6051606443912
 30
0.0
 11
895.9338008651149
 21
245.4856461722075
 31
0.0
 12
901.8044654937876
 22
249.4726761355718
 32
0.0
 13
901.8044654937876
 23
249.4726761355718
 33
0.0
  0
POINT
  5
46CB
330
CDF
100
AcDbEntity
  8
Defpoints
 62
     0
100
AcDbPoint
 10
901.8044654937876
 20
249.4726761355718
 30
0.0
  0
POINT
  5
46CC
330
CDF
100
AcDbEntity
  8
Defpoints
 62
     0
100
AcDbPoint
 10
970.8400797306302
 20
281.2544943173873
 30
0.0
  0
ENDBLK
  5
CE9
330
CDF
100
AcDbEntity
  8
0
 48
10.0
100
AcDbBlockEnd
  0
BLOCK
  5
CF3
330
CEA
100
AcDbEntity
  8
0
 48
10.0
100
AcDbBlockBegin
  2
*D10
 70
     1
 10
0.0
 20
0.0
 30
0.0
  3
*D10
  1

  0
LINE
  5
46CD
330
CEA
100
AcDbEntity
  8
BEM
370
    -2
100
AcDbLine
 10
948.102122343586
 20
217.9289761817549
 30
0.0
 11
953.9920472092747
 21
221.7116716593926
 31
0.0
  0
LINE
  5
46CE
330
CEA
100
AcDbEntity
  8
BEM
370
    -2
100
AcDbLine
 10
924.542422880831
 20
202.7981942712039
 30
0.0
 11
890.2846966212127
 21
180.7968022073925
 31
0.0
  0
LINE
  5
46CF
330
CEA
100
AcDbEntity
  8
BEM
370
    -2
100
AcDbLine
 10
942.2121974778972
 20
214.1462807041171
 30
0.0
 11
930.4323477465198
 21
206.5808897488416
 31
0.0
  0
SOLID
  5
46D0
330
CEA
100
AcDbEntity
  8
BEM
100
AcDbTrace
 10
947.4716730973129
 20
218.9106303260364
 30
0.0
 11
948.732571589859
 21
216.9473220374734
 31
0.0
 12
942.2121974778972
 22
214.1462807041171
 32
0.0
 13
942.2121974778972
 23
214.1462807041171
 33
0.0
  0
SOLID
  5
46D1
330
CEA
100
AcDbEntity
  8
BEM
100
AcDbTrace
 10
923.911973634558
 20
203.7798484154853
 30
0.0
 11
925.1728721271041
 21
201.8165401269224
 31
0.0
 12
930.4323477465198
 22
206.5808897488416
 32
0.0
 13
930.4323477465198
 23
206.5808897488416
 33
0.0
  0
MTEXT
  5
46D2
102
{ACAD_XDICTIONARY
360
4726
102
}
330
CEA
100
AcDbEntity
  8
BEM
100
AcDbMText
 10
899.6051317040718
 20
197.4789110420791
 30
0.0
 40
10.0
 41
0.0
 71
     5
 72
     1
  1
\A1;\U+220514
 11
0.8414178379555384
 21
0.5403850682339652
 31
0.0
 73
     1
 44
1.0
  0
POINT
  5
46D3
330
CEA
100
AcDbEntity
  8
Defpoints
 62
     0
100
AcDbPoint
 10
930.4323477465198
 20
206.5808897488416
 30
0.0
  0
POINT
  5
46D4
330
CEA
100
AcDbEntity
  8
Defpoints
 62
     0
100
AcDbPoint
 10
942.2121974778972
 20
214.1462807041171
 30
0.0
  0
ENDBLK
  5
CF4
330
CEA
100
AcDbEntity
  8
0
 48
10.0
100
AcDbBlockEnd
  0
BLOCK
  5
CFF
330
CF5
100
AcDbEntity
  8
0
 48
10.0
100
AcDbBlockBegin
  2
*D11
 70
     1
 10
0.0
 20
0.0
 30
0.0
  3
*D11
  1

  0
LINE
  5
46D5
330
CF5
100
AcDbEntity
  8
BEM
370
    -2
100
AcDbLine
 10
757.83144207963
 20
296.3635852264796
 30
0.0
 11
757.83144207963
 21
414.0323788577549
 31
0.0
  0
LINE
  5
46D6
330
CF5
100
AcDbEntity
  8
BEM
370
    -2
100
AcDbLine
 10
506.03144207963
 20
366.9041710519954
 30
0.0
 11
506.03144207963
 21
414.0323788577549
 31
0.0
  0
LINE
  5
46D7
330
CF5
100
AcDbEntity
  8
BEM
370
    -2
100
AcDbLine
 10
750.83144207963
 20
412.7823788577549
 30
0.0
 11
513.0314420796301
 21
412.7823788577549
 31
0.0
  0
SOLID
  5
46D8
330
CF5
100
AcDbEntity
  8
BEM
100
AcDbTrace
 10
750.83144207963
 20
413.9490455244215
 30
0.0
 11
750.83144207963
 21
411.6157121910882
 31
0.0
 12
757.83144207963
 22
412.7823788577549
 32
0.0
 13
757.83144207963
 23
412.7823788577549
 33
0.0
  0
SOLID
  5
46D9
330
CF5
100
AcDbEntity
  8
BEM
100
AcDbTrace
 10
513.0314420796301
 20
413.9490455244215
 30
0.0
 11
513.0314420796301
 21
411.6157121910882
 31
0.0
 12
506.03144207963
 22
412.7823788577549
 32
0.0
 13
506.03144207963
 23
412.7823788577549
 33
0.0
  0
MTEXT
  5
46DA
330
CF5
100
AcDbEntity
  8
BEM
100
AcDbMText
 10
611.9314420796301
 20
426.7823788577548
 30
0.0
 40
10.0
 41
0.0
 71
     1
 72
     1
  1
\A1;251.8
 73
     1
 44
1.0
  0
POINT
  5
46DB
330
CF5
100
AcDbEntity
  8
Defpoints
 62
     0
100
AcDbPoint
 10
757.83144207963
 20
296.3635852264796
 30
0.0
  0
POINT
  5
46DC
330
CF5
100
AcDbEntity
  8
Defpoints
 62
     0
100
AcDbPoint
 10
506.03144207963
 20
366.9041710519954
 30
0.0
  0
POINT
  5
46DD
330
CF5
100
AcDbEntity
  8
Defpoints
 62
     0
100
AcDbPoint
 10
506.03144207963
 20
412.7823788577549
 30
0.0
  0
ENDBLK
  5
D00
330
CF5
100
AcDbEntity
  8
0
 48
10.0
100
AcDbBlockEnd
  0
BLOCK
  5
D0D
330
D01
100
AcDbEntity
  8
0
 48
10.0
100
AcDbBlockBegin
  2
*D12
 70
     1
 10
0.0
 20
0.0
 30
0.0
  3
*D12
  1

  0
LINE
  5
46DE
330
D01
100
AcDbEntity
  8
BEM
370
    -2
100
AcDbLine
 10
506.03144207963
 20
295.0956360340484
 30
0.0
 11
506.03144207963
 21
358.9854551040101
 31
0.0
  0
LINE
  5
46DF
330
D01
100
AcDbEntity
  8
BEM
370
    -2
100
AcDbLine
 10
512.0314420796301
 20
335.3635852264796
 30
0.0
 11
512.0314420796301
 21
358.9854551040101
 31
0.0
  0
LINE
  5
46E0
330
D01
100
AcDbEntity
  8
BEM
370
    -2
100
AcDbLine
 10
519.03144207963
 20
357.7354551040102
 30
0.0
 11
526.0314420796301
 21
357.7354551040102
 31
0.0
  0
LINE
  5
46E1
330
D01
100
AcDbEntity
  8
BEM
370
    -2
100
AcDbLine
 10
499.0314420796301
 20
357.7354551040102
 30
0.0
 11
477.4028706510585
 21
357.7354551040102
 31
0.0
  0
LINE
  5
46E2
330
D01
100
AcDbEntity
  8
BEM
370
    -2
100
AcDbLine
 10
512.0314420796301
 20
357.7354551040102
 30
0.0
 11
506.03144207963
 21
357.7354551040102
 31
0.0
  0
SOLID
  5
46E3
330
D01
100
AcDbEntity
  8
BEM
100
AcDbTrace
 10
519.03144207963
 20
358.9021217706768
 30
0.0
 11
519.03144207963
 21
356.5687884373435
 31
0.0
 12
512.0314420796301
 22
357.7354551040102
 32
0.0
 13
512.0314420796301
 23
357.7354551040102
 33
0.0
  0
SOLID
  5
46E4
330
D01
100
AcDbEntity
  8
BEM
100
AcDbTrace
 10
499.0314420796301
 20
358.9021217706768
 30
0.0
 11
499.0314420796301
 21
356.5687884373435
 31
0.0
 12
506.03144207963
 22
357.7354551040102
 32
0.0
 13
506.03144207963
 23
357.7354551040102
 33
0.0
  0
MTEXT
  5
46E5
330
D01
100
AcDbEntity
  8
BEM
100
AcDbMText
 10
484.4981087462967
 20
366.7354551040101
 30
0.0
 40
10.0
 41
0.0
 71
     5
 72
     1
  1
\A1;6
 73
     1
 44
1.0
  0
POINT
  5
46E6
330
D01
100
AcDbEntity
  8
Defpoints
 62
     0
100
AcDbPoint
 10
506.03144207963
 20
295.0956360340484
 30
0.0
  0
POINT
  5
46E7
330
D01
100
AcDbEntity
  8
Defpoints
 62
     0
100
AcDbPoint
 10
512.0314420796301
 20
335.3635852264796
 30
0.0
  0
POINT
  5
46E8
330
D01
100
AcDbEntity
  8
Defpoints
 62
     0
100
AcDbPoint
 10
512.0314420796301
 20
357.7354551040102
 30
0.0
  0
ENDBLK
  5
D0E
330
D01
100
AcDbEntity
  8
0
 48
10.0
100
AcDbBlockEnd
  0
BLOCK
  5
D1B
330
D0F
100
AcDbEntity
  8
0
 48
10.0
100
AcDbBlockBegin
  2
*D13
 70
     1
 10
0.0
 20
0.0
 30
0.0
  3
*D13
  1

  0
LINE
  5
46E9
330
D0F
100
AcDbEntity
  8
BEM
370
    -2
100
AcDbLine
 10
506.03144207963
 20
295.3635852264796
 30
0.0
 11
506.03144207963
 21
381.8415407232541
 31
0.0
  0
LINE
  5
46EA
330
D0F
100
AcDbEntity
  8
BEM
370
    -2
100
AcDbLine
 10
532.03144207963
 20
335.3635852264796
 30
0.0
 11
532.03144207963
 21
381.8415407232541
 31
0.0
  0
LINE
  5
46EB
330
D0F
100
AcDbEntity
  8
BEM
370
    -2
100
AcDbLine
 10
513.0314420796301
 20
380.5915407232541
 30
0.0
 11
525.0314420796301
 21
380.5915407232541
 31
0.0
  0
SOLID
  5
46EC
330
D0F
100
AcDbEntity
  8
BEM
100
AcDbTrace
 10
513.0314420796301
 20
381.7582073899207
 30
0.0
 11
513.0314420796301
 21
379.4248740565874
 31
0.0
 12
506.03144207963
 22
380.5915407232541
 32
0.0
 13
506.03144207963
 23
380.5915407232541
 33
0.0
  0
SOLID
  5
46ED
330
D0F
100
AcDbEntity
  8
BEM
100
AcDbTrace
 10
525.0314420796301
 20
381.7582073899207
 30
0.0
 11
525.0314420796301
 21
379.4248740565874
 31
0.0
 12
532.03144207963
 22
380.5915407232541
 32
0.0
 13
532.03144207963
 23
380.5915407232541
 33
0.0
  0
MTEXT
  5
46EE
330
D0F
100
AcDbEntity
  8
BEM
100
AcDbMText
 10
519.03144207963
 20
389.5915407232541
 30
0.0
 40
10.0
 41
0.0
 71
     5
 72
     1
  1
\A1;26
 73
     1
 44
1.0
  0
POINT
  5
46EF
330
D0F
100
AcDbEntity
  8
Defpoints
 62
     0
100
AcDbPoint
 10
506.03144207963
 20
295.3635852264796
 30
0.0
  0
POINT
  5
46F0
330
D0F
100
AcDbEntity
  8
Defpoints
 62
     0
100
AcDbPoint
 10
532.03144207963
 20
335.3635852264796
 30
0.0
  0
POINT
  5
46F1
330
D0F
100
AcDbEntity
  8
Defpoints
 62
     0
100
AcDbPoint
 10
532.03144207963
 20
380.5915407232541
 30
0.0
  0
ENDBLK
  5
D1C
330
D0F
100
AcDbEntity
  8
0
 48
10.0
100
AcDbBlockEnd
  0
BLOCK
  5
D24
330
D1D
100
AcDbEntity
  8
0
 48
10.0
100
AcDbBlockBegin
  2
*D14
 70
     1
 10
0.0
 20
0.0
 30
0.0
  3
*D14
  1

  0
LINE
  5
46F2
330
D1D
100
AcDbEntity
  8
BEM
370
    -2
100
AcDbLine
 10
921.3517740583034
 20
336.4845086816517
 30
0.0
 11
892.0264468044418
 21
368.0633738914587
 31
0.0
  0
LINE
  5
46F3
330
D1D
100
AcDbEntity
  8
BEM
370
    -2
100
AcDbLine
 10
936.3222726122089
 20
320.3635852264792
 30
0.0
 11
926.1151145072734
 21
331.3551239459151
 31
0.0
  0
SOLID
  5
46F4
330
D1D
100
AcDbEntity
  8
BEM
100
AcDbTrace
 10
922.2066715142595
 20
337.2783987564801
 30
0.0
 11
920.4968766023473
 21
335.6906186068234
 31
0.0
 12
926.1151145072734
 22
331.3551239459151
 32
0.0
 13
926.1151145072734
 23
331.3551239459151
 33
0.0
  0
MTEXT
  5
46F5
330
D1D
100
AcDbEntity
  8
BEM
100
AcDbMText
 10
910.092271525459
 20
361.835272860197
 30
0.0
 40
10.0
 41
0.0
 71
     5
 72
     1
  1
\A1;R15
 11
0.6804772069956889
 21
-0.7327692479623762
 31
0.0
 73
     1
 44
1.0
  0
POINT
  5
46F6
330
D1D
100
AcDbEntity
  8
Defpoints
 62
     0
100
AcDbPoint
 10
926.1151145072734
 20
331.3551239459151
 30
0.0
  0
POINT
  5
46F7
330
D1D
100
AcDbEntity
  8
Defpoints
 62
     0
100
AcDbPoint
 10
936.3222726122089
 20
320.3635852264792
 30
0.0
  0
ENDBLK
  5
D25
330
D1D
100
AcDbEntity
  8
0
 48
10.0
100
AcDbBlockEnd
  0
BLOCK
  5
1BB8
330
1BAC
100
AcDbEntity
  8
0
 48
10.0
100
AcDbBlockBegin
  2
*D15
 70
     1
 10
0.0
 20
0.0
 30
0.0
  3
*D15
  1

  0
LINE
  5
470F
330
1BAC
100
AcDbEntity
  8
BEM
 48
10.0
370
    -2
100
AcDbLine
 10
221.3949219885041
 20
249.3635852264796
 30
0.0
 11
221.3949219885041
 21
184.547960986566
 31
0.0
  0
LINE
  5
4710
330
1BAC
100
AcDbEntity
  8
BEM
 48
10.0
370
    -2
100
AcDbLine
 10
240.8509219885041
 20
249.3635852264796
 30
0.0
 11
240.8509219885041
 21
185.9423052627794
 31
0.0
  0
LINE
  5
4711
330
1BAC
100
AcDbEntity
  8
BEM
 48
10.0
370
    -2
100
AcDbLine
 10
214.3949219885041
 20
161.7209948675759
 30
0.0
 11
207.3949219885041
 21
161.7209948675759
 31
0.0
  0
LINE
  5
4712
330
1BAC
100
AcDbEntity
  8
BEM
 48
10.0
370
    -2
100
AcDbLine
 10
247.8509219885041
 20
161.7209948675759
 30
0.0
 11
254.8509219885041
 21
161.7209948675759
 31
0.0
  0
LINE
  5
4713
330
1BAC
100
AcDbEntity
  8
BEM
 48
10.0
370
    -2
100
AcDbLine
 10
221.3949219885041
 20
161.7209948675759
 30
0.0
 11
240.8509219885041
 21
161.7209948675759
 31
0.0
  0
SOLID
  5
4714
330
1BAC
100
AcDbEntity
  8
BEM
 48
10.0
100
AcDbTrace
 10
214.3949219885041
 20
162.8876615342425
 30
0.0
 11
214.3949219885041
 21
160.5543282009092
 31
0.0
 12
221.3949219885041
 22
161.7209948675759
 32
0.0
 13
221.3949219885041
 23
161.7209948675759
 33
0.0
  0
SOLID
  5
4715
330
1BAC
100
AcDbEntity
  8
BEM
 48
10.0
100
AcDbTrace
 10
247.8509219885041
 20
162.8876615342425
 30
0.0
 11
247.8509219885041
 21
160.5543282009092
 31
0.0
 12
240.8509219885041
 22
161.7209948675759
 32
0.0
 13
240.8509219885041
 23
161.7209948675759
 33
0.0
  0
MTEXT
  5
4716
330
1BAC
100
AcDbEntity
  8
BEM
 48
10.0
100
AcDbMText
 10
231.1229219885041
 20
173.3400424866235
 30
0.0
 40
10.0
 41
0.0
 71
     5
 72
     1
  1
\A1;G1/8"
 73
     1
 44
1.0
  0
POINT
  5
4717
330
1BAC
100
AcDbEntity
  8
Defpoints
 62
     0
 48
10.0
100
AcDbPoint
 10
221.3949219885041
 20
249.3635852264796
 30
0.0
  0
POINT
  5
4718
330
1BAC
100
AcDbEntity
  8
Defpoints
 62
     0
 48
10.0
100
AcDbPoint
 10
240.8509219885041
 20
249.3635852264796
 30
0.0
  0
POINT
  5
4719
330
1BAC
100
AcDbEntity
  8
Defpoints
 62
     0
 48
10.0
100
AcDbPoint
 10
240.8509219885041
 20
161.7209948675759
 30
0.0
  0
LINE
  5
471A
330
1BAC
100
AcDbEntity
  8
BEM
 48
10.0
370
    -2
100
AcDbLine
 10
240.8509219885041
 20
166.6206656241265
 30
0.0
 11
240.8509219885041
 21
160.4709948675759
 31
0.0
  0
LINE
  5
471B
330
1BAC
100
AcDbEntity
  8
BEM
 48
10.0
370
    -2
100
AcDbLine
 10
221.3949219885041
 20
166.0230881934017
 30
0.0
 11
221.3949219885041
 21
160.4709948675759
 31
0.0
  0
ENDBLK
  5
1BB9
330
1BAC
100
AcDbEntity
  8
0
 48
10.0
100
AcDbBlockEnd
  0
BLOCK
  5
45EE
330
45EC
100
AcDbEntity
  8
0
 48
10.0
100
AcDbBlockBegin
  2
GENAXEH
 70
     0
 10
0.0
 20
0.0
 30
0.0
  3
GENAXEH
  1

  0
LINE
  5
45ED
330
45EC
100
AcDbEntity
  8
0
100
AcDbLine
 10
-1.0
 20
0.0
 30
0.0
 11
1.0
 21
0.0
 31
0.0
  0
ENDBLK
  5
45EF
330
45EC
100
AcDbEntity
  8
0
 48
10.0
100
AcDbBlockEnd
  0
BLOCK
  5
460A
330
4606
100
AcDbEntity
  8
0
 48
10.0
100
AcDbBlockBegin
  2
_Open30
 70
     0
 10
0.0
 20
0.0
 30
0.0
  3
_Open30
  1

  0
LINE
  5
4607
330
4606
100
AcDbEntity
  8
0
  6
ByBlock
 62
     0
370
    -2
100
AcDbLine
 10
-1.0
 20
0.26794919
 30
0.0
 11
0.0
 21
0.0
 31
0.0
  0
LINE
  5
4608
330
4606
100
AcDbEntity
  8
0
  6
ByBlock
 62
     0
370
    -2
100
AcDbLine
 10
0.0
 20
0.0
 30
0.0
 11
-1.0
 21
-0.26794919
 31
0.0
  0
LINE
  5
4609
330
4606
100
AcDbEntity
  8
0
  6
ByBlock
 62
     0
370
    -2
100
AcDbLine
 10
0.0
 20
0.0
 30
0.0
 11
-1.0
 21
0.0
 31
0.0
  0
ENDBLK
  5
460B
330
4606
100
AcDbEntity
  8
0
 48
10.0
100
AcDbBlockEnd
  0
ENDSEC
  0
SECTION
  2
ENTITIES
  0
LWPOLYLINE
  5
BF5
330
2
100
AcDbEntity
  8
BEM
100
AcDbPolyline
 90
        3
 70
     0
 43
0.0
 10
482.3531047620606
 20
286.6217383926895
 10
476.1194407755035
 20
323.2367940926727
 10
308.6186201166336
 20
323.2367940926727
1001
ACAD
1000
DSTYLE
1002
{
1070
    40
1040
1.0
1070
   144
1040
1.0
1002
}
  0
DIMENSION
  5
BF6
330
2
100
AcDbEntity
  8
BEM
100
AcDbDimension
  2
*D0
 10
466.0314420796302
 20
412.7823788577549
 30
0.0
 11
487.1049238795345
 21
412.7823788577549
 31
0.0
 70
   160
 71
     5
 42
39.99999999999989
  3
ISO-25
100
AcDbAlignedDimension
 13
506.03144207963
 23
412.7823788577549
 33
0.0
 14
466.0314420796302
 24
352.6709441755555
 34
0.0
100
AcDbRotatedDimension
1001
ACAD
1000
DSTYLE
1002
{
1070
    40
1040
1.0
1002
}
  0
DIMENSION
  5
BF7
330
2
100
AcDbEntity
  8
BEM
100
AcDbDimension
  2
*D1
 10
397.734423397463
 20
235.3635852264796
 30
0.0
 11
388.734423397463
 21
265.3635852264797
 31
0.0
 70
    32
  1
%%c<>
 71
     5
 42
60.0
  3
ISO-25
100
AcDbAlignedDimension
 13
507.03144207963
 23
295.3635852264796
 33
0.0
 14
507.03144207963
 24
235.3635852264796
 34
0.0
 50
90.0
100
AcDbRotatedDimension
1001
ACAD
1000
DSTYLE
1002
{
1070
    40
1040
1.0
1002
}
  0
LINE
  5
BF8
330
2
100
AcDbEntity
  8
0
100
AcDbLine
 10
580.1726144213063
 20
260.8635852264796
 30
0.0
 11
561.1726144213064
 21
260.8635852264796
 31
0.0
1001
ACAD
1000
ASC_BOUNDS
1002
{
1070
    19
1002
}
  0
LINE
  5
BF9
330
2
100
AcDbEntity
  8
0
100
AcDbLine
 10
564.1566399397125
 20
271.0635852264797
 30
0.0
 11
574.1885889029001
 21
271.0635852264797
 31
0.0
  0
LINE
  5
BFA
330
2
100
AcDbEntity
  8
0
100
AcDbLine
 10
580.1726144213063
 20
269.8635852264797
 30
0.0
 11
561.1726144213064
 21
269.8635852264797
 31
0.0
1001
ACAD
1000
ASC_BOUNDS
1002
{
1070
    19
1002
}
  0
LINE
  5
BFB
330
2
100
AcDbEntity
  8
MITTE
 48
10.0
100
AcDbLine
 10
558.523653845941
 20
265.3635852264797
 30
0.0
 11
708.1532959979808
 21
265.3635852264797
 31
0.0
  0
DIMENSION
  5
BFC
102
{ACAD_XDICTIONARY
360
27D5
102
}
102
{ACAD_REACTORS
330
27D6
102
}
330
2
100
AcDbEntity
  8
BEM
 48
10.0
100
AcDbDimension
  2
*D2
 10
246.1229219885041
 20
369.1300717864215
 30
0.0
 11
238.6229219885041
 21
369.1300717864215
 31
0.0
 70
   160
 71
     5
 42
15.0
  3
ISO-25
100
AcDbAlignedDimension
 13
231.1229219885041
 23
341.2556161043349
 33
0.0
 14
246.1229219885041
 24
289.0075216515954
 34
0.0
100
AcDbRotatedDimension
  0
DIMENSION
  5
BFD
330
2
100
AcDbEntity
  8
BEM
 48
10.0
100
AcDbDimension
  2
*D3
 10
165.0595231432689
 20
265.3635852264796
 30
0.0
 11
165.0595231432688
 21
257.3635852264796
 31
0.0
 70
   160
 71
     5
 42
16.0
  3
ISO-25
100
AcDbAlignedDimension
 13
221.3949219885041
 23
249.3635852264796
 33
0.0
 14
184.8298970721134
 24
265.3635852264796
 34
0.0
 50
90.0
100
AcDbRotatedDimension
  0
DIMENSION
  5
BFE
330
2
100
AcDbEntity
  8
BEM
 48
10.0
100
AcDbDimension
  2
*D4
 10
292.9268695727441
 20
265.3635852264796
 30
0.0
 11
292.926869572744
 21
302.744537607432
 31
0.0
 70
   160
 71
     5
 42
12.0
  3
ISO-25
100
AcDbAlignedDimension
 13
257.7498701248378
 23
277.3635852264796
 33
0.0
 14
276.1326902505725
 24
265.3635852264796
 34
0.0
 50
90.0
100
AcDbRotatedDimension
  0
ARC
  5
BFF
330
2
100
AcDbEntity
  8
LINIE
 48
10.0
100
AcDbCircle
 10
526.4054991071732
 20
257.3635852264796
 30
0.0
 40
4.863999999999999
100
AcDbArc
 50
171.6840510627177
 51
100.6610555012246
  0
CIRCLE
  5
C01
330
2
100
AcDbEntity
  8
0
 48
10.0
100
AcDbCircle
 10
526.4054991071732
 20
265.3635852264797
 30
0.0
 40
15.5
  0
LINE
  5
C02
330
2
100
AcDbEntity
  8
0
100
AcDbLine
 10
560.1726144213064
 20
261.8635852264796
 30
0.0
 11
561.1726144213064
 21
260.8635852264796
 31
0.0
1001
ACAD
1000
ASC_BOUNDS
1002
{
1070
    19
1002
}
  0
DIMENSION
  5
C03
330
2
100
AcDbEntity
  8
BEM
100
AcDbDimension
  2
*D5
 10
441.4745539068746
 20
256.3635852264796
 30
0.0
 11
441.4745539068746
 21
265.3635852264798
 31
0.0
 70
   160
  1
%%c<>
 71
     5
 42
18.00000000000011
  3
ISO-25
100
AcDbAlignedDimension
 13
468.0314420796301
 23
274.3635852264797
 33
0.0
 14
468.0314420796301
 24
256.3635852264796
 34
0.0
 50
90.0
100
AcDbRotatedDimension
1001
ACAD
1000
DSTYLE
1002
{
1070
    40
1040
1.0
1002
}
  0
LINE
  5
C04
330
2
100
AcDbEntity
  8
0
100
AcDbLine
 10
561.1726144213064
 20
269.8635852264797
 30
0.0
 11
561.1726144213064
 21
260.8635852264796
 31
0.0
  0
CIRCLE
  5
C0A
330
2
100
AcDbEntity
  8
0
 48
10.0
100
AcDbCircle
 10
526.4054991071732
 20
257.3635852264796
 30
0.0
 40
4.283
  0
LINE
  5
C0B
330
2
100
AcDbEntity
  8
MITTE
 48
8.0
100
AcDbLine
 10
520.801162515694
 20
257.3635852264796
 30
0.0
 11
532.1099644897968
 21
257.3635852264796
 31
0.0
  0
MTEXT
  5
C0C
330
2
100
AcDbEntity
  8
BEM
100
AcDbMText
 10
308.9278625509274
 20
404.9908437863116
 30
0.0
 40
10.0
 41
0.0
 71
     1
 72
     1
  1
Scheibenfeder\Pplate spring\PRessort en rondelle\PMolla\P3x3.7 DIN 6888
 73
     1
 44
1.0
  0
CIRCLE
  5
C0E
330
2
100
AcDbEntity
  8
0
 48
10.0
100
AcDbCircle
 10
533.9054991071732
 20
271.3635852264797
 30
0.0
 40
4.283
  0
ARC
  5
C0F
330
2
100
AcDbEntity
  8
LINIE
 48
10.0
100
AcDbCircle
 10
533.9054991071732
 20
271.3635852264797
 30
0.0
 40
4.863999999999999
100
AcDbArc
 50
161.8437080195242
 51
98.06854335502505
  0
LINE
  5
C10
330
2
100
AcDbEntity
  8
MITTE
 48
10.0
100
AcDbLine
 10
513.2619610304759
 20
271.3635852264797
 30
0.0
 11
539.71897317534
 21
271.3635852264797
 31
0.0
  0
LINE
  5
C11
330
2
100
AcDbEntity
  8
MITTE
 48
10.0
100
AcDbLine
 10
503.8442618135113
 20
265.3635852264797
 30
0.0
 11
548.9103832382075
 21
265.3635852264797
 31
0.0
  0
LINE
  5
C14
330
2
100
AcDbEntity
  8
MITTE
 48
8.0
100
AcDbLine
 10
518.9054991071732
 20
277.1855534390375
 30
0.0
 11
518.9054991071732
 21
265.8112863960745
 31
0.0
  0
LINE
  5
C16
330
2
100
AcDbEntity
  8
MITTE
 48
8.0
100
AcDbLine
 10
533.9054991071732
 20
277.1855534390375
 30
0.0
 11
533.9054991071732
 21
265.8810671183999
 31
0.0
  0
TEXT
  5
C17
330
2
100
AcDbEntity
  8
BEM
100
AcDbText
 10
242.1515201348507
 20
298.4163610565894
 30
0.0
 40
10.0
  1
R
100
AcDbText
  0
LINE
  5
C1D
330
2
100
AcDbEntity
  8
BEM
100
AcDbLine
 10
466.0314420796303
 20
272.3635852264797
 30
0.0
 11
466.0314420796303
 21
316.3257161348711
 31
0.0
  0
LINE
  5
C1F
330
2
100
AcDbEntity
  8
0
100
AcDbLine
 10
560.1726144213064
 20
268.8635852264797
 30
0.0
 11
560.1726144213064
 21
261.8635852264796
 31
0.0
1001
ACAD
1000
ASC_BOUNDS
1002
{
1070
    19
1005
0
1005
0
1002
}
  0
ARC
  5
C20
330
2
100
AcDbEntity
  8
0
100
AcDbCircle
 10
569.1726144213064
 20
272.6135852264797
 30
0.0
 40
5.25
100
AcDbArc
 50
197.1718151492265
 51
211.5881355052006
1001
ACAD
1000
ASC_BOUNDS
1002
{
1070
    19
1002
}
  0
LINE
  5
C21
330
2
100
AcDbEntity
  8
0
100
AcDbLine
 10
560.1726144213064
 20
268.8635852264797
 30
0.0
 11
561.1726144213064
 21
269.8635852264797
 31
0.0
1001
ACAD
1000
ASC_BOUNDS
1002
{
1070
    19
1002
}
  0
LINE
  5
C22
330
2
100
AcDbEntity
  8
0
 48
10.0
100
AcDbLine
 10
706.0726144213063
 20
280.8635852264797
 30
0.0
 11
706.0726144213063
 21
249.8635852264797
 31
0.0
  0
LINE
  5
C23
330
2
100
AcDbEntity
  8
0
 48
10.0
100
AcDbLine
 10
676.0726144213062
 20
280.8635852264797
 30
0.0
 11
676.0726144213062
 21
249.8635852264797
 31
0.0
  0
DIMENSION
  5
C24
330
2
100
AcDbEntity
  8
BEM
100
AcDbDimension
  2
*D6
 10
1011.259229709288
 20
210.3635852264796
 30
0.0
 11
1011.259229709288
 21
265.3635852264796
 31
0.0
 70
   160
  1
(<>)
 71
     5
 42
110.0
  3
ISO-25
100
AcDbAlignedDimension
 13
945.5989745477872
 23
320.3635852264796
 33
0.0
 14
945.3172284126742
 24
210.3635852264796
 34
0.0
 50
90.0
100
AcDbRotatedDimension
1001
ACAD
1000
DSTYLE
1002
{
1070
    40
1040
1.0
1002
}
  0
LINE
  5
C25
330
2
100
AcDbEntity
  8
MITTE
 48
10.0
100
AcDbLine
 10
736.9801027877092
 20
303.1620881222813
 30
0.0
 11
736.9801027877092
 21
228.1076440890904
 31
0.0
  0
CIRCLE
  5
C26
330
2
100
AcDbEntity
  8
0
100
AcDbCircle
 10
736.9801027877092
 20
265.3635852264797
 30
0.0
 40
4.5
  0
CIRCLE
  5
C27
330
2
100
AcDbEntity
  8
0
100
AcDbCircle
 10
736.9801027877092
 20
265.3635852264797
 30
0.0
 40
15.0
  0
ARC
  5
C28
330
2
100
AcDbEntity
  8
0
100
AcDbCircle
 10
736.9801027877092
 20
265.3635852264797
 30
0.0
 40
19.0
100
AcDbArc
 50
335.2801488170912
 51
24.71985118290881
  0
DIMENSION
  5
C29
330
2
100
AcDbEntity
  8
BEM
100
AcDbDimension
  2
*D7
 10
1034.528531333326
 20
195.3635852264794
 30
0.0
 11
1034.528531333326
 21
265.3635852264796
 31
0.0
 70
   160
 71
     5
 42
140.0000000000001
  3
ISO-25
100
AcDbAlignedDimension
 13
936.3222726122089
 23
335.3635852264796
 33
0.0
 14
936.3222726122089
 24
195.3635852264794
 34
0.0
 50
90.0
100
AcDbRotatedDimension
1001
ACAD
1000
DSTYLE
1002
{
1070
    40
1040
1.0
1002
}
  0
DIMENSION
  5
C2A
330
2
100
AcDbEntity
  8
BEM
100
AcDbDimension
  2
*D8
 10
816.5392964316728
 20
234.3635852264796
 30
0.0
 11
816.5392964316728
 21
257.0424481945341
 31
0.0
 70
   160
  1
%%c<>
 71
     5
 42
62.0
  3
ISO-25
100
AcDbAlignedDimension
 13
757.83144207963
 23
296.3635852264796
 33
0.0
 14
757.83144207963
 24
234.3635852264796
 34
0.0
 50
90.0
100
AcDbRotatedDimension
1001
ACAD
1000
DSTYLE
1002
{
1070
    40
1040
1.0
1002
}
  0
DIMENSION
  5
C2B
330
2
100
AcDbEntity
  8
BEM
100
AcDbDimension
  2
*D9
 10
970.8400797306302
 20
281.2544943173873
 30
0.0
 11
870.2276086074139
 21
244.8436172382384
 31
0.0
 70
    35
 71
     5
 42
76.00000000000091
  3
ISO-25
100
AcDbDiametricDimension
 15
901.8044654937876
 25
249.4726761355718
 35
0.0
 40
0.0
1001
ACAD
1000
DSTYLE
1002
{
1070
   279
1070
     1
1070
   289
1070
     3
1002
}
  0
ARC
  5
C2C
330
2
100
AcDbEntity
  8
0
100
AcDbCircle
 10
736.9801027877092
 20
265.3635852264797
 30
0.0
 40
19.0
100
AcDbArc
 50
155.2801488170912
 51
204.7198511829088
  0
LINE
  5
C2D
330
2
100
AcDbEntity
  8
0
100
AcDbLine
 10
675.0226144213063
 20
280.8635852264797
 30
0.0
 11
675.0226144213063
 21
249.8635852264797
 31
0.0
  0
LINE
  5
C2E
330
2
100
AcDbEntity
  8
0
100
AcDbLine
 10
593.1726144213063
 20
300.3635852264797
 30
0.0
 11
593.1726144213063
 21
230.3635852264796
 31
0.0
  0
LINE
  5
C2F
330
2
100
AcDbEntity
  8
0
100
AcDbLine
 10
583.1726144213063
 20
300.3635852264797
 30
0.0
 11
583.1726144213063
 21
230.3635852264796
 31
0.0
  0
LINE
  5
C30
330
2
100
AcDbEntity
  8
0
100
AcDbLine
 10
580.6726144213063
 20
280.3635852264797
 30
0.0
 11
580.6726144213063
 21
250.3635852264797
 31
0.0
  0
LINE
  5
C31
330
2
100
AcDbEntity
  8
0
100
AcDbLine
 10
580.1726144213063
 20
280.229610630264
 30
0.0
 11
580.1726144213063
 21
250.4975598226952
 31
0.0
  0
LINE
  5
C32
330
2
100
AcDbEntity
  8
0
100
AcDbLine
 10
603.5226144213063
 20
280.8635852264797
 30
0.0
 11
603.5226144213063
 21
249.8635852264797
 31
0.0
  0
LINE
  5
C33
330
2
100
AcDbEntity
  8
0
100
AcDbLine
 10
601.1726144213063
 20
280.8635852264797
 30
0.0
 11
601.1726144213063
 21
249.8635852264797
 31
0.0
  0
LINE
  5
C34
330
2
100
AcDbEntity
  8
LINIE
  6
Continuous
100
AcDbLine
 10
595.6726144213063
 20
279.3245586080785
 30
0.0
 11
595.6726144213063
 21
251.4499765139186
 31
0.0
  0
LINE
  5
C35
330
2
100
AcDbEntity
  8
0
100
AcDbLine
 10
675.0226144213063
 20
249.8635852264797
 30
0.0
 11
603.5226144213063
 21
249.8635852264797
 31
0.0
  0
LINE
  5
C36
330
2
100
AcDbEntity
  8
LINIE
  6
STRICHLINIE
 48
10.0
100
AcDbLine
 10
583.1726144213063
 20
234.8635852264796
 30
0.0
 11
593.1726144213063
 21
234.8635852264796
 31
0.0
  0
LINE
  5
C37
330
2
100
AcDbEntity
  8
LINIE
  6
STRICHLINIE
 48
10.0
100
AcDbLine
 10
583.1726144213063
 20
241.8635852264797
 30
0.0
 11
593.1726144213063
 21
241.8635852264797
 31
0.0
  0
LINE
  5
C38
330
2
100
AcDbEntity
  8
0
100
AcDbLine
 10
593.1726144213063
 20
230.3635852264796
 30
0.0
 11
583.1726144213063
 21
230.3635852264796
 31
0.0
  0
LINE
  5
C39
330
2
100
AcDbEntity
  8
MITTE
 48
5.0
100
AcDbLine
 10
581.5473051100575
 20
238.3635852264796
 30
0.0
 11
594.5181796233125
 21
238.3635852264796
 31
0.0
  0
ARC
  5
C3A
330
2
100
AcDbEntity
  8
0
100
AcDbCircle
 10
582.9726144213063
 20
250.1635852264797
 30
0.0
 40
0.2
100
AcDbArc
 50
0.0
 51
90.0
  0
LINE
  5
C3B
330
2
100
AcDbEntity
  8
0
100
AcDbLine
 10
580.6726144213063
 20
250.3635852264797
 30
0.0
 11
580.1726144213063
 21
250.4975598226952
 31
0.0
  0
LINE
  5
C3C
330
2
100
AcDbEntity
  8
0
100
AcDbLine
 10
580.6726144213063
 20
250.3635852264797
 30
0.0
 11
582.9726144213063
 21
250.3635852264797
 31
0.0
  0
ARC
  5
C3D
330
2
100
AcDbEntity
  8
0
100
AcDbCircle
 10
595.6726144213063
 20
247.3635852264796
 30
0.0
 40
2.5
100
AcDbArc
 50
90.0
 51
180.0
  0
LINE
  5
C3E
330
2
100
AcDbEntity
  8
0
100
AcDbLine
 10
595.6726144213063
 20
249.8635852264797
 30
0.0
 11
601.1726144213063
 21
249.8635852264797
 31
0.0
  0
LINE
  5
C3F
330
2
100
AcDbEntity
  8
0
100
AcDbLine
 10
601.1726144213063
 20
251.9765852264796
 30
0.0
 11
603.5226144213063
 21
251.9765852264796
 31
0.0
  0
LINE
  5
C40
330
2
100
AcDbEntity
  8
0
 48
10.0
100
AcDbLine
 10
676.0726144213062
 20
249.8635852264797
 30
0.0
 11
706.0726144213063
 21
249.8635852264797
 31
0.0
  0
LINE
  5
C41
330
2
100
AcDbEntity
  8
0
100
AcDbLine
 10
676.0726144213062
 20
251.9765852264796
 30
0.0
 11
675.0226144213063
 21
251.9765852264796
 31
0.0
  0
ARC
  5
C42
330
2
100
AcDbEntity
  8
0
100
AcDbCircle
 10
736.9801027877092
 20
237.8635852264796
 30
0.0
 40
7.5
100
AcDbArc
 50
204.7198511829002
 51
335.2801488170912
  0
DIMENSION
  5
C43
330
2
100
AcDbEntity
  8
BEM
100
AcDbDimension
  2
*D10
 10
942.2121974778972
 20
214.1462807041171
 30
0.0
 11
904.4685973181776
 21
189.9061505004793
 31
0.0
 70
   163
 71
     5
 42
13.99999999999989
  3
ISO-25
100
AcDbDiametricDimension
 15
930.4323477465198
 25
206.5808897488416
 35
0.0
 40
0.0
1001
ACAD
1000
DSTYLE
1002
{
1070
    40
1040
1.0
1002
}
  0
LINE
  5
C44
330
2
100
AcDbEntity
  8
0
100
AcDbLine
 10
719.7211992284987
 20
257.4181306810258
 30
0.0
 11
730.1673776985471
 21
234.7272215901162
 31
0.0
  0
LINE
  5
C45
330
2
100
AcDbEntity
  8
0
100
AcDbLine
 10
754.2390063469197
 20
257.4181306810258
 30
0.0
 11
743.7928278768711
 21
234.7272215901162
 31
0.0
  0
LINE
  5
C46
330
2
100
AcDbEntity
  8
MITTE
 48
4.0
100
AcDbLine
 10
732.9997832816639
 20
237.8635852264797
 30
0.0
 11
741.4775806879418
 21
237.8635852264797
 31
0.0
  0
CIRCLE
  5
C47
330
2
100
AcDbEntity
  8
0
100
AcDbCircle
 10
736.9801027877092
 20
237.8635852264797
 30
0.0
 40
3.5
  0
DIMENSION
  5
C49
330
2
100
AcDbEntity
  8
BEM
100
AcDbDimension
  2
*D11
 10
506.03144207963
 20
412.7823788577549
 30
0.0
 11
631.9314420796301
 21
421.7823788577549
 31
0.0
 70
    32
 42
251.8
  3
ISO-25
100
AcDbAlignedDimension
 13
757.83144207963
 23
296.3635852264796
 33
0.0
 14
506.03144207963
 24
366.9041710519954
 34
0.0
100
AcDbRotatedDimension
1001
ACAD
1000
DSTYLE
1002
{
1070
    40
1040
1.0
1002
}
  0
LINE
  5
C4A
330
2
100
AcDbEntity
  8
0
100
AcDbLine
 10
675.0226144213063
 20
280.8635852264797
 30
0.0
 11
603.5226144213063
 21
280.8635852264797
 31
0.0
  0
DIMENSION
  5
C4B
330
2
100
AcDbEntity
  8
BEM
100
AcDbDimension
  2
*D12
 10
512.0314420796301
 20
357.7354551040102
 30
0.0
 11
484.4981087462967
 21
357.7354551040102
 31
0.0
 70
   160
 71
     5
 42
6.0
  3
ISO-25
100
AcDbAlignedDimension
 13
506.03144207963
 23
295.0956360340484
 33
0.0
 14
512.0314420796301
 24
335.3635852264796
 34
0.0
100
AcDbRotatedDimension
1001
ACAD
1000
DSTYLE
1002
{
1070
    40
1040
1.0
1002
}
  0
DIMENSION
  5
C4C
330
2
100
AcDbEntity
  8
BEM
100
AcDbDimension
  2
*D13
 10
532.03144207963
 20
380.5915407232541
 30
0.0
 11
519.03144207963
 21
380.5915407232541
 31
0.0
 70
   160
 71
     5
 42
26.0
  3
ISO-25
100
AcDbAlignedDimension
 13
506.03144207963
 23
295.3635852264796
 33
0.0
 14
532.03144207963
 24
335.3635852264796
 34
0.0
100
AcDbRotatedDimension
1001
ACAD
1000
DSTYLE
1002
{
1070
    40
1040
1.0
1002
}
  0
ARC
  5
C4D
330
2
100
AcDbEntity
  8
0
100
AcDbCircle
 10
582.9726144213063
 20
280.5635852264796
 30
0.0
 40
0.2
100
AcDbArc
 50
270.0
 51
0.0
  0
ARC
  5
C4E
330
2
100
AcDbEntity
  8
0
100
AcDbCircle
 10
595.6726144213063
 20
283.3635852264797
 30
0.0
 40
2.5
100
AcDbArc
 50
180.0
 51
270.0
  0
SOLID
  5
C4F
330
2
100
AcDbEntity
  8
BEM
100
AcDbTrace
 10
483.9961302897623
 20
286.9014612789511
 30
0.0
 11
484.0314420796302
 21
276.7635852264798
 31
0.0
 12
480.710079234359
 22
286.3420155064277
 32
0.0
 13
480.710079234359
 23
286.3420155064277
 33
0.0
1001
ACAD
1000
DSTYLE
1002
{
1070
    40
1040
1.0
1070
   144
1040
1.0
1002
}
  0
LINE
  5
C50
330
2
100
AcDbEntity
  8
MITTE
 48
5.0
100
AcDbLine
 10
569.1726144213064
 20
273.3067692385487
 30
0.0
 11
569.1726144213064
 21
267.6509477605355
 31
0.0
1001
ACAD
1000
ASC_BOUNDS
1002
{
1070
    19
1005
0
1005
0
1002
}
  0
ARC
  5
C51
330
2
100
AcDbEntity
  8
0
100
AcDbCircle
 10
569.1726144213064
 20
272.6135852264797
 30
0.0
 40
5.25
100
AcDbArc
 50
328.4118644947994
 51
342.8281848507735
1001
ACAD
1000
ASC_BOUNDS
1002
{
1070
    19
1002
}
  0
LINE
  5
C52
330
2
100
AcDbEntity
  8
0
100
AcDbLine
 10
580.6726144213063
 20
280.3635852264797
 30
0.0
 11
582.9726144213063
 21
280.3635852264797
 31
0.0
  0
LINE
  5
C53
330
2
100
AcDbEntity
  8
0
100
AcDbLine
 10
580.6726144213063
 20
280.3635852264797
 30
0.0
 11
580.1726144213063
 21
280.229610630264
 31
0.0
  0
LINE
  5
C54
330
2
100
AcDbEntity
  8
0
100
AcDbLine
 10
601.1726144213063
 20
278.7505852264796
 30
0.0
 11
603.5226144213063
 21
278.7505852264796
 31
0.0
  0
LINE
  5
C55
330
2
100
AcDbEntity
  8
LINIE
  6
STRICHLINIE
 48
10.0
100
AcDbLine
 10
583.1726144213063
 20
295.8635852264797
 30
0.0
 11
593.1726144213063
 21
295.8635852264797
 31
0.0
  0
LINE
  5
C56
330
2
100
AcDbEntity
  8
LINIE
  6
STRICHLINIE
 48
10.0
100
AcDbLine
 10
583.1726144213063
 20
288.8635852264797
 30
0.0
 11
593.1726144213063
 21
288.8635852264797
 31
0.0
  0
LINE
  5
C57
330
2
100
AcDbEntity
  8
MITTE
 48
5.0
100
AcDbLine
 10
581.5473051100575
 20
292.3635852264796
 30
0.0
 11
594.5181796233125
 21
292.3635852264797
 31
0.0
  0
LINE
  5
C58
330
2
100
AcDbEntity
  8
0
100
AcDbLine
 10
595.6726144213063
 20
280.8635852264797
 30
0.0
 11
601.1726144213063
 21
280.8635852264797
 31
0.0
  0
LINE
  5
C59
330
2
100
AcDbEntity
  8
0
100
AcDbLine
 10
593.1726144213063
 20
300.3635852264797
 30
0.0
 11
583.1726144213063
 21
300.3635852264797
 31
0.0
  0
LINE
  5
C5B
330
2
100
AcDbEntity
  8
0
 48
10.0
100
AcDbLine
 10
676.0726144213062
 20
280.8635852264797
 30
0.0
 11
706.0726144213063
 21
280.8635852264797
 31
0.0
  0
LINE
  5
C5C
330
2
100
AcDbEntity
  8
0
100
AcDbLine
 10
676.0726144213062
 20
278.7505852264796
 30
0.0
 11
675.0226144213063
 21
278.7505852264796
 31
0.0
  0
ARC
  5
C5E
330
2
100
AcDbEntity
  8
0
100
AcDbCircle
 10
736.9801027877092
 20
292.8635852264797
 30
0.0
 40
7.5
100
AcDbArc
 50
24.71985118290881
 51
155.2801488170912
  0
DIMENSION
  5
C5F
330
2
100
AcDbEntity
  8
BEM
100
AcDbDimension
  2
*D14
 10
936.3222726122089
 20
320.3635852264792
 30
0.0
 11
903.4973482937976
 21
355.7109779972359
 31
0.0
 70
   164
 71
     5
 42
15.00000000000023
  3
ISO-25
100
AcDbRadialDimension
 15
926.1151145072734
 25
331.3551239459151
 35
0.0
 40
0.0
1001
ACAD
1000
DSTYLE
1002
{
1070
    40
1040
1.0
1002
}
  0
LINE
  5
C60
330
2
100
AcDbEntity
  8
MITTE
 48
10.0
100
AcDbLine
 10
716.763702600695
 20
265.3635852264797
 30
0.0
 11
757.1818131103802
 21
265.3635852264797
 31
0.0
  0
LINE
  5
C61
330
2
100
AcDbEntity
  8
0
100
AcDbLine
 10
719.7211992284987
 20
273.3090397719334
 30
0.0
 11
730.1673776985471
 21
295.999948862843
 31
0.0
  0
LINE
  5
C62
330
2
100
AcDbEntity
  8
0
100
AcDbLine
 10
754.2390063469197
 20
273.3090397719334
 30
0.0
 11
743.7928278768711
 21
295.999948862843
 31
0.0
  0
CIRCLE
  5
C63
330
2
100
AcDbEntity
  8
0
100
AcDbCircle
 10
736.9801027877092
 20
265.3635852264797
 30
0.0
 40
3.500000000000042
  0
LINE
  5
C64
330
2
100
AcDbEntity
  8
0
100
AcDbLine
 10
738.4801027877093
 20
271.0635852264797
 30
0.0
 11
735.4801027877092
 21
271.0635852264797
 31
0.0
  0
LINE
  5
C65
330
2
100
AcDbEntity
  8
0
100
AcDbLine
 10
735.4801027877092
 20
271.0635852264797
 30
0.0
 11
735.4801027877092
 21
269.6062259135989
 31
0.0
  0
LINE
  5
C66
330
2
100
AcDbEntity
  8
0
100
AcDbLine
 10
738.4801027877093
 20
271.0635852264797
 30
0.0
 11
738.4801027877093
 21
269.606225913599
 31
0.0
  0
CIRCLE
  5
C67
330
2
100
AcDbEntity
  8
0
100
AcDbCircle
 10
736.9801027877092
 20
292.8635852264797
 30
0.0
 40
3.5
  0
LINE
  5
C68
330
2
100
AcDbEntity
  8
MITTE
 48
4.0
100
AcDbLine
 10
732.9997832816639
 20
292.8635852264797
 30
0.0
 11
741.6184537554983
 21
292.8635852264797
 31
0.0
  0
TEXT
  5
DBF
330
2
100
AcDbEntity
  8
BEM
100
AcDbText
 10
464.1309473467317
 20
79.9880553767141
 30
0.0
 40
10.0
  1
MUD 9- 330    29906475
100
AcDbText
  0
TEXT
  5
1BA5
330
2
100
AcDbEntity
  8
BEM
100
AcDbText
 10
206.8267588636774
 20
127.1644759247183
 30
0.0
 40
10.0
  1
exhaust air
100
AcDbText
  0
TEXT
  5
1BA6
330
2
100
AcDbEntity
  8
BEM
100
AcDbText
 10
206.8267588636774
 20
90.88206682356622
 30
0.0
 40
10.0
  1
Aria in uscita
100
AcDbText
  0
TEXT
  5
1BA7
330
2
100
AcDbEntity
  8
BEM
100
AcDbText
 10
206.8267588636774
 20
106.9822992052779
 30
0.0
 40
10.0
  1
Sortie de l'air
100
AcDbText
  0
TEXT
  5
1BA8
330
2
100
AcDbEntity
  8
BEM
100
AcDbText
 10
206.8267588636774
 20
143.26470830643
 30
0.0
 40
10.0
  1
Abluft
100
AcDbText
  0
DIMENSION
  5
1BA9
102
{ACAD_XDICTIONARY
360
2771
102
}
102
{ACAD_REACTORS
330
2772
102
}
330
2
100
AcDbEntity
  8
BEM
 48
10.0
100
AcDbDimension
  2
*D15
 10
240.8509219885041
 20
161.7209948675759
 30
0.0
 11
231.1229219885041
 21
161.7209948675759
 31
0.0
 70
   160
  1
G1/8"
 71
     5
 42
19.45600000000002
  3
ISO-25
100
AcDbAlignedDimension
 13
221.3949219885041
 23
249.3635852264796
 33
0.0
 14
240.8509219885041
 24
249.3635852264796
 34
0.0
100
AcDbRotatedDimension
  0
LINE
  5
2727
330
2
100
AcDbEntity
  8
0
100
AcDbLine
 10
543.6644026663836
 20
273.3090397719334
 30
0.0
 11
533.2182241963351
 21
295.999948862843
 31
0.0
  0
CIRCLE
  5
2728
330
2
100
AcDbEntity
  8
0
100
AcDbCircle
 10
526.4054991071732
 20
292.8635852264797
 30
0.0
 40
3.5
  0
ARC
  5
2729
330
2
100
AcDbEntity
  8
0
100
AcDbCircle
 10
526.4054991071732
 20
292.8635852264797
 30
0.0
 40
7.5
100
AcDbArc
 50
24.71985118290881
 51
155.2801488170912
  0
LINE
  5
272A
330
2
100
AcDbEntity
  8
MITTE
 48
4.0
100
AcDbLine
 10
522.4251796011278
 20
292.8635852264797
 30
0.0
 11
531.0438500749624
 21
292.8635852264797
 31
0.0
  0
ARC
  5
272B
330
2
100
AcDbEntity
  8
0
100
AcDbCircle
 10
526.4054991071732
 20
265.3635852264797
 30
0.0
 40
19.0
100
AcDbArc
 50
335.2801488170912
 51
24.71985118290881
  0
LINE
  5
272C
330
2
100
AcDbEntity
  8
0
100
AcDbLine
 10
543.6644026663836
 20
257.4181306810258
 30
0.0
 11
533.2182241963351
 21
234.7272215901162
 31
0.0
  0
ARC
  5
272D
330
2
100
AcDbEntity
  8
0
100
AcDbCircle
 10
526.4054991071732
 20
237.8635852264796
 30
0.0
 40
7.5
100
AcDbArc
 50
204.7198511829002
 51
335.2801488170912
  0
CIRCLE
  5
272E
330
2
100
AcDbEntity
  8
0
100
AcDbCircle
 10
526.4054991071732
 20
237.8635852264797
 30
0.0
 40
3.5
  0
LINE
  5
272F
330
2
100
AcDbEntity
  8
MITTE
 48
4.0
100
AcDbLine
 10
522.4251796011278
 20
237.8635852264797
 30
0.0
 11
530.9029770074057
 21
237.8635852264797
 31
0.0
  0
LINE
  5
2730
330
2
100
AcDbEntity
  8
0
100
AcDbLine
 10
509.1465955479627
 20
257.4181306810258
 30
0.0
 11
519.5927740180111
 21
234.7272215901162
 31
0.0
  0
ARC
  5
2731
330
2
100
AcDbEntity
  8
0
100
AcDbCircle
 10
526.4054991071732
 20
265.3635852264797
 30
0.0
 40
19.0
100
AcDbArc
 50
155.2801488170912
 51
204.7198511829088
  0
LINE
  5
2732
330
2
100
AcDbEntity
  8
0
100
AcDbLine
 10
509.1465955479627
 20
273.3090397719334
 30
0.0
 11
519.5927740180111
 21
295.999948862843
 31
0.0
  0
LINE
  5
2733
330
2
100
AcDbEntity
  8
MITTE
 48
10.0
100
AcDbLine
 10
526.4054991071732
 20
303.1620881222813
 30
0.0
 11
526.4054991071732
 21
228.1076440890904
 31
0.0
  0
CIRCLE
  5
4045
330
2
100
AcDbEntity
  8
0
 48
10.0
100
AcDbCircle
 10
518.9054991071732
 20
271.3635852264797
 30
0.0
 40
4.283
  0
ARC
  5
4046
330
2
100
AcDbEntity
  8
LINIE
 48
10.0
100
AcDbCircle
 10
518.9054991071732
 20
271.3635852264797
 30
0.0
 40
4.863999999999999
100
AcDbArc
 50
81.93145664497498
 51
18.15629198047581
  0
TEXT
  5
4047
330
2
100
AcDbEntity
  8
BEM
100
AcDbText
 10
215.8216145267238
 20
298.4163610565894
 30
0.0
 40
10.0
  1
L
100
AcDbText
  0
TEXT
  5
4302
330
2
100
AcDbEntity
  8
BEM
100
AcDbText
 10
29.45577098978231
 20
372.0388913880154
 30
0.0
 40
10.0
  1
Branchement de l'air
100
AcDbText
  0
TEXT
  5
4303
330
2
100
AcDbEntity
  8
BEM
100
AcDbText
 10
29.45577098978231
 20
357.7203122457918
 30
0.0
 40
10.0
  1
Aria in entrata
100
AcDbText
  0
TEXT
  5
4304
330
2
100
AcDbEntity
  8
BEM
100
AcDbText
 10
29.45577098978231
 20
388.7094635574745
 30
0.0
 40
10.0
  1
air supply
100
AcDbText
  0
TEXT
  5
4305
330
2
100
AcDbEntity
  8
BEM
100
AcDbText
 10
29.45577098978231
 20
403.7431660309145
 30
0.0
 40
10.0
  1
Zuluft
100
AcDbText
  0
ENDSEC
  0
SECTION
  2
OBJECTS
  0
DICTIONARY
  5
1A
330
0
100
AcDbDictionary
281
     1
  3
ACAD_COLOR
350
4519
  3
ACAD_GROUP
350
18
  3
ACAD_LAYOUT
350
6C2
  3
ACAD_MATERIAL
350
44EF
  3
ACAD_MLEADERSTYLE
350
453E
  3
ACAD_MLINESTYLE
350
19
  3
ACAD_PLOTSETTINGS
350
6C3
  3
ACAD_PLOTSTYLENAME
350
6C0
  3
ACAD_SCALELIST
350
451C
  3
ACAD_TABLESTYLE
350
451A
  3
ACAD_VISUALSTYLE
350
4508
  3
ACDB_RECOMPOSE_DATA
350
4648
  3
ACDBVARIABLEDICTIONARY
350
25F
  3
ACMDICTIONARY
350
265
  3
AMG
350
6CC
  3
AMGSNAPSETTINGS
350
72B
  3
ASE_INDEX_DICTIONARY
350
4633
  0
DICTIONARY
  5
461C
330
4
100
AcDbDictionary
280
     1
281
     1
  3
ADSK_XREC_LAYER_RECONCILED
360
461D
  0
DICTIONARY
  5
461E
330
27
100
AcDbDictionary
280
     1
281
     1
  3
ADSK_XREC_LAYER_RECONCILED
360
461F
  0
DICTIONARY
  5
4620
330
1F
100
AcDbDictionary
280
     1
281
     1
  3
ADSK_XREC_LAYER_RECONCILED
360
4621
  0
DICTIONARY
  5
4622
330
79
100
AcDbDictionary
280
     1
281
     1
  3
ADSK_XREC_LAYER_RECONCILED
360
4623
  0
DICTIONARY
  5
4624
330
2BE
100
AcDbDictionary
280
     1
281
     1
  3
ADSK_XREC_LAYER_RECONCILED
360
4625
  0
DICTIONARY
  5
28B
330
2
100
AcDbDictionary
280
     1
281
     1
  0
DICTIONARY
  5
4724
330
46C7
100
AcDbDictionary
280
     1
281
     1
  3
ACAD_MTEXT_2008_RT
360
4725
  0
DICTIONARY
  5
4726
330
46D2
100
AcDbDictionary
280
     1
281
     1
  3
ACAD_MTEXT_2008_RT
360
4727
  0
DICTIONARY
  5
27D5
330
BFC
100
AcDbDictionary
280
     1
281
     1
  3
ACMDIMBREAKPERSREACTOR
360
27D6
  0
DICTIONARY
  5
2771
330
1BA9
100
AcDbDictionary
280
     1
281
     1
  3
ACMDIMBREAKPERSREACTOR
360
2772
  0
DICTIONARY
  5
4519
102
{ACAD_REACTORS
330
1A
102
}
330
1A
100
AcDbDictionary
281
     1
  0
DICTIONARY
  5
18
102
{ACAD_REACTORS
330
1A
102
}
330
1A
100
AcDbDictionary
281
     1
  0
DICTIONARY
  5
6C2
102
{ACAD_REACTORS
330
1A
102
}
330
1A
100
AcDbDictionary
281
     1
  3
Layout1
350
6C5
  3
Model
350
6C4
  0
DICTIONARY
  5
44EF
102
{ACAD_REACTORS
330
1A
102
}
330
1A
100
AcDbDictionary
281
     1
  3
ByBlock
350
44F8
  3
ByLayer
350
44F0
  3
Global
350
4500
  0
DICTIONARY
  5
453E
102
{ACAD_REACTORS
330
1A
102
}
330
1A
100
AcDbDictionary
281
     1
  3
Standard
350
453F
  0
DICTIONARY
  5
19
102
{ACAD_REACTORS
330
1A
102
}
330
1A
100
AcDbDictionary
281
     1
  3
STANDARD
350
1B
  0
DICTIONARY
  5
6C3
102
{ACAD_REACTORS
330
1A
102
}
330
1A
100
AcDbDictionary
281
     1
  3
DIN A3
350
462F
  0
ACDBDICTIONARYWDFLT
  5
6C0
102
{ACAD_REACTORS
330
1A
102
}
330
1A
100
AcDbDictionary
281
     1
  3
Normal
350
6C1
100
AcDbDictionaryWithDefault
340
6C1
  0
DICTIONARY
  5
451C
102
{ACAD_REACTORS
330
1A
102
}
330
1A
100
AcDbDictionary
281
     1
  3
A0
350
451D
  3
A1
350
451E
  3
A2
350
451F
  3
A3
350
4520
  3
A4
350
4521
  3
A5
350
4522
  3
A6
350
4523
  3
A7
350
4524
  3
A8
350
4525
  3
A9
350
4526
  3
B0
350
4527
  3
B1
350
4528
  3
B2
350
4529
  3
B3
350
452A
  3
B4
350
452B
  3
B5
350
452C
  3
B6
350
452D
  3
B7
350
452E
  3
B8
350
452F
  3
B9
350
4530
  3
C0
350
4531
  3
C1
350
4532
  3
C2
350
4533
  3
C3
350
4534
  3
C4
350
4535
  3
C5
350
4536
  3
C6
350
4537
  3
C7
350
4538
  3
C8
350
4539
  3
C9
350
453A
  3
D0
350
453B
  3
D1
350
453C
  3
D2
350
453D
  0
DICTIONARY
  5
451A
102
{ACAD_REACTORS
330
1A
102
}
330
1A
100
AcDbDictionary
281
     1
  3
Standard
350
451B
  0
DICTIONARY
  5
4508
102
{ACAD_REACTORS
330
1A
102
}
330
1A
100
AcDbDictionary
281
     1
  3
2dWireframe
350
450E
  3
3D Hidden
350
4510
  3
3dWireframe
350
450F
  3
Basic
350
450D
  3
Brighten
350
4514
  3
ColorChange
350
4518
  3
Conceptual
350
4511
  3
Dim
350
4513
  3
Facepattern
350
4517
  3
Flat
350
4509
  3
FlatWithEdges
350
450A
  3
Gouraud
350
450B
  3
GouraudWithEdges
350
450C
  3
Linepattern
350
4516
  3
Realistic
350
4512
  3
Thicken
350
4515
  0
XRECORD
  5
4648
102
{ACAD_REACTORS
330
1A
102
}
330
1A
100
AcDbXrecord
280
     1
 90
        1
330
451B
  0
DICTIONARY
  5
25F
102
{ACAD_REACTORS
330
1A
102
}
330
1A
100
AcDbDictionary
281
     1
  3
CANNOSCALE
350
464C
  3
CMLEADERSTYLE
350
464A
  3
CTABLESTYLE
350
4649
  3
INDEXCTL
350
260
  3
LIGHTINGUNITS
350
464D
  3
MSLTSCALE
350
464B
  3
SORTENTS
350
4D0
  0
DICTIONARY
  5
265
102
{ACAD_REACTORS
330
1A
102
}
330
1A
100
AcDbDictionary
281
     1
  3
ACMSTDDICTIONARY
350
266
  0
DICTIONARY
  5
6CC
102
{ACAD_REACTORS
330
1A
102
}
330
1A
100
AcDbDictionary
281
     1
  0
DICTIONARY
  5
72B
102
{ACAD_REACTORS
330
1A
102
}
330
1A
100
AcDbDictionary
281
     1
  0
DICTIONARY
  5
4633
102
{ACAD_REACTORS
330
1A
102
}
330
1A
100
AcDbDictionary
281
     1
  3
ASEBlockHierarchyIndexRecord
350
4635
1001
DCO15
1040
1729410625.781
  0
XRECORD
  5
461D
102
{ACAD_REACTORS
330
461C
102
}
330
461C
100
AcDbXrecord
280
     1
290
     1
  0
XRECORD
  5
461F
102
{ACAD_REACTORS
330
461E
102
}
330
461E
100
AcDbXrecord
280
     1
290
     1
  0
XRECORD
  5
4621
102
{ACAD_REACTORS
330
4620
102
}
330
4620
100
AcDbXrecord
280
     1
290
     1
  0
XRECORD
  5
4623
102
{ACAD_REACTORS
330
4622
102
}
330
4622
100
AcDbXrecord
280
     1
290
     1
  0
XRECORD
  5
4625
102
{ACAD_REACTORS
330
4624
102
}
330
4624
100
AcDbXrecord
280
     1
290
     1
  0
XRECORD
  5
4725
102
{ACAD_REACTORS
330
4724
102
}
330
4724
100
AcDbXrecord
280
     1
 40
5151.0
  1
\A1;\U+220576
  0
XRECORD
  5
4727
102
{ACAD_REACTORS
330
4726
102
}
330
4726
100
AcDbXrecord
280
     1
 40
5053.0
  1
\A1;\U+220514
  0
LAYOUT
  5
6C5
102
{ACAD_REACTORS
330
6C2
102
}
330
6C2
100
AcDbPlotSettings
  1

  2
Kein
  4

  6

 40
0.0
 41
0.0
 42
0.0
 43
0.0
 44
0.0
 45
0.0
 46
0.0
 47
0.0
 48
0.0
 49
0.0
140
0.0
141
0.0
142
1.0
143
1.0
 70
   688
 72
     0
 73
     0
 74
     5
  7
Zeich.ctb
 75
    16
147
1.0
 76
     0
 77
     2
 78
   300
148
0.0
149
0.0
100
AcDbLayout
  1
Layout1
 70
     0
 71
     1
 10
0.0
 20
0.0
 11
420.0
 21
297.0
 12
0.0
 22
0.0
 32
0.0
 14
1.000000000000000E+20
 24
1.000000000000000E+20
 34
1.000000000000000E+20
 15
-1.000000000000000E+20
 25
-1.000000000000000E+20
 35
-1.000000000000000E+20
146
0.0
 13
0.0
 23
0.0
 33
0.0
 16
1.0
 26
0.0
 36
0.0
 17
0.0
 27
1.0
 37
0.0
 76
     0
330
7
  0
LAYOUT
  5
6C4
102
{ACAD_REACTORS
330
6C2
102
}
330
6C2
100
AcDbPlotSettings
  1

  2
\\CAD-NT-02\HP LaserJet 6P/6MP - Standard
  4
A4
  6

 40
6.011333465576171
 41
4.233341693878173
 42
6.011322021484375
 43
4.23333740234375
 44
209.9733276367187
 45
296.9259948730469
 46
0.0
 47
0.0
 48
0.0
 49
0.0
140
0.0
141
0.0
142
1.0
143
4.870689102307727
 70
 28336
 72
     1
 73
     0
 74
     1
  7
Zeich.ctb
 75
     0
147
0.2053097578176774
 76
     0
 77
     2
 78
   300
148
-8.448374503076593
149
-30.34494058183554
100
AcDbLayout
  1
Model
 70
     1
 71
     0
 10
0.0
 20
0.0
 11
12.0
 21
9.0
 12
0.0
 22
0.0
 32
0.0
 14
0.0
 24
0.0
 34
0.0
 15
0.0
 25
0.0
 35
0.0
146
0.0
 13
0.0
 23
0.0
 33
0.0
 16
1.0
 26
0.0
 36
0.0
 17
0.0
 27
1.0
 37
0.0
 76
     0
330
2
331
44ED
  0
MATERIAL
  5
44F8
102
{ACAD_XDICTIONARY
360
44F9
102
}
102
{ACAD_REACTORS
330
44EF
102
}
330
44EF
100
AcDbMaterial
  1
ByBlock
 72
     0
 43
0.0208333333333333
 43
0.0
 43
0.0
 43
0.0
 43
0.0
 43
0.0208333333333333
 43
0.0
 43
0.0
 43
0.0
 43
0.0
 43
1.0
 43
0.0
 43
0.0
 43
0.0
 43
0.0
 43
1.0
 77
     0
 47
0.0208333333333333
 47
0.0
 47
0.0
 47
0.0
 47
0.0
 47
0.0208333333333333
 47
0.0
 47
0.0
 47
0.0
 47
0.0
 47
1.0
 47
0.0
 47
0.0
 47
0.0
 47
0.0
 47
1.0
171
     0
 49
0.0208333333333333
 49
0.0
 49
0.0
 49
0.0
 49
0.0
 49
0.0208333333333333
 49
0.0
 49
0.0
 49
0.0
 49
0.0
 49
1.0
 49
0.0
 49
0.0
 49
0.0
 49
0.0
 49
1.0
175
     0
142
0.0208333333333333
142
0.0
142
0.0
142
0.0
142
0.0
142
0.0208333333333333
142
0.0
142
0.0
142
0.0
142
0.0
142
1.0
142
0.0
142
0.0
142
0.0
142
0.0
142
1.0
179
     0
144
0.0208333333333333
144
0.0
144
0.0
144
0.0
144
0.0
144
0.0208333333333333
144
0.0
144
0.0
144
0.0
144
0.0
144
1.0
144
0.0
144
0.0
144
0.0
144
0.0
144
1.0
147
0.0208333333333333
147
0.0
147
0.0
147
0.0
147
0.0
147
0.0208333333333333
147
0.0
147
0.0
147
0.0
147
0.0
147
1.0
147
0.0
147
0.0
147
0.0
147
0.0
147
1.0
  0
MATERIAL
  5
44F0
102
{ACAD_XDICTIONARY
360
44F1
102
}
102
{ACAD_REACTORS
330
44EF
102
}
330
44EF
100
AcDbMaterial
  1
ByLayer
 72
     0
 43
0.0208333333333333
 43
0.0
 43
0.0
 43
0.0
 43
0.0
 43
0.0208333333333333
 43
0.0
 43
0.0
 43
0.0
 43
0.0
 43
1.0
 43
0.0
 43
0.0
 43
0.0
 43
0.0
 43
1.0
 77
     0
 47
0.0208333333333333
 47
0.0
 47
0.0
 47
0.0
 47
0.0
 47
0.0208333333333333
 47
0.0
 47
0.0
 47
0.0
 47
0.0
 47
1.0
 47
0.0
 47
0.0
 47
0.0
 47
0.0
 47
1.0
171
     0
 49
0.0208333333333333
 49
0.0
 49
0.0
 49
0.0
 49
0.0
 49
0.0208333333333333
 49
0.0
 49
0.0
 49
0.0
 49
0.0
 49
1.0
 49
0.0
 49
0.0
 49
0.0
 49
0.0
 49
1.0
175
     0
142
0.0208333333333333
142
0.0
142
0.0
142
0.0
142
0.0
142
0.0208333333333333
142
0.0
142
0.0
142
0.0
142
0.0
142
1.0
142
0.0
142
0.0
142
0.0
142
0.0
142
1.0
179
     0
144
0.0208333333333333
144
0.0
144
0.0
144
0.0
144
0.0
144
0.0208333333333333
144
0.0
144
0.0
144
0.0
144
0.0
144
1.0
144
0.0
144
0.0
144
0.0
144
0.0
144
1.0
147
0.0208333333333333
147
0.0
147
0.0
147
0.0
147
0.0
147
0.0208333333333333
147
0.0
147
0.0
147
0.0
147
0.0
147
1.0
147
0.0
147
0.0
147
0.0
147
0.0
147
1.0
  0
MATERIAL
  5
4500
102
{ACAD_XDICTIONARY
360
4501
102
}
102
{ACAD_REACTORS
330
44EF
102
}
330
44EF
100
AcDbMaterial
  1
Global
 72
     0
 43
0.0208333333333333
 43
0.0
 43
0.0
 43
0.0
 43
0.0
 43
0.0208333333333333
 43
0.0
 43
0.0
 43
0.0
 43
0.0
 43
1.0
 43
0.0
 43
0.0
 43
0.0
 43
0.0
 43
1.0
 77
     0
 47
0.0208333333333333
 47
0.0
 47
0.0
 47
0.0
 47
0.0
 47
0.0208333333333333
 47
0.0
 47
0.0
 47
0.0
 47
0.0
 47
1.0
 47
0.0
 47
0.0
 47
0.0
 47
0.0
 47
1.0
171
     0
 49
0.0208333333333333
 49
0.0
 49
0.0
 49
0.0
 49
0.0
 49
0.0208333333333333
 49
0.0
 49
0.0
 49
0.0
 49
0.0
 49
1.0
 49
0.0
 49
0.0
 49
0.0
 49
0.0
 49
1.0
175
     0
142
0.0208333333333333
142
0.0
142
0.0
142
0.0
142
0.0
142
0.0208333333333333
142
0.0
142
0.0
142
0.0
142
0.0
142
1.0
142
0.0
142
0.0
142
0.0
142
0.0
142
1.0
179
     0
144
0.0208333333333333
144
0.0
144
0.0
144
0.0
144
0.0
144
0.0208333333333333
144
0.0
144
0.0
144
0.0
144
0.0
144
1.0
144
0.0
144
0.0
144
0.0
144
0.0
144
1.0
147
0.0208333333333333
147
0.0
147
0.0
147
0.0
147
0.0
147
0.0208333333333333
147
0.0
147
0.0
147
0.0
147
0.0
147
1.0
147
0.0
147
0.0
147
0.0
147
0.0
147
1.0
  0
MLEADERSTYLE
  5
453F
102
{ACAD_REACTORS
330
453E
102
}
330
453E
100
AcDbMLeaderStyle
170
     2
171
     1
172
     0
 90
        2
 40
0.0
 41
0.0
173
     1
 91
-1056964608
340
E
 92
       -2
290
     1
 42
0.09
291
     1
 43
0.36
  3
Standard
 44
0.18
300

342
C
174
     1
178
     6
175
     1
176
     0
 93
-1056964608
 45
0.18
292
     0
297
     0
 46
0.18
 94
-1056964608
 47
1.0
 49
1.0
140
1.0
293
     1
141
0.0
294
     1
177
     0
142
1.0
295
     0
296
     0
143
0.125
1001
ACAD_MLEADERVER
1070
     2
  0
MLINESTYLE
  5
1B
102
{ACAD_REACTORS
330
19
102
}
330
19
100
AcDbMlineStyle
  2
STANDARD
 70
     0
  3

 62
     0
 51
90.0
 52
90.0
 71
     2
 49
0.5
 62
   256
  6
BYLAYER
 49
-0.5
 62
   256
  6
BYLAYER
  0
PLOTSETTINGS
  5
462F
102
{ACAD_REACTORS
330
6C3
102
}
330
6C3
100
AcDbPlotSettings
  1
DIN A3
  2
Konstruktion
  4
A4
  6

 40
7.143749713897705
 41
7.186082363128662
 42
7.059066772460937
 43
5.027069091796875
 44
209.9733276367187
 45
296.9683227539062
 46
0.0
 47
3.823230662728406
 48
464.3944743825529
 49
15.0
140
873.394474382553
141
301.0
142
1.0
143
1.512133707910352
 70
 28340
 72
     1
 73
     1
 74
     1
  7
Zeich.ctb
 75
     0
147
0.6613171803318373
 76
     0
 77
     2
 78
   300
148
0.0137318624343834
149
-9.98519975457475
1001
ACAD_PSEXT
1000
Konstruktion
1000
Kyocera FS-1030D
1000
IP_192.168.10.181
1000

1070
     0
  0
ACDBPLACEHOLDER
  5
6C1
102
{ACAD_REACTORS
330
6C0
102
}
330
6C0
  0
SCALE
  5
451D
102
{ACAD_REACTORS
330
451C
102
}
330
451C
100
AcDbScale
 70
     0
300
1:1
140
1.0
141
1.0
290
     1
  0
SCALE
  5
451E
102
{ACAD_REACTORS
330
451C
102
}
330
451C
100
AcDbScale
 70
     0
300
1:2
140
1.0
141
2.0
290
     0
  0
SCALE
  5
451F
102
{ACAD_REACTORS
330
451C
102
}
330
451C
100
AcDbScale
 70
     0
300
1:4
140
1.0
141
4.0
290
     0
  0
SCALE
  5
4520
102
{ACAD_REACTORS
330
451C
102
}
330
451C
100
AcDbScale
 70
     0
300
1:5
140
1.0
141
5.0
290
     0
  0
SCALE
  5
4521
102
{ACAD_REACTORS
330
451C
102
}
330
451C
100
AcDbScale
 70
     0
300
1:8
140
1.0
141
8.0
290
     0
  0
SCALE
  5
4522
102
{ACAD_REACTORS
330
451C
102
}
330
451C
100
AcDbScale
 70
     0
300
1:10
140
1.0
141
10.0
290
     0
  0
SCALE
  5
4523
102
{ACAD_REACTORS
330
451C
102
}
330
451C
100
AcDbScale
 70
     0
300
1:16
140
1.0
141
16.0
290
     0
  0
SCALE
  5
4524
102
{ACAD_REACTORS
330
451C
102
}
330
451C
100
AcDbScale
 70
     0
300
1:20
140
1.0
141
20.0
290
     0
  0
SCALE
  5
4525
102
{ACAD_REACTORS
330
451C
102
}
330
451C
100
AcDbScale
 70
     0
300
1:30
140
1.0
141
30.0
290
     0
  0
SCALE
  5
4526
102
{ACAD_REACTORS
330
451C
102
}
330
451C
100
AcDbScale
 70
     0
300
1:40
140
1.0
141
40.0
290
     0
  0
SCALE
  5
4527
102
{ACAD_REACTORS
330
451C
102
}
330
451C
100
AcDbScale
 70
     0
300
1:50
140
1.0
141
50.0
290
     0
  0
SCALE
  5
4528
102
{ACAD_REACTORS
330
451C
102
}
330
451C
100
AcDbScale
 70
     0
300
1:100
140
1.0
141
100.0
290
     0
  0
SCALE
  5
4529
102
{ACAD_REACTORS
330
451C
102
}
330
451C
100
AcDbScale
 70
     0
300
2:1
140
2.0
141
1.0
290
     0
  0
SCALE
  5
452A
102
{ACAD_REACTORS
330
451C
102
}
330
451C
100
AcDbScale
 70
     0
300
4:1
140
4.0
141
1.0
290
     0
  0
SCALE
  5
452B
102
{ACAD_REACTORS
330
451C
102
}
330
451C
100
AcDbScale
 70
     0
300
8:1
140
8.0
141
1.0
290
     0
  0
SCALE
  5
452C
102
{ACAD_REACTORS
330
451C
102
}
330
451C
100
AcDbScale
 70
     0
300
10:1
140
10.0
141
1.0
290
     0
  0
SCALE
  5
452D
102
{ACAD_REACTORS
330
451C
102
}
330
451C
100
AcDbScale
 70
     0
300
100:1
140
100.0
141
1.0
290
     0
  0
SCALE
  5
452E
102
{ACAD_REACTORS
330
451C
102
}
330
451C
100
AcDbScale
 70
     0
300
1/128" = 1'-0"
140
0.0078125
141
12.0
290
     0
  0
SCALE
  5
452F
102
{ACAD_REACTORS
330
451C
102
}
330
451C
100
AcDbScale
 70
     0
300
1/64" = 1'-0"
140
0.015625
141
12.0
290
     0
  0
SCALE
  5
4530
102
{ACAD_REACTORS
330
451C
102
}
330
451C
100
AcDbScale
 70
     0
300
1/32" = 1'-0"
140
0.03125
141
12.0
290
     0
  0
SCALE
  5
4531
102
{ACAD_REACTORS
330
451C
102
}
330
451C
100
AcDbScale
 70
     0
300
1/16" = 1'-0"
140
0.0625
141
12.0
290
     0
  0
SCALE
  5
4532
102
{ACAD_REACTORS
330
451C
102
}
330
451C
100
AcDbScale
 70
     0
300
3/32" = 1'-0"
140
0.09375
141
12.0
290
     0
  0
SCALE
  5
4533
102
{ACAD_REACTORS
330
451C
102
}
330
451C
100
AcDbScale
 70
     0
300
1/8" = 1'-0"
140
0.125
141
12.0
290
     0
  0
SCALE
  5
4534
102
{ACAD_REACTORS
330
451C
102
}
330
451C
100
AcDbScale
 70
     0
300
3/16" = 1'-0"
140
0.1875
141
12.0
290
     0
  0
SCALE
  5
4535
102
{ACAD_REACTORS
330
451C
102
}
330
451C
100
AcDbScale
 70
     0
300
1/4" = 1'-0"
140
0.25
141
12.0
290
     0
  0
SCALE
  5
4536
102
{ACAD_REACTORS
330
451C
102
}
330
451C
100
AcDbScale
 70
     0
300
3/8" = 1'-0"
140
0.375
141
12.0
290
     0
  0
SCALE
  5
4537
102
{ACAD_REACTORS
330
451C
102
}
330
451C
100
AcDbScale
 70
     0
300
1/2" = 1'-0"
140
0.5
141
12.0
290
     0
  0
SCALE
  5
4538
102
{ACAD_REACTORS
330
451C
102
}
330
451C
100
AcDbScale
 70
     0
300
3/4" = 1'-0"
140
0.75
141
12.0
290
     0
  0
SCALE
  5
4539
102
{ACAD_REACTORS
330
451C
102
}
330
451C
100
AcDbScale
 70
     0
300
1" = 1'-0"
140
1.0
141
12.0
290
     0
  0
SCALE
  5
453A
102
{ACAD_REACTORS
330
451C
102
}
330
451C
100
AcDbScale
 70
     0
300
1-1/2" = 1'-0"
140
1.5
141
12.0
290
     0
  0
SCALE
  5
453B
102
{ACAD_REACTORS
330
451C
102
}
330
451C
100
AcDbScale
 70
     0
300
3" = 1'-0"
140
3.0
141
12.0
290
     0
  0
SCALE
  5
453C
102
{ACAD_REACTORS
330
451C
102
}
330
451C
100
AcDbScale
 70
     0
300
6" = 1'-0"
140
6.0
141
12.0
290
     0
  0
SCALE
  5
453D
102
{ACAD_REACTORS
330
451C
102
}
330
451C
100
AcDbScale
 70
     0
300
1'-0" = 1'-0"
140
12.0
141
12.0
290
     0
  0
TABLESTYLE
  5
451B
102
{ACAD_XDICTIONARY
360
4646
102
}
102
{ACAD_REACTORS
330
451A
102
}
330
451A
100
AcDbTableStyle
  3
Standard
 70
     0
 71
     0
 40
0.06
 41
0.06
280
     0
281
     0
  7
STANDARD
140
0.18
170
     2
 62
     0
 63
     7
283
     0
274
    -2
284
     1
 64
     0
275
    -2
285
     1
 65
     0
276
    -2
286
     1
 66
     0
277
    -2
287
     1
 67
     0
278
    -2
288
     1
 68
     0
279
    -2
289
     1
 69
     0
  7
STANDARD
140
0.25
170
     5
 62
     0
 63
     7
283
     0
274
    -2
284
     1
 64
     0
275
    -2
285
     1
 65
     0
276
    -2
286
     1
 66
     0
277
    -2
287
     1
 67
     0
278
    -2
288
     1
 68
     0
279
    -2
289
     1
 69
     0
  7
STANDARD
140
0.18
170
     5
 62
     0
 63
     7
283
     0
274
    -2
284
     1
 64
     0
275
    -2
285
     1
 65
     0
276
    -2
286
     1
 66
     0
277
    -2
287
     1
 67
     0
278
    -2
288
     1
 68
     0
279
    -2
289
     1
 69
     0
  0
VISUALSTYLE
  5
450E
102
{ACAD_REACTORS
330
4508
102
}
330
4508
100
AcDbVisualStyle
  2
2dWireframe
 70
     4
 71
     0
 72
     2
 73
     0
 90
        0
 40
-0.6
 41
-30.0
 62
     5
 63
     7
421
 16777215
 74
     1
 91
        4
 64
     7
 65
   257
 75
     1
175
     1
 42
1.0
 92
        0
 66
   257
 43
1.0
 76
     1
 77
     6
 78
     2
 67
     7
 79
     5
170
     0
171
     0
290
     0
174
     0
 93
        1
 44
0.0
173
     0
291
     0
 45
0.0
1001
ACAD
1000
AcDbSavedByObjectVersion
1070
     0
  0
VISUALSTYLE
  5
4510
102
{ACAD_REACTORS
330
4508
102
}
330
4508
100
AcDbVisualStyle
  2
3D Hidden
 70
     6
 71
     1
 72
     2
 73
     2
 90
        0
 40
-0.6
 41
-30.0
 62
     5
 63
     7
421
 16777215
 74
     2
 91
        2
 64
     7
 65
   257
 75
     2
175
     1
 42
40.0
 92
        0
 66
   257
 43
1.0
 76
     1
 77
     6
 78
     2
 67
     7
 79
     3
170
     0
171
     0
290
     0
174
     0
 93
        1
 44
0.0
173
     0
291
     0
 45
0.0
1001
ACAD
1000
AcDbSavedByObjectVersion
1070
     0
  0
VISUALSTYLE
  5
450F
102
{ACAD_REACTORS
330
4508
102
}
330
4508
100
AcDbVisualStyle
  2
3dWireframe
 70
     5
 71
     0
 72
     2
 73
     0
 90
        0
 40
-0.6
 41
-30.0
 62
     5
 63
     7
421
 16777215
 74
     1
 91
        4
 64
     7
 65
   257
 75
     1
175
     1
 42
1.0
 92
        0
 66
   257
 43
1.0
 76
     1
 77
     6
 78
     2
 67
     7
 79
     5
170
     0
171
     0
290
     0
174
     0
 93
        1
 44
0.0
173
     0
291
     0
 45
0.0
1001
ACAD
1000
AcDbSavedByObjectVersion
1070
     0
  0
VISUALSTYLE
  5
450D
102
{ACAD_REACTORS
330
4508
102
}
330
4508
100
AcDbVisualStyle
  2
Basic
 70
     7
 71
     1
 72
     0
 73
     1
 90
        0
 40
-0.6
 41
-30.0
 62
     5
 63
     7
421
 16777215
 74
     0
 91
        4
 64
     7
 65
   257
 75
     1
175
     1
 42
1.0
 92
        8
 66
     7
 43
1.0
 76
     1
 77
     6
 78
     2
 67
     7
 79
     5
170
     0
171
     0
290
     0
174
     0
 93
        1
 44
0.0
173
     0
291
     1
 45
0.0
1001
ACAD
1000
AcDbSavedByObjectVersion
1070
     0
  0
VISUALSTYLE
  5
4514
102
{ACAD_REACTORS
330
4508
102
}
330
4508
100
AcDbVisualStyle
  2
Brighten
 70
    12
 71
     2
 72
     2
 73
     0
 90
        0
 40
-0.6
 41
-30.0
 62
     5
 63
     7
421
 16777215
 74
     1
 91
        4
 64
     7
 65
   257
 75
     1
175
     1
 42
1.0
 92
        8
 66
     7
 43
1.0
 76
     1
 77
     6
 78
     2
 67
     7
 79
     5
170
     0
171
     0
290
     0
174
     0
 93
        1
 44
50.0
173
     0
291
     1
 45
0.0
1001
ACAD
1000
AcDbSavedByObjectVersion
1070
     0
  0
VISUALSTYLE
  5
4518
102
{ACAD_REACTORS
330
4508
102
}
330
4508
100
AcDbVisualStyle
  2
ColorChange
 70
    16
 71
     2
 72
     2
 73
     3
 90
        0
 40
-0.6
 41
-30.0
 62
     5
 63
     8
421
  8421504
 74
     1
 91
        4
 64
     7
 65
   257
 75
     1
175
     1
 42
1.0
 92
        8
 66
     8
424
  8421504
 43
1.0
 76
     1
 77
     6
 78
     2
 67
     7
 79
     5
170
     0
171
     0
290
     0
174
     0
 93
        1
 44
0.0
173
     0
291
     1
 45
0.0
1001
ACAD
1000
AcDbSavedByObjectVersion
1070
     0
  0
VISUALSTYLE
  5
4511
102
{ACAD_REACTORS
330
4508
102
}
330
4508
100
AcDbVisualStyle
  2
Conceptual
 70
     9
 71
     3
 72
     2
 73
     0
 90
        0
 40
-0.6
 41
-30.0
 62
     5
 63
     7
421
 16777215
 74
     2
 91
        2
 64
     7
 65
   257
 75
     1
175
     1
 42
40.0
 92
        8
 66
     7
 43
1.0
 76
     1
 77
     6
 78
     2
 67
     7
 79
     3
170
     0
171
     0
290
     0
174
     0
 93
        1
 44
0.0
173
     0
291
     0
 45
0.0
1001
ACAD
1000
AcDbSavedByObjectVersion
1070
     0
  0
VISUALSTYLE
  5
4513
102
{ACAD_REACTORS
330
4508
102
}
330
4508
100
AcDbVisualStyle
  2
Dim
 70
    11
 71
     2
 72
     2
 73
     0
 90
        0
 40
-0.6
 41
-30.0
 62
     5
 63
     7
421
 16777215
 74
     1
 91
        4
 64
     7
 65
   257
 75
     1
175
     1
 42
1.0
 92
        8
 66
     7
 43
1.0
 76
     1
 77
     6
 78
     2
 67
     7
 79
     5
170
     0
171
     0
290
     0
174
     0
 93
        1
 44
-50.0
173
     0
291
     1
 45
0.0
1001
ACAD
1000
AcDbSavedByObjectVersion
1070
     0
  0
VISUALSTYLE
  5
4517
102
{ACAD_REACTORS
330
4508
102
}
330
4508
100
AcDbVisualStyle
  2
Facepattern
 70
    15
 71
     2
 72
     2
 73
     0
 90
        0
 40
-0.6
 41
-30.0
 62
     5
 63
     7
421
 16777215
 74
     1
 91
        4
 64
     7
 65
   257
 75
     1
175
     1
 42
1.0
 92
        8
 66
     7
 43
1.0
 76
     1
 77
     6
 78
     2
 67
     7
 79
     5
170
     0
171
     0
290
     0
174
     0
 93
        1
 44
0.0
173
     0
291
     1
 45
0.0
1001
ACAD
1000
AcDbSavedByObjectVersion
1070
     0
  0
VISUALSTYLE
  5
4509
102
{ACAD_REACTORS
330
4508
102
}
330
4508
100
AcDbVisualStyle
  2
Flat
 70
     0
 71
     2
 72
     1
 73
     1
 90
        2
 40
-0.6
 41
30.0
 62
     5
 63
     7
421
 16777215
 74
     0
 91
        4
 64
     7
 65
   257
 75
     1
175
     1
 42
1.0
 92
        8
 66
     7
 43
1.0
 76
     1
 77
     6
 78
     2
 67
     7
 79
     5
170
     0
171
     0
290
     0
174
     0
 93
       13
 44
0.0
173
     0
291
     1
 45
0.0
1001
ACAD
1000
AcDbSavedByObjectVersion
1070
     0
  0
VISUALSTYLE
  5
450A
102
{ACAD_REACTORS
330
4508
102
}
330
4508
100
AcDbVisualStyle
  2
FlatWithEdges
 70
     1
 71
     2
 72
     1
 73
     1
 90
        2
 40
-0.6
 41
30.0
 62
     5
 63
     7
421
 16777215
 74
     1
 91
        4
 64
     7
 65
   257
 75
     1
175
     1
 42
1.0
 92
        0
 66
   257
 43
1.0
 76
     1
 77
     6
 78
     2
 67
     7
 79
     5
170
     0
171
     0
290
     0
174
     0
 93
       13
 44
0.0
173
     0
291
     1
 45
0.0
1001
ACAD
1000
AcDbSavedByObjectVersion
1070
     0
  0
VISUALSTYLE
  5
450B
102
{ACAD_REACTORS
330
4508
102
}
330
4508
100
AcDbVisualStyle
  2
Gouraud
 70
     2
 71
     2
 72
     2
 73
     1
 90
        2
 40
-0.6
 41
30.0
 62
     5
 63
     7
421
 16777215
 74
     0
 91
        4
 64
     7
 65
   257
 75
     1
175
     1
 42
1.0
 92
        0
 66
     7
 43
1.0
 76
     1
 77
     6
 78
     2
 67
     7
 79
     5
170
     0
171
     0
290
     0
174
     0
 93
       13
 44
0.0
173
     0
291
     1
 45
0.0
1001
ACAD
1000
AcDbSavedByObjectVersion
1070
     0
  0
VISUALSTYLE
  5
450C
102
{ACAD_REACTORS
330
4508
102
}
330
4508
100
AcDbVisualStyle
  2
GouraudWithEdges
 70
     3
 71
     2
 72
     2
 73
     1
 90
        2
 40
-0.6
 41
30.0
 62
     5
 63
     7
421
 16777215
 74
     1
 91
        4
 64
     7
 65
   257
 75
     1
175
     1
 42
1.0
 92
        0
 66
   257
 43
1.0
 76
     1
 77
     6
 78
     2
 67
     7
 79
     5
170
     0
171
     0
290
     0
174
     0
 93
       13
 44
0.0
173
     0
291
     1
 45
0.0
1001
ACAD
1000
AcDbSavedByObjectVersion
1070
     0
  0
VISUALSTYLE
  5
4516
102
{ACAD_REACTORS
330
4508
102
}
330
4508
100
AcDbVisualStyle
  2
Linepattern
 70
    14
 71
     2
 72
     2
 73
     0
 90
        0
 40
-0.6
 41
-30.0
 62
     5
 63
     7
421
 16777215
 74
     1
 91
        4
 64
     7
 65
   257
 75
     7
175
     7
 42
1.0
 92
        8
 66
     7
 43
1.0
 76
     1
 77
     6
 78
     2
 67
     7
 79
     5
170
     0
171
     0
290
     0
174
     0
 93
        1
 44
0.0
173
     0
291
     1
 45
0.0
1001
ACAD
1000
AcDbSavedByObjectVersion
1070
     0
  0
VISUALSTYLE
  5
4512
102
{ACAD_REACTORS
330
4508
102
}
330
4508
100
AcDbVisualStyle
  2
Realistic
 70
     8
 71
     2
 72
     2
 73
     0
 90
        0
 40
-0.6
 41
-30.0
 62
     5
 63
     7
421
 16777215
 74
     1
 91
        0
 64
     7
 65
   257
 75
     1
175
     1
 42
1.0
 92
        8
 66
     8
424
  7895160
 43
1.0
 76
     1
 77
     6
 78
     2
 67
     7
 79
     5
170
     0
171
     0
290
     0
174
     0
 93
       13
 44
0.0
173
     0
291
     0
 45
0.0
1001
ACAD
1000
AcDbSavedByObjectVersion
1070
     0
  0
VISUALSTYLE
  5
4515
102
{ACAD_REACTORS
330
4508
102
}
330
4508
100
AcDbVisualStyle
  2
Thicken
 70
    13
 71
     2
 72
     2
 73
     0
 90
        0
 40
-0.6
 41
-30.0
 62
     5
 63
     7
421
 16777215
 74
     1
 91
        4
 64
     7
 65
   257
 75
     1
175
     1
 42
1.0
 92
       12
 66
     7
 43
1.0
 76
     1
 77
     6
 78
     2
 67
     7
 79
     5
170
     0
171
     0
290
     0
174
     0
 93
        1
 44
0.0
173
     0
291
     1
 45
0.0
1001
ACAD
1000
AcDbSavedByObjectVersion
1070
     0
  0
DICTIONARYVAR
  5
464C
102
{ACAD_REACTORS
330
25F
102
}
330
25F
100
DictionaryVariables
280
     0
  1
1:1
  0
DICTIONARYVAR
  5
464A
102
{ACAD_REACTORS
330
25F
102
}
330
25F
100
DictionaryVariables
280
     0
  1
STANDARD
  0
DICTIONARYVAR
  5
4649
102
{ACAD_REACTORS
330
25F
102
}
330
25F
100
DictionaryVariables
280
     0
  1
STANDARD
  0
DICTIONARYVAR
  5
260
102
{ACAD_REACTORS
330
25F
102
}
330
25F
100
DictionaryVariables
280
     0
  1
1
  0
DICTIONARYVAR
  5
464D
102
{ACAD_REACTORS
330
25F
102
}
330
25F
100
DictionaryVariables
280
     0
  1
0
  0
DICTIONARYVAR
  5
464B
102
{ACAD_REACTORS
330
25F
102
}
330
25F
100
DictionaryVariables
280
     0
  1
0
  0
DICTIONARYVAR
  5
4D0
102
{ACAD_REACTORS
330
25F
102
}
330
25F
100
DictionaryVariables
280
     0
  1
96
  0
DICTIONARY
  5
266
102
{ACAD_REACTORS
330
265
102
}
330
265
100
AcDbDictionary
281
     1
  0
XRECORD
  5
4635
102
{ACAD_REACTORS
330
4633
102
}
330
4633
100
AcDbXrecord
280
     1
  0
DICTIONARY
  5
44F9
330
44F8
100
AcDbDictionary
280
     1
281
     1
  3
ACAD_XREC_ROUNDTRIP
360
471F
  3
BUMPTILE
360
44FB
  3
DIFFUSETILE
360
44FA
  3
OPACITYTILE
360
44FE
  3
REFLECTIONTILE
360
44FD
  3
REFRACTIONTILE
360
44FF
  3
SPECULARTILE
360
44FC
  0
DICTIONARY
  5
44F1
330
44F0
100
AcDbDictionary
280
     1
281
     1
  3
ACAD_XREC_ROUNDTRIP
360
471E
  3
BUMPTILE
360
44F3
  3
DIFFUSETILE
360
44F2
  3
OPACITYTILE
360
44F6
  3
REFLECTIONTILE
360
44F5
  3
REFRACTIONTILE
360
44F7
  3
SPECULARTILE
360
44F4
  0
DICTIONARY
  5
4501
330
4500
100
AcDbDictionary
280
     1
281
     1
  3
ACAD_XREC_ROUNDTRIP
360
4720
  3
BUMPTILE
360
4503
  3
DIFFUSETILE
360
4502
  3
OPACITYTILE
360
4506
  3
REFLECTIONTILE
360
4505
  3
REFRACTIONTILE
360
4507
  3
SPECULARTILE
360
4504
  0
DICTIONARY
  5
4646
330
451B
100
AcDbDictionary
280
     1
281
     1
  3
ACAD_ROUNDTRIP_2008_TABLESTYLE_CELLSTYLEMAP
360
471D
  3
ACAD_XREC_ROUNDTRIP
360
4721
  0
XRECORD
  5
471F
102
{ACAD_REACTORS
330
44F9
102
}
330
44F9
100
AcDbXrecord
280
     1
102
MATERIAL
148
0.0
149
0.0
149
0.0
 93
        0
 94
      127
282
     0
 72
     0
 77
     0
171
     0
175
     0
179
     0
273
     0
  0
XRECORD
  5
44FB
102
{ACAD_REACTORS
330
44F9
102
}
330
44F9
100
AcDbXrecord
280
     1
270
     1
271
     1
  0
XRECORD
  5
44FA
102
{ACAD_REACTORS
330
44F9
102
}
330
44F9
100
AcDbXrecord
280
     1
270
     1
271
     1
  0
XRECORD
  5
44FE
102
{ACAD_REACTORS
330
44F9
102
}
330
44F9
100
AcDbXrecord
280
     1
270
     1
271
     1
  0
XRECORD
  5
44FD
102
{ACAD_REACTORS
330
44F9
102
}
330
44F9
100
AcDbXrecord
280
     1
270
     1
271
     1
  0
XRECORD
  5
44FF
102
{ACAD_REACTORS
330
44F9
102
}
330
44F9
100
AcDbXrecord
280
     1
270
     1
271
     1
  0
XRECORD
  5
44FC
102
{ACAD_REACTORS
330
44F9
102
}
330
44F9
100
AcDbXrecord
280
     1
270
     1
271
     1
  0
XRECORD
  5
471E
102
{ACAD_REACTORS
330
44F1
102
}
330
44F1
100
AcDbXrecord
280
     1
102
MATERIAL
148
0.0
149
0.0
149
0.0
 93
        0
 94
      127
282
     0
 72
     0
 77
     0
171
     0
175
     0
179
     0
273
     0
  0
XRECORD
  5
44F3
102
{ACAD_REACTORS
330
44F1
102
}
330
44F1
100
AcDbXrecord
280
     1
270
     1
271
     1
  0
XRECORD
  5
44F2
102
{ACAD_REACTORS
330
44F1
102
}
330
44F1
100
AcDbXrecord
280
     1
270
     1
271
     1
  0
XRECORD
  5
44F6
102
{ACAD_REACTORS
330
44F1
102
}
330
44F1
100
AcDbXrecord
280
     1
270
     1
271
     1
  0
XRECORD
  5
44F5
102
{ACAD_REACTORS
330
44F1
102
}
330
44F1
100
AcDbXrecord
280
     1
270
     1
271
     1
  0
XRECORD
  5
44F7
102
{ACAD_REACTORS
330
44F1
102
}
330
44F1
100
AcDbXrecord
280
     1
270
     1
271
     1
  0
XRECORD
  5
44F4
102
{ACAD_REACTORS
330
44F1
102
}
330
44F1
100
AcDbXrecord
280
     1
270
     1
271
     1
  0
XRECORD
  5
4720
102
{ACAD_REACTORS
330
4501
102
}
330
4501
100
AcDbXrecord
280
     1
102
MATERIAL
148
0.0
149
0.0
149
0.0
 93
        0
 94
      127
282
     0
 72
     0
 77
     0
171
     0
175
     0
179
     0
273
     0
  0
XRECORD
  5
4503
102
{ACAD_REACTORS
330
4501
102
}
330
4501
100
AcDbXrecord
280
     1
270
     1
271
     1
  0
XRECORD
  5
4502
102
{ACAD_REACTORS
330
4501
102
}
330
4501
100
AcDbXrecord
280
     1
270
     1
271
     1
  0
XRECORD
  5
4506
102
{ACAD_REACTORS
330
4501
102
}
330
4501
100
AcDbXrecord
280
     1
270
     1
271
     1
  0
XRECORD
  5
4505
102
{ACAD_REACTORS
330
4501
102
}
330
4501
100
AcDbXrecord
280
     1
270
     1
271
     1
  0
XRECORD
  5
4507
102
{ACAD_REACTORS
330
4501
102
}
330
4501
100
AcDbXrecord
280
     1
270
     1
271
     1
  0
XRECORD
  5
4504
102
{ACAD_REACTORS
330
4501
102
}
330
4501
100
AcDbXrecord
280
     1
270
     1
271
     1
  0
CELLSTYLEMAP
  5
471D
102
{ACAD_REACTORS
330
4646
102
}
330
4646
100
AcDbCellStyleMap
 90
        3
300
CELLSTYLE
  1
TABLEFORMAT_BEGIN
 90
        5
170
     1
 91
        0
 92
    32768
 62
   257
 93
        1
300
CONTENTFORMAT
  1
CONTENTFORMAT_BEGIN
 90
        0
 91
        0
 92
      512
 93
        0
300

 40
0.0
140
1.0
 94
        5
 62
     0
340
C
144
0.25
309
CONTENTFORMAT_END
171
     0
 94
        0
309
TABLEFORMAT_END
  1
CELLSTYLE_BEGIN
 90
        1
 91
        1
300
_TITLE
309
CELLSTYLE_END
300
CELLSTYLE
  1
TABLEFORMAT_BEGIN
 90
        5
170
     1
 91
        0
 92
        0
 62
   257
 93
        1
300
CONTENTFORMAT
  1
CONTENTFORMAT_BEGIN
 90
        0
 91
        0
 92
      512
 93
        0
300

 40
0.0
140
1.0
 94
        5
 62
     0
340
C
144
0.18
309
CONTENTFORMAT_END
171
     0
 94
        0
309
TABLEFORMAT_END
  1
CELLSTYLE_BEGIN
 90
        2
 91
        1
300
_HEADER
309
CELLSTYLE_END
300
CELLSTYLE
  1
TABLEFORMAT_BEGIN
 90
        5
170
     1
 91
        0
 92
        0
 62
   257
 93
        1
300
CONTENTFORMAT
  1
CONTENTFORMAT_BEGIN
 90
        0
 91
        0
 92
      512
 93
        0
300

 40
0.0
140
1.0
 94
        2
 62
     0
340
C
144
0.18
309
CONTENTFORMAT_END
171
     0
 94
        0
309
TABLEFORMAT_END
  1
CELLSTYLE_BEGIN
 90
        3
 91
        2
300
_DATA
309
CELLSTYLE_END
  0
XRECORD
  5
4721
102
{ACAD_REACTORS
330
4646
102
}
330
4646
100
AcDbXrecord
280
     1
102
ACAD_ROUNDTRIP_PRE2007_TABLESTYLE
 90
      512
 91
        0
  1

 92
      512
 93
        0
  2

 94
      512
 95
        0
  3

  0
ENDSEC
  0
EOF
